  0
SECTION
  2
HEADER
  9
$ACADVER
  1
AC1009
  9
$INSBASE
 10
402.590624
 20
-1.041018
 30
0.0
  9
$EXTMIN
 10
8.57135
 20
11.180429
 30
0.0
  9
$EXTMAX
 10
70.109755
 20
151.180429
 30
0.0
  9
$LIMMIN
 10
-407.970438
 20
-367.832444
  9
$LIMMAX
 10
429.804077
 20
234.370848
  9
$ORTHOMODE
 70
     0
  9
$REGENMODE
 70
     1
  9
$FILLMODE
 70
     1
  9
$QTEXTMODE
 70
     0
  9
$MIRRTEXT
 70
     1
  9
$DRAGMODE
 70
     2
  9
$LTSCALE
 40
10.0
  9
$OSMODE
 70
    35
  9
$ATTMODE
 70
     1
  9
$TEXTSIZE
 40
6.0
  9
$TRACEWID
 40
1.0
  9
$TEXTSTYLE
  7
ROMANS
  9
$CLAYER
  8
ALPHA
  9
$CELTYPE
  6
BYLAYER
  9
$CECOLOR
 62
   256
  9
$DIMSCALE
 40
1.0
  9
$DIMASZ
 40
5.0
  9
$DIMEXO
 40
2.0
  9
$DIMDLI
 40
0.38
  9
$DIMRND
 40
0.0
  9
$DIMDLE
 40
0.0
  9
$DIMEXE
 40
2.5
  9
$DIMTP
 40
0.0
  9
$DIMTM
 40
0.0
  9
$DIMTXT
 40
2.5
  9
$DIMCEN
 40
0.0
  9
$DIMTSZ
 40
0.0
  9
$DIMTOL
 70
     0
  9
$DIMLIM
 70
     0
  9
$DIMTIH
 70
     1
  9
$DIMTOH
 70
     1
  9
$DIMSE1
 70
     0
  9
$DIMSE2
 70
     0
  9
$DIMTAD
 70
     1
  9
$DIMZIN
 70
    12
  9
$DIMBLK
  1
OPEN30
  9
$DIMASO
 70
     1
  9
$DIMSHO
 70
     1
  9
$DIMPOST
  1

  9
$DIMAPOST
  1

  9
$DIMALT
 70
     0
  9
$DIMALTD
 70
     2
  9
$DIMALTF
 40
25.4
  9
$DIMLFAC
 40
1.0
  9
$DIMTOFL
 70
     0
  9
$DIMTVP
 40
0.0
  9
$DIMTIX
 70
     0
  9
$DIMSOXD
 70
     0
  9
$DIMSAH
 70
     0
  9
$DIMBLK1
  1

  9
$DIMBLK2
  1

  9
$DIMSTYLE
  2
SC_DEFAUT
  9
$DIMCLRD
 70
     0
  9
$DIMCLRE
 70
     0
  9
$DIMCLRT
 70
     0
  9
$DIMTFAC
 40
1.0
  9
$DIMGAP
 40
2.0
  9
$LUNITS
 70
     2
  9
$LUPREC
 70
     1
  9
$SKETCHINC
 40
0.1
  9
$FILLETRAD
 40
0.0
  9
$AUNITS
 70
     0
  9
$AUPREC
 70
     0
  9
$MENU
  1
acad
  9
$ELEVATION
 40
0.0
  9
$PELEVATION
 40
0.0
  9
$THICKNESS
 40
0.0
  9
$LIMCHECK
 70
     0
  9
$BLIPMODE
 70
     0
  9
$CHAMFERA
 40
0.0
  9
$CHAMFERB
 40
0.0
  9
$SKPOLY
 70
     0
  9
$TDCREATE
 40
2450373.687919
  9
$TDUPDATE
 40
2453032.659015
  9
$TDINDWG
 40
1.10591
  9
$TDUSRTIMER
 40
1.10591
  9
$USRTIMER
 70
     1
  9
$ANGBASE
 50
0.0
  9
$ANGDIR
 70
     0
  9
$PDMODE
 70
    32
  9
$PDSIZE
 40
0.0
  9
$PLINEWID
 40
0.0
  9
$COORDS
 70
     1
  9
$SPLFRAME
 70
     0
  9
$SPLINETYPE
 70
     6
  9
$SPLINESEGS
 70
     8
  9
$ATTDIA
 70
     0
  9
$ATTREQ
 70
     1
  9
$HANDLING
 70
     1
  9
$HANDSEED
  5
C641
  9
$SURFTAB1
 70
     6
  9
$SURFTAB2
 70
     6
  9
$SURFTYPE
 70
     6
  9
$SURFU
 70
     6
  9
$SURFV
 70
     6
  9
$UCSNAME
  2

  9
$UCSORG
 10
0.0
 20
0.0
 30
0.0
  9
$UCSXDIR
 10
1.0
 20
0.0
 30
0.0
  9
$UCSYDIR
 10
0.0
 20
1.0
 30
0.0
  9
$PUCSNAME
  2

  9
$PUCSORG
 10
0.0
 20
0.0
 30
0.0
  9
$PUCSXDIR
 10
1.0
 20
0.0
 30
0.0
  9
$PUCSYDIR
 10
0.0
 20
1.0
 30
0.0
  9
$USERI1
 70
     0
  9
$USERI2
 70
     0
  9
$USERI3
 70
     0
  9
$USERI4
 70
     0
  9
$USERI5
 70
     0
  9
$USERR1
 40
0.0
  9
$USERR2
 40
0.0
  9
$USERR3
 40
0.0
  9
$USERR4
 40
0.0
  9
$USERR5
 40
0.0
  9
$WORLDVIEW
 70
     1
  9
$SHADEDGE
 70
     3
  9
$SHADEDIF
 70
    70
  9
$TILEMODE
 70
     1
  9
$MAXACTVP
 70
    16
  9
$PLIMCHECK
 70
     0
  9
$PEXTMIN
 10
-1.452248
 20
-0.437698
 30
0.0
  9
$PEXTMAX
 10
12.749749
 20
8.310198
 30
0.0
  9
$PLIMMIN
 10
0.0
 20
0.0
  9
$PLIMMAX
 10
12.0
 20
9.0
  9
$UNITMODE
 70
     0
  9
$VISRETAIN
 70
     0
  9
$PLINEGEN
 70
     0
  9
$PSLTSCALE
 70
     0
  0
ENDSEC
  0
SECTION
  2
TABLES
  0
TABLE
  2
VPORT
 70
     2
  0
VPORT
  2
*ACTIVE
 70
     0
 10
0.0
 20
0.0
 11
1.0
 21
1.0
 12
39.359941
 22
81.164436
 13
0.0
 23
0.0
 14
1.0
 24
1.0
 15
10.0
 25
10.0
 16
0.0
 26
0.0
 36
1.0
 17
0.0
 27
0.0
 37
0.0
 40
141.047411
 41
1.466346
 42
50.0
 43
0.0
 44
0.0
 50
0.0
 51
0.0
 71
     0
 72
   100
 73
     1
 74
     0
 75
     0
 76
     0
 77
     0
 78
     0
  0
ENDTAB
  0
TABLE
  2
LTYPE
 70
     2
  0
LTYPE
  2
CONTINUOUS
 70
     0
  3
Solid line
 72
    65
 73
     0
 40
0.0
  0
LTYPE
  2
AXES2
 70
     0
  3
___ _ ___ _ ___ _ ___ _ ___ _ ___ _ ___ _ ___ _
 72
    65
 73
     4
 40
1.125
 49
0.75
 49
-0.125
 49
0.125
 49
-0.125
  0
ENDTAB
  0
TABLE
  2
LAYER
 70
     5
  0
LAYER
  2
0
 70
     0
 62
   255
  6
CONTINUOUS
  0
LAYER
  2
COTATION1
 70
     0
 62
     2
  6
CONTINUOUS
  0
LAYER
  2
AXE
 70
     0
 62
    80
  6
AXES2
  0
LAYER
  2
DEFPOINTS
 70
     0
 62
     7
  6
CONTINUOUS
  0
LAYER
  2
ALPHA
 70
     0
 62
   254
  6
CONTINUOUS
  0
ENDTAB
  0
TABLE
  2
STYLE
 70
     2
  0
STYLE
  2
ROMANS
 70
     0
 40
0.0
 41
1.0
 50
0.0
 71
     0
 42
6.0
  3
romans
  4

  0
STYLE
  2
STANDARD
 70
     0
 40
0.0
 41
1.0
 50
0.0
 71
     0
 42
0.2
  3
txt
  4

  0
ENDTAB
  0
TABLE
  2
VIEW
 70
     0
  0
ENDTAB
  0
TABLE
  2
UCS
 70
     0
  0
ENDTAB
  0
TABLE
  2
APPID
 70
     1
  0
APPID
  2
ACAD
 70
     0
  0
ENDTAB
  0
TABLE
  2
DIMSTYLE
 70
     2
  0
DIMSTYLE
  2
SC_DEFAUT
 70
     0
  3

  4

  5
OPEN30
  6

  7

 40
1.0
 41
5.0
 42
2.0
 43
0.38
 44
2.5
 45
0.0
 46
0.0
 47
0.0
 48
0.0
140
2.5
141
0.0
142
0.0
143
25.4
144
1.0
145
0.0
146
1.0
147
2.0
 71
     0
 72
     0
 73
     1
 74
     1
 75
     0
 76
     0
 77
     1
 78
    12
170
     0
171
     2
172
     0
173
     0
174
     0
175
     0
176
     0
177
     0
178
     0
  0
DIMSTYLE
  2
STANDARD
 70
     0
  3

  4

  5

  6

  7

 40
1.0
 41
0.18
 42
0.0625
 43
0.38
 44
0.18
 45
0.0
 46
0.0
 47
0.0
 48
0.0
140
0.18
141
0.09
142
0.0
143
25.4
144
1.0
145
0.0
146
1.0
147
0.09
 71
     0
 72
     0
 73
     1
 74
     1
 75
     0
 76
     0
 77
     0
 78
     0
170
     0
171
     2
172
     0
173
     0
174
     0
175
     0
176
     0
177
     0
178
     0
  0
ENDTAB
  0
ENDSEC
  0
SECTION
  2
BLOCKS
  0
BLOCK
  8
0
  2
$MODEL_SPACE
 70
     0
 10
0.0
 20
0.0
 30
0.0
  3
$MODEL_SPACE
  1

  0
ENDBLK
  5
C63A
  8
0
  0
BLOCK
 67
     1
  8
0
  2
$PAPER_SPACE
 70
     0
 10
0.0
 20
0.0
 30
0.0
  3
$PAPER_SPACE
  1

  0
ENDBLK
  5
C638
 67
     1
  8
0
  0
BLOCK
  8
0
  2
COTE
 70
     0
 10
0.0
 20
0.0
 30
0.0
  3
COTE
  1

  0
ENDBLK
  5
F
  8
0
  0
BLOCK
  8
0
  2
FOND
 70
     0
 10
0.0
 20
0.0
 30
0.0
  3
FOND
  1

  0
ENDBLK
  5
75
  8
0
  0
BLOCK
  8
0
  2
_OPEN30
 70
     0
 10
0.0
 20
0.0
 30
0.0
  3
_OPEN30
  1

  0
LINE
  5
4B05
  8
COTATION1
 62
     0
 10
-1.0
 20
0.267949
 30
0.0
 11
0.0
 21
0.0
 31
0.0
1001
ACAD
1000
RTLwPs
1070
   158
  0
LINE
  5
4B06
  8
COTATION1
 62
     0
 10
0.0
 20
0.0
 30
0.0
 11
-1.0
 21
-0.267949
 31
0.0
1001
ACAD
1000
RTLwPs
1070
   158
  0
LINE
  5
4B07
  8
COTATION1
 62
     0
 10
0.0
 20
0.0
 30
0.0
 11
-1.0
 21
0.0
 31
0.0
1001
ACAD
1000
RTLwPs
1070
   158
  0
ENDBLK
  5
4B09
  8
0
  0
BLOCK
  8
0
  2
*D3
 70
     1
 10
0.0
 20
0.0
 30
0.0
  3
*D3
  1

  0
LINE
  5
C575
  8
COTATION1
 62
     0
 10
16.57135
 20
108.680429
 30
0.0
 11
16.57135
 21
149.180429
 31
0.0
1001
ACAD
1000
RTLwPs
1070
   158
  0
LINE
  5
C576
  8
COTATION1
 62
     0
 10
33.87135
 20
79.930429
 30
0.0
 11
33.87135
 21
149.180429
 31
0.0
1001
ACAD
1000
RTLwPs
1070
   158
  0
LINE
  5
C577
  8
COTATION1
 62
     0
 10
21.57135
 20
146.680429
 30
0.0
 11
28.87135
 21
146.680429
 31
0.0
1001
ACAD
1000
RTLwPs
1070
   158
  0
INSERT
  5
C578
  8
COTATION1
 62
     0
  2
_OPEN30
 10
16.57135
 20
146.680429
 30
0.0
 41
5.0
 42
5.0
 43
5.0
 50
180.0
1001
ACAD
1000
RTLwPs
1070
   158
  0
INSERT
  5
C579
  8
COTATION1
 62
     0
  2
_OPEN30
 10
33.87135
 20
146.680429
 30
0.0
 41
5.0
 42
5.0
 43
5.0
1001
ACAD
1000
RTLwPs
1070
   158
  0
TEXT
  5
C57A
  8
COTATION1
 62
     0
 10
20.876112
 20
148.680429
 30
0.0
 40
2.5
  1
17.3
1001
ACAD
1000
MTEXTBEGIN
1070
    73
1070
     1
1070
    44
1040
1.0
1070
    74
1070
     0
1000
MTEXTEND
  0
POINT
  5
C57B
  8
DEFPOINTS
 62
     0
 10
16.57135
 20
106.680429
 30
0.0
  0
POINT
  5
C57C
  8
DEFPOINTS
 62
     0
 10
33.87135
 20
77.930429
 30
0.0
  0
POINT
  5
C57D
  8
DEFPOINTS
 62
     0
 10
33.87135
 20
146.680429
 30
0.0
  0
ENDBLK
  5
C507
  8
0
  0
ENDSEC
  0
SECTION
  2
ENTITIES
  0
INSERT
  5
A
  8
0
  2
COTE
 10
0.0
 20
0.0
 30
0.0
  0
INSERT
  5
17
  8
0
  2
COTE
 10
284.010391
 20
6.373258
 30
0.0
  0
INSERT
  5
72
  8
0
  2
FOND
 10
0.0
 20
0.0
 30
0.0
  0
LINE
  5
B8D2
  8
ALPHA
 10
29.32135
 20
131.680429
 30
0.0
 11
19.32135
 21
131.680429
 31
0.0
  0
LINE
  5
B8D3
  8
ALPHA
 10
29.32135
 20
81.680429
 30
0.0
 11
19.32135
 21
81.680429
 31
0.0
  0
LINE
  5
B8D4
  8
ALPHA
 10
19.32135
 20
81.680429
 30
0.0
 11
19.32135
 21
131.680429
 31
0.0
  0
LINE
  5
B8D5
  8
ALPHA
 10
16.772836
 20
111.180429
 30
0.0
 11
18.57135
 21
111.180429
 31
0.0
  0
LINE
  5
B8D6
  8
ALPHA
 10
16.772836
 20
102.180429
 30
0.0
 11
18.57135
 21
102.180429
 31
0.0
  0
ARC
  5
B8D7
  8
ALPHA
 10
47.07135
 20
105.680429
 30
0.0
 40
30.5
 50
180.0
 51
186.589442
  0
LINE
  5
B8D8
  8
ALPHA
 10
16.772836
 20
111.180429
 30
0.0
 11
16.772836
 21
102.180429
 31
0.0
  0
ARC
  5
B8D9
  8
ALPHA
 10
47.07135
 20
107.680429
 30
0.0
 40
30.5
 50
173.410558
 51
180.0
  0
LINE
  5
B8DA
  8
ALPHA
 10
16.57135
 20
105.680429
 30
0.0
 11
16.57135
 21
107.680429
 31
0.0
  0
LINE
  5
B8DB
  8
ALPHA
 10
18.82135
 20
111.136685
 30
0.0
 11
18.82135
 21
102.224174
 31
0.0
  0
LINE
  5
B8DC
  8
ALPHA
 10
18.57135
 20
102.180429
 30
0.0
 11
18.57135
 21
111.180429
 31
0.0
  0
LINE
  5
B8DD
  8
ALPHA
 10
18.82135
 20
102.224174
 30
0.0
 11
19.32135
 21
102.180429
 31
0.0
  0
LINE
  5
B8DE
  8
ALPHA
 10
18.57135
 20
103.705429
 30
0.0
 11
18.82135
 21
103.705429
 31
0.0
  0
LINE
  5
B8DF
  8
ALPHA
 10
18.57135
 20
109.655429
 30
0.0
 11
18.82135
 21
109.655429
 31
0.0
  0
LINE
  5
B8E0
  8
ALPHA
 10
18.82135
 20
111.136685
 30
0.0
 11
19.32135
 21
111.180429
 31
0.0
  0
LINE
  5
B8E5
  8
ALPHA
 10
31.87135
 20
11.180429
 30
0.0
 11
31.87135
 21
111.18017
 31
0.0
  0
LINE
  5
B8E6
  8
ALPHA
 10
29.87135
 20
11.180429
 30
0.0
 11
29.87135
 21
111.18017
 31
0.0
  0
LINE
  5
B8E7
  8
ALPHA
 10
29.32135
 20
81.680429
 30
0.0
 11
29.32135
 21
131.680429
 31
0.0
  0
LINE
  5
B8F0
  8
ALPHA
 10
29.87135
 20
11.180429
 30
0.0
 11
31.87135
 21
11.180429
 31
0.0
  0
LINE
  5
B8F1
  8
ALPHA
 10
29.87135
 20
16.180429
 30
0.0
 11
31.87135
 21
16.180429
 31
0.0
  0
LINE
  5
B8F2
  8
ALPHA
 10
33.87135
 20
77.930429
 30
0.0
 11
33.87135
 21
65.430429
 31
0.0
  0
LINE
  5
B8F3
  8
ALPHA
 10
32.87135
 20
60.380429
 30
0.0
 11
32.87135
 21
82.980429
 31
0.0
  0
LINE
  5
B8F4
  8
ALPHA
 10
32.87135
 20
65.430429
 30
0.0
 11
33.87135
 21
65.430429
 31
0.0
  0
LINE
  5
B8F5
  8
ALPHA
 10
32.87135
 20
62.089688
 30
0.0
 11
31.87135
 21
62.089688
 31
0.0
  0
LINE
  5
B8F6
  8
ALPHA
 10
31.87135
 20
60.380429
 30
0.0
 11
32.87135
 21
60.380429
 31
0.0
  0
LINE
  5
B8F7
  8
ALPHA
 10
31.87135
 20
66.318527
 30
0.0
 11
32.87135
 21
66.318527
 31
0.0
  0
LINE
  5
B8F8
  8
ALPHA
 10
31.87135
 20
64.020568
 30
0.0
 11
32.87135
 21
64.020568
 31
0.0
  0
LINE
  5
B8F9
  8
ALPHA
 10
32.87135
 20
77.930429
 30
0.0
 11
33.87135
 21
77.930429
 31
0.0
  0
LINE
  5
B8FA
  8
ALPHA
 10
31.87135
 20
81.259247
 30
0.0
 11
29.87135
 21
81.259247
 31
0.0
  0
LINE
  5
B8FB
  8
ALPHA
 10
32.87135
 20
81.27117
 30
0.0
 11
31.87135
 21
81.27117
 31
0.0
  0
LINE
  5
B8FC
  8
ALPHA
 10
32.87135
 20
79.34029
 30
0.0
 11
31.87135
 21
79.34029
 31
0.0
  0
LINE
  5
B8FD
  8
ALPHA
 10
32.87135
 20
77.042332
 30
0.0
 11
31.87135
 21
77.042332
 31
0.0
  0
LINE
  5
B8FE
  8
ALPHA
 10
31.87135
 20
83.69254
 30
0.0
 11
29.87135
 21
83.69254
 31
0.0
  0
LINE
  5
B8FF
  8
ALPHA
 10
31.87135
 20
82.980429
 30
0.0
 11
32.87135
 21
82.980429
 31
0.0
  0
LINE
  5
BC1F
  8
ALPHA
 10
29.82135
 20
111.136685
 30
0.0
 11
29.82135
 21
102.224174
 31
0.0
  0
LINE
  5
BC20
  8
ALPHA
 10
29.32135
 20
102.180429
 30
0.0
 11
29.82135
 21
102.224174
 31
0.0
  0
LINE
  5
BC21
  8
ALPHA
 10
29.82135
 20
103.705429
 30
0.0
 11
29.87135
 21
103.705429
 31
0.0
  0
LINE
  5
BC22
  8
ALPHA
 10
29.32135
 20
111.180429
 30
0.0
 11
29.82135
 21
111.136685
 31
0.0
  0
LINE
  5
BC23
  8
ALPHA
 10
29.87135
 20
107.22792
 30
0.0
 11
31.87135
 21
107.22792
 31
0.0
  0
LINE
  5
BC24
  8
ALPHA
 10
29.82135
 20
109.655429
 30
0.0
 11
29.87135
 21
109.655429
 31
0.0
  0
LINE
  5
BC25
  8
ALPHA
 10
31.87135
 20
108.730429
 30
0.0
 11
33.37135
 21
108.730429
 31
0.0
  0
LINE
  5
BC26
  8
ALPHA
 10
31.87135
 20
104.630429
 30
0.0
 11
33.37135
 21
104.630429
 31
0.0
  0
LINE
  5
BC27
  8
ALPHA
 10
33.37135
 20
104.630429
 30
0.0
 11
33.37135
 21
108.730429
 31
0.0
  0
LINE
  5
BC28
  8
ALPHA
 10
31.87135
 20
111.180429
 30
0.0
 11
29.87135
 21
111.180429
 31
0.0
  0
LINE
  5
C0EC
  8
COTATION1
 10
36.37135
 20
56.330077
 30
0.0
 11
43.609755
 21
56.330077
 31
0.0
  0
LINE
  5
C0EE
  8
COTATION1
 10
33.87135
 20
64.430429
 30
0.0
 11
33.87135
 21
50.178802
 31
0.0
  0
SOLID
  5
C0EF
  8
COTATION1
 10
33.87135
 20
54.886701
 30
0.0
 11
33.87135
 21
57.773452
 31
0.0
 12
36.37135
 22
56.330077
 32
0.0
 13
36.37135
 23
56.330077
 33
0.0
  0
TEXT
  5
C0FB
  8
COTATION1
 10
44.859755
 20
55.080077
 30
0.0
 40
2.5
  1
PLANE_TO_LINE_UP
 41
0.626087
  7
STANDARD
 72
     5
 11
68.859755
 21
55.080077
 31
0.0
  0
LINE
  5
C0FC
  8
COTATION1
 10
70.109755
 20
53.830077
 30
0.0
 11
43.609755
 21
53.830077
 31
0.0
  0
LINE
  5
C0FD
  8
COTATION1
 10
43.609755
 20
58.830077
 30
0.0
 11
70.109755
 21
58.830077
 31
0.0
  0
LINE
  5
C0FE
  8
COTATION1
 10
43.609755
 20
53.830077
 30
0.0
 11
43.609755
 21
58.830077
 31
0.0
  0
LINE
  5
C0FF
  8
COTATION1
 10
70.109755
 20
58.830077
 30
0.0
 11
70.109755
 21
53.830077
 31
0.0
  0
LINE
  5
C4F7
  8
AXE
 10
24.32135
 20
69.201248
 30
0.0
 11
24.32135
 21
136.680429
 31
0.0
  0
LINE
  5
C4F8
  8
AXE
 10
8.57135
 20
106.680429
 30
0.0
 11
45.429662
 21
106.680429
 31
0.0
  0
TEXT
  5
C4F9
  8
AXE
 10
41.382043
 20
107.680429
 30
0.0
 40
5.0
  1
Z
 72
     2
 11
45.429662
 21
107.680429
 31
0.0
  0
TEXT
  5
C4FA
  8
AXE
 10
19.273731
 20
69.201248
 30
0.0
 40
5.0
  1
Y
 72
     2
 11
23.32135
 21
69.201248
 31
0.0
  0
DIMENSION
  5
C4FB
  8
COTATION1
  2
*D3
 10
33.87135
 20
146.680429
 30
0.0
 11
25.22135
 21
149.930429
 31
0.0
 13
16.57135
 23
106.680429
 33
0.0
 14
33.87135
 24
77.930429
 34
0.0
  0
VIEWPORT
  5
494D
 67
     1
  8
0
 10
4.995325
 20
6.556512
 30
0.0
 40
22.70986
 41
13.988421
 68
    -1
 69
     1
1001
ACAD
1000
MVIEW
1002
{
1070
    16
1010
0.0
1020
0.0
1030
0.0
1010
0.0
1020
0.0
1030
1.0
1040
0.0
1040
13.988421
1040
4.995325
1040
6.556512
1040
50.0
1040
0.0
1040
0.0
1070
     0
1070
   100
1070
     1
1070
     1
1070
     0
1070
     0
1070
     0
1070
     0
1040
0.0
1040
0.0
1040
0.0
1040
10.0
1040
10.0
1040
10.0
1040
10.0
1070
     0
1002
{
1002
}
1002
}
  0
ENDSEC
  0
EOF
