  0
SECTION
  2
HEADER
  9
$ACADVER
  1
AC1009
  9
$INSBASE
 10
402.590624
 20
-1.041018
 30
0.0
  9
$EXTMIN
 10
4.827094
 20
0.458686
 30
0.0
  9
$EXTMAX
 10
84.364593
 20
53.308686
 30
0.0
  9
$LIMMIN
 10
-407.970438
 20
-367.832444
  9
$LIMMAX
 10
429.804077
 20
234.370848
  9
$ORTHOMODE
 70
     1
  9
$REGENMODE
 70
     1
  9
$FILLMODE
 70
     1
  9
$QTEXTMODE
 70
     0
  9
$MIRRTEXT
 70
     1
  9
$DRAGMODE
 70
     2
  9
$LTSCALE
 40
10.0
  9
$OSMODE
 70
    35
  9
$ATTMODE
 70
     1
  9
$TEXTSIZE
 40
6.0
  9
$TRACEWID
 40
1.0
  9
$TEXTSTYLE
  7
ROMANS
  9
$CLAYER
  8
ALPHA
  9
$CELTYPE
  6
BYLAYER
  9
$CECOLOR
 62
   256
  9
$DIMSCALE
 40
1.0
  9
$DIMASZ
 40
5.0
  9
$DIMEXO
 40
2.0
  9
$DIMDLI
 40
0.38
  9
$DIMRND
 40
0.0
  9
$DIMDLE
 40
0.0
  9
$DIMEXE
 40
2.5
  9
$DIMTP
 40
0.0
  9
$DIMTM
 40
0.0
  9
$DIMTXT
 40
2.5
  9
$DIMCEN
 40
0.0
  9
$DIMTSZ
 40
0.0
  9
$DIMTOL
 70
     0
  9
$DIMLIM
 70
     0
  9
$DIMTIH
 70
     1
  9
$DIMTOH
 70
     1
  9
$DIMSE1
 70
     0
  9
$DIMSE2
 70
     0
  9
$DIMTAD
 70
     1
  9
$DIMZIN
 70
    12
  9
$DIMBLK
  1
OPEN30
  9
$DIMASO
 70
     1
  9
$DIMSHO
 70
     1
  9
$DIMPOST
  1

  9
$DIMAPOST
  1

  9
$DIMALT
 70
     0
  9
$DIMALTD
 70
     2
  9
$DIMALTF
 40
25.4
  9
$DIMLFAC
 40
1.0
  9
$DIMTOFL
 70
     0
  9
$DIMTVP
 40
0.0
  9
$DIMTIX
 70
     0
  9
$DIMSOXD
 70
     0
  9
$DIMSAH
 70
     0
  9
$DIMBLK1
  1

  9
$DIMBLK2
  1

  9
$DIMSTYLE
  2
SC_DEFAUT
  9
$DIMCLRD
 70
     0
  9
$DIMCLRE
 70
     0
  9
$DIMCLRT
 70
     0
  9
$DIMTFAC
 40
1.0
  9
$DIMGAP
 40
2.0
  9
$LUNITS
 70
     2
  9
$LUPREC
 70
     1
  9
$SKETCHINC
 40
0.1
  9
$FILLETRAD
 40
0.0
  9
$AUNITS
 70
     0
  9
$AUPREC
 70
     0
  9
$MENU
  1
acad
  9
$ELEVATION
 40
0.0
  9
$PELEVATION
 40
0.0
  9
$THICKNESS
 40
0.0
  9
$LIMCHECK
 70
     0
  9
$BLIPMODE
 70
     0
  9
$CHAMFERA
 40
0.0
  9
$CHAMFERB
 40
0.0
  9
$SKPOLY
 70
     0
  9
$TDCREATE
 40
2450373.687919
  9
$TDUPDATE
 40
2453034.409906
  9
$TDINDWG
 40
0.897165
  9
$TDUSRTIMER
 40
0.897165
  9
$USRTIMER
 70
     1
  9
$ANGBASE
 50
0.0
  9
$ANGDIR
 70
     0
  9
$PDMODE
 70
    32
  9
$PDSIZE
 40
0.0
  9
$PLINEWID
 40
0.0
  9
$COORDS
 70
     1
  9
$SPLFRAME
 70
     0
  9
$SPLINETYPE
 70
     6
  9
$SPLINESEGS
 70
     8
  9
$ATTDIA
 70
     0
  9
$ATTREQ
 70
     1
  9
$HANDLING
 70
     1
  9
$HANDSEED
  5
9530
  9
$SURFTAB1
 70
     6
  9
$SURFTAB2
 70
     6
  9
$SURFTYPE
 70
     6
  9
$SURFU
 70
     6
  9
$SURFV
 70
     6
  9
$UCSNAME
  2

  9
$UCSORG
 10
0.0
 20
0.0
 30
0.0
  9
$UCSXDIR
 10
1.0
 20
0.0
 30
0.0
  9
$UCSYDIR
 10
0.0
 20
1.0
 30
0.0
  9
$PUCSNAME
  2

  9
$PUCSORG
 10
0.0
 20
0.0
 30
0.0
  9
$PUCSXDIR
 10
1.0
 20
0.0
 30
0.0
  9
$PUCSYDIR
 10
0.0
 20
1.0
 30
0.0
  9
$USERI1
 70
     0
  9
$USERI2
 70
     0
  9
$USERI3
 70
     0
  9
$USERI4
 70
     0
  9
$USERI5
 70
     0
  9
$USERR1
 40
0.0
  9
$USERR2
 40
0.0
  9
$USERR3
 40
0.0
  9
$USERR4
 40
0.0
  9
$USERR5
 40
0.0
  9
$WORLDVIEW
 70
     1
  9
$SHADEDGE
 70
     3
  9
$SHADEDIF
 70
    70
  9
$TILEMODE
 70
     1
  9
$MAXACTVP
 70
    16
  9
$PLIMCHECK
 70
     0
  9
$PEXTMIN
 10
-1.452248
 20
-0.437698
 30
0.0
  9
$PEXTMAX
 10
12.749749
 20
8.310198
 30
0.0
  9
$PLIMMIN
 10
0.0
 20
0.0
  9
$PLIMMAX
 10
12.0
 20
9.0
  9
$UNITMODE
 70
     0
  9
$VISRETAIN
 70
     0
  9
$PLINEGEN
 70
     0
  9
$PSLTSCALE
 70
     0
  0
ENDSEC
  0
SECTION
  2
TABLES
  0
TABLE
  2
VPORT
 70
     2
  0
VPORT
  2
*ACTIVE
 70
     0
 10
0.0
 20
0.0
 11
1.0
 21
1.0
 12
44.601145
 22
26.881051
 13
0.0
 23
0.0
 14
1.0
 24
1.0
 15
10.0
 25
10.0
 16
0.0
 26
0.0
 36
1.0
 17
0.0
 27
0.0
 37
0.0
 40
54.579159
 41
1.466346
 42
50.0
 43
0.0
 44
0.0
 50
0.0
 51
0.0
 71
     0
 72
   100
 73
     1
 74
     0
 75
     0
 76
     0
 77
     0
 78
     0
  0
ENDTAB
  0
TABLE
  2
LTYPE
 70
     2
  0
LTYPE
  2
CONTINUOUS
 70
     0
  3
Solid line
 72
    65
 73
     0
 40
0.0
  0
LTYPE
  2
AXES2
 70
     0
  3
___ _ ___ _ ___ _ ___ _ ___ _ ___ _ ___ _ ___ _
 72
    65
 73
     4
 40
1.125
 49
0.75
 49
-0.125
 49
0.125
 49
-0.125
  0
ENDTAB
  0
TABLE
  2
LAYER
 70
     5
  0
LAYER
  2
0
 70
     0
 62
   255
  6
CONTINUOUS
  0
LAYER
  2
COTATION1
 70
     0
 62
     2
  6
CONTINUOUS
  0
LAYER
  2
AXE
 70
     0
 62
    80
  6
AXES2
  0
LAYER
  2
DEFPOINTS
 70
     0
 62
     7
  6
CONTINUOUS
  0
LAYER
  2
ALPHA
 70
     0
 62
   254
  6
CONTINUOUS
  0
ENDTAB
  0
TABLE
  2
STYLE
 70
     2
  0
STYLE
  2
ROMANS
 70
     0
 40
0.0
 41
1.0
 50
0.0
 71
     0
 42
6.0
  3
romans
  4

  0
STYLE
  2
STANDARD
 70
     0
 40
0.0
 41
1.0
 50
0.0
 71
     0
 42
0.2
  3
txt
  4

  0
ENDTAB
  0
TABLE
  2
VIEW
 70
     0
  0
ENDTAB
  0
TABLE
  2
UCS
 70
     0
  0
ENDTAB
  0
TABLE
  2
APPID
 70
     1
  0
APPID
  2
ACAD
 70
     0
  0
ENDTAB
  0
TABLE
  2
DIMSTYLE
 70
     2
  0
DIMSTYLE
  2
SC_DEFAUT
 70
     0
  3

  4

  5
OPEN30
  6

  7

 40
1.0
 41
5.0
 42
2.0
 43
0.38
 44
2.5
 45
0.0
 46
0.0
 47
0.0
 48
0.0
140
2.5
141
0.0
142
0.0
143
25.4
144
1.0
145
0.0
146
1.0
147
2.0
 71
     0
 72
     0
 73
     1
 74
     1
 75
     0
 76
     0
 77
     1
 78
    12
170
     0
171
     2
172
     0
173
     0
174
     0
175
     0
176
     0
177
     0
178
     0
  0
DIMSTYLE
  2
STANDARD
 70
     0
  3

  4

  5

  6

  7

 40
1.0
 41
0.18
 42
0.0625
 43
0.38
 44
0.18
 45
0.0
 46
0.0
 47
0.0
 48
0.0
140
0.18
141
0.09
142
0.0
143
25.4
144
1.0
145
0.0
146
1.0
147
0.09
 71
     0
 72
     0
 73
     1
 74
     1
 75
     0
 76
     0
 77
     0
 78
     0
170
     0
171
     2
172
     0
173
     0
174
     0
175
     0
176
     0
177
     0
178
     0
  0
ENDTAB
  0
ENDSEC
  0
SECTION
  2
BLOCKS
  0
BLOCK
  8
0
  2
$MODEL_SPACE
 70
     0
 10
0.0
 20
0.0
 30
0.0
  3
$MODEL_SPACE
  1

  0
ENDBLK
  5
9529
  8
0
  0
BLOCK
 67
     1
  8
0
  2
$PAPER_SPACE
 70
     0
 10
0.0
 20
0.0
 30
0.0
  3
$PAPER_SPACE
  1

  0
ENDBLK
  5
9527
 67
     1
  8
0
  0
BLOCK
  8
0
  2
COTE
 70
     0
 10
0.0
 20
0.0
 30
0.0
  3
COTE
  1

  0
ENDBLK
  5
F
  8
0
  0
BLOCK
  8
0
  2
FOND
 70
     0
 10
0.0
 20
0.0
 30
0.0
  3
FOND
  1

  0
ENDBLK
  5
75
  8
0
  0
BLOCK
  8
0
  2
_OPEN30
 70
     0
 10
0.0
 20
0.0
 30
0.0
  3
_OPEN30
  1

  0
LINE
  5
4B05
  8
COTATION1
 62
     0
 10
-1.0
 20
0.267949
 30
0.0
 11
0.0
 21
0.0
 31
0.0
1001
ACAD
1000
RTLwPs
1070
   158
  0
LINE
  5
4B06
  8
COTATION1
 62
     0
 10
0.0
 20
0.0
 30
0.0
 11
-1.0
 21
-0.267949
 31
0.0
1001
ACAD
1000
RTLwPs
1070
   158
  0
LINE
  5
4B07
  8
COTATION1
 62
     0
 10
0.0
 20
0.0
 30
0.0
 11
-1.0
 21
0.0
 31
0.0
1001
ACAD
1000
RTLwPs
1070
   158
  0
ENDBLK
  5
4B09
  8
0
  0
BLOCK
  8
0
  2
*D3
 70
     1
 10
0.0
 20
0.0
 30
0.0
  3
*D3
  1

  0
LINE
  5
94B2
  8
COTATION1
 62
     0
 10
43.879661
 20
21.758686
 30
0.0
 11
43.879661
 21
51.308686
 31
0.0
1001
ACAD
1000
RTLwPs
1070
   158
  0
LINE
  5
94B3
  8
COTATION1
 62
     0
 10
59.879661
 20
21.758686
 30
0.0
 11
59.879661
 21
51.308686
 31
0.0
1001
ACAD
1000
RTLwPs
1070
   158
  0
LINE
  5
94B4
  8
COTATION1
 62
     0
 10
48.879661
 20
48.808686
 30
0.0
 11
54.879661
 21
48.808686
 31
0.0
1001
ACAD
1000
RTLwPs
1070
   158
  0
INSERT
  5
94B5
  8
COTATION1
 62
     0
  2
_OPEN30
 10
43.879661
 20
48.808686
 30
0.0
 41
5.0
 42
5.0
 43
5.0
 50
180.0
1001
ACAD
1000
RTLwPs
1070
   158
  0
INSERT
  5
94B6
  8
COTATION1
 62
     0
  2
_OPEN30
 10
59.879661
 20
48.808686
 30
0.0
 41
5.0
 42
5.0
 43
5.0
1001
ACAD
1000
RTLwPs
1070
   158
  0
TEXT
  5
94B7
  8
COTATION1
 62
     0
 10
48.486804
 20
50.808686
 30
0.0
 40
2.5
  1
%%c
1001
ACAD
1000
MTEXTBEGIN
1070
    73
1070
     1
1070
    44
1040
1.0
1070
    74
1070
     0
1000
MTEXTEND
  0
TEXT
  5
94F9
  8
COTATION1
 62
     0
 10
50.748709
 20
50.808686
 30
0.0
 40
2.5
  1
16
1001
ACAD
1000
R13OBJECT
1002
{
1005
94B7
1002
}
  0
POINT
  5
94B8
  8
DEFPOINTS
 62
     0
 10
43.879661
 20
19.758686
 30
0.0
  0
POINT
  5
94B9
  8
DEFPOINTS
 62
     0
 10
59.879661
 20
19.758686
 30
0.0
  0
POINT
  5
94BA
  8
DEFPOINTS
 62
     0
 10
59.879661
 20
48.808686
 30
0.0
  0
ENDBLK
  5
7F3E
  8
0
  0
BLOCK
  8
0
  2
*D4
 70
     1
 10
0.0
 20
0.0
 30
0.0
  3
*D4
  1

  0
LINE
  5
9423
  8
COTATION1
 62
     0
 10
49.879661
 20
39.108686
 30
0.0
 11
28.237846
 21
39.108686
 31
0.0
1001
ACAD
1000
RTLwPs
1070
   158
  0
LINE
  5
9424
  8
COTATION1
 62
     0
 10
41.879627
 20
18.758686
 30
0.0
 11
28.237846
 21
18.758686
 31
0.0
1001
ACAD
1000
RTLwPs
1070
   158
  0
LINE
  5
9425
  8
COTATION1
 62
     0
 10
30.737846
 20
34.108686
 30
0.0
 11
30.737846
 21
31.908686
 31
0.0
1001
ACAD
1000
RTLwPs
1070
   158
  0
LINE
  5
9426
  8
COTATION1
 62
     0
 10
30.737846
 20
23.758686
 30
0.0
 11
30.737846
 21
25.408686
 31
0.0
1001
ACAD
1000
RTLwPs
1070
   158
  0
TEXT
  5
9427
  8
COTATION1
 62
     0
 10
26.571179
 20
27.408686
 30
0.0
 40
2.5
  1
20.3
1001
ACAD
1000
MTEXTBEGIN
1070
    73
1070
     1
1070
    44
1040
1.0
1070
    74
1070
     0
1000
MTEXTEND
  0
INSERT
  5
9428
  8
COTATION1
 62
     0
  2
_OPEN30
 10
30.737846
 20
39.108686
 30
0.0
 41
5.0
 42
5.0
 43
5.0
 50
90.0
1001
ACAD
1000
RTLwPs
1070
   158
  0
INSERT
  5
9429
  8
COTATION1
 62
     0
  2
_OPEN30
 10
30.737846
 20
18.758686
 30
0.0
 41
5.0
 42
5.0
 43
5.0
 50
270.0
1001
ACAD
1000
RTLwPs
1070
   158
  0
POINT
  5
942A
  8
DEFPOINTS
 62
     0
 10
51.879661
 20
39.108686
 30
0.0
  0
POINT
  5
942B
  8
DEFPOINTS
 62
     0
 10
43.879627
 20
18.758686
 30
0.0
  0
POINT
  5
942C
  8
DEFPOINTS
 62
     0
 10
30.737846
 20
18.758686
 30
0.0
  0
ENDBLK
  5
7F4B
  8
0
  0
BLOCK
  8
0
  2
*D5
 70
     1
 10
0.0
 20
0.0
 30
0.0
  3
*D5
  1

  0
LINE
  5
9419
  8
COTATION1
 62
     0
 10
53.879661
 20
39.108686
 30
0.0
 11
83.055069
 21
39.108686
 31
0.0
1001
ACAD
1000
RTLwPs
1070
   158
  0
LINE
  5
941A
  8
COTATION1
 62
     0
 10
59.729627
 20
10.458686
 30
0.0
 11
83.055069
 21
10.458686
 31
0.0
1001
ACAD
1000
RTLwPs
1070
   158
  0
LINE
  5
941B
  8
COTATION1
 62
     0
 10
80.555069
 20
34.108686
 30
0.0
 11
80.555069
 21
27.758686
 31
0.0
1001
ACAD
1000
RTLwPs
1070
   158
  0
LINE
  5
941C
  8
COTATION1
 62
     0
 10
80.555069
 20
15.458686
 30
0.0
 11
80.555069
 21
21.258686
 31
0.0
1001
ACAD
1000
RTLwPs
1070
   158
  0
TEXT
  5
941D
  8
COTATION1
 62
     0
 10
76.388403
 20
23.258686
 30
0.0
 40
2.5
  1
28.6
1001
ACAD
1000
MTEXTBEGIN
1070
    73
1070
     1
1070
    44
1040
1.0
1070
    74
1070
     0
1000
MTEXTEND
  0
INSERT
  5
941E
  8
COTATION1
 62
     0
  2
_OPEN30
 10
80.555069
 20
39.108686
 30
0.0
 41
5.0
 42
5.0
 43
5.0
 50
90.0
1001
ACAD
1000
RTLwPs
1070
   158
  0
INSERT
  5
941F
  8
COTATION1
 62
     0
  2
_OPEN30
 10
80.555069
 20
10.458686
 30
0.0
 41
5.0
 42
5.0
 43
5.0
 50
270.0
1001
ACAD
1000
RTLwPs
1070
   158
  0
POINT
  5
9420
  8
DEFPOINTS
 62
     0
 10
51.879661
 20
39.108686
 30
0.0
  0
POINT
  5
9421
  8
DEFPOINTS
 62
     0
 10
57.729627
 20
10.458686
 30
0.0
  0
POINT
  5
9422
  8
DEFPOINTS
 62
     0
 10
80.555069
 20
10.458686
 30
0.0
  0
ENDBLK
  5
8EB4
  8
0
  0
ENDSEC
  0
SECTION
  2
ENTITIES
  0
INSERT
  5
A
  8
0
  2
COTE
 10
0.0
 20
0.0
 30
0.0
  0
INSERT
  5
17
  8
0
  2
COTE
 10
284.010391
 20
6.373258
 30
0.0
  0
INSERT
  5
72
  8
0
  2
FOND
 10
0.0
 20
0.0
 30
0.0
  0
DIMENSION
  5
7F30
  8
COTATION1
  2
*D3
 10
59.879661
 20
48.808686
 30
0.0
 11
51.879661
 21
52.058686
 31
0.0
  1
%%c<>
 13
43.879661
 23
19.758686
 33
0.0
 14
59.879661
 24
19.758686
 34
0.0
  0
DIMENSION
  5
7F31
  8
COTATION1
  2
*D4
 10
30.737846
 20
18.758686
 30
0.0
 11
30.737846
 21
28.658686
 31
0.0
 70
   128
 13
51.879661
 23
39.108686
 33
0.0
 14
43.879627
 24
18.758686
 34
0.0
 50
90.0
  0
LINE
  5
8AD3
  8
AXE
 10
51.879661
 20
0.458686
 30
0.0
 11
51.879661
 21
43.20803
 31
0.0
  0
TEXT
  5
8AD4
  8
AXE
 10
46.832042
 20
0.458686
 30
0.0
 40
5.0
  1
Y
 72
     2
 11
50.879661
 21
0.458686
 31
0.0
  0
LINE
  5
8AD5
  8
AXE
 10
38.879661
 20
17.703686
 30
0.0
 11
69.879661
 21
17.703686
 31
0.0
  0
TEXT
  5
8AD6
  8
AXE
 10
65.832042
 20
18.703686
 30
0.0
 40
5.0
  1
X
 72
     2
 11
69.879661
 21
18.703686
 31
0.0
  0
LINE
  5
8B73
  8
COTATION1
 10
18.077094
 20
21.258686
 30
0.0
 11
18.077094
 21
46.217608
 31
0.0
  0
LINE
  5
8B74
  8
COTATION1
 10
9.976741
 20
18.758686
 30
0.0
 11
42.879661
 21
18.758686
 31
0.0
  0
SOLID
  5
8B75
  8
COTATION1
 10
19.520469
 20
18.758686
 30
0.0
 11
16.633718
 21
18.758686
 31
0.0
 12
18.077094
 22
21.258686
 32
0.0
 13
18.077094
 23
21.258686
 33
0.0
  0
LINE
  5
8B76
  8
COTATION1
 10
4.827094
 20
51.217608
 30
0.0
 11
31.327094
 21
51.217608
 31
0.0
  0
LINE
  5
8B77
  8
COTATION1
 10
31.327094
 20
46.217608
 30
0.0
 11
4.827094
 21
46.217608
 31
0.0
  0
TEXT
  5
8B78
  8
COTATION1
 10
6.077094
 20
47.467608
 30
0.0
 40
2.5
  1
PLANE_TO_LINE_UP
 41
0.626087
  7
STANDARD
 72
     5
 11
30.077094
 21
47.467608
 31
0.0
  0
LINE
  5
8B79
  8
COTATION1
 10
31.327094
 20
51.217608
 30
0.0
 11
31.327094
 21
46.217608
 31
0.0
  0
LINE
  5
8B7A
  8
COTATION1
 10
4.827094
 20
46.217608
 30
0.0
 11
4.827094
 21
51.217608
 31
0.0
  0
DIMENSION
  5
8EA7
  8
COTATION1
  2
*D5
 10
80.555069
 20
10.458686
 30
0.0
 11
80.555069
 21
24.508686
 31
0.0
 70
   128
 13
51.879661
 23
39.108686
 33
0.0
 14
57.729627
 24
10.458686
 34
0.0
 50
90.0
  0
ARC
  5
92F6
  8
ALPHA
 10
51.879627
 20
36.108686
 30
0.0
 40
3.0
 50
19.521778
 51
160.478222
  0
ARC
  5
92FA
  8
ALPHA
 10
46.029627
 20
10.958686
 30
0.0
 40
0.5
 50
180.0
 51
270.0
  0
LINE
  5
92FB
  8
ALPHA
 10
45.679627
 20
28.658686
 30
0.0
 11
58.079627
 21
28.658686
 31
0.0
  0
LINE
  5
92FC
  8
ALPHA
 10
44.379627
 20
20.958686
 30
0.0
 11
59.379627
 21
20.958686
 31
0.0
  0
LINE
  5
92FD
  8
ALPHA
 10
43.879627
 20
20.458686
 30
0.0
 11
59.879627
 21
20.458686
 31
0.0
  0
LINE
  5
92FE
  8
ALPHA
 10
43.879627
 20
18.758686
 30
0.0
 11
59.879627
 21
18.758686
 31
0.0
  0
LINE
  5
92FF
  8
ALPHA
 10
46.679627
 20
29.658686
 30
0.0
 11
45.679627
 21
28.658686
 31
0.0
  0
LINE
  5
9300
  8
ALPHA
 10
45.179706
 20
16.658686
 30
0.0
 11
58.579549
 21
16.658686
 31
0.0
  0
LINE
  5
9301
  8
ALPHA
 10
45.529702
 20
15.308686
 30
0.0
 11
58.229553
 21
15.308686
 31
0.0
  0
LINE
  5
9302
  8
ALPHA
 10
45.529702
 20
14.158686
 30
0.0
 11
58.229553
 21
14.158686
 31
0.0
  0
LINE
  5
9303
  8
ALPHA
 10
57.879627
 20
13.158686
 30
0.0
 11
45.879627
 21
13.158686
 31
0.0
  0
LINE
  5
9304
  8
ALPHA
 10
45.529702
 20
12.958686
 30
0.0
 11
58.229553
 21
12.958686
 31
0.0
  0
LINE
  5
9305
  8
ALPHA
 10
45.529627
 20
10.958686
 30
0.0
 11
58.229627
 21
10.958686
 31
0.0
  0
ARC
  5
9306
  8
ALPHA
 10
45.879627
 20
13.658686
 30
0.0
 40
0.5
 50
90.0
 51
270.0
  0
LINE
  5
9307
  8
ALPHA
 10
45.529627
 20
12.958686
 30
0.0
 11
45.529627
 21
10.958686
 31
0.0
  0
LINE
  5
9308
  8
ALPHA
 10
45.529627
 20
15.308686
 30
0.0
 11
45.529627
 21
14.158686
 31
0.0
  0
LINE
  5
9309
  8
ALPHA
 10
45.679627
 20
28.658686
 30
0.0
 11
45.679627
 21
20.958686
 31
0.0
  0
LINE
  5
930A
  8
ALPHA
 10
44.379627
 20
20.958686
 30
0.0
 11
43.879627
 21
20.458686
 31
0.0
  0
LINE
  5
930B
  8
ALPHA
 10
45.179627
 20
18.758686
 30
0.0
 11
45.179627
 21
16.658686
 31
0.0
  0
LINE
  5
930C
  8
ALPHA
 10
43.879627
 20
20.458686
 30
0.0
 11
43.879627
 21
18.758686
 31
0.0
  0
LINE
  5
931A
  8
ALPHA
 10
57.379627
 20
16.658686
 30
0.0
 11
57.379627
 21
15.308686
 31
0.0
  0
LINE
  5
931B
  8
ALPHA
 10
46.379627
 20
16.658686
 30
0.0
 11
46.379627
 21
15.308686
 31
0.0
  0
LINE
  5
931C
  8
ALPHA
 10
57.729627
 20
10.458686
 30
0.0
 11
46.029695
 21
10.458686
 31
0.0
  0
LINE
  5
931D
  8
ALPHA
 10
46.279627
 20
13.158686
 30
0.0
 11
46.279627
 21
12.958686
 31
0.0
  0
ARC
  5
931E
  8
ALPHA
 10
57.729627
 20
10.958686
 30
0.0
 40
0.5
 50
270.0
 51
0.0
  0
ARC
  5
931F
  8
ALPHA
 10
57.879627
 20
13.658686
 30
0.0
 40
0.5
 50
270.0
 51
90.0
  0
LINE
  5
9320
  8
ALPHA
 10
57.479627
 20
13.158686
 30
0.0
 11
57.479627
 21
12.958686
 31
0.0
  0
LINE
  5
9321
  8
ALPHA
 10
58.229627
 20
12.958686
 30
0.0
 11
58.229627
 21
10.958686
 31
0.0
  0
LINE
  5
9322
  8
ALPHA
 10
58.229627
 20
15.308686
 30
0.0
 11
58.229627
 21
14.158686
 31
0.0
  0
LINE
  5
9323
  8
ALPHA
 10
55.179627
 20
37.108686
 30
0.0
 11
48.579627
 21
37.108686
 31
0.0
  0
LINE
  5
9324
  8
ALPHA
 10
48.379627
 20
36.908686
 30
0.0
 11
55.379627
 21
36.908686
 31
0.0
  0
LINE
  5
9325
  8
ALPHA
 10
55.679627
 20
36.108686
 30
0.0
 11
48.079627
 21
36.108686
 31
0.0
  0
LINE
  5
9326
  8
ALPHA
 10
47.879627
 20
35.908686
 30
0.0
 11
55.879627
 21
35.908686
 31
0.0
  0
LINE
  5
9327
  8
ALPHA
 10
46.679627
 20
29.658686
 30
0.0
 11
57.079627
 21
29.658686
 31
0.0
  0
LINE
  5
9328
  8
ALPHA
 10
47.879627
 20
35.908686
 30
0.0
 11
47.879627
 21
29.658686
 31
0.0
  0
ARC
  5
9329
  8
ALPHA
 10
48.079627
 20
35.908686
 30
0.0
 40
0.2
 50
90.0
 51
180.0
  0
ARC
  5
932A
  8
ALPHA
 10
48.579627
 20
36.908686
 30
0.0
 40
0.2
 50
90.0
 51
180.0
  0
LINE
  5
932B
  8
ALPHA
 10
48.379627
 20
36.908686
 30
0.0
 11
48.379627
 21
36.108686
 31
0.0
  0
LINE
  5
932C
  8
ALPHA
 10
58.079627
 20
28.658686
 30
0.0
 11
58.079627
 21
20.958686
 31
0.0
  0
LINE
  5
932D
  8
ALPHA
 10
59.879627
 20
20.458686
 30
0.0
 11
59.879627
 21
18.758686
 31
0.0
  0
LINE
  5
932E
  8
ALPHA
 10
58.579627
 20
18.758686
 30
0.0
 11
58.579627
 21
16.658686
 31
0.0
  0
LINE
  5
932F
  8
ALPHA
 10
59.379627
 20
20.958686
 30
0.0
 11
59.879627
 21
20.458686
 31
0.0
  0
LINE
  5
9330
  8
ALPHA
 10
55.879627
 20
35.908686
 30
0.0
 11
55.879627
 21
29.658686
 31
0.0
  0
LINE
  5
9331
  8
ALPHA
 10
57.079627
 20
29.658686
 30
0.0
 11
58.079627
 21
28.658686
 31
0.0
  0
ARC
  5
9332
  8
ALPHA
 10
55.179627
 20
36.908686
 30
0.0
 40
0.2
 50
0.0
 51
90.0
  0
ARC
  5
9333
  8
ALPHA
 10
55.679627
 20
35.908686
 30
0.0
 40
0.2
 50
0.0
 51
90.0
  0
LINE
  5
9334
  8
ALPHA
 10
55.379627
 20
36.908686
 30
0.0
 11
55.379627
 21
36.108686
 31
0.0
  0
VIEWPORT
  5
494D
 67
     1
  8
0
 10
4.995325
 20
6.556512
 30
0.0
 40
22.70986
 41
13.988421
 68
    -1
 69
     1
1001
ACAD
1000
MVIEW
1002
{
1070
    16
1010
0.0
1020
0.0
1030
0.0
1010
0.0
1020
0.0
1030
1.0
1040
0.0
1040
13.988421
1040
4.995325
1040
6.556512
1040
50.0
1040
0.0
1040
0.0
1070
     0
1070
   100
1070
     1
1070
     1
1070
     0
1070
     0
1070
     0
1070
     0
1040
0.0
1040
0.0
1040
0.0
1040
10.0
1040
10.0
1040
10.0
1040
10.0
1070
     0
1002
{
1002
}
1002
}
  0
ENDSEC
  0
EOF
