  0
SECTION
  2
HEADER
  9
$ACADVER
  1
AC1009
  9
$INSBASE
 10
-146.27124
 20
-153.796096
 30
0.0
  9
$EXTMIN
 10
249.238029
 20
-180.962342
 30
0.0
  9
$EXTMAX
 10
333.33923
 20
-77.158465
 30
0.0
  9
$LIMMIN
 10
-407.970438
 20
-367.832444
  9
$LIMMAX
 10
429.804077
 20
234.370848
  9
$ORTHOMODE
 70
     1
  9
$REGENMODE
 70
     1
  9
$FILLMODE
 70
     1
  9
$QTEXTMODE
 70
     0
  9
$MIRRTEXT
 70
     1
  9
$DRAGMODE
 70
     2
  9
$LTSCALE
 40
10.0
  9
$OSMODE
 70
   165
  9
$ATTMODE
 70
     1
  9
$TEXTSIZE
 40
6.0
  9
$TRACEWID
 40
1.0
  9
$TEXTSTYLE
  7
ROMANS
  9
$CLAYER
  8
COTATION1
  9
$CELTYPE
  6
BYLAYER
  9
$CECOLOR
 62
   256
  9
$DIMSCALE
 40
1.0
  9
$DIMASZ
 40
3.0
  9
$DIMEXO
 40
0.5
  9
$DIMDLI
 40
0.38
  9
$DIMRND
 40
0.0
  9
$DIMDLE
 40
0.0
  9
$DIMEXE
 40
0.18
  9
$DIMTP
 40
0.0
  9
$DIMTM
 40
0.0
  9
$DIMTXT
 40
3.0
  9
$DIMCEN
 40
0.09
  9
$DIMTSZ
 40
0.0
  9
$DIMTOL
 70
     0
  9
$DIMLIM
 70
     0
  9
$DIMTIH
 70
     0
  9
$DIMTOH
 70
     1
  9
$DIMSE1
 70
     0
  9
$DIMSE2
 70
     0
  9
$DIMTAD
 70
     1
  9
$DIMZIN
 70
    12
  9
$DIMBLK
  1
OPEN30
  9
$DIMASO
 70
     1
  9
$DIMSHO
 70
     1
  9
$DIMPOST
  1

  9
$DIMAPOST
  1

  9
$DIMALT
 70
     0
  9
$DIMALTD
 70
     2
  9
$DIMALTF
 40
25.4
  9
$DIMLFAC
 40
1.0
  9
$DIMTOFL
 70
     0
  9
$DIMTVP
 40
0.0
  9
$DIMTIX
 70
     0
  9
$DIMSOXD
 70
     0
  9
$DIMSAH
 70
     0
  9
$DIMBLK1
  1

  9
$DIMBLK2
  1

  9
$DIMSTYLE
  2
ROMANS
  9
$DIMCLRD
 70
     0
  9
$DIMCLRE
 70
     0
  9
$DIMCLRT
 70
     0
  9
$DIMTFAC
 40
1.0
  9
$DIMGAP
 40
1.0
  9
$LUNITS
 70
     2
  9
$LUPREC
 70
     1
  9
$SKETCHINC
 40
0.1
  9
$FILLETRAD
 40
6.0
  9
$AUNITS
 70
     0
  9
$AUPREC
 70
     0
  9
$MENU
  1
acad
  9
$ELEVATION
 40
0.0
  9
$PELEVATION
 40
0.0
  9
$THICKNESS
 40
0.0
  9
$LIMCHECK
 70
     0
  9
$BLIPMODE
 70
     0
  9
$CHAMFERA
 40
0.0
  9
$CHAMFERB
 40
0.0
  9
$SKPOLY
 70
     0
  9
$TDCREATE
 40
2450365.355314
  9
$TDUPDATE
 40
2452592.687569
  9
$TDINDWG
 40
0.663441
  9
$TDUSRTIMER
 40
0.663441
  9
$USRTIMER
 70
     1
  9
$ANGBASE
 50
0.0
  9
$ANGDIR
 70
     0
  9
$PDMODE
 70
    32
  9
$PDSIZE
 40
0.0
  9
$PLINEWID
 40
0.0
  9
$COORDS
 70
     2
  9
$SPLFRAME
 70
     0
  9
$SPLINETYPE
 70
     6
  9
$SPLINESEGS
 70
     8
  9
$ATTDIA
 70
     0
  9
$ATTREQ
 70
     1
  9
$HANDLING
 70
     1
  9
$HANDSEED
  5
6196
  9
$SURFTAB1
 70
     6
  9
$SURFTAB2
 70
     6
  9
$SURFTYPE
 70
     6
  9
$SURFU
 70
     6
  9
$SURFV
 70
     6
  9
$UCSNAME
  2

  9
$UCSORG
 10
0.0
 20
0.0
 30
0.0
  9
$UCSXDIR
 10
1.0
 20
0.0
 30
0.0
  9
$UCSYDIR
 10
0.0
 20
1.0
 30
0.0
  9
$PUCSNAME
  2

  9
$PUCSORG
 10
0.0
 20
0.0
 30
0.0
  9
$PUCSXDIR
 10
1.0
 20
0.0
 30
0.0
  9
$PUCSYDIR
 10
0.0
 20
1.0
 30
0.0
  9
$USERI1
 70
     0
  9
$USERI2
 70
     0
  9
$USERI3
 70
     0
  9
$USERI4
 70
     0
  9
$USERI5
 70
     0
  9
$USERR1
 40
0.0
  9
$USERR2
 40
0.0
  9
$USERR3
 40
0.0
  9
$USERR4
 40
0.0
  9
$USERR5
 40
0.0
  9
$WORLDVIEW
 70
     1
  9
$SHADEDGE
 70
     3
  9
$SHADEDIF
 70
    70
  9
$TILEMODE
 70
     1
  9
$MAXACTVP
 70
    16
  9
$PLIMCHECK
 70
     0
  9
$PEXTMIN
 10
1.000000E+020
 20
1.000000E+020
 30
1.000000E+020
  9
$PEXTMAX
 10
-1.000000E+020
 20
-1.000000E+020
 30
-1.000000E+020
  9
$PLIMMIN
 10
0.0
 20
0.0
  9
$PLIMMAX
 10
12.0
 20
9.0
  9
$UNITMODE
 70
     0
  9
$VISRETAIN
 70
     0
  9
$PLINEGEN
 70
     0
  9
$PSLTSCALE
 70
     0
  0
ENDSEC
  0
SECTION
  2
TABLES
  0
TABLE
  2
VPORT
 70
     2
  0
VPORT
  2
*ACTIVE
 70
     0
 10
0.0
 20
0.0
 11
1.0
 21
1.0
 12
291.289282
 22
-129.054463
 13
0.0
 23
0.0
 14
1.0
 24
1.0
 15
10.0
 25
10.0
 16
0.0
 26
0.0
 36
1.0
 17
0.0
 27
0.0
 37
0.0
 40
104.820529
 41
1.63142
 42
50.0
 43
0.0
 44
0.0
 50
0.0
 51
0.0
 71
     0
 72
   100
 73
     1
 74
     0
 75
     0
 76
     0
 77
     0
 78
     0
  0
ENDTAB
  0
TABLE
  2
LTYPE
 70
    26
  0
LTYPE
  2
CONTINUOUS
 70
     0
  3
Solid line
 72
    65
 73
     0
 40
0.0
  0
LTYPE
  2
AXES2
 70
     0
  3
___ _ ___ _ ___ _ ___ _ ___ _ ___ _ ___ _ ___ _
 72
    65
 73
     4
 40
1.125
 49
0.75
 49
-0.125
 49
0.125
 49
-0.125
  0
LTYPE
  2
ACAD_ISO04W100
 70
     0
  3
ISO Lang gestrichelt punktiert ____ . ____ . __
 72
    65
 73
     4
 40
30.5
 49
24.0
 49
-3.0
 49
0.5
 49
-3.0
  0
LTYPE
  2
AXES
 70
     0
  3
____ _ ____ _ ____ _ ____ _ ____ _ ____ _ ____ 
 72
    65
 73
     4
 40
2.0
 49
1.25
 49
-0.25
 49
0.25
 49
-0.25
  0
LTYPE
  2
AXESX2
 70
     0
  3
________  __  ________  __  ________  __  _____
 72
    65
 73
     4
 40
4.0
 49
2.5
 49
-0.5
 49
0.5
 49
-0.5
  0
LTYPE
  2
TIRETPT
 70
     0
  3
__ . __ . __ . __ . __ . __ . __ . __ . __ . __
 72
    65
 73
     4
 40
1.0
 49
0.5
 49
-0.25
 49
0.0
 49
-0.25
  0
LTYPE
  2
TIRETPT2
 70
     0
  3
_._._._._._._._._._._._._._._._._._._._._._._._
 72
    65
 73
     4
 40
0.5
 49
0.25
 49
-0.125
 49
0.0
 49
-0.125
  0
LTYPE
  2
TIRETPTX2
 70
     0
  3
____  .  ____  .  ____  .  ____  .  ____  .  __
 72
    65
 73
     4
 40
2.0
 49
1.0
 49
-0.5
 49
0.0
 49
-0.5
  0
LTYPE
  2
DISCONTINU
 70
     0
  3
__ __ __ __ __ __ __ __ __ __ __ __ __ __ __ __
 72
    65
 73
     2
 40
0.75
 49
0.5
 49
-0.25
  0
LTYPE
  2
DISCONTINU2
 70
     0
  3
_ _ _ _ _ _ _ _ _ _ _ _ _ _ _ _ _ _ _ _ _ _ _ _
 72
    65
 73
     2
 40
0.375
 49
0.25
 49
-0.125
  0
LTYPE
  2
DISCONTINUX2
 70
     0
  3
____  ____  ____  ____  ____  ____  ____  ____ 
 72
    65
 73
     2
 40
1.5
 49
1.0
 49
-0.5
  0
LTYPE
  2
DIVISE
 70
     0
  3
____ . . ____ . . ____ . . ____ . . ____ . . __
 72
    65
 73
     6
 40
1.25
 49
0.5
 49
-0.25
 49
0.0
 49
-0.25
 49
0.0
 49
-0.25
  0
LTYPE
  2
DIVISE2
 70
     0
  3
__..__..__..__..__..__..__..__..__..__..__..__.
 72
    65
 73
     6
 40
0.625
 49
0.25
 49
-0.125
 49
0.0
 49
-0.125
 49
0.0
 49
-0.125
  0
LTYPE
  2
DIVISEX2
 70
     0
  3
________  .  .  ________  .  .  ________  .  . 
 72
    65
 73
     6
 40
2.5
 49
1.0
 49
-0.5
 49
0.0
 49
-0.5
 49
0.0
 49
-0.5
  0
LTYPE
  2
POINTILLE
 70
     0
  3
. . . . . . . . . . . . . . . . . . . . . . . .
 72
    65
 73
     2
 40
0.25
 49
0.0
 49
-0.25
  0
LTYPE
  2
POINTILLE2
 70
     0
  3
...............................................
 72
    65
 73
     2
 40
0.125
 49
0.0
 49
-0.125
  0
LTYPE
  2
POINTILLEX2
 70
     0
  3
.  .  .  .  .  .  .  .  .  .  .  .  .  .  .  . 
 72
    65
 73
     2
 40
0.5
 49
0.0
 49
-0.5
  0
LTYPE
  2
CACHE
 70
     0
  3
__ __ __ __ __ __ __ __ __ __ __ __ __ __ __ __
 72
    65
 73
     2
 40
0.375
 49
0.25
 49
-0.125
  0
LTYPE
  2
CACHE2
 70
     0
  3
_ _ _ _ _ _ _ _ _ _ _ _ _ _ _ _ _ _ _ _ _ _ _ _
 72
    65
 73
     2
 40
0.1875
 49
0.125
 49
-0.0625
  0
LTYPE
  2
CACHEX2
 70
     0
  3
____ ____ ____ ____ ____ ____ ____ ____ ____ __
 72
    65
 73
     2
 40
0.75
 49
0.5
 49
-0.25
  0
LTYPE
  2
FANTOME
 70
     0
  3
______  __  __  ______  __  __  ______  __  __ 
 72
    65
 73
     6
 40
2.5
 49
1.25
 49
-0.25
 49
0.25
 49
-0.25
 49
0.25
 49
-0.25
  0
LTYPE
  2
FANTOME2
 70
     0
  3
___ _ _ ___ _ _ ___ _ _ ___ _ _ ___ _ _ ___ _ _
 72
    65
 73
     6
 40
1.25
 49
0.625
 49
-0.125
 49
0.125
 49
-0.125
 49
0.125
 49
-0.125
  0
LTYPE
  2
FANTOMEX2
 70
     0
  3
____________    ____    ____    ____________   
 72
    65
 73
     6
 40
5.0
 49
2.5
 49
-0.5
 49
0.5
 49
-0.5
 49
0.5
 49
-0.5
  0
LTYPE
  2
0
 70
     0
  3
MEDUSA PEN 0
 72
    65
 73
     0
 40
0.0
  0
LTYPE
  2
AI9-LTYPE1
 70
     0
  3
Illustrator Dash Style No.1
 72
    65
 73
     4
 40
5.64621
 49
4.106333
 49
-0.307975
 49
0.923926
 49
-0.307975
  0
LTYPE
  2
AI9-LTYPE2
 70
     0
  3
Illustrator Dash Style No.2
 72
    65
 73
     2
 40
1.33456
 49
1.026585
 49
-0.307975
  0
ENDTAB
  0
TABLE
  2
LAYER
 70
    17
  0
LAYER
  2
0
 70
     0
 62
     7
  6
CONTINUOUS
  0
LAYER
  2
TEXTE_MOYEN
 70
     0
 62
   131
  6
CONTINUOUS
  0
LAYER
  2
ALPHA
 70
     0
 62
   254
  6
CONTINUOUS
  0
LAYER
  2
COTATION1
 70
     0
 62
    50
  6
CONTINUOUS
  0
LAYER
  2
AXE
 70
     0
 62
    80
  6
AXES2
  0
LAYER
  2
DEFPOINTS
 70
     0
 62
     7
  6
CONTINUOUS
  0
LAYER
  2
HACHURES1
 70
     0
 62
   130
  6
CONTINUOUS
  0
LAYER
  2
FMULT
 70
     0
 62
   210
  6
CONTINUOUS
  0
LAYER
  2
FDP_CARTOUCHE
 70
     0
 62
   136
  6
CONTINUOUS
  0
LAYER
  2
FDP_TEXTES
 70
     0
 62
   171
  6
CONTINUOUS
  0
LAYER
  2
FDP_LOGO_MG
 70
     0
 62
    30
  6
CONTINUOUS
  0
LAYER
  2
FDP_LOGO_SCH
 70
     0
 62
    90
  6
CONTINUOUS
  0
LAYER
  2
FDP_FDP
 70
     0
 62
   170
  6
CONTINUOUS
  0
LAYER
  2
POINTILLE_COURT2
 70
     0
 62
    41
  6
CACHE2
  0
LAYER
  2
POINTILLE_MOYEN2
 70
     0
 62
   141
  6
CACHE
  0
LAYER
  2
POINTILLE_LONG2
 70
     0
 62
   241
  6
CACHEX2
  0
LAYER
  2
ALPHA_FIN
 70
     0
 62
   255
  6
CONTINUOUS
  0
ENDTAB
  0
TABLE
  2
STYLE
 70
     5
  0
STYLE
  2
ROMANS
 70
     0
 40
0.0
 41
1.0
 50
0.0
 71
     0
 42
6.0
  3
romans
  4

  0
STYLE
  2
STANDARD
 70
     0
 40
0.2
 41
1.0
 50
0.0
 71
     0
 42
0.2
  3
txt
  4

  0
STYLE
  2
STD
 70
     0
 40
0.0
 41
1.0
 50
0.0
 71
     0
 42
0.0
  3
txt
  4

  0
STYLE
  2
INFOCAR
 70
     0
 40
0.0
 41
1.34
 50
0.0
 71
     0
 42
2.0
  3
ROMANS.SHX
  4

  0
STYLE
  2
CARTOUCHE
 70
     0
 40
0.0
 41
1.0
 50
0.0
 71
     0
 42
0.2
  3
ROMANS.SHX
  4

  0
ENDTAB
  0
TABLE
  2
VIEW
 70
     0
  0
ENDTAB
  0
TABLE
  2
UCS
 70
     0
  0
ENDTAB
  0
TABLE
  2
APPID
 70
     4
  0
APPID
  2
ACAD
 70
     0
  0
APPID
  2
AVE_RENDER
 70
     0
  0
APPID
  2
AVE_MATERIAL
 70
     0
  0
APPID
  2
CONTENTBLOCKICON
 70
     0
  0
ENDTAB
  0
TABLE
  2
DIMSTYLE
 70
     1
  0
DIMSTYLE
  2
ROMANS
 70
     0
  3

  4

  5
OPEN30
  6

  7

 40
1.0
 41
3.0
 42
0.5
 43
0.38
 44
0.18
 45
0.0
 46
0.0
 47
0.0
 48
0.0
140
3.0
141
0.09
142
0.0
143
25.4
144
1.0
145
0.0
146
1.0
147
1.0
 71
     0
 72
     0
 73
     0
 74
     1
 75
     0
 76
     0
 77
     1
 78
    12
170
     0
171
     2
172
     0
173
     0
174
     0
175
     0
176
     0
177
     0
178
     0
  0
ENDTAB
  0
ENDSEC
  0
SECTION
  2
BLOCKS
  0
BLOCK
  8
0
  2
$MODEL_SPACE
 70
     0
 10
0.0
 20
0.0
 30
0.0
  3
$MODEL_SPACE
  1

  0
ENDBLK
  5
618F
  8
0
  0
BLOCK
 67
     1
  8
0
  2
$PAPER_SPACE
 70
     0
 10
0.0
 20
0.0
 30
0.0
  3
$PAPER_SPACE
  1

  0
ENDBLK
  5
618D
 67
     1
  8
0
  0
BLOCK
  8
0
  2
COTE
 70
     0
 10
0.0
 20
0.0
 30
0.0
  3
COTE
  1

  0
ENDBLK
  5
35
  8
0
  0
BLOCK
  8
0
  2
FOND
 70
     0
 10
0.0
 20
0.0
 30
0.0
  3
FOND
  1

  0
ENDBLK
  5
39
  8
0
  0
BLOCK
  8
0
  2
SCH_ISO
 70
     0
 10
0.0
 20
0.0
 30
0.0
  3
SCH_ISO
  1

  0
ENDBLK
  5
24AD
  8
0
  0
BLOCK
  8
0
  2
_OPEN30
 70
     0
 10
0.0
 20
0.0
 30
0.0
  3
_OPEN30
  1

  0
LINE
  5
27E1
  8
COTATION1
 62
     0
 10
-1.0
 20
0.267949
 30
0.0
 11
0.0
 21
0.0
 31
0.0
1001
ACAD
1000
RTLwPs
1070
   158
  0
LINE
  5
27E2
  8
COTATION1
 62
     0
 10
0.0
 20
0.0
 30
0.0
 11
-1.0
 21
-0.267949
 31
0.0
1001
ACAD
1000
RTLwPs
1070
   158
  0
LINE
  5
27E3
  8
COTATION1
 62
     0
 10
0.0
 20
0.0
 30
0.0
 11
-1.0
 21
0.0
 31
0.0
1001
ACAD
1000
RTLwPs
1070
   158
  0
ENDBLK
  5
27E5
  8
0
  0
BLOCK
  8
0
  2
*D4
 70
     1
 10
0.0
 20
0.0
 30
0.0
  3
*D4
  1

  0
LINE
  5
6073
  8
COTATION1
 62
     0
 10
278.309457
 20
-91.158465
 30
0.0
 11
332.715383
 21
-91.158465
 31
0.0
1001
ACAD
1000
RTLwPs
1070
   158
  0
LINE
  5
6074
  8
COTATION1
 62
     0
 10
305.493832
 20
-155.158495
 30
0.0
 11
332.715383
 21
-155.158495
 31
0.0
1001
ACAD
1000
RTLwPs
1070
   158
  0
LINE
  5
6075
  8
COTATION1
 62
     0
 10
332.535383
 20
-94.158465
 30
0.0
 11
332.535383
 21
-152.158495
 31
0.0
1001
ACAD
1000
RTLwPs
1070
   158
  0
INSERT
  5
6076
  8
COTATION1
 62
     0
  2
_OPEN30
 10
332.535383
 20
-91.158465
 30
0.0
 41
3.0
 42
3.0
 43
3.0
 50
90.0
1001
ACAD
1000
RTLwPs
1070
   158
  0
INSERT
  5
6077
  8
COTATION1
 62
     0
  2
_OPEN30
 10
332.535383
 20
-155.158495
 30
0.0
 41
3.0
 42
3.0
 43
3.0
 50
270.0
1001
ACAD
1000
RTLwPs
1070
   158
  0
TEXT
  5
6078
  8
COTATION1
 62
     0
 10
331.535383
 20
-126.15848
 30
0.0
 40
3.0
  1
64
 50
90.0
1001
ACAD
1000
MTEXTBEGIN
1070
    73
1070
     1
1070
    44
1040
1.0
1070
    74
1070
     0
1000
MTEXTEND
  0
POINT
  5
6079
  8
DEFPOINTS
 62
     0
 10
277.809457
 20
-91.158465
 30
0.0
  0
POINT
  5
607A
  8
DEFPOINTS
 62
     0
 10
304.993832
 20
-155.158495
 30
0.0
  0
POINT
  5
607B
  8
DEFPOINTS
 62
     0
 10
332.535383
 20
-155.158495
 30
0.0
  0
ENDBLK
  5
5BD0
  8
0
  0
BLOCK
  8
0
  2
*D5
 70
     1
 10
0.0
 20
0.0
 30
0.0
  3
*D5
  1

  0
LINE
  5
6098
  8
COTATION1
 62
     0
 10
274.993879
 20
-155.658495
 30
0.0
 11
274.993879
 21
-180.338495
 31
0.0
1001
ACAD
1000
RTLwPs
1070
   158
  0
LINE
  5
6099
  8
COTATION1
 62
     0
 10
304.993832
 20
-155.658495
 30
0.0
 11
304.993832
 21
-180.338495
 31
0.0
1001
ACAD
1000
RTLwPs
1070
   158
  0
LINE
  5
609A
  8
COTATION1
 62
     0
 10
277.993879
 20
-180.158495
 30
0.0
 11
301.993832
 21
-180.158495
 31
0.0
1001
ACAD
1000
RTLwPs
1070
   158
  0
INSERT
  5
609B
  8
COTATION1
 62
     0
  2
_OPEN30
 10
274.993879
 20
-180.158495
 30
0.0
 41
3.0
 42
3.0
 43
3.0
 50
180.0
1001
ACAD
1000
RTLwPs
1070
   158
  0
INSERT
  5
609C
  8
COTATION1
 62
     0
  2
_OPEN30
 10
304.993832
 20
-180.158495
 30
0.0
 41
3.0
 42
3.0
 43
3.0
1001
ACAD
1000
RTLwPs
1070
   158
  0
TEXT
  5
609D
  8
COTATION1
 62
     0
 10
287.136713
 20
-179.158495
 30
0.0
 40
3.0
  1
30
1001
ACAD
1000
MTEXTBEGIN
1070
    73
1070
     1
1070
    44
1040
1.0
1070
    74
1070
     0
1000
MTEXTEND
  0
POINT
  5
609E
  8
DEFPOINTS
 62
     0
 10
274.993879
 20
-155.158495
 30
0.0
  0
POINT
  5
609F
  8
DEFPOINTS
 62
     0
 10
304.993832
 20
-155.158495
 30
0.0
  0
POINT
  5
60A0
  8
DEFPOINTS
 62
     0
 10
304.993832
 20
-180.158495
 30
0.0
  0
ENDBLK
  5
5CD7
  8
0
  0
BLOCK
  8
0
  2
*D6
 70
     1
 10
0.0
 20
0.0
 30
0.0
  3
*D6
  1

  0
LINE
  5
60B4
  8
COTATION1
 62
     0
 10
274.809457
 20
-90.6746
 30
0.0
 11
274.809457
 21
-80.978465
 31
0.0
1001
ACAD
1000
RTLwPs
1070
   158
  0
LINE
  5
60B5
  8
COTATION1
 62
     0
 10
277.809457
 20
-90.658465
 30
0.0
 11
277.809457
 21
-80.978465
 31
0.0
1001
ACAD
1000
RTLwPs
1070
   158
  0
LINE
  5
60B6
  8
COTATION1
 62
     0
 10
280.809457
 20
-81.158465
 30
0.0
 11
283.809457
 21
-81.158465
 31
0.0
1001
ACAD
1000
RTLwPs
1070
   158
  0
LINE
  5
60B7
  8
COTATION1
 62
     0
 10
271.809457
 20
-81.158465
 30
0.0
 11
249.238029
 21
-81.158465
 31
0.0
1001
ACAD
1000
RTLwPs
1070
   158
  0
INSERT
  5
60B8
  8
COTATION1
 62
     0
  2
_OPEN30
 10
277.809457
 20
-81.158465
 30
0.0
 41
3.0
 42
3.0
 43
3.0
 50
180.0
1001
ACAD
1000
RTLwPs
1070
   158
  0
INSERT
  5
60B9
  8
COTATION1
 62
     0
  2
_OPEN30
 10
274.809457
 20
-81.158465
 30
0.0
 41
3.0
 42
3.0
 43
3.0
1001
ACAD
1000
RTLwPs
1070
   158
  0
TEXT
  5
60BA
  8
COTATION1
 62
     0
 10
249.809457
 20
-80.158465
 30
0.0
 40
3.0
  1
3 THICK
1001
ACAD
1000
MTEXTBEGIN
1070
    73
1070
     1
1070
    44
1040
1.0
1070
    74
1070
     0
1000
MTEXTEND
  0
POINT
  5
60BB
  8
DEFPOINTS
 62
     0
 10
274.809457
 20
-91.1746
 30
0.0
  0
POINT
  5
60BC
  8
DEFPOINTS
 62
     0
 10
277.809457
 20
-91.158465
 30
0.0
  0
POINT
  5
60BD
  8
DEFPOINTS
 62
     0
 10
277.809457
 20
-81.158465
 30
0.0
  0
ENDBLK
  5
5E5E
  8
0
  0
BLOCK
  8
0
  2
*D7
 70
     1
 10
0.0
 20
0.0
 30
0.0
  3
*D7
  1

  0
LINE
  5
6058
  8
COTATION1
 62
     0
 10
261.150485
 20
-157.253102
 30
0.0
 11
267.007627
 21
-157.253102
 31
0.0
1001
ACAD
1000
RTLwPs
1070
   158
  0
LINE
  5
6059
  8
COTATION1
 62
     0
 10
267.007627
 20
-157.253102
 30
0.0
 11
273.046128
 21
-153.711594
 31
0.0
1001
ACAD
1000
RTLwPs
1070
   158
  0
TEXT
  5
605A
  8
COTATION1
 62
     0
 10
260.579056
 20
-156.253102
 30
0.0
 40
3.0
  1
R6
1001
ACAD
1000
MTEXTBEGIN
1070
    73
1070
     1
1070
    44
1040
1.0
1070
    74
1070
     0
1000
MTEXTEND
  0
INSERT
  5
605B
  8
COTATION1
 62
     0
  2
_OPEN30
 10
275.633904
 20
-152.193894
 30
0.0
 41
3.0
 42
3.0
 43
3.0
 50
30.39111
1001
ACAD
1000
RTLwPs
1070
   158
  0
LINE
  5
605C
  8
COTATION1
 62
     0
 10
280.719457
 20
-149.158495
 30
0.0
 11
280.899457
 21
-149.158495
 31
0.0
1001
ACAD
1000
RTLwPs
1070
   158
  0
LINE
  5
605D
  8
COTATION1
 62
     0
 10
280.809457
 20
-149.248495
 30
0.0
 11
280.809457
 21
-149.068495
 31
0.0
1001
ACAD
1000
RTLwPs
1070
   158
  0
POINT
  5
605E
  8
DEFPOINTS
 62
     0
 10
275.633904
 20
-152.193894
 30
0.0
  0
POINT
  5
605F
  8
DEFPOINTS
 62
     0
 10
280.809457
 20
-149.158495
 30
0.0
  0
ENDBLK
  5
5E6A
  8
0
  0
BLOCK
  8
0
  2
*D8
 70
     1
 10
0.0
 20
0.0
 30
0.0
  3
*D8
  1

  0
LINE
  5
607C
  8
COTATION1
 62
     0
 10
290.676284
 20
-144.762313
 30
0.0
 11
284.819141
 21
-144.762313
 31
0.0
1001
ACAD
1000
RTLwPs
1070
   158
  0
LINE
  5
607D
  8
COTATION1
 62
     0
 10
284.819141
 20
-144.762313
 30
0.0
 11
280.809457
 21
-149.340261
 31
0.0
1001
ACAD
1000
RTLwPs
1070
   158
  0
TEXT
  5
607E
  8
COTATION1
 62
     0
 10
285.247712
 20
-143.762313
 30
0.0
 40
3.0
  1
R3
1001
ACAD
1000
MTEXTBEGIN
1070
    73
1070
     1
1070
    44
1040
1.0
1070
    74
1070
     0
1000
MTEXTEND
  0
INSERT
  5
607F
  8
COTATION1
 62
     0
  2
_OPEN30
 10
278.832832
 20
-151.597018
 30
0.0
 41
3.0
 42
3.0
 43
3.0
 50
228.785875
1001
ACAD
1000
RTLwPs
1070
   158
  0
POINT
  5
6080
  8
DEFPOINTS
 62
     0
 10
278.832832
 20
-151.597018
 30
0.0
  0
POINT
  5
6081
  8
DEFPOINTS
 62
     0
 10
280.809457
 20
-149.340261
 30
0.0
  0
ENDBLK
  5
5E73
  8
0
  0
ENDSEC
  0
SECTION
  2
ENTITIES
  0
INSERT
  5
32
  8
0
  2
COTE
 10
0.0
 20
0.0
 30
0.0
  0
INSERT
  5
36
  8
0
  2
FOND
 10
0.0
 20
0.0
 30
0.0
  0
INSERT
  5
24AE
  8
ALPHA
  2
SCH_ISO
 10
-66.27012
 20
-238.940658
 30
0.0
  0
LINE
  5
53BE
  8
AXE
 10
264.809457
 20
-123.158495
 30
0.0
 11
311.48132
 21
-123.158495
 31
0.0
  0
TEXT
  5
53C0
  8
AXE
 10
282.333267
 20
-170.158495
 30
0.0
 40
8.0
  1
Y
 72
     2
 11
288.809457
 21
-170.158495
 31
0.0
  0
LINE
  5
53C1
  8
AXE
 10
289.809457
 20
-170.158495
 30
0.0
 11
289.799234
 21
-86.158465
 31
0.0
  0
TEXT
  5
564D
  8
AXE
 10
305.005129
 20
-122.158495
 30
0.0
 40
8.0
  1
X
 72
     2
 11
311.48132
 21
-122.158495
 31
0.0
  0
LINE
  5
592B
  8
ALPHA
 10
274.163717
 20
-166.633632
 30
0.0
 11
274.163717
 21
-166.633632
 31
0.0
  0
LINE
  5
5930
  8
ALPHA
 10
304.971156
 20
-166.697381
 30
0.0
 11
304.971156
 21
-166.697381
 31
0.0
  0
LINE
  5
5931
  8
ALPHA
 10
304.993832
 20
-155.158495
 30
0.0
 11
280.809457
 21
-155.158495
 31
0.0
  0
LINE
  5
5932
  8
ALPHA
 10
280.809457
 20
-152.340261
 30
0.0
 11
304.993832
 21
-152.340261
 31
0.0
  0
LINE
  5
5935
  8
ALPHA
 10
277.809457
 20
-91.158465
 30
0.0
 11
277.809457
 21
-149.340261
 31
0.0
  0
LINE
  5
5936
  8
ALPHA
 10
274.809457
 20
-149.158495
 30
0.0
 11
274.809457
 21
-91.158465
 31
0.0
  0
LINE
  5
5939
  8
AXE
  6
AI9-LTYPE1
 10
269.809457
 20
-106.858525
 30
0.0
 11
282.809457
 21
-106.858525
 31
0.0
  0
LINE
  5
593A
  8
AXE
  6
AI9-LTYPE1
 10
269.809457
 20
-117.858525
 30
0.0
 11
282.809457
 21
-117.858525
 31
0.0
  0
LINE
  5
593B
  8
AXE
  6
AI9-LTYPE1
 10
269.809457
 20
-126.858525
 30
0.0
 11
282.809457
 21
-126.858525
 31
0.0
  0
LINE
  5
593C
  8
AXE
  6
AI9-LTYPE1
 10
269.809457
 20
-135.858525
 30
0.0
 11
282.809457
 21
-135.858525
 31
0.0
  0
LINE
  5
593D
  8
AXE
  6
AI9-LTYPE1
 10
269.809457
 20
-115.858525
 30
0.0
 11
282.809457
 21
-115.858525
 31
0.0
  0
LINE
  5
5952
  8
AXE
  6
AI9-LTYPE1
 10
269.809457
 20
-97.858525
 30
0.0
 11
282.809457
 21
-97.858525
 31
0.0
  0
LINE
  5
5959
  8
ALPHA
 10
277.809457
 20
-93.974043
 30
0.0
 11
274.809457
 21
-93.974043
 31
0.0
  0
LINE
  5
595B
  8
AXE
  6
AI9-LTYPE1
 10
300.443832
 20
-160.158495
 30
0.0
 11
300.443832
 21
-147.340261
 31
0.0
  0
LINE
  5
595C
  8
ALPHA
 10
302.17759
 20
-152.340261
 30
0.0
 11
302.17759
 21
-155.158495
 31
0.0
  0
LINE
  5
595D
  8
ALPHA
 10
304.993832
 20
-152.340261
 30
0.0
 11
304.993832
 21
-155.158495
 31
0.0
  0
DIMENSION
  5
5BC4
  8
COTATION1
  2
*D4
 10
332.535383
 20
-155.158495
 30
0.0
 11
330.035383
 21
-123.15848
 31
0.0
 13
277.809457
 23
-91.158465
 33
0.0
 14
304.993832
 24
-155.158495
 34
0.0
 50
90.0
  0
DIMENSION
  5
5CCB
  8
COTATION1
  2
*D5
 10
304.993832
 20
-180.158495
 30
0.0
 11
289.993855
 21
-180.158495
 31
0.0
 70
   128
 13
274.993879
 23
-155.158495
 33
0.0
 14
304.993832
 24
-155.158495
 34
0.0
  0
ARC
  5
5E46
  8
ALPHA
 10
280.809457
 20
-149.340261
 30
0.0
 40
3.0
 50
180.0
 51
270.0
  0
ARC
  5
5E47
  8
ALPHA
 10
280.809457
 20
-149.158495
 30
0.0
 40
6.0
 50
180.0
 51
270.0
  0
DIMENSION
  5
5E51
  8
COTATION1
  2
*D6
 10
277.809457
 20
-81.158465
 30
0.0
 11
259.023743
 21
-81.158465
 31
0.0
 70
   128
  1
<> THICK
 13
274.809457
 23
-91.1746
 33
0.0
 14
277.809457
 24
-91.158465
 34
0.0
  0
DIMENSION
  5
5E60
  8
COTATION1
  2
*D7
 10
280.809457
 20
-149.158495
 30
0.0
 11
263.579056
 21
-157.253102
 31
0.0
 70
   132
 15
275.633904
 25
-152.193894
 35
0.0
 40
0.0
  0
DIMENSION
  5
5E6B
  8
COTATION1
  2
*D8
 10
280.809457
 20
-149.340261
 30
0.0
 11
288.247712
 21
-144.762313
 31
0.0
 70
   132
 15
278.832832
 25
-151.597018
 35
0.0
 40
0.0
  0
LINE
  5
5E74
  8
ALPHA
 10
277.809457
 20
-91.158465
 30
0.0
 11
274.809457
 21
-91.158465
 31
0.0
  0
LINE
  5
5F27
  8
AXE
  6
AI9-LTYPE1
 10
287.643832
 20
-160.158495
 30
0.0
 11
287.643832
 21
-147.340261
 31
0.0
  0
ENDSEC
  0
EOF
