  0
SECTION
  2
HEADER
  9
$ACADVER
  1
AC1009
  9
$INSBASE
 10
402.590624
 20
-1.041018
 30
0.0
  9
$EXTMIN
 10
1103.100991
 20
15.167355
 30
0.0
  9
$EXTMAX
 10
1163.100991
 20
139.667355
 30
0.0
  9
$LIMMIN
 10
-407.970438
 20
-367.832444
  9
$LIMMAX
 10
429.804077
 20
234.370848
  9
$ORTHOMODE
 70
     1
  9
$REGENMODE
 70
     1
  9
$FILLMODE
 70
     1
  9
$QTEXTMODE
 70
     0
  9
$MIRRTEXT
 70
     1
  9
$DRAGMODE
 70
     2
  9
$LTSCALE
 40
10.0
  9
$OSMODE
 70
    37
  9
$ATTMODE
 70
     1
  9
$TEXTSIZE
 40
6.0
  9
$TRACEWID
 40
1.0
  9
$TEXTSTYLE
  7
ROMANS
  9
$CLAYER
  8
ALPHA
  9
$CELTYPE
  6
BYLAYER
  9
$CECOLOR
 62
   256
  9
$DIMSCALE
 40
1.0
  9
$DIMASZ
 40
5.0
  9
$DIMEXO
 40
2.0
  9
$DIMDLI
 40
0.38
  9
$DIMRND
 40
0.0
  9
$DIMDLE
 40
0.0
  9
$DIMEXE
 40
2.5
  9
$DIMTP
 40
0.0
  9
$DIMTM
 40
0.0
  9
$DIMTXT
 40
2.5
  9
$DIMCEN
 40
0.0
  9
$DIMTSZ
 40
0.0
  9
$DIMTOL
 70
     0
  9
$DIMLIM
 70
     0
  9
$DIMTIH
 70
     1
  9
$DIMTOH
 70
     1
  9
$DIMSE1
 70
     0
  9
$DIMSE2
 70
     0
  9
$DIMTAD
 70
     1
  9
$DIMZIN
 70
    12
  9
$DIMBLK
  1
OPEN30
  9
$DIMASO
 70
     1
  9
$DIMSHO
 70
     1
  9
$DIMPOST
  1

  9
$DIMAPOST
  1

  9
$DIMALT
 70
     0
  9
$DIMALTD
 70
     2
  9
$DIMALTF
 40
25.4
  9
$DIMLFAC
 40
1.0
  9
$DIMTOFL
 70
     0
  9
$DIMTVP
 40
0.0
  9
$DIMTIX
 70
     0
  9
$DIMSOXD
 70
     0
  9
$DIMSAH
 70
     0
  9
$DIMBLK1
  1

  9
$DIMBLK2
  1

  9
$DIMSTYLE
  2
SC_DEFAUT
  9
$DIMCLRD
 70
     0
  9
$DIMCLRE
 70
     0
  9
$DIMCLRT
 70
     0
  9
$DIMTFAC
 40
1.0
  9
$DIMGAP
 40
2.0
  9
$LUNITS
 70
     2
  9
$LUPREC
 70
     1
  9
$SKETCHINC
 40
0.1
  9
$FILLETRAD
 40
0.0
  9
$AUNITS
 70
     0
  9
$AUPREC
 70
     0
  9
$MENU
  1
acad
  9
$ELEVATION
 40
0.0
  9
$PELEVATION
 40
0.0
  9
$THICKNESS
 40
0.0
  9
$LIMCHECK
 70
     0
  9
$BLIPMODE
 70
     0
  9
$CHAMFERA
 40
0.0
  9
$CHAMFERB
 40
0.0
  9
$SKPOLY
 70
     0
  9
$TDCREATE
 40
2450373.687919
  9
$TDUPDATE
 40
2452850.683307
  9
$TDINDWG
 40
0.801825
  9
$TDUSRTIMER
 40
0.801825
  9
$USRTIMER
 70
     1
  9
$ANGBASE
 50
0.0
  9
$ANGDIR
 70
     0
  9
$PDMODE
 70
    32
  9
$PDSIZE
 40
0.0
  9
$PLINEWID
 40
0.0
  9
$COORDS
 70
     1
  9
$SPLFRAME
 70
     0
  9
$SPLINETYPE
 70
     6
  9
$SPLINESEGS
 70
     8
  9
$ATTDIA
 70
     0
  9
$ATTREQ
 70
     1
  9
$HANDLING
 70
     1
  9
$HANDSEED
  5
745B
  9
$SURFTAB1
 70
     6
  9
$SURFTAB2
 70
     6
  9
$SURFTYPE
 70
     6
  9
$SURFU
 70
     6
  9
$SURFV
 70
     6
  9
$UCSNAME
  2

  9
$UCSORG
 10
0.0
 20
0.0
 30
0.0
  9
$UCSXDIR
 10
1.0
 20
0.0
 30
0.0
  9
$UCSYDIR
 10
0.0
 20
1.0
 30
0.0
  9
$PUCSNAME
  2

  9
$PUCSORG
 10
0.0
 20
0.0
 30
0.0
  9
$PUCSXDIR
 10
1.0
 20
0.0
 30
0.0
  9
$PUCSYDIR
 10
0.0
 20
1.0
 30
0.0
  9
$USERI1
 70
     0
  9
$USERI2
 70
     0
  9
$USERI3
 70
     0
  9
$USERI4
 70
     0
  9
$USERI5
 70
     0
  9
$USERR1
 40
0.0
  9
$USERR2
 40
0.0
  9
$USERR3
 40
0.0
  9
$USERR4
 40
0.0
  9
$USERR5
 40
0.0
  9
$WORLDVIEW
 70
     1
  9
$SHADEDGE
 70
     3
  9
$SHADEDIF
 70
    70
  9
$TILEMODE
 70
     1
  9
$MAXACTVP
 70
    16
  9
$PLIMCHECK
 70
     0
  9
$PEXTMIN
 10
-1.452248
 20
-0.437698
 30
0.0
  9
$PEXTMAX
 10
12.749749
 20
8.310198
 30
0.0
  9
$PLIMMIN
 10
0.0
 20
0.0
  9
$PLIMMAX
 10
12.0
 20
9.0
  9
$UNITMODE
 70
     0
  9
$VISRETAIN
 70
     0
  9
$PLINEGEN
 70
     0
  9
$PSLTSCALE
 70
     0
  0
ENDSEC
  0
SECTION
  2
TABLES
  0
TABLE
  2
VPORT
 70
     2
  0
VPORT
  2
*ACTIVE
 70
     0
 10
0.0
 20
0.0
 11
1.0
 21
1.0
 12
1133.11838
 22
77.419963
 13
0.0
 23
0.0
 14
1.0
 24
1.0
 15
10.0
 25
10.0
 16
0.0
 26
0.0
 36
1.0
 17
0.0
 27
0.0
 37
0.0
 40
125.621539
 41
1.56
 42
50.0
 43
0.0
 44
0.0
 50
0.0
 51
0.0
 71
     0
 72
   100
 73
     1
 74
     0
 75
     0
 76
     0
 77
     0
 78
     0
  0
ENDTAB
  0
TABLE
  2
LTYPE
 70
     3
  0
LTYPE
  2
CONTINUOUS
 70
     0
  3
Solid line
 72
    65
 73
     0
 40
0.0
  0
LTYPE
  2
AXES2
 70
     0
  3
___ _ ___ _ ___ _ ___ _ ___ _ ___ _ ___ _ ___ _
 72
    65
 73
     4
 40
1.125
 49
0.75
 49
-0.125
 49
0.125
 49
-0.125
  0
LTYPE
  2
CACHE2
 70
     0
  3
Caché (x.5) _ _ _ _ _ _ _ _ _ _ _ _ _ _ _ _ _
 72
    65
 73
     2
 40
0.1875
 49
0.125
 49
-0.0625
  0
ENDTAB
  0
TABLE
  2
LAYER
 70
     7
  0
LAYER
  2
0
 70
     0
 62
   255
  6
CONTINUOUS
  0
LAYER
  2
COTATION1
 70
     0
 62
     2
  6
CONTINUOUS
  0
LAYER
  2
AXE
 70
     0
 62
    80
  6
AXES2
  0
LAYER
  2
DEFPOINTS
 70
     0
 62
     7
  6
CONTINUOUS
  0
LAYER
  2
ALPHA
 70
     0
 62
   254
  6
CONTINUOUS
  0
LAYER
  2
POINTILLE_COURT
 70
     0
 62
    41
  6
CACHE2
  0
LAYER
  2
ALPHA_FIN
 70
     0
 62
   255
  6
CONTINUOUS
  0
ENDTAB
  0
TABLE
  2
STYLE
 70
     2
  0
STYLE
  2
ROMANS
 70
     0
 40
0.0
 41
1.0
 50
0.0
 71
     0
 42
6.0
  3
romans
  4

  0
STYLE
  2
STANDARD
 70
     0
 40
0.2
 41
1.0
 50
0.0
 71
     0
 42
0.2
  3
txt
  4

  0
ENDTAB
  0
TABLE
  2
VIEW
 70
     0
  0
ENDTAB
  0
TABLE
  2
UCS
 70
     0
  0
ENDTAB
  0
TABLE
  2
APPID
 70
     1
  0
APPID
  2
ACAD
 70
     0
  0
ENDTAB
  0
TABLE
  2
DIMSTYLE
 70
     1
  0
DIMSTYLE
  2
SC_DEFAUT
 70
     0
  3

  4

  5
OPEN30
  6

  7

 40
1.0
 41
5.0
 42
2.0
 43
0.38
 44
2.5
 45
0.0
 46
0.0
 47
0.0
 48
0.0
140
2.5
141
0.0
142
0.0
143
25.4
144
1.0
145
0.0
146
1.0
147
2.0
 71
     0
 72
     0
 73
     1
 74
     1
 75
     0
 76
     0
 77
     1
 78
    12
170
     0
171
     2
172
     0
173
     0
174
     0
175
     0
176
     0
177
     0
178
     0
  0
ENDTAB
  0
ENDSEC
  0
SECTION
  2
BLOCKS
  0
BLOCK
  8
0
  2
$MODEL_SPACE
 70
     0
 10
0.0
 20
0.0
 30
0.0
  3
$MODEL_SPACE
  1

  0
ENDBLK
  5
742C
  8
0
  0
BLOCK
 67
     1
  8
0
  2
$PAPER_SPACE
 70
     0
 10
0.0
 20
0.0
 30
0.0
  3
$PAPER_SPACE
  1

  0
ENDBLK
  5
742A
 67
     1
  8
0
  0
BLOCK
  8
0
  2
COTE
 70
     0
 10
0.0
 20
0.0
 30
0.0
  3
COTE
  1

  0
ENDBLK
  5
F
  8
0
  0
BLOCK
  8
0
  2
FOND
 70
     0
 10
0.0
 20
0.0
 30
0.0
  3
FOND
  1

  0
ENDBLK
  5
75
  8
0
  0
BLOCK
  8
0
  2
_OPEN30
 70
     0
 10
0.0
 20
0.0
 30
0.0
  3
_OPEN30
  1

  0
LINE
  5
4B05
  8
COTATION1
 62
     0
 10
-1.0
 20
0.267949
 30
0.0
 11
0.0
 21
0.0
 31
0.0
1001
ACAD
1000
RTLwPs
1070
   158
  0
LINE
  5
4B06
  8
COTATION1
 62
     0
 10
0.0
 20
0.0
 30
0.0
 11
-1.0
 21
-0.267949
 31
0.0
1001
ACAD
1000
RTLwPs
1070
   158
  0
LINE
  5
4B07
  8
COTATION1
 62
     0
 10
0.0
 20
0.0
 30
0.0
 11
-1.0
 21
0.0
 31
0.0
1001
ACAD
1000
RTLwPs
1070
   158
  0
ENDBLK
  5
4B09
  8
0
  0
BLOCK
  8
0
  2
*D3
 70
     1
 10
0.0
 20
0.0
 30
0.0
  3
*D3
  1

  0
LINE
  5
7252
  8
COTATION1
 62
     0
 10
1134.100991
 20
61.167355
 30
0.0
 11
1134.100991
 21
77.763014
 31
0.0
1001
ACAD
1000
RTLwPs
1070
   158
  0
LINE
  5
7253
  8
COTATION1
 62
     0
 10
1138.100991
 20
63.167355
 30
0.0
 11
1138.100991
 21
77.763014
 31
0.0
1001
ACAD
1000
RTLwPs
1070
   158
  0
LINE
  5
7254
  8
COTATION1
 62
     0
 10
1129.100991
 20
75.263014
 30
0.0
 11
1124.100991
 21
75.263014
 31
0.0
1001
ACAD
1000
RTLwPs
1070
   158
  0
LINE
  5
7255
  8
COTATION1
 62
     0
 10
1143.100991
 20
75.263014
 30
0.0
 11
1153.886706
 21
75.263014
 31
0.0
1001
ACAD
1000
RTLwPs
1070
   158
  0
INSERT
  5
7256
  8
COTATION1
 62
     0
  2
_OPEN30
 10
1134.100991
 20
75.263014
 30
0.0
 41
5.0
 42
5.0
 43
5.0
1001
ACAD
1000
RTLwPs
1070
   158
  0
INSERT
  5
7257
  8
COTATION1
 62
     0
  2
_OPEN30
 10
1138.100991
 20
75.263014
 30
0.0
 41
5.0
 42
5.0
 43
5.0
 50
180.0
1001
ACAD
1000
RTLwPs
1070
   158
  0
TEXT
  5
7258
  8
COTATION1
 62
     0
 10
1149.743848
 20
77.263014
 30
0.0
 40
2.5
  1
4
1001
ACAD
1000
MTEXTBEGIN
1070
    73
1070
     1
1070
    44
1040
1.0
1070
    74
1070
     0
1000
MTEXTEND
1000
MTEXTBEGIN
1070
    73
1070
     1
1070
    44
1040
1.0
1070
    74
1070
     0
1000
MTEXTEND
  0
POINT
  5
7259
  8
DEFPOINTS
 62
     0
 10
1134.100991
 20
59.167355
 30
0.0
  0
POINT
  5
725A
  8
DEFPOINTS
 62
     0
 10
1138.100991
 20
61.167355
 30
0.0
  0
POINT
  5
725B
  8
DEFPOINTS
 62
     0
 10
1138.100991
 20
75.263014
 30
0.0
  0
ENDBLK
  5
6E4B
  8
0
  0
BLOCK
  8
0
  2
*D4
 70
     1
 10
0.0
 20
0.0
 30
0.0
  3
*D4
  1

  0
LINE
  5
72F9
  8
COTATION1
 62
     0
 10
1108.100991
 20
110.26537
 30
0.0
 11
1108.100991
 21
137.667355
 31
0.0
1001
ACAD
1000
RTLwPs
1070
   158
  0
LINE
  5
72FA
  8
COTATION1
 62
     0
 10
1138.100991
 20
122.167355
 30
0.0
 11
1138.100991
 21
137.667355
 31
0.0
1001
ACAD
1000
RTLwPs
1070
   158
  0
LINE
  5
72FB
  8
COTATION1
 62
     0
 10
1113.100991
 20
135.167355
 30
0.0
 11
1133.100991
 21
135.167355
 31
0.0
1001
ACAD
1000
RTLwPs
1070
   158
  0
INSERT
  5
72FC
  8
COTATION1
 62
     0
  2
_OPEN30
 10
1108.100991
 20
135.167355
 30
0.0
 41
5.0
 42
5.0
 43
5.0
 50
180.0
1001
ACAD
1000
RTLwPs
1070
   158
  0
INSERT
  5
72FD
  8
COTATION1
 62
     0
  2
_OPEN30
 10
1138.100991
 20
135.167355
 30
0.0
 41
5.0
 42
5.0
 43
5.0
1001
ACAD
1000
RTLwPs
1070
   158
  0
TEXT
  5
72FE
  8
COTATION1
 62
     0
 10
1120.720039
 20
137.167355
 30
0.0
 40
2.5
  1
30
1001
ACAD
1000
MTEXTBEGIN
1070
    73
1070
     1
1070
    44
1040
1.0
1070
    74
1070
     0
1000
MTEXTEND
1000
MTEXTBEGIN
1070
    73
1070
     1
1070
    44
1040
1.0
1070
    74
1070
     0
1000
MTEXTEND
  0
POINT
  5
72FF
  8
DEFPOINTS
 62
     0
 10
1108.100991
 20
108.26537
 30
0.0
  0
POINT
  5
7300
  8
DEFPOINTS
 62
     0
 10
1138.100991
 20
120.167355
 30
0.0
  0
POINT
  5
7301
  8
DEFPOINTS
 62
     0
 10
1138.100991
 20
135.167355
 30
0.0
  0
ENDBLK
  5
717D
  8
0
  0
BLOCK
  8
0
  2
*D5
 70
     1
 10
0.0
 20
0.0
 30
0.0
  3
*D5
  1

  0
LINE
  5
7268
  8
COTATION1
 62
     0
 10
1140.100991
 20
120.167355
 30
0.0
 11
1163.100991
 21
120.167355
 31
0.0
1001
ACAD
1000
RTLwPs
1070
   158
  0
LINE
  5
7269
  8
COTATION1
 62
     0
 10
1131.86894
 20
43.167355
 30
0.0
 11
1163.100991
 21
43.167355
 31
0.0
1001
ACAD
1000
RTLwPs
1070
   158
  0
LINE
  5
726A
  8
COTATION1
 62
     0
 10
1160.600991
 20
115.167355
 30
0.0
 11
1160.600991
 21
84.917355
 31
0.0
1001
ACAD
1000
RTLwPs
1070
   158
  0
LINE
  5
726B
  8
COTATION1
 62
     0
 10
1160.600991
 20
48.167355
 30
0.0
 11
1160.600991
 21
78.417355
 31
0.0
1001
ACAD
1000
RTLwPs
1070
   158
  0
INSERT
  5
726C
  8
COTATION1
 62
     0
  2
_OPEN30
 10
1160.600991
 20
120.167355
 30
0.0
 41
5.0
 42
5.0
 43
5.0
 50
90.0
1001
ACAD
1000
RTLwPs
1070
   158
  0
INSERT
  5
726D
  8
COTATION1
 62
     0
  2
_OPEN30
 10
1160.600991
 20
43.167355
 30
0.0
 41
5.0
 42
5.0
 43
5.0
 50
270.0
1001
ACAD
1000
RTLwPs
1070
   158
  0
TEXT
  5
726E
  8
COTATION1
 62
     0
 10
1158.220039
 20
80.417355
 30
0.0
 40
2.5
  1
77
1001
ACAD
1000
MTEXTBEGIN
1070
    73
1070
     1
1070
    44
1040
1.0
1070
    74
1070
     0
1000
MTEXTEND
1000
MTEXTBEGIN
1070
    73
1070
     1
1070
    44
1040
1.0
1070
    74
1070
     0
1000
MTEXTEND
  0
POINT
  5
726F
  8
DEFPOINTS
 62
     0
 10
1138.100991
 20
120.167355
 30
0.0
  0
POINT
  5
7270
  8
DEFPOINTS
 62
     0
 10
1129.86894
 20
43.167355
 30
0.0
  0
POINT
  5
7271
  8
DEFPOINTS
 62
     0
 10
1160.600991
 20
43.167355
 30
0.0
  0
ENDBLK
  5
718A
  8
0
  0
BLOCK
  8
0
  2
*D6
 70
     1
 10
0.0
 20
0.0
 30
0.0
  3
*D6
  1

  0
LINE
  5
7248
  8
COTATION1
 62
     0
 10
1119.600991
 20
42.167355
 30
0.0
 11
1119.600991
 21
24.178438
 31
0.0
1001
ACAD
1000
RTLwPs
1070
   158
  0
LINE
  5
7249
  8
COTATION1
 62
     0
 10
1131.600991
 20
42.167355
 30
0.0
 11
1131.600991
 21
24.178438
 31
0.0
1001
ACAD
1000
RTLwPs
1070
   158
  0
LINE
  5
724A
  8
COTATION1
 62
     0
 10
1114.600991
 20
26.678438
 30
0.0
 11
1109.600991
 21
26.678438
 31
0.0
1001
ACAD
1000
RTLwPs
1070
   158
  0
LINE
  5
724B
  8
COTATION1
 62
     0
 10
1136.600991
 20
26.678438
 30
0.0
 11
1152.619387
 21
26.678438
 31
0.0
1001
ACAD
1000
RTLwPs
1070
   158
  0
INSERT
  5
724C
  8
COTATION1
 62
     0
  2
_OPEN30
 10
1119.600991
 20
26.678438
 30
0.0
 41
5.0
 42
5.0
 43
5.0
1001
ACAD
1000
RTLwPs
1070
   158
  0
INSERT
  5
724D
  8
COTATION1
 62
     0
  2
_OPEN30
 10
1131.600991
 20
26.678438
 30
0.0
 41
5.0
 42
5.0
 43
5.0
 50
180.0
1001
ACAD
1000
RTLwPs
1070
   158
  0
TEXT
  5
724E
  8
COTATION1
 62
     0
 10
1143.357483
 20
28.678438
 30
0.0
 40
2.5
  1
M12
1001
ACAD
1000
MTEXTBEGIN
1070
    73
1070
     1
1070
    44
1040
1.0
1070
    74
1070
     0
1000
MTEXTEND
1000
MTEXTBEGIN
1070
    73
1070
     1
1070
    44
1040
1.0
1070
    74
1070
     0
1000
MTEXTEND
  0
POINT
  5
724F
  8
DEFPOINTS
 62
     0
 10
1119.600991
 20
44.167355
 30
0.0
  0
POINT
  5
7250
  8
DEFPOINTS
 62
     0
 10
1131.600991
 20
44.167355
 30
0.0
  0
POINT
  5
7251
  8
DEFPOINTS
 62
     0
 10
1131.600991
 20
26.678438
 30
0.0
  0
ENDBLK
  5
71B1
  8
0
  0
ENDSEC
  0
SECTION
  2
ENTITIES
  0
INSERT
  5
A
  8
0
  2
COTE
 10
0.0
 20
0.0
 30
0.0
  0
INSERT
  5
17
  8
0
  2
COTE
 10
284.010391
 20
6.373258
 30
0.0
  0
INSERT
  5
72
  8
0
  2
FOND
 10
0.0
 20
0.0
 30
0.0
  0
POLYLINE
  5
662C
  8
ALPHA
 66
     1
 10
0.0
 20
0.0
 30
0.0
 70
   128
210
0.0
220
0.0
230
-1.0
  0
VERTEX
  5
7432
  8
ALPHA
 10
-1126.147734
 20
59.852705
 30
0.0
  0
VERTEX
  5
7433
  8
ALPHA
 10
-1126.887576
 20
59.852705
 30
0.0
  0
VERTEX
  5
7434
  8
ALPHA
 10
-1127.337529
 20
59.721659
 30
0.0
  0
VERTEX
  5
7435
  8
ALPHA
 10
-1127.501346
 20
59.526349
 30
0.0
  0
VERTEX
  5
7436
  8
ALPHA
 10
-1127.730024
 20
59.137997
 30
0.0
  0
VERTEX
  5
7437
  8
ALPHA
 10
-1128.12566
 20
58.332636
 30
0.0
  0
VERTEX
  5
7438
  8
ALPHA
 10
-1128.340684
 20
57.879105
 30
0.0
  0
SEQEND
  5
7439
  8
ALPHA
  0
POLYLINE
  5
662D
  8
ALPHA
 66
     1
 10
0.0
 20
0.0
 30
0.0
 70
   128
210
0.0
220
0.0
230
-1.0
  0
VERTEX
  5
743A
  8
ALPHA
 10
-1120.923893
 20
56.167355
 30
0.0
  0
VERTEX
  5
743B
  8
ALPHA
 10
-1119.236833
 20
56.32288
 30
0.0
  0
VERTEX
  5
743C
  8
ALPHA
 10
-1117.323207
 20
56.689667
 30
0.0
  0
VERTEX
  5
743D
  8
ALPHA
 10
-1113.340514
 20
57.795264
 30
0.0
  0
VERTEX
  5
743E
  8
ALPHA
 10
-1111.533574
 20
58.403195
 30
0.0
  0
VERTEX
  5
743F
  8
ALPHA
 10
-1110.024324
 20
58.960625
 30
0.0
  0
VERTEX
  5
7440
  8
ALPHA
 10
-1108.943826
 20
59.402117
 30
0.0
  0
VERTEX
  5
7441
  8
ALPHA
 10
-1108.423144
 20
59.662228
 30
0.0
  0
SEQEND
  5
7442
  8
ALPHA
  0
POLYLINE
  5
662E
  8
ALPHA
 66
     1
 10
0.0
 20
0.0
 30
0.0
 70
   128
210
0.0
220
0.0
230
-1.0
  0
VERTEX
  5
7443
  8
ALPHA
 10
-1108.423144
 20
59.662228
 30
0.0
  0
VERTEX
  5
7444
  8
ALPHA
 10
-1108.262068
 20
59.804681
 30
0.0
  0
VERTEX
  5
7445
  8
ALPHA
 10
-1108.100991
 20
60.219673
 30
0.0
  0
SEQEND
  5
7446
  8
ALPHA
  0
POLYLINE
  5
662F
  8
ALPHA
 66
     1
 10
0.0
 20
0.0
 30
0.0
 70
   128
  0
VERTEX
  5
7447
  8
ALPHA
 10
1122.585142
 20
58.167355
 30
0.0
  0
VERTEX
  5
7448
  8
ALPHA
 10
1122.30042
 20
64.474312
 30
0.0
  0
VERTEX
  5
7449
  8
ALPHA
 10
1121.779375
 20
70.652943
 30
0.0
  0
VERTEX
  5
744A
  8
ALPHA
 10
1121.052439
 20
76.675088
 30
0.0
  0
VERTEX
  5
744B
  8
ALPHA
 10
1120.150045
 20
82.512588
 30
0.0
  0
VERTEX
  5
744C
  8
ALPHA
 10
1119.102626
 20
88.137287
 30
0.0
  0
VERTEX
  5
744D
  8
ALPHA
 10
1117.940614
 20
93.521025
 30
0.0
  0
VERTEX
  5
744E
  8
ALPHA
 10
1116.694443
 20
98.635644
 30
0.0
  0
VERTEX
  5
744F
  8
ALPHA
 10
1115.394545
 20
103.452986
 30
0.0
  0
SEQEND
  5
7450
  8
ALPHA
  0
POLYLINE
  5
6630
  8
ALPHA
 66
     1
 10
0.0
 20
0.0
 30
0.0
 70
   128
210
0.0
220
0.0
230
-1.0
  0
VERTEX
  5
7451
  8
ALPHA
 10
-1125.490234
 20
59.415105
 30
0.0
  0
VERTEX
  5
7452
  8
ALPHA
 10
-1125.752808
 20
59.781513
 30
0.0
  0
VERTEX
  5
7453
  8
ALPHA
 10
-1126.147734
 20
59.852705
 30
0.0
  0
SEQEND
  5
7454
  8
ALPHA
  0
POLYLINE
  5
6631
  8
ALPHA
 66
     1
 10
0.0
 20
0.0
 30
0.0
 70
   128
210
0.0
220
0.0
230
-1.0
  0
VERTEX
  5
7455
  8
ALPHA
 10
-1128.340684
 20
57.879105
 30
0.0
  0
VERTEX
  5
7456
  8
ALPHA
 10
-1128.570362
 20
57.386367
 30
0.0
  0
VERTEX
  5
7457
  8
ALPHA
 10
-1128.648426
 20
56.814517
 30
0.0
  0
VERTEX
  5
7458
  8
ALPHA
 10
-1128.331238
 20
56.167355
 30
0.0
  0
SEQEND
  5
7459
  8
ALPHA
  0
DIMENSION
  5
6642
  8
COTATION1
  2
*D4
 10
1138.100991
 20
135.167355
 30
0.0
 11
1123.100991
 21
138.417355
 31
0.0
 13
1108.100991
 23
108.26537
 33
0.0
 14
1138.100991
 24
120.167355
 34
0.0
  0
LINE
  5
6651
  8
AXE
 10
1103.100991
 20
87.667355
 30
0.0
 11
1153.100991
 21
87.667355
 31
0.0
  0
LINE
  5
6653
  8
ALPHA
 10
1113.100991
 20
120.167355
 30
0.0
 11
1138.100991
 21
120.167355
 31
0.0
  0
LINE
  5
6654
  8
ALPHA
 10
1113.100991
 20
117.467355
 30
0.0
 11
1138.100991
 21
117.467355
 31
0.0
  0
LINE
  5
6655
  8
ALPHA
 10
1114.100991
 20
55.167355
 30
0.0
 11
1138.100991
 21
55.167355
 31
0.0
  0
ARC
  5
6656
  8
ALPHA
 10
963.75876
 20
56.826587
 30
0.0
 40
156.451664
 50
0.857269
 51
18.449068
  0
LINE
  5
6657
  8
ALPHA
 10
1108.100991
 20
103.667355
 30
0.0
 11
1108.100991
 21
60.219673
 31
0.0
  0
LINE
  5
6658
  8
ALPHA
 10
1113.450516
 20
57.769975
 30
0.0
 11
1114.100991
 21
55.167355
 31
0.0
  0
ARC
  5
6659
  8
ALPHA
 10
1141.770578
 20
107.954548
 30
0.0
 40
33.671021
 50
166.958519
 51
180.528913
  0
LINE
  5
665A
  8
ALPHA
 10
1113.100991
 20
120.167355
 30
0.0
 11
1113.100991
 21
103.452986
 31
0.0
  0
LINE
  5
665B
  8
ALPHA
 10
1113.100991
 20
106.337521
 30
0.0
 11
1112.169644
 21
106.337521
 31
0.0
  0
LINE
  5
665C
  8
ALPHA
 10
1113.100991
 20
103.452986
 30
0.0
 11
1115.394545
 21
103.452986
 31
0.0
  0
LINE
  5
665D
  8
ALPHA
 10
1108.100991
 20
104.452986
 30
0.0
 11
1112.785097
 21
104.452986
 31
0.0
  0
LINE
  5
665E
  8
ALPHA
 10
1108.100991
 20
103.667355
 30
0.0
 11
1108.100991
 21
107.643726
 31
0.0
  0
ARC
  5
665F
  8
ALPHA
 10
1110.437819
 20
115.25307
 30
0.0
 40
1.5
 50
90.0
 51
168.480193
  0
LINE
  5
6660
  8
ALPHA
 10
1110.437819
 20
116.75307
 30
0.0
 11
1113.100991
 21
116.75307
 31
0.0
  0
DIMENSION
  5
6661
  8
COTATION1
  2
*D5
 10
1160.600991
 20
43.167355
 30
0.0
 11
1160.600991
 21
81.667355
 31
0.0
 13
1138.100991
 23
120.167355
 33
0.0
 14
1129.86894
 24
43.167355
 34
0.0
 50
90.0
  0
LINE
  5
6663
  8
ALPHA
 10
1138.100991
 20
120.167355
 30
0.0
 11
1138.100991
 21
55.167355
 31
0.0
  0
TEXT
  5
6665
  8
AXE
 10
1118.124801
 20
15.167355
 30
0.0
 40
8.0
  1
Y
 72
     2
 11
1124.600991
 21
15.167355
 31
0.0
  0
LINE
  5
6666
  8
ALPHA
 10
1126.074747
 20
61.167355
 30
0.0
 11
1138.100991
 21
61.167355
 31
0.0
  0
LINE
  5
6667
  8
ALPHA
 10
1120.923893
 20
56.167355
 30
0.0
 11
1138.100991
 21
56.167355
 31
0.0
  0
LINE
  5
6668
  8
ALPHA
 10
1122.585142
 20
58.167355
 30
0.0
 11
1125.074011
 21
58.167355
 31
0.0
  0
LINE
  5
6669
  8
ALPHA
 10
1120.192912
 20
59.167355
 30
0.0
 11
1122.55724
 21
59.167355
 31
0.0
  0
LINE
  5
666A
  8
ALPHA
 10
1126.074747
 20
61.167355
 30
0.0
 11
1125.074011
 21
58.167355
 31
0.0
  0
TEXT
  5
667F
  8
AXE
 10
1146.624801
 20
88.667355
 30
0.0
 40
8.0
  1
Z
 72
     2
 11
1153.100991
 21
88.667355
 31
0.0
  0
LINE
  5
6C3D
  8
AXE
 10
1125.600991
 20
125.167355
 30
0.0
 11
1125.600991
 21
15.167355
 31
0.0
  0
DIMENSION
  5
6D42
  8
COTATION1
  2
*D6
 10
1131.600991
 20
26.678438
 30
0.0
 11
1147.22653
 21
26.678438
 31
0.0
 70
   128
  1
M<>
 13
1119.600991
 23
44.167355
 33
0.0
 14
1131.600991
 24
44.167355
 34
0.0
  0
LINE
  5
6D43
  8
ALPHA
 10
1131.600991
 20
44.167355
 30
0.0
 11
1131.600991
 21
55.167355
 31
0.0
  0
LINE
  5
6D44
  8
ALPHA_FIN
 10
1130.527482
 20
55.167355
 30
0.0
 11
1130.527482
 21
43.547564
 31
0.0
  0
LINE
  5
6D45
  8
ALPHA
 10
1125.600991
 20
43.167355
 30
0.0
 11
1129.86894
 21
43.167355
 31
0.0
  0
LINE
  5
6D46
  8
ALPHA
 10
1125.600991
 20
44.167355
 30
0.0
 11
1131.600991
 21
44.167355
 31
0.0
  0
LINE
  5
6D47
  8
ALPHA
 10
1125.600991
 20
43.167355
 30
0.0
 11
1121.333042
 21
43.167355
 31
0.0
  0
LINE
  5
6D48
  8
ALPHA
 10
1119.600991
 20
44.167355
 30
0.0
 11
1121.333042
 21
43.167355
 31
0.0
  0
LINE
  5
6D49
  8
ALPHA
 10
1125.600991
 20
44.167355
 30
0.0
 11
1119.600991
 21
44.167355
 31
0.0
  0
LINE
  5
6D4A
  8
ALPHA
 10
1131.600991
 20
44.167355
 30
0.0
 11
1129.86894
 21
43.167355
 31
0.0
  0
LINE
  5
6D4B
  8
ALPHA_FIN
 10
1120.674501
 20
55.167355
 30
0.0
 11
1120.674501
 21
43.547564
 31
0.0
  0
LINE
  5
6D4C
  8
ALPHA
 10
1119.600991
 20
44.167355
 30
0.0
 11
1119.600991
 21
55.167355
 31
0.0
  0
DIMENSION
  5
6E3A
  8
COTATION1
  2
*D3
 10
1138.100991
 20
75.263014
 30
0.0
 11
1150.993848
 21
75.263014
 31
0.0
 70
   128
 13
1134.100991
 23
59.167355
 33
0.0
 14
1138.100991
 24
61.167355
 34
0.0
  0
LINE
  5
6E3B
  8
POINTILLE_COURT
 10
1138.100991
 20
57.667355
 30
0.0
 11
1135.600991
 21
57.667355
 31
0.0
  0
LINE
  5
6E3C
  8
POINTILLE_COURT
 10
1138.100991
 20
60.667355
 30
0.0
 11
1135.600991
 21
60.667355
 31
0.0
  0
ARC
  5
6E3D
  8
POINTILLE_COURT
 10
1135.600991
 20
59.167355
 30
0.0
 40
1.5
 50
90.0
 51
270.0
  0
VIEWPORT
  5
494D
 67
     1
  8
0
 10
4.995325
 20
6.556512
 30
0.0
 40
22.70986
 41
13.988421
 68
    -1
 69
     1
1001
ACAD
1000
MVIEW
1002
{
1070
    16
1010
0.0
1020
0.0
1030
0.0
1010
0.0
1020
0.0
1030
1.0
1040
0.0
1040
13.988421
1040
4.995325
1040
6.556512
1040
50.0
1040
0.0
1040
0.0
1070
     0
1070
   100
1070
     1
1070
     1
1070
     0
1070
     0
1070
     0
1070
     0
1040
0.0
1040
0.0
1040
0.0
1040
10.0
1040
10.0
1040
10.0
1040
10.0
1070
     0
1002
{
1002
}
1002
}
  0
ENDSEC
  0
EOF
