  0
SECTION
  2
HEADER
  9
$ACADVER
  1
AC1009
  9
$INSBASE
 10
402.590624
 20
-1.041018
 30
0.0
  9
$EXTMIN
 10
-4.643836
 20
-22.521324
 30
0.0
  9
$EXTMAX
 10
59.233681
 20
77.682287
 30
0.0
  9
$LIMMIN
 10
-407.970438
 20
-367.832444
  9
$LIMMAX
 10
429.804077
 20
234.370848
  9
$ORTHOMODE
 70
     1
  9
$REGENMODE
 70
     1
  9
$FILLMODE
 70
     1
  9
$QTEXTMODE
 70
     0
  9
$MIRRTEXT
 70
     1
  9
$DRAGMODE
 70
     2
  9
$LTSCALE
 40
10.0
  9
$OSMODE
 70
    35
  9
$ATTMODE
 70
     1
  9
$TEXTSIZE
 40
6.0
  9
$TRACEWID
 40
1.0
  9
$TEXTSTYLE
  7
ROMANS
  9
$CLAYER
  8
ALPHA
  9
$CELTYPE
  6
BYLAYER
  9
$CECOLOR
 62
   256
  9
$DIMSCALE
 40
1.0
  9
$DIMASZ
 40
5.0
  9
$DIMEXO
 40
2.0
  9
$DIMDLI
 40
0.38
  9
$DIMRND
 40
0.0
  9
$DIMDLE
 40
0.0
  9
$DIMEXE
 40
2.5
  9
$DIMTP
 40
0.0
  9
$DIMTM
 40
0.0
  9
$DIMTXT
 40
2.5
  9
$DIMCEN
 40
0.0
  9
$DIMTSZ
 40
0.0
  9
$DIMTOL
 70
     0
  9
$DIMLIM
 70
     0
  9
$DIMTIH
 70
     1
  9
$DIMTOH
 70
     1
  9
$DIMSE1
 70
     0
  9
$DIMSE2
 70
     0
  9
$DIMTAD
 70
     1
  9
$DIMZIN
 70
    12
  9
$DIMBLK
  1
OPEN30
  9
$DIMASO
 70
     1
  9
$DIMSHO
 70
     1
  9
$DIMPOST
  1

  9
$DIMAPOST
  1

  9
$DIMALT
 70
     0
  9
$DIMALTD
 70
     2
  9
$DIMALTF
 40
25.4
  9
$DIMLFAC
 40
1.0
  9
$DIMTOFL
 70
     0
  9
$DIMTVP
 40
0.0
  9
$DIMTIX
 70
     0
  9
$DIMSOXD
 70
     0
  9
$DIMSAH
 70
     0
  9
$DIMBLK1
  1

  9
$DIMBLK2
  1

  9
$DIMSTYLE
  2
SC_DEFAUT
  9
$DIMCLRD
 70
     0
  9
$DIMCLRE
 70
     0
  9
$DIMCLRT
 70
     0
  9
$DIMTFAC
 40
1.0
  9
$DIMGAP
 40
2.0
  9
$LUNITS
 70
     2
  9
$LUPREC
 70
     1
  9
$SKETCHINC
 40
0.1
  9
$FILLETRAD
 40
0.0
  9
$AUNITS
 70
     0
  9
$AUPREC
 70
     0
  9
$MENU
  1
acad
  9
$ELEVATION
 40
0.0
  9
$PELEVATION
 40
0.0
  9
$THICKNESS
 40
0.0
  9
$LIMCHECK
 70
     0
  9
$BLIPMODE
 70
     0
  9
$CHAMFERA
 40
0.0
  9
$CHAMFERB
 40
0.0
  9
$SKPOLY
 70
     0
  9
$TDCREATE
 40
2450373.687919
  9
$TDUPDATE
 40
2453035.659356
  9
$TDINDWG
 40
1.101123
  9
$TDUSRTIMER
 40
1.101123
  9
$USRTIMER
 70
     1
  9
$ANGBASE
 50
0.0
  9
$ANGDIR
 70
     0
  9
$PDMODE
 70
    32
  9
$PDSIZE
 40
0.0
  9
$PLINEWID
 40
0.0
  9
$COORDS
 70
     1
  9
$SPLFRAME
 70
     0
  9
$SPLINETYPE
 70
     6
  9
$SPLINESEGS
 70
     8
  9
$ATTDIA
 70
     0
  9
$ATTREQ
 70
     1
  9
$HANDLING
 70
     1
  9
$HANDSEED
  5
B028
  9
$SURFTAB1
 70
     6
  9
$SURFTAB2
 70
     6
  9
$SURFTYPE
 70
     6
  9
$SURFU
 70
     6
  9
$SURFV
 70
     6
  9
$UCSNAME
  2

  9
$UCSORG
 10
0.0
 20
0.0
 30
0.0
  9
$UCSXDIR
 10
1.0
 20
0.0
 30
0.0
  9
$UCSYDIR
 10
0.0
 20
1.0
 30
0.0
  9
$PUCSNAME
  2

  9
$PUCSORG
 10
0.0
 20
0.0
 30
0.0
  9
$PUCSXDIR
 10
1.0
 20
0.0
 30
0.0
  9
$PUCSYDIR
 10
0.0
 20
1.0
 30
0.0
  9
$USERI1
 70
     0
  9
$USERI2
 70
     0
  9
$USERI3
 70
     0
  9
$USERI4
 70
     0
  9
$USERI5
 70
     0
  9
$USERR1
 40
0.0
  9
$USERR2
 40
0.0
  9
$USERR3
 40
0.0
  9
$USERR4
 40
0.0
  9
$USERR5
 40
0.0
  9
$WORLDVIEW
 70
     1
  9
$SHADEDGE
 70
     3
  9
$SHADEDIF
 70
    70
  9
$TILEMODE
 70
     1
  9
$MAXACTVP
 70
    16
  9
$PLIMCHECK
 70
     0
  9
$PEXTMIN
 10
-1.452248
 20
-0.437698
 30
0.0
  9
$PEXTMAX
 10
12.749749
 20
8.310198
 30
0.0
  9
$PLIMMIN
 10
0.0
 20
0.0
  9
$PLIMMAX
 10
12.0
 20
9.0
  9
$UNITMODE
 70
     0
  9
$VISRETAIN
 70
     0
  9
$PLINEGEN
 70
     0
  9
$PSLTSCALE
 70
     0
  0
ENDSEC
  0
SECTION
  2
TABLES
  0
TABLE
  2
VPORT
 70
     2
  0
VPORT
  2
*ACTIVE
 70
     0
 10
0.0
 20
0.0
 11
1.0
 21
1.0
 12
27.279605
 22
27.59319
 13
0.0
 23
0.0
 14
1.0
 24
1.0
 15
10.0
 25
10.0
 16
0.0
 26
0.0
 36
1.0
 17
0.0
 27
0.0
 37
0.0
 40
100.972917
 41
1.466346
 42
50.0
 43
0.0
 44
0.0
 50
0.0
 51
0.0
 71
     0
 72
   100
 73
     1
 74
     0
 75
     0
 76
     0
 77
     0
 78
     0
  0
ENDTAB
  0
TABLE
  2
LTYPE
 70
     3
  0
LTYPE
  2
CONTINUOUS
 70
     0
  3
Solid line
 72
    65
 73
     0
 40
0.0
  0
LTYPE
  2
AXES2
 70
     0
  3
___ _ ___ _ ___ _ ___ _ ___ _ ___ _ ___ _ ___ _
 72
    65
 73
     4
 40
1.125
 49
0.75
 49
-0.125
 49
0.125
 49
-0.125
  0
LTYPE
  2
CACHE2
 70
     0
  3
Caché (x.5) _ _ _ _ _ _ _ _ _ _ _ _ _ _ _ _ _
 72
    65
 73
     2
 40
0.1875
 49
0.125
 49
-0.0625
  0
ENDTAB
  0
TABLE
  2
LAYER
 70
     6
  0
LAYER
  2
0
 70
     0
 62
   255
  6
CONTINUOUS
  0
LAYER
  2
COTATION1
 70
     0
 62
     2
  6
CONTINUOUS
  0
LAYER
  2
AXE
 70
     0
 62
    80
  6
AXES2
  0
LAYER
  2
DEFPOINTS
 70
     0
 62
     7
  6
CONTINUOUS
  0
LAYER
  2
ALPHA
 70
     0
 62
   254
  6
CONTINUOUS
  0
LAYER
  2
POINTILLE_COURT
 70
     0
 62
    41
  6
CACHE2
  0
ENDTAB
  0
TABLE
  2
STYLE
 70
     2
  0
STYLE
  2
ROMANS
 70
     0
 40
0.0
 41
1.0
 50
0.0
 71
     0
 42
6.0
  3
romans
  4

  0
STYLE
  2
STANDARD
 70
     0
 40
0.0
 41
1.0
 50
0.0
 71
     0
 42
0.2
  3
txt
  4

  0
ENDTAB
  0
TABLE
  2
VIEW
 70
     0
  0
ENDTAB
  0
TABLE
  2
UCS
 70
     0
  0
ENDTAB
  0
TABLE
  2
APPID
 70
     1
  0
APPID
  2
ACAD
 70
     0
  0
ENDTAB
  0
TABLE
  2
DIMSTYLE
 70
     2
  0
DIMSTYLE
  2
SC_DEFAUT
 70
     0
  3

  4

  5
OPEN30
  6

  7

 40
1.0
 41
5.0
 42
2.0
 43
0.38
 44
2.5
 45
0.0
 46
0.0
 47
0.0
 48
0.0
140
2.5
141
0.0
142
0.0
143
25.4
144
1.0
145
0.0
146
1.0
147
2.0
 71
     0
 72
     0
 73
     1
 74
     1
 75
     0
 76
     0
 77
     1
 78
    12
170
     0
171
     2
172
     0
173
     0
174
     0
175
     0
176
     0
177
     0
178
     0
  0
DIMSTYLE
  2
STANDARD
 70
     0
  3

  4

  5

  6

  7

 40
1.0
 41
0.18
 42
0.0625
 43
0.38
 44
0.18
 45
0.0
 46
0.0
 47
0.0
 48
0.0
140
0.18
141
0.09
142
0.0
143
25.4
144
1.0
145
0.0
146
1.0
147
0.09
 71
     0
 72
     0
 73
     1
 74
     1
 75
     0
 76
     0
 77
     0
 78
     0
170
     0
171
     2
172
     0
173
     0
174
     0
175
     0
176
     0
177
     0
178
     0
  0
ENDTAB
  0
ENDSEC
  0
SECTION
  2
BLOCKS
  0
BLOCK
  8
0
  2
$MODEL_SPACE
 70
     0
 10
0.0
 20
0.0
 30
0.0
  3
$MODEL_SPACE
  1

  0
ENDBLK
  5
B021
  8
0
  0
BLOCK
 67
     1
  8
0
  2
$PAPER_SPACE
 70
     0
 10
0.0
 20
0.0
 30
0.0
  3
$PAPER_SPACE
  1

  0
ENDBLK
  5
B01F
 67
     1
  8
0
  0
BLOCK
  8
0
  2
COTE
 70
     0
 10
0.0
 20
0.0
 30
0.0
  3
COTE
  1

  0
ENDBLK
  5
F
  8
0
  0
BLOCK
  8
0
  2
FOND
 70
     0
 10
0.0
 20
0.0
 30
0.0
  3
FOND
  1

  0
ENDBLK
  5
75
  8
0
  0
BLOCK
  8
0
  2
_OPEN30
 70
     0
 10
0.0
 20
0.0
 30
0.0
  3
_OPEN30
  1

  0
LINE
  5
4B05
  8
COTATION1
 62
     0
 10
-1.0
 20
0.267949
 30
0.0
 11
0.0
 21
0.0
 31
0.0
1001
ACAD
1000
RTLwPs
1070
   158
  0
LINE
  5
4B06
  8
COTATION1
 62
     0
 10
0.0
 20
0.0
 30
0.0
 11
-1.0
 21
-0.267949
 31
0.0
1001
ACAD
1000
RTLwPs
1070
   158
  0
LINE
  5
4B07
  8
COTATION1
 62
     0
 10
0.0
 20
0.0
 30
0.0
 11
-1.0
 21
0.0
 31
0.0
1001
ACAD
1000
RTLwPs
1070
   158
  0
ENDBLK
  5
4B09
  8
0
  0
BLOCK
  8
0
  2
*D3
 70
     1
 10
0.0
 20
0.0
 30
0.0
  3
*D3
  1

  0
LINE
  5
AF73
  8
COTATION1
 62
     0
 10
10.395276
 20
65.109484
 30
0.0
 11
10.395276
 21
75.609484
 31
0.0
1001
ACAD
1000
RTLwPs
1070
   158
  0
LINE
  5
AF74
  8
COTATION1
 62
     0
 10
33.595276
 20
65.109484
 30
0.0
 11
33.595276
 21
75.609484
 31
0.0
1001
ACAD
1000
RTLwPs
1070
   158
  0
LINE
  5
AF75
  8
COTATION1
 62
     0
 10
15.395276
 20
73.109484
 30
0.0
 11
28.595276
 21
73.109484
 31
0.0
1001
ACAD
1000
RTLwPs
1070
   158
  0
INSERT
  5
AF76
  8
COTATION1
 62
     0
  2
_OPEN30
 10
10.395276
 20
73.109484
 30
0.0
 41
5.0
 42
5.0
 43
5.0
 50
180.0
1001
ACAD
1000
RTLwPs
1070
   158
  0
INSERT
  5
AF77
  8
COTATION1
 62
     0
  2
_OPEN30
 10
33.595276
 20
73.109484
 30
0.0
 41
5.0
 42
5.0
 43
5.0
1001
ACAD
1000
RTLwPs
1070
   158
  0
TEXT
  5
AF78
  8
COTATION1
 62
     0
 10
17.828609
 20
75.109484
 30
0.0
 40
2.5
  1
23.2
1001
ACAD
1000
MTEXTBEGIN
1070
    73
1070
     1
1070
    44
1040
1.0
1070
    74
1070
     0
1000
MTEXTEND
  0
POINT
  5
AF79
  8
DEFPOINTS
 62
     0
 10
10.395276
 20
63.109484
 30
0.0
  0
POINT
  5
AF7A
  8
DEFPOINTS
 62
     0
 10
33.595276
 20
63.109484
 30
0.0
  0
POINT
  5
AF7B
  8
DEFPOINTS
 62
     0
 10
33.595276
 20
73.109484
 30
0.0
  0
ENDBLK
  5
9B98
  8
0
  0
BLOCK
  8
0
  2
*D4
 70
     1
 10
0.0
 20
0.0
 30
0.0
  3
*D4
  1

  0
LINE
  5
AF60
  8
COTATION1
 62
     0
 10
6.545276
 20
48.109484
 30
0.0
 11
6.545276
 21
-8.269696
 31
0.0
1001
ACAD
1000
RTLwPs
1070
   158
  0
LINE
  5
AF61
  8
COTATION1
 62
     0
 10
22.995276
 20
13.709484
 30
0.0
 11
22.995276
 21
-8.269696
 31
0.0
1001
ACAD
1000
RTLwPs
1070
   158
  0
LINE
  5
AF62
  8
COTATION1
 62
     0
 10
11.545276
 20
-5.769696
 30
0.0
 11
17.995276
 21
-5.769696
 31
0.0
1001
ACAD
1000
RTLwPs
1070
   158
  0
INSERT
  5
AF63
  8
COTATION1
 62
     0
  2
_OPEN30
 10
6.545276
 20
-5.769696
 30
0.0
 41
5.0
 42
5.0
 43
5.0
 50
180.0
1001
ACAD
1000
RTLwPs
1070
   158
  0
INSERT
  5
AF64
  8
COTATION1
 62
     0
  2
_OPEN30
 10
22.995276
 20
-5.769696
 30
0.0
 41
5.0
 42
5.0
 43
5.0
1001
ACAD
1000
RTLwPs
1070
   158
  0
TEXT
  5
AF65
  8
COTATION1
 62
     0
 10
10.425038
 20
-3.769696
 30
0.0
 40
2.5
  1
16.5
1001
ACAD
1000
MTEXTBEGIN
1070
    73
1070
     1
1070
    44
1040
1.0
1070
    74
1070
     0
1000
MTEXTEND
  0
POINT
  5
AF66
  8
DEFPOINTS
 62
     0
 10
6.545276
 20
50.109484
 30
0.0
  0
POINT
  5
AF67
  8
DEFPOINTS
 62
     0
 10
22.995276
 20
15.709484
 30
0.0
  0
POINT
  5
AF68
  8
DEFPOINTS
 62
     0
 10
22.995276
 20
-5.769696
 30
0.0
  0
ENDBLK
  5
AF56
  8
0
  0
BLOCK
  8
0
  2
*D5
 70
     1
 10
0.0
 20
0.0
 30
0.0
  3
*D5
  1

  0
LINE
  5
AFA8
  8
COTATION1
 62
     0
 10
6.545276
 20
52.109484
 30
0.0
 11
6.545276
 21
75.609484
 31
0.0
1001
ACAD
1000
RTLwPs
1070
   158
  0
LINE
  5
AFA9
  8
COTATION1
 62
     0
 10
10.395276
 20
65.109484
 30
0.0
 11
10.395276
 21
75.609484
 31
0.0
1001
ACAD
1000
RTLwPs
1070
   158
  0
LINE
  5
AFAA
  8
COTATION1
 62
     0
 10
1.545276
 20
73.109484
 30
0.0
 11
-3.454724
 21
73.109484
 31
0.0
1001
ACAD
1000
RTLwPs
1070
   158
  0
LINE
  5
AFAB
  8
COTATION1
 62
     0
 10
15.395276
 20
73.109484
 30
0.0
 11
20.395276
 21
73.109484
 31
0.0
1001
ACAD
1000
RTLwPs
1070
   158
  0
TEXT
  5
AFAC
  8
COTATION1
 62
     0
 10
-5.000979
 20
75.182287
 30
0.0
 40
2.5
  1
3.8
1001
ACAD
1000
MTEXTBEGIN
1070
    73
1070
     1
1070
    44
1040
1.0
1070
    74
1070
     0
1000
MTEXTEND
  0
INSERT
  5
AFAD
  8
COTATION1
 62
     0
  2
_OPEN30
 10
6.545276
 20
73.109484
 30
0.0
 41
5.0
 42
5.0
 43
5.0
1001
ACAD
1000
RTLwPs
1070
   158
  0
INSERT
  5
AFAE
  8
COTATION1
 62
     0
  2
_OPEN30
 10
10.395276
 20
73.109484
 30
0.0
 41
5.0
 42
5.0
 43
5.0
 50
180.0
1001
ACAD
1000
RTLwPs
1070
   158
  0
POINT
  5
AFAF
  8
DEFPOINTS
 62
     0
 10
6.545276
 20
50.109484
 30
0.0
  0
POINT
  5
AFB0
  8
DEFPOINTS
 62
     0
 10
10.395276
 20
63.109484
 30
0.0
  0
POINT
  5
AFB1
  8
DEFPOINTS
 62
     0
 10
10.395276
 20
73.109484
 30
0.0
  0
ENDBLK
  5
AF89
  8
0
  0
ENDSEC
  0
SECTION
  2
ENTITIES
  0
INSERT
  5
A
  8
0
  2
COTE
 10
0.0
 20
0.0
 30
0.0
  0
INSERT
  5
17
  8
0
  2
COTE
 10
284.010391
 20
6.373258
 30
0.0
  0
INSERT
  5
72
  8
0
  2
FOND
 10
0.0
 20
0.0
 30
0.0
  0
DIMENSION
  5
9B8C
  8
COTATION1
  2
*D3
 10
33.595276
 20
73.109484
 30
0.0
 11
21.995276
 21
76.359484
 31
0.0
 13
10.395276
 23
63.109484
 33
0.0
 14
33.595276
 24
63.109484
 34
0.0
  0
LINE
  5
A6B4
  8
AXE
 10
10.395276
 20
37.109484
 30
0.0
 11
10.395276
 21
63.109484
 31
0.0
  0
LINE
  5
A6B6
  8
AXE
 10
1.545276
 20
50.109484
 30
0.0
 11
47.003587
 21
50.109484
 31
0.0
  0
TEXT
  5
A6B7
  8
AXE
 10
42.955968
 20
51.109484
 30
0.0
 40
5.0
  1
Z
 72
     2
 11
47.003587
 21
51.109484
 31
0.0
  0
LINE
  5
A96C
  8
ALPHA
 10
20.995276
 20
35.690949
 30
0.0
 11
20.995276
 21
15.709484
 31
0.0
  0
LINE
  5
A96D
  8
ALPHA
 10
22.995276
 20
35.690949
 30
0.0
 11
22.995276
 21
15.709484
 31
0.0
  0
LINE
  5
A96E
  8
ALPHA
 10
22.995276
 20
15.709484
 30
0.0
 11
20.995276
 21
15.709484
 31
0.0
  0
LINE
  5
A986
  8
ALPHA
 10
20.916972
 20
35.959599
 30
0.0
 11
22.603755
 21
37.034198
 31
0.0
  0
ARC
  5
A987
  8
ALPHA
 10
20.495276
 20
35.690949
 30
0.0
 40
2.5
 50
0.0
 51
65.0
  0
LINE
  5
A988
  8
ALPHA
 10
22.995276
 20
23.709484
 30
0.0
 11
20.995276
 21
23.709484
 31
0.0
  0
LINE
  5
A989
  8
ALPHA
 10
22.995276
 20
24.586345
 30
0.0
 11
20.995276
 21
24.586345
 31
0.0
  0
LINE
  5
A98A
  8
ALPHA
 10
7.645276
 20
42.109484
 30
0.0
 11
7.645276
 21
58.109484
 31
0.0
  0
LINE
  5
A98B
  8
ALPHA
 10
13.145276
 20
58.109484
 30
0.0
 11
13.145276
 21
42.109484
 31
0.0
  0
LINE
  5
A98C
  8
ALPHA
 10
13.445276
 20
40.804248
 30
0.0
 11
13.445276
 21
54.609484
 31
0.0
  0
LINE
  5
A98D
  8
ALPHA
 10
15.445276
 20
41.122783
 30
0.0
 11
15.445276
 21
54.609484
 31
0.0
  0
ARC
  5
A98E
  8
ALPHA
 10
37.077401
 20
50.109484
 30
0.0
 40
30.5
 50
188.009903
 51
195.206288
  0
ARC
  5
A98F
  8
ALPHA
 10
15.445276
 20
40.804248
 30
0.0
 40
2.0
 50
180.0
 51
245.0
  0
LINE
  5
A990
  8
ALPHA
 10
15.445276
 20
40.804248
 30
0.0
 11
13.445276
 21
40.804248
 31
0.0
  0
LINE
  5
A991
  8
ALPHA
 10
7.645276
 20
42.109484
 30
0.0
 11
13.145276
 21
42.109484
 31
0.0
  0
ARC
  5
A992
  8
ALPHA
 10
20.495276
 20
35.690949
 30
0.0
 40
0.5
 50
0.0
 51
65.0
  0
LINE
  5
A993
  8
ALPHA
 10
15.445276
 20
40.804248
 30
0.0
 11
14.600039
 21
38.991632
 31
0.0
  0
ARC
  5
A994
  8
ALPHA
 10
15.945276
 20
41.122783
 30
0.0
 40
0.5
 50
180.0
 51
245.0
  0
LINE
  5
A995
  8
ALPHA
 10
20.706585
 20
36.144103
 30
0.0
 11
14.600039
 21
38.991632
 31
0.0
  0
LINE
  5
A996
  8
ALPHA
 10
21.551822
 20
37.956719
 30
0.0
 11
15.445276
 21
40.804248
 31
0.0
  0
ARC
  5
A997
  8
ALPHA
 10
37.077401
 20
50.109484
 30
0.0
 40
30.5
 50
164.793712
 51
171.990097
  0
LINE
  5
A998
  8
ALPHA
 10
13.445276
 20
54.609484
 30
0.0
 11
15.445276
 21
54.609484
 31
0.0
  0
LINE
  5
A999
  8
ALPHA
 10
15.445276
 20
50.602718
 30
0.0
 11
13.445276
 21
50.602718
 31
0.0
  0
LINE
  5
A99A
  8
ALPHA
 10
13.145276
 20
54.859484
 30
0.0
 11
13.395276
 21
54.859484
 31
0.0
  0
LINE
  5
A99B
  8
ALPHA
 10
13.395276
 20
53.084484
 30
0.0
 11
13.445276
 21
53.084484
 31
0.0
  0
LINE
  5
A99C
  8
ALPHA
 10
13.395276
 20
47.134484
 30
0.0
 11
13.445276
 21
47.134484
 31
0.0
  0
LINE
  5
A99D
  8
ALPHA
 10
13.145276
 20
45.359484
 30
0.0
 11
13.395276
 21
45.359484
 31
0.0
  0
LINE
  5
A99E
  8
ALPHA
 10
13.395276
 20
54.859484
 30
0.0
 11
13.395276
 21
45.359484
 31
0.0
  0
LINE
  5
A99F
  8
ALPHA
 10
6.785276
 20
54.259484
 30
0.0
 11
6.874959
 21
54.259484
 31
0.0
  0
LINE
  5
A9A0
  8
ALPHA
 10
6.545276
 20
49.109484
 30
0.0
 11
6.545276
 21
51.109484
 31
0.0
  0
LINE
  5
A9A1
  8
ALPHA
 10
6.785276
 20
45.959484
 30
0.0
 11
6.874959
 21
45.959484
 31
0.0
  0
ARC
  5
A9A2
  8
ALPHA
 10
37.036322
 20
49.848469
 30
0.0
 40
30.5
 50
181.388355
 51
187.325595
  0
LINE
  5
A9A3
  8
ALPHA
 10
6.785276
 20
45.959484
 30
0.0
 11
6.785276
 21
54.259484
 31
0.0
  0
LINE
  5
A9A4
  8
ALPHA
 10
6.874959
 20
45.859484
 30
0.0
 11
6.874959
 21
54.359484
 31
0.0
  0
ARC
  5
A9A5
  8
ALPHA
 10
37.036322
 20
50.3705
 30
0.0
 40
30.5
 50
172.674405
 51
178.611645
  0
LINE
  5
A9A6
  8
ALPHA
 10
15.445276
 20
52.159484
 30
0.0
 11
16.945276
 21
52.159484
 31
0.0
  0
LINE
  5
A9A7
  8
ALPHA
 10
15.445276
 20
48.059484
 30
0.0
 11
16.945276
 21
48.059484
 31
0.0
  0
LINE
  5
A9A8
  8
ALPHA
 10
16.945276
 20
52.159484
 30
0.0
 11
16.945276
 21
48.059484
 31
0.0
  0
LINE
  5
A9A9
  8
ALPHA
 10
7.645276
 20
58.109484
 30
0.0
 11
13.145276
 21
58.109484
 31
0.0
  0
LINE
  5
AF1C
  8
POINTILLE_COURT
 10
36.345276
 20
58.109484
 30
0.0
 11
30.845276
 21
58.109484
 31
0.0
  0
LINE
  5
AF1D
  8
POINTILLE_COURT
 10
36.345276
 20
42.109484
 30
0.0
 11
30.845276
 21
42.109484
 31
0.0
  0
LINE
  5
AF1E
  8
AXE
 10
33.595276
 20
37.109484
 30
0.0
 11
33.595276
 21
63.109484
 31
0.0
  0
LINE
  5
AF1F
  8
POINTILLE_COURT
 10
37.115593
 20
45.859484
 30
0.0
 11
37.115593
 21
54.359484
 31
0.0
  0
LINE
  5
AF20
  8
POINTILLE_COURT
 10
37.205276
 20
45.959484
 30
0.0
 11
37.205276
 21
54.259484
 31
0.0
  0
LINE
  5
AF21
  8
POINTILLE_COURT
 10
37.445276
 20
49.109484
 30
0.0
 11
37.445276
 21
51.109484
 31
0.0
  0
LINE
  5
AF22
  8
POINTILLE_COURT
 10
36.345276
 20
42.109484
 30
0.0
 11
36.345276
 21
58.109484
 31
0.0
  0
ARC
  5
AF23
  8
POINTILLE_COURT
 10
6.95423
 20
49.848469
 30
0.0
 40
30.5
 50
352.674405
 51
358.611645
  0
LINE
  5
AF24
  8
POINTILLE_COURT
 10
37.205276
 20
45.959484
 30
0.0
 11
37.115593
 21
45.959484
 31
0.0
  0
ARC
  5
AF25
  8
POINTILLE_COURT
 10
6.913151
 20
50.109484
 30
0.0
 40
30.5
 50
344.793712
 51
351.990097
  0
ARC
  5
AF26
  8
POINTILLE_COURT
 10
6.95423
 20
50.3705
 30
0.0
 40
30.5
 50
1.388355
 51
7.325595
  0
LINE
  5
AF27
  8
POINTILLE_COURT
 10
37.205276
 20
54.259484
 30
0.0
 11
37.115593
 21
54.259484
 31
0.0
  0
ARC
  5
AF28
  8
POINTILLE_COURT
 10
6.913151
 20
50.109484
 30
0.0
 40
30.5
 50
8.009903
 51
15.206288
  0
LINE
  5
AF29
  8
POINTILLE_COURT
 10
27.045276
 20
52.159484
 30
0.0
 11
27.045276
 21
48.059484
 31
0.0
  0
LINE
  5
AF2A
  8
POINTILLE_COURT
 10
30.595276
 20
54.859484
 30
0.0
 11
30.595276
 21
45.359484
 31
0.0
  0
LINE
  5
AF2B
  8
POINTILLE_COURT
 10
28.545276
 20
41.122783
 30
0.0
 11
28.545276
 21
54.609484
 31
0.0
  0
LINE
  5
AF2C
  8
POINTILLE_COURT
 10
30.545276
 20
40.804248
 30
0.0
 11
30.545276
 21
54.609484
 31
0.0
  0
LINE
  5
AF2D
  8
POINTILLE_COURT
 10
30.845276
 20
58.109484
 30
0.0
 11
30.845276
 21
42.109484
 31
0.0
  0
LINE
  5
AF2E
  8
POINTILLE_COURT
 10
22.43873
 20
37.956719
 30
0.0
 11
28.545276
 21
40.804248
 31
0.0
  0
LINE
  5
AF2F
  8
POINTILLE_COURT
 10
28.545276
 20
40.804248
 30
0.0
 11
29.390512
 21
38.991632
 31
0.0
  0
ARC
  5
AF30
  8
POINTILLE_COURT
 10
28.545276
 20
40.804248
 30
0.0
 40
2.0
 50
295.0
 51
0.0
  0
LINE
  5
AF31
  8
POINTILLE_COURT
 10
23.283967
 20
36.144103
 30
0.0
 11
29.390512
 21
38.991632
 31
0.0
  0
ARC
  5
AF32
  8
POINTILLE_COURT
 10
23.495276
 20
35.690949
 30
0.0
 40
0.5
 50
115.0
 51
180.0
  0
ARC
  5
AF33
  8
POINTILLE_COURT
 10
23.495276
 20
35.690949
 30
0.0
 40
2.5
 50
115.0
 51
180.0
  0
LINE
  5
AF34
  8
POINTILLE_COURT
 10
23.07358
 20
35.959599
 30
0.0
 11
21.386797
 21
37.034198
 31
0.0
  0
LINE
  5
AF35
  8
POINTILLE_COURT
 10
28.545276
 20
48.059484
 30
0.0
 11
27.045276
 21
48.059484
 31
0.0
  0
LINE
  5
AF36
  8
POINTILLE_COURT
 10
30.845276
 20
45.359484
 30
0.0
 11
30.595276
 21
45.359484
 31
0.0
  0
LINE
  5
AF37
  8
POINTILLE_COURT
 10
30.595276
 20
47.134484
 30
0.0
 11
30.545276
 21
47.134484
 31
0.0
  0
LINE
  5
AF38
  8
POINTILLE_COURT
 10
28.545276
 20
50.602718
 30
0.0
 11
30.545276
 21
50.602718
 31
0.0
  0
ARC
  5
AF39
  8
POINTILLE_COURT
 10
28.045276
 20
41.122783
 30
0.0
 40
0.5
 50
295.0
 51
0.0
  0
LINE
  5
AF3A
  8
POINTILLE_COURT
 10
28.545276
 20
40.804248
 30
0.0
 11
30.545276
 21
40.804248
 31
0.0
  0
LINE
  5
AF3B
  8
POINTILLE_COURT
 10
28.545276
 20
52.159484
 30
0.0
 11
27.045276
 21
52.159484
 31
0.0
  0
LINE
  5
AF3C
  8
POINTILLE_COURT
 10
30.595276
 20
53.084484
 30
0.0
 11
30.545276
 21
53.084484
 31
0.0
  0
LINE
  5
AF3D
  8
POINTILLE_COURT
 10
30.845276
 20
54.859484
 30
0.0
 11
30.595276
 21
54.859484
 31
0.0
  0
LINE
  5
AF3E
  8
POINTILLE_COURT
 10
30.545276
 20
54.609484
 30
0.0
 11
28.545276
 21
54.609484
 31
0.0
  0
LINE
  5
AF40
  8
AXE
 10
21.995276
 20
4.230304
 30
0.0
 11
21.995276
 21
41.753909
 31
0.0
  0
DIMENSION
  5
AF41
  8
COTATION1
  2
*D4
 10
22.995276
 20
-5.769696
 30
0.0
 11
14.770276
 21
-2.519696
 31
0.0
 13
6.545276
 23
50.109484
 33
0.0
 14
22.995276
 24
15.709484
 34
0.0
  0
LINE
  5
AF42
  8
COTATION1
 10
25.495276
 20
-16.370049
 30
0.0
 11
32.733681
 21
-16.370049
 31
0.0
  0
LINE
  5
AF43
  8
COTATION1
 10
22.995276
 20
-8.269696
 30
0.0
 11
22.995276
 21
-22.521324
 31
0.0
  0
SOLID
  5
AF44
  8
COTATION1
 10
22.995276
 20
-17.813425
 30
0.0
 11
22.995276
 21
-14.926673
 31
0.0
 12
25.495276
 22
-16.370049
 32
0.0
 13
25.495276
 23
-16.370049
 33
0.0
  0
TEXT
  5
AF45
  8
AXE
 10
16.947657
 20
4.230304
 30
0.0
 40
5.0
  1
Y
 72
     2
 11
20.995276
 21
4.230304
 31
0.0
  0
LINE
  5
AF46
  8
COTATION1
 10
32.733681
 20
-13.870049
 30
0.0
 11
59.233681
 21
-13.870049
 31
0.0
  0
LINE
  5
AF47
  8
COTATION1
 10
59.233681
 20
-18.870049
 30
0.0
 11
32.733681
 21
-18.870049
 31
0.0
  0
TEXT
  5
AF48
  8
COTATION1
 10
33.983681
 20
-17.620049
 30
0.0
 40
2.5
  1
PLANE_TO_LINE_UP
 41
0.626087
  7
STANDARD
 72
     5
 11
57.983681
 21
-17.620049
 31
0.0
  0
LINE
  5
AF49
  8
COTATION1
 10
32.733681
 20
-18.870049
 30
0.0
 11
32.733681
 21
-13.870049
 31
0.0
  0
LINE
  5
AF4A
  8
COTATION1
 10
59.233681
 20
-13.870049
 30
0.0
 11
59.233681
 21
-18.870049
 31
0.0
  0
DIMENSION
  5
AF7C
  8
COTATION1
  2
*D5
 10
10.395276
 20
73.109484
 30
0.0
 11
-2.024789
 21
76.432287
 31
0.0
 70
   128
 13
6.545276
 23
50.109484
 33
0.0
 14
10.395276
 24
63.109484
 34
0.0
  0
VIEWPORT
  5
494D
 67
     1
  8
0
 10
4.995325
 20
6.556512
 30
0.0
 40
22.70986
 41
13.988421
 68
    -1
 69
     1
1001
ACAD
1000
MVIEW
1002
{
1070
    16
1010
0.0
1020
0.0
1030
0.0
1010
0.0
1020
0.0
1030
1.0
1040
0.0
1040
13.988421
1040
4.995325
1040
6.556512
1040
50.0
1040
0.0
1040
0.0
1070
     0
1070
   100
1070
     1
1070
     1
1070
     0
1070
     0
1070
     0
1070
     0
1040
0.0
1040
0.0
1040
0.0
1040
10.0
1040
10.0
1040
10.0
1040
10.0
1070
     0
1002
{
1002
}
1002
}
  0
ENDSEC
  0
EOF
