  0
SECTION
  2
HEADER
  9
$ACADVER
  1
AC1009
  9
$INSBASE
 10
402.590624
 20
-1.041018
 30
0.0
  9
$EXTMIN
 10
9.251672
 20
15.020581
 30
0.0
  9
$EXTMAX
 10
79.240077
 20
155.020581
 30
0.0
  9
$LIMMIN
 10
-407.970438
 20
-367.832444
  9
$LIMMAX
 10
429.804077
 20
234.370848
  9
$ORTHOMODE
 70
     0
  9
$REGENMODE
 70
     1
  9
$FILLMODE
 70
     1
  9
$QTEXTMODE
 70
     0
  9
$MIRRTEXT
 70
     1
  9
$DRAGMODE
 70
     2
  9
$LTSCALE
 40
10.0
  9
$OSMODE
 70
    35
  9
$ATTMODE
 70
     1
  9
$TEXTSIZE
 40
6.0
  9
$TRACEWID
 40
1.0
  9
$TEXTSTYLE
  7
ROMANS
  9
$CLAYER
  8
ALPHA
  9
$CELTYPE
  6
BYLAYER
  9
$CECOLOR
 62
   256
  9
$DIMSCALE
 40
1.0
  9
$DIMASZ
 40
5.0
  9
$DIMEXO
 40
2.0
  9
$DIMDLI
 40
0.38
  9
$DIMRND
 40
0.0
  9
$DIMDLE
 40
0.0
  9
$DIMEXE
 40
2.5
  9
$DIMTP
 40
0.0
  9
$DIMTM
 40
0.0
  9
$DIMTXT
 40
2.5
  9
$DIMCEN
 40
0.0
  9
$DIMTSZ
 40
0.0
  9
$DIMTOL
 70
     0
  9
$DIMLIM
 70
     0
  9
$DIMTIH
 70
     1
  9
$DIMTOH
 70
     1
  9
$DIMSE1
 70
     0
  9
$DIMSE2
 70
     0
  9
$DIMTAD
 70
     1
  9
$DIMZIN
 70
    12
  9
$DIMBLK
  1
OPEN30
  9
$DIMASO
 70
     1
  9
$DIMSHO
 70
     1
  9
$DIMPOST
  1

  9
$DIMAPOST
  1

  9
$DIMALT
 70
     0
  9
$DIMALTD
 70
     2
  9
$DIMALTF
 40
25.4
  9
$DIMLFAC
 40
1.0
  9
$DIMTOFL
 70
     0
  9
$DIMTVP
 40
0.0
  9
$DIMTIX
 70
     0
  9
$DIMSOXD
 70
     0
  9
$DIMSAH
 70
     0
  9
$DIMBLK1
  1

  9
$DIMBLK2
  1

  9
$DIMSTYLE
  2
SC_DEFAUT
  9
$DIMCLRD
 70
     0
  9
$DIMCLRE
 70
     0
  9
$DIMCLRT
 70
     0
  9
$DIMTFAC
 40
1.0
  9
$DIMGAP
 40
2.0
  9
$LUNITS
 70
     2
  9
$LUPREC
 70
     1
  9
$SKETCHINC
 40
0.1
  9
$FILLETRAD
 40
0.0
  9
$AUNITS
 70
     0
  9
$AUPREC
 70
     0
  9
$MENU
  1
acad
  9
$ELEVATION
 40
0.0
  9
$PELEVATION
 40
0.0
  9
$THICKNESS
 40
0.0
  9
$LIMCHECK
 70
     0
  9
$BLIPMODE
 70
     0
  9
$CHAMFERA
 40
0.0
  9
$CHAMFERB
 40
0.0
  9
$SKPOLY
 70
     0
  9
$TDCREATE
 40
2450373.687919
  9
$TDUPDATE
 40
2453032.666055
  9
$TDINDWG
 40
1.109586
  9
$TDUSRTIMER
 40
1.109586
  9
$USRTIMER
 70
     1
  9
$ANGBASE
 50
0.0
  9
$ANGDIR
 70
     0
  9
$PDMODE
 70
    32
  9
$PDSIZE
 40
0.0
  9
$PLINEWID
 40
0.0
  9
$COORDS
 70
     1
  9
$SPLFRAME
 70
     0
  9
$SPLINETYPE
 70
     6
  9
$SPLINESEGS
 70
     8
  9
$ATTDIA
 70
     0
  9
$ATTREQ
 70
     1
  9
$HANDLING
 70
     1
  9
$HANDSEED
  5
CFFA
  9
$SURFTAB1
 70
     6
  9
$SURFTAB2
 70
     6
  9
$SURFTYPE
 70
     6
  9
$SURFU
 70
     6
  9
$SURFV
 70
     6
  9
$UCSNAME
  2

  9
$UCSORG
 10
0.0
 20
0.0
 30
0.0
  9
$UCSXDIR
 10
1.0
 20
0.0
 30
0.0
  9
$UCSYDIR
 10
0.0
 20
1.0
 30
0.0
  9
$PUCSNAME
  2

  9
$PUCSORG
 10
0.0
 20
0.0
 30
0.0
  9
$PUCSXDIR
 10
1.0
 20
0.0
 30
0.0
  9
$PUCSYDIR
 10
0.0
 20
1.0
 30
0.0
  9
$USERI1
 70
     0
  9
$USERI2
 70
     0
  9
$USERI3
 70
     0
  9
$USERI4
 70
     0
  9
$USERI5
 70
     0
  9
$USERR1
 40
0.0
  9
$USERR2
 40
0.0
  9
$USERR3
 40
0.0
  9
$USERR4
 40
0.0
  9
$USERR5
 40
0.0
  9
$WORLDVIEW
 70
     1
  9
$SHADEDGE
 70
     3
  9
$SHADEDIF
 70
    70
  9
$TILEMODE
 70
     1
  9
$MAXACTVP
 70
    16
  9
$PLIMCHECK
 70
     0
  9
$PEXTMIN
 10
-1.452248
 20
-0.437698
 30
0.0
  9
$PEXTMAX
 10
12.749749
 20
8.310198
 30
0.0
  9
$PLIMMIN
 10
0.0
 20
0.0
  9
$PLIMMAX
 10
12.0
 20
9.0
  9
$UNITMODE
 70
     0
  9
$VISRETAIN
 70
     0
  9
$PLINEGEN
 70
     0
  9
$PSLTSCALE
 70
     0
  0
ENDSEC
  0
SECTION
  2
TABLES
  0
TABLE
  2
VPORT
 70
     2
  0
VPORT
  2
*ACTIVE
 70
     0
 10
0.0
 20
0.0
 11
1.0
 21
1.0
 12
44.217643
 22
85.023772
 13
0.0
 23
0.0
 14
1.0
 24
1.0
 15
10.0
 25
10.0
 16
0.0
 26
0.0
 36
1.0
 17
0.0
 27
0.0
 37
0.0
 40
141.047411
 41
1.466346
 42
50.0
 43
0.0
 44
0.0
 50
0.0
 51
0.0
 71
     0
 72
   100
 73
     1
 74
     0
 75
     0
 76
     0
 77
     0
 78
     0
  0
ENDTAB
  0
TABLE
  2
LTYPE
 70
     2
  0
LTYPE
  2
CONTINUOUS
 70
     0
  3
Solid line
 72
    65
 73
     0
 40
0.0
  0
LTYPE
  2
AXES2
 70
     0
  3
___ _ ___ _ ___ _ ___ _ ___ _ ___ _ ___ _ ___ _
 72
    65
 73
     4
 40
1.125
 49
0.75
 49
-0.125
 49
0.125
 49
-0.125
  0
ENDTAB
  0
TABLE
  2
LAYER
 70
     5
  0
LAYER
  2
0
 70
     0
 62
   255
  6
CONTINUOUS
  0
LAYER
  2
COTATION1
 70
     0
 62
     2
  6
CONTINUOUS
  0
LAYER
  2
AXE
 70
     0
 62
    80
  6
AXES2
  0
LAYER
  2
DEFPOINTS
 70
     0
 62
     7
  6
CONTINUOUS
  0
LAYER
  2
ALPHA
 70
     0
 62
   254
  6
CONTINUOUS
  0
ENDTAB
  0
TABLE
  2
STYLE
 70
     2
  0
STYLE
  2
ROMANS
 70
     0
 40
0.0
 41
1.0
 50
0.0
 71
     0
 42
6.0
  3
romans
  4

  0
STYLE
  2
STANDARD
 70
     0
 40
0.0
 41
1.0
 50
0.0
 71
     0
 42
0.2
  3
txt
  4

  0
ENDTAB
  0
TABLE
  2
VIEW
 70
     0
  0
ENDTAB
  0
TABLE
  2
UCS
 70
     0
  0
ENDTAB
  0
TABLE
  2
APPID
 70
     1
  0
APPID
  2
ACAD
 70
     0
  0
ENDTAB
  0
TABLE
  2
DIMSTYLE
 70
     2
  0
DIMSTYLE
  2
SC_DEFAUT
 70
     0
  3

  4

  5
OPEN30
  6

  7

 40
1.0
 41
5.0
 42
2.0
 43
0.38
 44
2.5
 45
0.0
 46
0.0
 47
0.0
 48
0.0
140
2.5
141
0.0
142
0.0
143
25.4
144
1.0
145
0.0
146
1.0
147
2.0
 71
     0
 72
     0
 73
     1
 74
     1
 75
     0
 76
     0
 77
     1
 78
    12
170
     0
171
     2
172
     0
173
     0
174
     0
175
     0
176
     0
177
     0
178
     0
  0
DIMSTYLE
  2
STANDARD
 70
     0
  3

  4

  5

  6

  7

 40
1.0
 41
0.18
 42
0.0625
 43
0.38
 44
0.18
 45
0.0
 46
0.0
 47
0.0
 48
0.0
140
0.18
141
0.09
142
0.0
143
25.4
144
1.0
145
0.0
146
1.0
147
0.09
 71
     0
 72
     0
 73
     1
 74
     1
 75
     0
 76
     0
 77
     0
 78
     0
170
     0
171
     2
172
     0
173
     0
174
     0
175
     0
176
     0
177
     0
178
     0
  0
ENDTAB
  0
ENDSEC
  0
SECTION
  2
BLOCKS
  0
BLOCK
  8
0
  2
$MODEL_SPACE
 70
     0
 10
0.0
 20
0.0
 30
0.0
  3
$MODEL_SPACE
  1

  0
ENDBLK
  5
CFEB
  8
0
  0
BLOCK
 67
     1
  8
0
  2
$PAPER_SPACE
 70
     0
 10
0.0
 20
0.0
 30
0.0
  3
$PAPER_SPACE
  1

  0
ENDBLK
  5
CFE9
 67
     1
  8
0
  0
BLOCK
  8
0
  2
COTE
 70
     0
 10
0.0
 20
0.0
 30
0.0
  3
COTE
  1

  0
ENDBLK
  5
F
  8
0
  0
BLOCK
  8
0
  2
FOND
 70
     0
 10
0.0
 20
0.0
 30
0.0
  3
FOND
  1

  0
ENDBLK
  5
75
  8
0
  0
BLOCK
  8
0
  2
_OPEN30
 70
     0
 10
0.0
 20
0.0
 30
0.0
  3
_OPEN30
  1

  0
LINE
  5
4B05
  8
COTATION1
 62
     0
 10
-1.0
 20
0.267949
 30
0.0
 11
0.0
 21
0.0
 31
0.0
1001
ACAD
1000
RTLwPs
1070
   158
  0
LINE
  5
4B06
  8
COTATION1
 62
     0
 10
0.0
 20
0.0
 30
0.0
 11
-1.0
 21
-0.267949
 31
0.0
1001
ACAD
1000
RTLwPs
1070
   158
  0
LINE
  5
4B07
  8
COTATION1
 62
     0
 10
0.0
 20
0.0
 30
0.0
 11
-1.0
 21
0.0
 31
0.0
1001
ACAD
1000
RTLwPs
1070
   158
  0
ENDBLK
  5
4B09
  8
0
  0
BLOCK
  8
0
  2
*D3
 70
     1
 10
0.0
 20
0.0
 30
0.0
  3
*D3
  1

  0
LINE
  5
CF31
  8
COTATION1
 62
     0
 10
14.251672
 20
117.350259
 30
0.0
 11
14.251672
 21
153.020581
 31
0.0
1001
ACAD
1000
RTLwPs
1070
   158
  0
LINE
  5
CF32
  8
COTATION1
 62
     0
 10
67.051672
 20
114.583537
 30
0.0
 11
67.051672
 21
153.020581
 31
0.0
1001
ACAD
1000
RTLwPs
1070
   158
  0
LINE
  5
CF33
  8
COTATION1
 62
     0
 10
19.251672
 20
150.520581
 30
0.0
 11
62.051672
 21
150.520581
 31
0.0
1001
ACAD
1000
RTLwPs
1070
   158
  0
INSERT
  5
CF34
  8
COTATION1
 62
     0
  2
_OPEN30
 10
14.251672
 20
150.520581
 30
0.0
 41
5.0
 42
5.0
 43
5.0
 50
180.0
1001
ACAD
1000
RTLwPs
1070
   158
  0
INSERT
  5
CF35
  8
COTATION1
 62
     0
  2
_OPEN30
 10
67.051672
 20
150.520581
 30
0.0
 41
5.0
 42
5.0
 43
5.0
1001
ACAD
1000
RTLwPs
1070
   158
  0
TEXT
  5
CF36
  8
COTATION1
 62
     0
 10
36.485006
 20
152.520581
 30
0.0
 40
2.5
  1
52.8
1001
ACAD
1000
MTEXTBEGIN
1070
    73
1070
     1
1070
    44
1040
1.0
1070
    74
1070
     0
1000
MTEXTEND
  0
POINT
  5
CF37
  8
DEFPOINTS
 62
     0
 10
14.251672
 20
115.350259
 30
0.0
  0
POINT
  5
CF38
  8
DEFPOINTS
 62
     0
 10
67.051672
 20
112.583537
 30
0.0
  0
POINT
  5
CF39
  8
DEFPOINTS
 62
     0
 10
67.051672
 20
150.520581
 30
0.0
  0
ENDBLK
  5
CEC2
  8
0
  0
ENDSEC
  0
SECTION
  2
ENTITIES
  0
INSERT
  5
A
  8
0
  2
COTE
 10
0.0
 20
0.0
 30
0.0
  0
INSERT
  5
17
  8
0
  2
COTE
 10
284.010391
 20
6.373258
 30
0.0
  0
INSERT
  5
72
  8
0
  2
FOND
 10
0.0
 20
0.0
 30
0.0
  0
LINE
  5
C0EC
  8
COTATION1
 10
45.501672
 20
56.670229
 30
0.0
 11
52.740077
 21
56.670229
 31
0.0
  0
LINE
  5
C0EE
  8
COTATION1
 10
43.001672
 20
64.770581
 30
0.0
 11
43.001672
 21
50.518954
 31
0.0
  0
SOLID
  5
C0EF
  8
COTATION1
 10
43.001672
 20
55.226853
 30
0.0
 11
43.001672
 21
58.113605
 31
0.0
 12
45.501672
 22
56.670229
 32
0.0
 13
45.501672
 23
56.670229
 33
0.0
  0
TEXT
  5
C0FB
  8
COTATION1
 10
53.990077
 20
55.420229
 30
0.0
 40
2.5
  1
PLANE_TO_LINE_UP
 41
0.626087
  7
STANDARD
 72
     5
 11
77.990077
 21
55.420229
 31
0.0
  0
LINE
  5
C0FC
  8
COTATION1
 10
79.240077
 20
54.170229
 30
0.0
 11
52.740077
 21
54.170229
 31
0.0
  0
LINE
  5
C0FD
  8
COTATION1
 10
52.740077
 20
59.170229
 30
0.0
 11
79.240077
 21
59.170229
 31
0.0
  0
LINE
  5
C0FE
  8
COTATION1
 10
52.740077
 20
54.170229
 30
0.0
 11
52.740077
 21
59.170229
 31
0.0
  0
LINE
  5
C0FF
  8
COTATION1
 10
79.240077
 20
59.170229
 30
0.0
 11
79.240077
 21
54.170229
 31
0.0
  0
LINE
  5
C9C9
  8
ALPHA
 10
41.001672
 20
15.020581
 30
0.0
 11
41.001672
 21
115.020322
 31
0.0
  0
LINE
  5
C9CA
  8
ALPHA
 10
39.001672
 20
15.020581
 30
0.0
 11
39.001672
 21
115.020322
 31
0.0
  0
LINE
  5
C9CB
  8
ALPHA
 10
39.001672
 20
15.020581
 30
0.0
 11
41.001672
 21
15.020581
 31
0.0
  0
LINE
  5
C9CD
  8
ALPHA
 10
34.001672
 20
114.520581
 30
0.0
 11
37.201672
 21
114.520581
 31
0.0
  0
LINE
  5
C9CE
  8
ALPHA
 10
34.229726
 20
110.520581
 30
0.0
 11
36.973619
 21
110.520581
 31
0.0
  0
LINE
  5
C9CF
  8
ALPHA
 10
34.001672
 20
106.520581
 30
0.0
 11
37.201672
 21
106.520581
 31
0.0
  0
POLYLINE
  5
C9D0
  8
ALPHA
 66
     1
 10
0.0
 20
0.0
 30
0.0
 70
   128
210
0.0
220
0.0
230
-1.0
  0
VERTEX
  5
CFF1
  8
ALPHA
 10
-14.684301
 20
107.682475
 30
0.0
  0
VERTEX
  5
CFF2
  8
ALPHA
 10
-14.368072
 20
109.086546
 30
0.0
  0
VERTEX
  5
CFF3
  8
ALPHA
 10
-14.251672
 20
110.520581
 30
0.0
  0
SEQEND
  5
CFF4
  8
ALPHA
  0
LINE
  5
C9D1
  8
ALPHA
 10
34.229726
 20
110.520581
 30
0.0
 11
34.001672
 21
109.55749
 31
0.0
  0
LINE
  5
C9D2
  8
ALPHA
 10
34.001672
 20
114.520581
 30
0.0
 11
34.001672
 21
106.520581
 31
0.0
  0
LINE
  5
C9D3
  8
ALPHA
 10
33.551672
 20
107.545581
 30
0.0
 11
33.551672
 21
113.495581
 31
0.0
  0
LINE
  5
C9D4
  8
ALPHA
 10
32.051672
 20
107.545581
 30
0.0
 11
32.051672
 21
113.495581
 31
0.0
  0
LINE
  5
C9D5
  8
ALPHA
 10
31.851672
 20
106.585807
 30
0.0
 11
31.851672
 21
115.170542
 31
0.0
  0
LINE
  5
C9D6
  8
ALPHA
 10
31.151672
 20
104.520581
 30
0.0
 11
31.151672
 21
116.520581
 31
0.0
  0
LINE
  5
C9D7
  8
ALPHA
 10
29.551672
 20
104.520581
 30
0.0
 11
29.551672
 21
116.520581
 31
0.0
  0
LINE
  5
C9D8
  8
ALPHA
 10
29.501672
 20
106.064326
 30
0.0
 11
29.501672
 21
114.976837
 31
0.0
  0
LINE
  5
C9D9
  8
ALPHA
 10
29.001672
 20
135.520581
 30
0.0
 11
29.001672
 21
85.520581
 31
0.0
  0
LINE
  5
C9DA
  8
ALPHA
 10
19.001672
 20
135.520581
 30
0.0
 11
19.001672
 21
85.520581
 31
0.0
  0
LINE
  5
C9DB
  8
ALPHA
 10
18.501672
 20
106.064326
 30
0.0
 11
18.501672
 21
114.976837
 31
0.0
  0
LINE
  5
C9DC
  8
ALPHA
 10
18.251672
 20
116.045581
 30
0.0
 11
18.251672
 21
104.995581
 31
0.0
  0
LINE
  5
C9DD
  8
ALPHA
 10
14.251672
 20
105.520692
 30
0.0
 11
14.251672
 21
115.520471
 31
0.0
  0
LINE
  5
C9DE
  8
ALPHA
 10
19.001672
 20
85.520581
 30
0.0
 11
29.001672
 21
85.520581
 31
0.0
  0
LINE
  5
C9DF
  8
ALPHA
 10
19.001672
 20
106.020581
 30
0.0
 11
18.501672
 21
106.064326
 31
0.0
  0
LINE
  5
C9E0
  8
ALPHA
 10
14.684301
 20
107.682475
 30
0.0
 11
18.251672
 21
107.682475
 31
0.0
  0
LINE
  5
C9E1
  8
ALPHA
 10
14.554781
 20
104.995581
 30
0.0
 11
18.251672
 21
104.995581
 31
0.0
  0
LINE
  5
C9E2
  8
ALPHA
 10
14.251672
 20
106.776231
 30
0.0
 11
14.684301
 21
107.682475
 31
0.0
  0
LINE
  5
C9E3
  8
ALPHA
 10
14.300464
 20
105.536836
 30
0.0
 11
14.251672
 21
105.690904
 31
0.0
  0
LINE
  5
C9E4
  8
ALPHA
 10
14.327953
 20
105.462567
 30
0.0
 11
14.300464
 21
105.536836
 31
0.0
  0
LINE
  5
C9E5
  8
ALPHA
 10
14.554781
 20
104.995581
 30
0.0
 11
14.327953
 21
105.462567
 31
0.0
  0
LINE
  5
C9E6
  8
ALPHA
 10
14.554781
 20
104.995581
 30
0.0
 11
14.251672
 21
105.520581
 31
0.0
  0
ARC
  5
C9E7
  8
ALPHA
 10
18.551672
 20
107.245581
 30
0.0
 40
0.3
 50
99.708206
 51
179.999962
  0
LINE
  5
C9E8
  8
ALPHA
 10
31.151672
 20
104.520581
 30
0.0
 11
29.551672
 21
104.520581
 31
0.0
  0
LINE
  5
C9E9
  8
ALPHA
 10
29.501672
 20
107.545581
 30
0.0
 11
29.551672
 21
107.545581
 31
0.0
  0
LINE
  5
C9EA
  8
ALPHA
 10
29.501672
 20
106.064326
 30
0.0
 11
29.001672
 21
106.020581
 31
0.0
  0
LINE
  5
C9EB
  8
ALPHA
 10
34.001672
 20
107.83771
 30
0.0
 11
34.346417
 21
106.520581
 31
0.0
  0
LINE
  5
C9EC
  8
ALPHA
 10
31.851672
 20
108.520581
 30
0.0
 11
32.051672
 21
108.520581
 31
0.0
  0
LINE
  5
C9ED
  8
ALPHA
 10
33.551672
 20
108.020581
 30
0.0
 11
34.001672
 21
108.020581
 31
0.0
  0
LINE
  5
C9EE
  8
ALPHA
 10
32.051672
 20
107.545581
 30
0.0
 11
33.551672
 21
107.545581
 31
0.0
  0
LINE
  5
C9EF
  8
ALPHA
 10
31.851672
 20
106.635129
 30
0.0
 11
31.151672
 21
106.635129
 31
0.0
  0
LINE
  5
C9F0
  8
ALPHA
 10
31.851672
 20
106.585803
 30
0.0
 11
31.151672
 21
106.585803
 31
0.0
  0
LINE
  5
C9F1
  8
ALPHA
 10
19.001672
 20
115.020581
 30
0.0
 11
18.501672
 21
114.976837
 31
0.0
  0
LINE
  5
C9F2
  8
ALPHA
 10
14.251672
 20
115.350259
 30
0.0
 11
14.554781
 21
116.045581
 31
0.0
  0
LINE
  5
C9F3
  8
ALPHA
 10
14.554781
 20
116.045581
 30
0.0
 11
14.251672
 21
115.520581
 31
0.0
  0
LINE
  5
C9F4
  8
ALPHA
 10
14.684301
 20
113.358688
 30
0.0
 11
18.251672
 21
113.358688
 31
0.0
  0
LINE
  5
C9F5
  8
ALPHA
 10
14.684301
 20
113.358688
 30
0.0
 11
14.251672
 21
114.264932
 31
0.0
  0
POLYLINE
  5
C9F6
  8
ALPHA
 66
     1
 10
0.0
 20
0.0
 30
0.0
 70
   128
210
0.0
220
0.0
230
-1.0
  0
VERTEX
  5
CFF5
  8
ALPHA
 10
-14.251672
 20
110.520581
 30
0.0
  0
VERTEX
  5
CFF6
  8
ALPHA
 10
-14.368072
 20
111.954617
 30
0.0
  0
VERTEX
  5
CFF7
  8
ALPHA
 10
-14.684301
 20
113.358688
 30
0.0
  0
SEQEND
  5
CFF8
  8
ALPHA
  0
ARC
  5
C9F7
  8
ALPHA
 10
18.551672
 20
113.795581
 30
0.0
 40
0.3
 50
180.000038
 51
260.291794
  0
LINE
  5
C9F8
  8
ALPHA
 10
14.554781
 20
116.045581
 30
0.0
 11
18.251672
 21
116.045581
 31
0.0
  0
LINE
  5
C9F9
  8
ALPHA
 10
29.501672
 20
114.976837
 30
0.0
 11
29.001672
 21
115.020581
 31
0.0
  0
LINE
  5
C9FA
  8
ALPHA
 10
29.501672
 20
113.495581
 30
0.0
 11
29.551672
 21
113.495581
 31
0.0
  0
LINE
  5
C9FB
  8
ALPHA
 10
34.346417
 20
114.520581
 30
0.0
 11
34.001672
 21
113.203453
 31
0.0
  0
LINE
  5
C9FC
  8
ALPHA
 10
34.001672
 20
111.483673
 30
0.0
 11
34.229726
 21
110.520581
 31
0.0
  0
LINE
  5
C9FD
  8
ALPHA
 10
31.851672
 20
115.170581
 30
0.0
 11
31.151672
 21
115.170581
 31
0.0
  0
LINE
  5
C9FE
  8
ALPHA
 10
32.051672
 20
113.495581
 30
0.0
 11
33.551672
 21
113.495581
 31
0.0
  0
LINE
  5
C9FF
  8
ALPHA
 10
33.551672
 20
113.020581
 30
0.0
 11
34.001672
 21
113.020581
 31
0.0
  0
LINE
  5
CA00
  8
ALPHA
 10
31.851672
 20
112.520581
 30
0.0
 11
32.051672
 21
112.520581
 31
0.0
  0
LINE
  5
CA01
  8
ALPHA
 10
31.151672
 20
116.520581
 30
0.0
 11
29.551672
 21
116.520581
 31
0.0
  0
LINE
  5
CA02
  8
ALPHA
 10
19.001672
 20
135.520581
 30
0.0
 11
29.001672
 21
135.520581
 31
0.0
  0
LINE
  5
CA03
  8
ALPHA
 10
41.229726
 20
110.520581
 30
0.0
 11
41.001672
 21
109.55749
 31
0.0
  0
LINE
  5
CA04
  8
ALPHA
 10
43.973619
 20
110.520581
 30
0.0
 11
44.201672
 21
109.55749
 31
0.0
  0
LINE
  5
CA05
  8
ALPHA
 10
36.973619
 20
110.520581
 30
0.0
 11
37.201672
 21
109.55749
 31
0.0
  0
LINE
  5
CA13
  8
ALPHA
 10
67.051672
 20
108.457626
 30
0.0
 11
67.051672
 21
112.583537
 31
0.0
  0
LINE
  5
CA14
  8
ALPHA
 10
66.294974
 20
113.020581
 30
0.0
 11
66.294974
 21
108.020581
 31
0.0
  0
LINE
  5
CA15
  8
ALPHA
 10
46.001672
 20
113.658643
 30
0.0
 11
46.001672
 21
107.38252
 31
0.0
  0
LINE
  5
CA16
  8
ALPHA
 10
45.588496
 20
114.151047
 30
0.0
 11
45.588496
 21
106.890116
 31
0.0
  0
LINE
  5
CA17
  8
ALPHA
 10
44.201672
 20
114.520581
 30
0.0
 11
44.201672
 21
106.520581
 31
0.0
  0
LINE
  5
CA18
  8
ALPHA
 10
38.588496
 20
114.151047
 30
0.0
 11
38.588496
 21
106.890116
 31
0.0
  0
LINE
  5
CA19
  8
ALPHA
 10
37.201672
 20
114.520581
 30
0.0
 11
37.201672
 21
106.520581
 31
0.0
  0
LINE
  5
CA1C
  8
ALPHA
 10
42.001672
 20
60.720581
 30
0.0
 11
42.001672
 21
83.320581
 31
0.0
  0
LINE
  5
CA1D
  8
ALPHA
 10
39.001672
 20
20.020581
 30
0.0
 11
41.001672
 21
20.020581
 31
0.0
  0
LINE
  5
CA1E
  8
ALPHA
 10
42.001672
 20
62.429841
 30
0.0
 11
41.001672
 21
62.429841
 31
0.0
  0
LINE
  5
CA1F
  8
ALPHA
 10
41.001672
 20
60.720581
 30
0.0
 11
42.001672
 21
60.720581
 31
0.0
  0
LINE
  5
CA20
  8
ALPHA
 10
43.001672
 20
78.270581
 30
0.0
 11
43.001672
 21
65.770581
 31
0.0
  0
LINE
  5
CA21
  8
ALPHA
 10
41.001672
 20
66.658679
 30
0.0
 11
42.001672
 21
66.658679
 31
0.0
  0
LINE
  5
CA22
  8
ALPHA
 10
42.001672
 20
65.770581
 30
0.0
 11
43.001672
 21
65.770581
 31
0.0
  0
LINE
  5
CA23
  8
ALPHA
 10
41.001672
 20
64.36072
 30
0.0
 11
42.001672
 21
64.36072
 31
0.0
  0
LINE
  5
CA24
  8
ALPHA
 10
42.001672
 20
79.680442
 30
0.0
 11
41.001672
 21
79.680442
 31
0.0
  0
LINE
  5
CA25
  8
ALPHA
 10
42.001672
 20
78.270581
 30
0.0
 11
43.001672
 21
78.270581
 31
0.0
  0
LINE
  5
CA26
  8
ALPHA
 10
42.001672
 20
77.382484
 30
0.0
 11
41.001672
 21
77.382484
 31
0.0
  0
LINE
  5
CA27
  8
ALPHA
 10
41.001672
 20
85.099399
 30
0.0
 11
39.001672
 21
85.099399
 31
0.0
  0
LINE
  5
CA28
  8
ALPHA
 10
41.001672
 20
83.320581
 30
0.0
 11
42.001672
 21
83.320581
 31
0.0
  0
LINE
  5
CA29
  8
ALPHA
 10
42.001672
 20
81.611322
 30
0.0
 11
41.001672
 21
81.611322
 31
0.0
  0
LINE
  5
CA2A
  8
ALPHA
 10
46.001672
 20
108.020581
 30
0.0
 11
66.294974
 21
108.020581
 31
0.0
  0
LINE
  5
CA2B
  8
ALPHA
 10
41.001672
 20
87.532692
 30
0.0
 11
39.001672
 21
87.532692
 31
0.0
  0
LINE
  5
CA2C
  8
ALPHA
 10
41.001672
 20
106.520581
 30
0.0
 11
44.201672
 21
106.520581
 31
0.0
  0
LINE
  5
CA2D
  8
ALPHA
 10
37.201672
 20
107.83771
 30
0.0
 11
36.856928
 21
106.520581
 31
0.0
  0
ARC
  5
CA2E
  8
ALPHA
 10
38.501672
 20
107.38252
 30
0.0
 40
0.5
 50
280.0
 51
0.0
  0
LINE
  5
CA2F
  8
ALPHA
 10
38.588496
 20
106.890116
 30
0.0
 11
37.201672
 21
106.645581
 31
0.0
  0
LINE
  5
CA30
  8
ALPHA
 10
41.001672
 20
107.83771
 30
0.0
 11
41.346417
 21
106.520581
 31
0.0
  0
LINE
  5
CA31
  8
ALPHA
 10
44.201672
 20
107.83771
 30
0.0
 11
43.856928
 21
106.520581
 31
0.0
  0
ARC
  5
CA32
  8
ALPHA
 10
45.501672
 20
107.38252
 30
0.0
 40
0.5
 50
280.0
 51
0.0
  0
LINE
  5
CA33
  8
ALPHA
 10
45.588496
 20
106.890116
 30
0.0
 11
44.201672
 21
106.645581
 31
0.0
  0
LINE
  5
CA34
  8
ALPHA
 10
67.051672
 20
108.457462
 30
0.0
 11
66.294974
 21
108.020581
 31
0.0
  0
LINE
  5
CDB2
  8
ALPHA
 10
46.001672
 20
113.020581
 30
0.0
 11
66.294974
 21
113.020581
 31
0.0
  0
LINE
  5
CDB3
  8
ALPHA
 10
41.001672
 20
114.520581
 30
0.0
 11
44.201672
 21
114.520581
 31
0.0
  0
LINE
  5
CDB4
  8
ALPHA
 10
41.229726
 20
110.520581
 30
0.0
 11
43.973619
 21
110.520581
 31
0.0
  0
LINE
  5
CDB5
  8
ALPHA
 10
41.001672
 20
115.020581
 30
0.0
 11
39.001672
 21
115.020581
 31
0.0
  0
LINE
  5
CDB6
  8
ALPHA
 10
39.001672
 20
111.068072
 30
0.0
 11
41.001672
 21
111.068072
 31
0.0
  0
LINE
  5
CDB7
  8
ALPHA
 10
36.856928
 20
114.520581
 30
0.0
 11
37.201672
 21
113.203453
 31
0.0
  0
LINE
  5
CDB8
  8
ALPHA
 10
37.201672
 20
111.483673
 30
0.0
 11
36.973619
 21
110.520581
 31
0.0
  0
ARC
  5
CDB9
  8
ALPHA
 10
38.501672
 20
113.658643
 30
0.0
 40
0.5
 50
0.0
 51
80.0
  0
LINE
  5
CDBA
  8
ALPHA
 10
38.588496
 20
114.151047
 30
0.0
 11
37.201672
 21
114.395581
 31
0.0
  0
LINE
  5
CDBB
  8
ALPHA
 10
41.346417
 20
114.520581
 30
0.0
 11
41.001672
 21
113.203453
 31
0.0
  0
LINE
  5
CDBC
  8
ALPHA
 10
41.078318
 20
111.086311
 30
0.0
 11
41.229726
 21
110.520581
 31
0.0
  0
LINE
  5
CDBD
  8
ALPHA
 10
41.060864
 20
111.165985
 30
0.0
 11
41.078318
 21
111.086311
 31
0.0
  0
LINE
  5
CDBE
  8
ALPHA
 10
41.001672
 20
111.483673
 30
0.0
 11
41.060864
 21
111.165985
 31
0.0
  0
LINE
  5
CDBF
  8
ALPHA
 10
43.856928
 20
114.520581
 30
0.0
 11
44.201672
 21
113.203453
 31
0.0
  0
LINE
  5
CDC0
  8
ALPHA
 10
44.201672
 20
111.483673
 30
0.0
 11
43.973619
 21
110.520581
 31
0.0
  0
ARC
  5
CDC1
  8
ALPHA
 10
45.501672
 20
113.658643
 30
0.0
 40
0.5
 50
0.0
 51
80.0
  0
LINE
  5
CDC2
  8
ALPHA
 10
45.588496
 20
114.151047
 30
0.0
 11
44.201672
 21
114.395581
 31
0.0
  0
LINE
  5
CDC3
  8
ALPHA
 10
67.051672
 20
112.583701
 30
0.0
 11
66.294974
 21
113.020581
 31
0.0
  0
LINE
  5
CEB1
  8
AXE
 10
9.251672
 20
110.520581
 30
0.0
 11
79.109984
 21
110.520581
 31
0.0
  0
TEXT
  5
CEB2
  8
AXE
 10
75.062365
 20
111.520581
 30
0.0
 40
5.0
  1
Z
 72
     2
 11
79.109984
 21
111.520581
 31
0.0
  0
LINE
  5
CEB4
  8
AXE
 10
24.001672
 20
73.041401
 30
0.0
 11
24.001672
 21
140.520581
 31
0.0
  0
TEXT
  5
CEB5
  8
AXE
 10
18.954053
 20
73.041401
 30
0.0
 40
5.0
  1
Y
 72
     2
 11
23.001672
 21
73.041401
 31
0.0
  0
DIMENSION
  5
CEB6
  8
COTATION1
  2
*D3
 10
67.051672
 20
150.520581
 30
0.0
 11
40.651672
 21
153.770581
 31
0.0
 13
14.251672
 23
115.350259
 33
0.0
 14
67.051672
 24
112.583537
 34
0.0
  0
VIEWPORT
  5
494D
 67
     1
  8
0
 10
4.995325
 20
6.556512
 30
0.0
 40
22.70986
 41
13.988421
 68
    -1
 69
     1
1001
ACAD
1000
MVIEW
1002
{
1070
    16
1010
0.0
1020
0.0
1030
0.0
1010
0.0
1020
0.0
1030
1.0
1040
0.0
1040
13.988421
1040
4.995325
1040
6.556512
1040
50.0
1040
0.0
1040
0.0
1070
     0
1070
   100
1070
     1
1070
     1
1070
     0
1070
     0
1070
     0
1070
     0
1040
0.0
1040
0.0
1040
0.0
1040
10.0
1040
10.0
1040
10.0
1040
10.0
1070
     0
1002
{
1002
}
1002
}
  0
ENDSEC
  0
EOF
