  0
SECTION
  2
HEADER
  9
$ACADVER
  1
AC1009
  9
$INSBASE
 10
402.590624
 20
-1.041018
 30
0.0
  9
$EXTMIN
 10
96.585226
 20
0.252151
 30
0.0
  9
$EXTMAX
 10
134.441115
 20
107.702151
 30
0.0
  9
$LIMMIN
 10
-407.970438
 20
-367.832444
  9
$LIMMAX
 10
429.804077
 20
234.370848
  9
$ORTHOMODE
 70
     0
  9
$REGENMODE
 70
     1
  9
$FILLMODE
 70
     1
  9
$QTEXTMODE
 70
     0
  9
$MIRRTEXT
 70
     1
  9
$DRAGMODE
 70
     2
  9
$LTSCALE
 40
10.0
  9
$OSMODE
 70
    35
  9
$ATTMODE
 70
     1
  9
$TEXTSIZE
 40
6.0
  9
$TRACEWID
 40
1.0
  9
$TEXTSTYLE
  7
ROMANS
  9
$CLAYER
  8
ALPHA
  9
$CELTYPE
  6
BYLAYER
  9
$CECOLOR
 62
   256
  9
$DIMSCALE
 40
1.0
  9
$DIMASZ
 40
5.0
  9
$DIMEXO
 40
2.0
  9
$DIMDLI
 40
0.38
  9
$DIMRND
 40
0.0
  9
$DIMDLE
 40
0.0
  9
$DIMEXE
 40
2.5
  9
$DIMTP
 40
0.0
  9
$DIMTM
 40
0.0
  9
$DIMTXT
 40
2.5
  9
$DIMCEN
 40
0.0
  9
$DIMTSZ
 40
0.0
  9
$DIMTOL
 70
     0
  9
$DIMLIM
 70
     0
  9
$DIMTIH
 70
     1
  9
$DIMTOH
 70
     1
  9
$DIMSE1
 70
     0
  9
$DIMSE2
 70
     0
  9
$DIMTAD
 70
     1
  9
$DIMZIN
 70
    12
  9
$DIMBLK
  1
OPEN30
  9
$DIMASO
 70
     1
  9
$DIMSHO
 70
     1
  9
$DIMPOST
  1

  9
$DIMAPOST
  1

  9
$DIMALT
 70
     0
  9
$DIMALTD
 70
     2
  9
$DIMALTF
 40
25.4
  9
$DIMLFAC
 40
1.0
  9
$DIMTOFL
 70
     0
  9
$DIMTVP
 40
0.0
  9
$DIMTIX
 70
     0
  9
$DIMSOXD
 70
     0
  9
$DIMSAH
 70
     0
  9
$DIMBLK1
  1

  9
$DIMBLK2
  1

  9
$DIMSTYLE
  2
SC_DEFAUT
  9
$DIMCLRD
 70
     0
  9
$DIMCLRE
 70
     0
  9
$DIMCLRT
 70
     0
  9
$DIMTFAC
 40
1.0
  9
$DIMGAP
 40
2.0
  9
$LUNITS
 70
     2
  9
$LUPREC
 70
     1
  9
$SKETCHINC
 40
0.1
  9
$FILLETRAD
 40
0.0
  9
$AUNITS
 70
     0
  9
$AUPREC
 70
     0
  9
$MENU
  1
acad
  9
$ELEVATION
 40
0.0
  9
$PELEVATION
 40
0.0
  9
$THICKNESS
 40
0.0
  9
$LIMCHECK
 70
     0
  9
$BLIPMODE
 70
     0
  9
$CHAMFERA
 40
0.0
  9
$CHAMFERB
 40
0.0
  9
$SKPOLY
 70
     0
  9
$TDCREATE
 40
2450373.687919
  9
$TDUPDATE
 40
2453032.642755
  9
$TDINDWG
 40
1.057407
  9
$TDUSRTIMER
 40
1.057407
  9
$USRTIMER
 70
     1
  9
$ANGBASE
 50
0.0
  9
$ANGDIR
 70
     0
  9
$PDMODE
 70
    32
  9
$PDSIZE
 40
0.0
  9
$PLINEWID
 40
0.0
  9
$COORDS
 70
     1
  9
$SPLFRAME
 70
     0
  9
$SPLINETYPE
 70
     6
  9
$SPLINESEGS
 70
     8
  9
$ATTDIA
 70
     0
  9
$ATTREQ
 70
     1
  9
$HANDLING
 70
     1
  9
$HANDSEED
  5
A056
  9
$SURFTAB1
 70
     6
  9
$SURFTAB2
 70
     6
  9
$SURFTYPE
 70
     6
  9
$SURFU
 70
     6
  9
$SURFV
 70
     6
  9
$UCSNAME
  2

  9
$UCSORG
 10
0.0
 20
0.0
 30
0.0
  9
$UCSXDIR
 10
1.0
 20
0.0
 30
0.0
  9
$UCSYDIR
 10
0.0
 20
1.0
 30
0.0
  9
$PUCSNAME
  2

  9
$PUCSORG
 10
0.0
 20
0.0
 30
0.0
  9
$PUCSXDIR
 10
1.0
 20
0.0
 30
0.0
  9
$PUCSYDIR
 10
0.0
 20
1.0
 30
0.0
  9
$USERI1
 70
     0
  9
$USERI2
 70
     0
  9
$USERI3
 70
     0
  9
$USERI4
 70
     0
  9
$USERI5
 70
     0
  9
$USERR1
 40
0.0
  9
$USERR2
 40
0.0
  9
$USERR3
 40
0.0
  9
$USERR4
 40
0.0
  9
$USERR5
 40
0.0
  9
$WORLDVIEW
 70
     1
  9
$SHADEDGE
 70
     3
  9
$SHADEDIF
 70
    70
  9
$TILEMODE
 70
     1
  9
$MAXACTVP
 70
    16
  9
$PLIMCHECK
 70
     0
  9
$PEXTMIN
 10
-1.452248
 20
-0.437698
 30
0.0
  9
$PEXTMAX
 10
12.749749
 20
8.310198
 30
0.0
  9
$PLIMMIN
 10
0.0
 20
0.0
  9
$PLIMMAX
 10
12.0
 20
9.0
  9
$UNITMODE
 70
     0
  9
$VISRETAIN
 70
     0
  9
$PLINEGEN
 70
     0
  9
$PSLTSCALE
 70
     0
  0
ENDSEC
  0
SECTION
  2
TABLES
  0
TABLE
  2
VPORT
 70
     2
  0
VPORT
  2
*ACTIVE
 70
     0
 10
0.0
 20
0.0
 11
1.0
 21
1.0
 12
115.517193
 22
53.965313
 13
0.0
 23
0.0
 14
1.0
 24
1.0
 15
10.0
 25
10.0
 16
0.0
 26
0.0
 36
1.0
 17
0.0
 27
0.0
 37
0.0
 40
108.28443
 41
1.466346
 42
50.0
 43
0.0
 44
0.0
 50
0.0
 51
0.0
 71
     0
 72
   100
 73
     1
 74
     0
 75
     0
 76
     0
 77
     0
 78
     0
  0
ENDTAB
  0
TABLE
  2
LTYPE
 70
     2
  0
LTYPE
  2
CONTINUOUS
 70
     0
  3
Solid line
 72
    65
 73
     0
 40
0.0
  0
LTYPE
  2
AXES2
 70
     0
  3
___ _ ___ _ ___ _ ___ _ ___ _ ___ _ ___ _ ___ _
 72
    65
 73
     4
 40
1.125
 49
0.75
 49
-0.125
 49
0.125
 49
-0.125
  0
ENDTAB
  0
TABLE
  2
LAYER
 70
     5
  0
LAYER
  2
0
 70
     0
 62
   255
  6
CONTINUOUS
  0
LAYER
  2
COTATION1
 70
     0
 62
     2
  6
CONTINUOUS
  0
LAYER
  2
AXE
 70
     0
 62
    80
  6
AXES2
  0
LAYER
  2
DEFPOINTS
 70
     0
 62
     7
  6
CONTINUOUS
  0
LAYER
  2
ALPHA
 70
     0
 62
   254
  6
CONTINUOUS
  0
ENDTAB
  0
TABLE
  2
STYLE
 70
     2
  0
STYLE
  2
ROMANS
 70
     0
 40
0.0
 41
1.0
 50
0.0
 71
     0
 42
6.0
  3
romans
  4

  0
STYLE
  2
STANDARD
 70
     0
 40
0.0
 41
1.0
 50
0.0
 71
     0
 42
0.2
  3
txt
  4

  0
ENDTAB
  0
TABLE
  2
VIEW
 70
     0
  0
ENDTAB
  0
TABLE
  2
UCS
 70
     0
  0
ENDTAB
  0
TABLE
  2
APPID
 70
     1
  0
APPID
  2
ACAD
 70
     0
  0
ENDTAB
  0
TABLE
  2
DIMSTYLE
 70
     2
  0
DIMSTYLE
  2
SC_DEFAUT
 70
     0
  3

  4

  5
OPEN30
  6

  7

 40
1.0
 41
5.0
 42
2.0
 43
0.38
 44
2.5
 45
0.0
 46
0.0
 47
0.0
 48
0.0
140
2.5
141
0.0
142
0.0
143
25.4
144
1.0
145
0.0
146
1.0
147
2.0
 71
     0
 72
     0
 73
     1
 74
     1
 75
     0
 76
     0
 77
     1
 78
    12
170
     0
171
     2
172
     0
173
     0
174
     0
175
     0
176
     0
177
     0
178
     0
  0
DIMSTYLE
  2
STANDARD
 70
     0
  3

  4

  5

  6

  7

 40
1.0
 41
0.18
 42
0.0625
 43
0.38
 44
0.18
 45
0.0
 46
0.0
 47
0.0
 48
0.0
140
0.18
141
0.09
142
0.0
143
25.4
144
1.0
145
0.0
146
1.0
147
0.09
 71
     0
 72
     0
 73
     1
 74
     1
 75
     0
 76
     0
 77
     0
 78
     0
170
     0
171
     2
172
     0
173
     0
174
     0
175
     0
176
     0
177
     0
178
     0
  0
ENDTAB
  0
ENDSEC
  0
SECTION
  2
BLOCKS
  0
BLOCK
  8
0
  2
$MODEL_SPACE
 70
     0
 10
0.0
 20
0.0
 30
0.0
  3
$MODEL_SPACE
  1

  0
ENDBLK
  5
A04F
  8
0
  0
BLOCK
 67
     1
  8
0
  2
$PAPER_SPACE
 70
     0
 10
0.0
 20
0.0
 30
0.0
  3
$PAPER_SPACE
  1

  0
ENDBLK
  5
A04D
 67
     1
  8
0
  0
BLOCK
  8
0
  2
COTE
 70
     0
 10
0.0
 20
0.0
 30
0.0
  3
COTE
  1

  0
ENDBLK
  5
F
  8
0
  0
BLOCK
  8
0
  2
FOND
 70
     0
 10
0.0
 20
0.0
 30
0.0
  3
FOND
  1

  0
ENDBLK
  5
75
  8
0
  0
BLOCK
  8
0
  2
_OPEN30
 70
     0
 10
0.0
 20
0.0
 30
0.0
  3
_OPEN30
  1

  0
LINE
  5
4B05
  8
COTATION1
 62
     0
 10
-1.0
 20
0.267949
 30
0.0
 11
0.0
 21
0.0
 31
0.0
1001
ACAD
1000
RTLwPs
1070
   158
  0
LINE
  5
4B06
  8
COTATION1
 62
     0
 10
0.0
 20
0.0
 30
0.0
 11
-1.0
 21
-0.267949
 31
0.0
1001
ACAD
1000
RTLwPs
1070
   158
  0
LINE
  5
4B07
  8
COTATION1
 62
     0
 10
0.0
 20
0.0
 30
0.0
 11
-1.0
 21
0.0
 31
0.0
1001
ACAD
1000
RTLwPs
1070
   158
  0
ENDBLK
  5
4B09
  8
0
  0
BLOCK
  8
0
  2
*D3
 70
     1
 10
0.0
 20
0.0
 30
0.0
  3
*D3
  1

  0
LINE
  5
9F66
  8
COTATION1
 62
     0
 10
98.761115
 20
28.752151
 30
0.0
 11
98.761115
 21
0.252151
 31
0.0
1001
ACAD
1000
RTLwPs
1070
   158
  0
LINE
  5
9F67
  8
COTATION1
 62
     0
 10
114.761115
 20
28.752151
 30
0.0
 11
114.761115
 21
0.252151
 31
0.0
1001
ACAD
1000
RTLwPs
1070
   158
  0
LINE
  5
9F68
  8
COTATION1
 62
     0
 10
103.761115
 20
2.752151
 30
0.0
 11
109.761115
 21
2.752151
 31
0.0
1001
ACAD
1000
RTLwPs
1070
   158
  0
INSERT
  5
9F69
  8
COTATION1
 62
     0
  2
_OPEN30
 10
98.761115
 20
2.752151
 30
0.0
 41
5.0
 42
5.0
 43
5.0
 50
180.0
1001
ACAD
1000
RTLwPs
1070
   158
  0
INSERT
  5
9F6A
  8
COTATION1
 62
     0
  2
_OPEN30
 10
114.761115
 20
2.752151
 30
0.0
 41
5.0
 42
5.0
 43
5.0
1001
ACAD
1000
RTLwPs
1070
   158
  0
TEXT
  5
9F6B
  8
COTATION1
 62
     0
 10
104.201591
 20
4.752151
 30
0.0
 40
2.5
  1
16
1001
ACAD
1000
MTEXTBEGIN
1070
    73
1070
     1
1070
    44
1040
1.0
1070
    74
1070
     0
1000
MTEXTEND
  0
POINT
  5
9F6C
  8
DEFPOINTS
 62
     0
 10
98.761115
 20
30.752151
 30
0.0
  0
POINT
  5
9F6D
  8
DEFPOINTS
 62
     0
 10
114.761115
 20
30.752151
 30
0.0
  0
POINT
  5
9F6E
  8
DEFPOINTS
 62
     0
 10
114.761115
 20
2.752151
 30
0.0
  0
ENDBLK
  5
9E99
  8
0
  0
BLOCK
  8
0
  2
*D4
 70
     1
 10
0.0
 20
0.0
 30
0.0
  3
*D4
  1

  0
LINE
  5
9F53
  8
COTATION1
 62
     0
 10
111.261115
 20
102.702151
 30
0.0
 11
134.441115
 21
102.702151
 31
0.0
1001
ACAD
1000
RTLwPs
1070
   158
  0
LINE
  5
9F54
  8
COTATION1
 62
     0
 10
108.761115
 20
22.752151
 30
0.0
 11
134.441115
 21
22.752151
 31
0.0
1001
ACAD
1000
RTLwPs
1070
   158
  0
LINE
  5
9F55
  8
COTATION1
 62
     0
 10
131.941115
 20
97.702151
 30
0.0
 11
131.941115
 21
65.977151
 31
0.0
1001
ACAD
1000
RTLwPs
1070
   158
  0
LINE
  5
9F56
  8
COTATION1
 62
     0
 10
131.941115
 20
27.752151
 30
0.0
 11
131.941115
 21
59.477151
 31
0.0
1001
ACAD
1000
RTLwPs
1070
   158
  0
INSERT
  5
9F57
  8
COTATION1
 62
     0
  2
_OPEN30
 10
131.941115
 20
102.702151
 30
0.0
 41
5.0
 42
5.0
 43
5.0
 50
90.0
1001
ACAD
1000
RTLwPs
1070
   158
  0
INSERT
  5
9F58
  8
COTATION1
 62
     0
  2
_OPEN30
 10
131.941115
 20
22.752151
 30
0.0
 41
5.0
 42
5.0
 43
5.0
 50
270.0
1001
ACAD
1000
RTLwPs
1070
   158
  0
TEXT
  5
9F59
  8
COTATION1
 62
     0
 10
129.560163
 20
61.477151
 30
0.0
 40
2.5
  1
80
1001
ACAD
1000
MTEXTBEGIN
1070
    73
1070
     1
1070
    44
1040
1.0
1070
    74
1070
     0
1000
MTEXTEND
  0
POINT
  5
9F5A
  8
DEFPOINTS
 62
     0
 10
109.261115
 20
102.702151
 30
0.0
  0
POINT
  5
9F5B
  8
DEFPOINTS
 62
     0
 10
106.761115
 20
22.752151
 30
0.0
  0
POINT
  5
9F5C
  8
DEFPOINTS
 62
     0
 10
131.941115
 20
22.752151
 30
0.0
  0
ENDBLK
  5
9EDF
  8
0
  0
ENDSEC
  0
SECTION
  2
ENTITIES
  0
INSERT
  5
A
  8
0
  2
COTE
 10
0.0
 20
0.0
 30
0.0
  0
INSERT
  5
17
  8
0
  2
COTE
 10
284.010391
 20
6.373258
 30
0.0
  0
INSERT
  5
72
  8
0
  2
FOND
 10
0.0
 20
0.0
 30
0.0
  0
LINE
  5
9D61
  8
ALPHA
 10
111.261115
 20
42.052151
 30
0.0
 11
111.261115
 21
100.052151
 31
0.0
  0
LINE
  5
9D62
  8
ALPHA
 10
102.261115
 20
42.052151
 30
0.0
 11
102.261115
 21
100.052151
 31
0.0
  0
ARC
  5
9D79
  8
ALPHA
 10
106.761115
 20
30.752151
 30
0.0
 40
8.0
 50
180.0
 51
0.0
  0
LINE
  5
9D7A
  8
ALPHA
 10
100.761115
 20
41.752151
 30
0.0
 11
112.761115
 21
41.752151
 31
0.0
  0
LINE
  5
9D7B
  8
ALPHA
 10
112.761115
 20
39.752151
 30
0.0
 11
100.761115
 21
39.752151
 31
0.0
  0
LINE
  5
9D7C
  8
ALPHA
 10
101.561115
 20
38.752151
 30
0.0
 11
100.261115
 21
38.752151
 31
0.0
  0
LINE
  5
9D7D
  8
ALPHA
 10
98.846901
 20
37.752151
 30
0.0
 11
106.58791
 21
37.752151
 31
0.0
  0
LINE
  5
9D7E
  8
ALPHA
 10
98.761115
 20
30.752151
 30
0.0
 11
98.761115
 21
37.252151
 31
0.0
  0
ARC
  5
9D7F
  8
ALPHA
 10
100.261115
 20
37.252151
 30
0.0
 40
1.5
 50
90.0
 51
180.0
  0
LINE
  5
9D80
  8
ALPHA
 10
100.761115
 20
39.752151
 30
0.0
 11
100.761115
 21
41.752151
 31
0.0
  0
ARC
  5
9D81
  8
ALPHA
 10
109.021115
 20
34.666586
 30
0.0
 40
0.22
 50
163.0
 51
317.0
  0
ARC
  5
9D82
  8
ALPHA
 10
109.021115
 20
26.837717
 30
0.0
 40
0.22
 50
43.0
 51
197.0
  0
LINE
  5
9D83
  8
ALPHA
 10
102.261115
 20
42.052151
 30
0.0
 11
111.261115
 21
42.052151
 31
0.0
  0
LINE
  5
9D84
  8
ALPHA
 10
106.93432
 20
37.752151
 30
0.0
 11
114.675329
 21
37.752151
 31
0.0
  0
ARC
  5
9D85
  8
ALPHA
 10
102.875524
 20
33.696265
 30
0.0
 40
0.3
 50
142.848784
 51
227.0
  0
ARC
  5
9D86
  8
ALPHA
 10
106.761115
 20
30.752151
 30
0.0
 40
5.175
 50
247.151216
 51
262.848784
  0
ARC
  5
9D87
  8
ALPHA
 10
102.875524
 20
27.808038
 30
0.0
 40
0.3
 50
133.0
 51
217.151216
  0
ARC
  5
9D88
  8
ALPHA
 10
106.761115
 20
30.752151
 30
0.0
 40
5.175
 50
217.151216
 51
232.848784
  0
ARC
  5
9D89
  8
ALPHA
 10
104.868151
 20
26.259679
 30
0.0
 40
0.3
 50
163.0
 51
247.151216
  0
ARC
  5
9D8A
  8
ALPHA
 10
104.501115
 20
26.837717
 30
0.0
 40
0.22
 50
343.0
 51
137.0
  0
ARC
  5
9D8B
  8
ALPHA
 10
103.817002
 20
26.86656
 30
0.0
 40
0.3
 50
232.848784
 51
317.0
  0
LINE
  5
9D8C
  8
ALPHA
 10
104.036408
 20
26.66196
 30
0.0
 11
104.340217
 21
26.987756
 31
0.0
  0
LINE
  5
9D8D
  8
ALPHA
 10
104.711502
 20
26.773395
 30
0.0
 11
104.581259
 21
26.34739
 31
0.0
  0
ARC
  5
9D8E
  8
ALPHA
 10
102.84668
 20
28.492151
 30
0.0
 40
0.22
 50
313.0
 51
107.0
  0
ARC
  5
9D8F
  8
ALPHA
 10
102.84668
 20
33.012151
 30
0.0
 40
0.22
 50
253.0
 51
47.0
  0
LINE
  5
9D90
  8
ALPHA
 10
102.99672
 20
28.331254
 30
0.0
 11
102.670924
 21
28.027444
 31
0.0
  0
LINE
  5
9D91
  8
ALPHA
 10
102.670924
 20
33.476859
 30
0.0
 11
102.99672
 21
33.173049
 31
0.0
  0
ARC
  5
9D92
  8
ALPHA
 10
102.268642
 20
28.859187
 30
0.0
 40
0.3
 50
202.848784
 51
287.0
  0
ARC
  5
9D93
  8
ALPHA
 10
101.924037
 20
30.14527
 30
0.0
 40
0.3
 50
103.0
 51
187.151216
  0
ARC
  5
9D94
  8
ALPHA
 10
102.241115
 20
30.752151
 30
0.0
 40
0.22
 50
283.0
 51
77.0
  0
ARC
  5
9D95
  8
ALPHA
 10
101.924037
 20
31.359033
 30
0.0
 40
0.3
 50
172.848784
 51
257.0
  0
ARC
  5
9D96
  8
ALPHA
 10
102.268642
 20
32.645116
 30
0.0
 40
0.3
 50
73.0
 51
157.151216
  0
ARC
  5
9D97
  8
ALPHA
 10
106.761115
 20
30.752151
 30
0.0
 40
5.175
 50
187.151216
 51
202.848784
  0
ARC
  5
9D98
  8
ALPHA
 10
106.761115
 20
30.752151
 30
0.0
 40
5.175
 50
157.151216
 51
172.848784
  0
LINE
  5
9D99
  8
ALPHA
 10
102.356354
 20
28.572296
 30
0.0
 11
102.782358
 21
28.702538
 31
0.0
  0
LINE
  5
9D9A
  8
ALPHA
 10
102.782358
 20
32.801764
 30
0.0
 11
102.356354
 21
32.932007
 31
0.0
  0
LINE
  5
9D9B
  8
ALPHA
 10
101.856552
 20
31.066722
 30
0.0
 11
102.290604
 21
30.966513
 31
0.0
  0
LINE
  5
9D9C
  8
ALPHA
 10
102.290604
 20
30.53779
 30
0.0
 11
101.856552
 21
30.437581
 31
0.0
  0
ARC
  5
9D9D
  8
ALPHA
 10
107.367996
 20
25.915074
 30
0.0
 40
0.3
 50
193.0
 51
277.151216
  0
LINE
  5
9D9E
  8
ALPHA
 10
106.975476
 20
26.281641
 30
0.0
 11
107.075685
 21
25.847588
 31
0.0
  0
ARC
  5
9D9F
  8
ALPHA
 10
106.761115
 20
26.232151
 30
0.0
 40
0.22
 50
13.0
 51
167.0
  0
ARC
  5
9DA0
  8
ALPHA
 10
106.154234
 20
25.915074
 30
0.0
 40
0.3
 50
262.848784
 51
347.0
  0
LINE
  5
9DA1
  8
ALPHA
 10
106.446545
 20
25.847588
 30
0.0
 11
106.546754
 21
26.281641
 31
0.0
  0
ARC
  5
9DA2
  8
ALPHA
 10
108.654079
 20
26.259679
 30
0.0
 40
0.3
 50
292.848784
 51
17.0
  0
ARC
  5
9DA3
  8
ALPHA
 10
106.761115
 20
30.752151
 30
0.0
 40
5.175
 50
277.151216
 51
292.848784
  0
LINE
  5
9DA4
  8
ALPHA
 10
108.940971
 20
26.34739
 30
0.0
 11
108.810728
 21
26.773395
 31
0.0
  0
ARC
  5
9DA5
  8
ALPHA
 10
106.761115
 20
30.752151
 30
0.0
 40
5.175
 50
97.151216
 51
112.848784
  0
LINE
  5
9DA6
  8
ALPHA
 10
104.711115
 20
38.252151
 30
0.0
 11
108.811115
 21
38.252151
 31
0.0
  0
LINE
  5
9DA7
  8
ALPHA
 10
104.711115
 20
39.752151
 30
0.0
 11
104.711115
 21
38.252151
 31
0.0
  0
LINE
  5
9DA8
  8
ALPHA
 10
101.761115
 20
38.952151
 30
0.0
 11
101.761115
 21
39.752151
 31
0.0
  0
ARC
  5
9DA9
  8
ALPHA
 10
106.761115
 20
30.752151
 30
0.0
 40
5.175
 50
127.151216
 51
142.848784
  0
ARC
  5
9DAA
  8
ALPHA
 10
101.561115
 20
38.952151
 30
0.0
 40
0.2
 50
270.0
 51
0.0
  0
ARC
  5
9DAB
  8
ALPHA
 10
103.817002
 20
34.637743
 30
0.0
 40
0.3
 50
43.0
 51
127.151216
  0
ARC
  5
9DAC
  8
ALPHA
 10
104.501115
 20
34.666586
 30
0.0
 40
0.22
 50
223.0
 51
17.0
  0
ARC
  5
9DAD
  8
ALPHA
 10
104.868151
 20
35.244624
 30
0.0
 40
0.3
 50
112.848784
 51
197.0
  0
LINE
  5
9DAE
  8
ALPHA
 10
104.581259
 20
35.156913
 30
0.0
 11
104.711502
 21
34.730908
 31
0.0
  0
LINE
  5
9DAF
  8
ALPHA
 10
104.340217
 20
34.516547
 30
0.0
 11
104.036408
 21
34.842342
 31
0.0
  0
LINE
  5
9DB0
  8
ALPHA
 10
104.261115
 20
42.052151
 30
0.0
 11
104.261115
 21
41.752151
 31
0.0
  0
LINE
  5
9DB1
  8
ALPHA
 10
108.811115
 20
39.752151
 30
0.0
 11
108.811115
 21
38.252151
 31
0.0
  0
ARC
  5
9DB2
  8
ALPHA
 10
107.367996
 20
35.589229
 30
0.0
 40
0.3
 50
82.848784
 51
167.0
  0
LINE
  5
9DB3
  8
ALPHA
 10
107.075685
 20
35.656714
 30
0.0
 11
106.975476
 21
35.222662
 31
0.0
  0
LINE
  5
9DB4
  8
ALPHA
 10
106.58791
 20
37.752151
 30
0.0
 11
106.551153
 21
38.252808
 31
0.0
  0
LINE
  5
9DB5
  8
ALPHA
 10
106.93432
 20
37.752151
 30
0.0
 11
106.971077
 21
38.252808
 31
0.0
  0
ARC
  5
9DB6
  8
ALPHA
 10
106.154234
 20
35.589229
 30
0.0
 40
0.3
 50
13.0
 51
97.151216
  0
ARC
  5
9DB7
  8
ALPHA
 10
106.761115
 20
35.272151
 30
0.0
 40
0.22
 50
193.0
 51
347.0
  0
LINE
  5
9DB8
  8
ALPHA
 10
106.93432
 20
37.752151
 30
0.0
 11
106.93432
 21
36.752151
 31
0.0
  0
LINE
  5
9DB9
  8
ALPHA
 10
106.761115
 20
36.752151
 30
0.0
 11
106.761115
 21
38.252151
 31
0.0
  0
LINE
  5
9DBA
  8
ALPHA
 10
106.58791
 20
37.752151
 30
0.0
 11
106.58791
 21
36.752151
 31
0.0
  0
LINE
  5
9DBB
  8
ALPHA
 10
106.546754
 20
35.222662
 30
0.0
 11
106.446545
 21
35.656714
 31
0.0
  0
LINE
  5
9DBC
  8
ALPHA
 10
106.58791
 20
36.752151
 30
0.0
 11
106.93432
 21
36.752151
 31
0.0
  0
ARC
  5
9DBD
  8
ALPHA
 10
108.654079
 20
35.244624
 30
0.0
 40
0.3
 50
343.0
 51
67.151216
  0
ARC
  5
9DBE
  8
ALPHA
 10
106.761115
 20
30.752151
 30
0.0
 40
5.175
 50
67.151216
 51
82.848784
  0
LINE
  5
9DBF
  8
ALPHA
 10
108.810728
 20
34.730908
 30
0.0
 11
108.940971
 21
35.156913
 31
0.0
  0
ARC
  5
9DC0
  8
ALPHA
 10
110.646707
 20
33.696265
 30
0.0
 40
0.3
 50
313.0
 51
37.151216
  0
LINE
  5
9DC1
  8
ALPHA
 10
114.761115
 20
30.752151
 30
0.0
 11
114.761115
 21
37.252151
 31
0.0
  0
ARC
  5
9DC2
  8
ALPHA
 10
110.646707
 20
27.808038
 30
0.0
 40
0.3
 50
322.848784
 51
47.0
  0
ARC
  5
9DC3
  8
ALPHA
 10
109.705228
 20
26.86656
 30
0.0
 40
0.3
 50
223.0
 51
307.151216
  0
ARC
  5
9DC4
  8
ALPHA
 10
106.761115
 20
30.752151
 30
0.0
 40
5.175
 50
307.151216
 51
322.848784
  0
LINE
  5
9DC5
  8
ALPHA
 10
109.182013
 20
26.987756
 30
0.0
 11
109.485822
 21
26.66196
 31
0.0
  0
ARC
  5
9DC6
  8
ALPHA
 10
111.253588
 20
32.645116
 30
0.0
 40
0.3
 50
22.848784
 51
107.0
  0
ARC
  5
9DC7
  8
ALPHA
 10
111.253588
 20
28.859187
 30
0.0
 40
0.3
 50
253.0
 51
337.151216
  0
ARC
  5
9DC8
  8
ALPHA
 10
111.281115
 20
30.752151
 30
0.0
 40
0.22
 50
103.0
 51
257.0
  0
ARC
  5
9DC9
  8
ALPHA
 10
110.67555
 20
33.012151
 30
0.0
 40
0.22
 50
133.0
 51
287.0
  0
ARC
  5
9DCA
  8
ALPHA
 10
110.67555
 20
28.492151
 30
0.0
 40
0.22
 50
73.0
 51
227.0
  0
LINE
  5
9DCB
  8
ALPHA
 10
111.165876
 20
32.932007
 30
0.0
 11
110.739872
 21
32.801764
 31
0.0
  0
LINE
  5
9DCC
  8
ALPHA
 10
110.52551
 20
33.173049
 30
0.0
 11
110.851306
 21
33.476859
 31
0.0
  0
LINE
  5
9DCD
  8
ALPHA
 10
110.851306
 20
28.027444
 30
0.0
 11
110.52551
 21
28.331254
 31
0.0
  0
LINE
  5
9DCE
  8
ALPHA
 10
110.739872
 20
28.702538
 30
0.0
 11
111.165876
 21
28.572296
 31
0.0
  0
ARC
  5
9DCF
  8
ALPHA
 10
111.598193
 20
30.14527
 30
0.0
 40
0.3
 50
352.848784
 51
77.0
  0
ARC
  5
9DD0
  8
ALPHA
 10
111.598193
 20
31.359033
 30
0.0
 40
0.3
 50
283.0
 51
7.151216
  0
ARC
  5
9DD1
  8
ALPHA
 10
106.761115
 20
30.752151
 30
0.0
 40
5.175
 50
337.151216
 51
352.848784
  0
ARC
  5
9DD2
  8
ALPHA
 10
106.761115
 20
30.752151
 30
0.0
 40
5.175
 50
7.151216
 51
22.848784
  0
LINE
  5
9DD3
  8
ALPHA
 10
111.665678
 20
30.437581
 30
0.0
 11
111.231626
 21
30.53779
 31
0.0
  0
LINE
  5
9DD4
  8
ALPHA
 10
111.231626
 20
30.966513
 30
0.0
 11
111.665678
 21
31.066722
 31
0.0
  0
LINE
  5
9DD5
  8
ALPHA
 10
113.261115
 20
38.752151
 30
0.0
 11
111.961115
 21
38.752151
 31
0.0
  0
LINE
  5
9DD6
  8
ALPHA
 10
111.761115
 20
38.952151
 30
0.0
 11
111.761115
 21
39.752151
 31
0.0
  0
ARC
  5
9DD7
  8
ALPHA
 10
109.705228
 20
34.637743
 30
0.0
 40
0.3
 50
52.848784
 51
137.0
  0
ARC
  5
9DD8
  8
ALPHA
 10
106.761115
 20
30.752151
 30
0.0
 40
5.175
 50
37.151216
 51
52.848784
  0
LINE
  5
9DD9
  8
ALPHA
 10
109.485822
 20
34.842342
 30
0.0
 11
109.182013
 21
34.516547
 31
0.0
  0
ARC
  5
9DDA
  8
ALPHA
 10
111.961115
 20
38.952151
 30
0.0
 40
0.2
 50
180.0
 51
270.0
  0
LINE
  5
9DDB
  8
ALPHA
 10
109.261115
 20
42.052151
 30
0.0
 11
109.261115
 21
41.752151
 31
0.0
  0
LINE
  5
9DDC
  8
ALPHA
 10
112.761115
 20
39.752151
 30
0.0
 11
112.761115
 21
41.752151
 31
0.0
  0
ARC
  5
9DDD
  8
ALPHA
 10
113.261115
 20
37.252151
 30
0.0
 40
1.5
 50
0.0
 51
90.0
  0
LINE
  5
9DEF
  8
ALPHA
 10
104.261115
 20
102.702151
 30
0.0
 11
109.261115
 21
102.702151
 31
0.0
  0
LINE
  5
9DF0
  8
ALPHA
 10
104.261115
 20
101.202151
 30
0.0
 11
109.261115
 21
101.202151
 31
0.0
  0
LINE
  5
9DF1
  8
ALPHA
 10
103.261122
 20
101.182151
 30
0.0
 11
110.261108
 21
101.182151
 31
0.0
  0
LINE
  5
9DF2
  8
ALPHA
 10
103.261122
 20
100.582151
 30
0.0
 11
110.261108
 21
100.582151
 31
0.0
  0
LINE
  5
9DF3
  8
ALPHA
 10
104.261115
 20
100.552151
 30
0.0
 11
109.261115
 21
100.552151
 31
0.0
  0
LINE
  5
9DF4
  8
ALPHA
 10
102.261115
 20
100.052151
 30
0.0
 11
111.261115
 21
100.052151
 31
0.0
  0
LINE
  5
9DF5
  8
ALPHA
 10
104.261115
 20
100.552151
 30
0.0
 11
104.261115
 21
100.052151
 31
0.0
  0
LINE
  5
9DF6
  8
ALPHA
 10
104.261115
 20
102.702151
 30
0.0
 11
104.261115
 21
101.202151
 31
0.0
  0
LINE
  5
9DF7
  8
ALPHA
 10
103.261115
 20
100.582151
 30
0.0
 11
103.261115
 21
101.182151
 31
0.0
  0
LINE
  5
9DF8
  8
ALPHA
 10
105.161115
 20
100.582151
 30
0.0
 11
105.161115
 21
100.552151
 31
0.0
  0
LINE
  5
9DF9
  8
ALPHA
 10
105.161115
 20
101.202151
 30
0.0
 11
105.161115
 21
101.182151
 31
0.0
  0
LINE
  5
9DFA
  8
ALPHA
 10
108.361115
 20
100.582151
 30
0.0
 11
108.361115
 21
100.552151
 31
0.0
  0
LINE
  5
9DFB
  8
ALPHA
 10
108.361115
 20
101.202151
 30
0.0
 11
108.361115
 21
101.182151
 31
0.0
  0
LINE
  5
9DFC
  8
ALPHA
 10
110.261115
 20
100.582151
 30
0.0
 11
110.261115
 21
101.182151
 31
0.0
  0
LINE
  5
9DFD
  8
ALPHA
 10
109.261115
 20
100.552151
 30
0.0
 11
109.261115
 21
100.052151
 31
0.0
  0
LINE
  5
9DFE
  8
ALPHA
 10
109.261115
 20
102.702151
 30
0.0
 11
109.261115
 21
101.202151
 31
0.0
  0
LINE
  5
9E8A
  8
AXE
 10
97.261115
 20
71.052151
 30
0.0
 11
121.941115
 21
71.052151
 31
0.0
  0
TEXT
  5
9E8B
  8
AXE
 10
117.893496
 20
72.052151
 30
0.0
 40
5.0
  1
X
 72
     2
 11
121.941115
 21
72.052151
 31
0.0
  0
DIMENSION
  5
9E8D
  8
COTATION1
  2
*D3
 10
114.761115
 20
2.752151
 30
0.0
 11
106.761115
 21
6.002151
 31
0.0
 13
98.761115
 23
30.752151
 33
0.0
 14
114.761115
 24
30.752151
 34
0.0
  0
LINE
  5
9ED0
  8
AXE
 10
106.761115
 20
12.752151
 30
0.0
 11
106.761115
 21
107.702151
 31
0.0
  0
TEXT
  5
9ED1
  8
AXE
 10
101.713496
 20
12.752151
 30
0.0
 40
5.0
  1
Y
 72
     2
 11
105.761115
 21
12.752151
 31
0.0
  0
DIMENSION
  5
9ED2
  8
COTATION1
  2
*D4
 10
131.941115
 20
22.752151
 30
0.0
 11
131.941115
 21
62.727151
 31
0.0
 13
109.261115
 23
102.702151
 33
0.0
 14
106.761115
 24
22.752151
 34
0.0
 50
90.0
  0
LINE
  5
9F08
  8
AXE
 10
96.585226
 20
30.752151
 30
0.0
 11
116.937004
 21
30.752151
 31
0.0
  0
VIEWPORT
  5
494D
 67
     1
  8
0
 10
4.995325
 20
6.556512
 30
0.0
 40
22.70986
 41
13.988421
 68
    -1
 69
     1
1001
ACAD
1000
MVIEW
1002
{
1070
    16
1010
0.0
1020
0.0
1030
0.0
1010
0.0
1020
0.0
1030
1.0
1040
0.0
1040
13.988421
1040
4.995325
1040
6.556512
1040
50.0
1040
0.0
1040
0.0
1070
     0
1070
   100
1070
     1
1070
     1
1070
     0
1070
     0
1070
     0
1070
     0
1040
0.0
1040
0.0
1040
0.0
1040
10.0
1040
10.0
1040
10.0
1040
10.0
1070
     0
1002
{
1002
}
1002
}
  0
ENDSEC
  0
EOF
