  0
SECTION
  2
HEADER
  9
$ACADVER
  1
AC1009
  9
$INSBASE
 10
402.590624
 20
-1.041018
 30
0.0
  9
$EXTMIN
 10
98.289396
 20
-0.040877
 30
0.0
  9
$EXTMAX
 10
136.145285
 20
126.459123
 30
0.0
  9
$LIMMIN
 10
-407.970438
 20
-367.832444
  9
$LIMMAX
 10
429.804077
 20
234.370848
  9
$ORTHOMODE
 70
     0
  9
$REGENMODE
 70
     1
  9
$FILLMODE
 70
     1
  9
$QTEXTMODE
 70
     0
  9
$MIRRTEXT
 70
     1
  9
$DRAGMODE
 70
     2
  9
$LTSCALE
 40
10.0
  9
$OSMODE
 70
    35
  9
$ATTMODE
 70
     1
  9
$TEXTSIZE
 40
6.0
  9
$TRACEWID
 40
1.0
  9
$TEXTSTYLE
  7
ROMANS
  9
$CLAYER
  8
ALPHA
  9
$CELTYPE
  6
BYLAYER
  9
$CECOLOR
 62
   256
  9
$DIMSCALE
 40
1.0
  9
$DIMASZ
 40
5.0
  9
$DIMEXO
 40
2.0
  9
$DIMDLI
 40
0.38
  9
$DIMRND
 40
0.0
  9
$DIMDLE
 40
0.0
  9
$DIMEXE
 40
2.5
  9
$DIMTP
 40
0.0
  9
$DIMTM
 40
0.0
  9
$DIMTXT
 40
2.5
  9
$DIMCEN
 40
0.0
  9
$DIMTSZ
 40
0.0
  9
$DIMTOL
 70
     0
  9
$DIMLIM
 70
     0
  9
$DIMTIH
 70
     1
  9
$DIMTOH
 70
     1
  9
$DIMSE1
 70
     0
  9
$DIMSE2
 70
     0
  9
$DIMTAD
 70
     1
  9
$DIMZIN
 70
    12
  9
$DIMBLK
  1
OPEN30
  9
$DIMASO
 70
     1
  9
$DIMSHO
 70
     1
  9
$DIMPOST
  1

  9
$DIMAPOST
  1

  9
$DIMALT
 70
     0
  9
$DIMALTD
 70
     2
  9
$DIMALTF
 40
25.4
  9
$DIMLFAC
 40
1.0
  9
$DIMTOFL
 70
     0
  9
$DIMTVP
 40
0.0
  9
$DIMTIX
 70
     0
  9
$DIMSOXD
 70
     0
  9
$DIMSAH
 70
     0
  9
$DIMBLK1
  1

  9
$DIMBLK2
  1

  9
$DIMSTYLE
  2
SC_DEFAUT
  9
$DIMCLRD
 70
     0
  9
$DIMCLRE
 70
     0
  9
$DIMCLRT
 70
     0
  9
$DIMTFAC
 40
1.0
  9
$DIMGAP
 40
2.0
  9
$LUNITS
 70
     2
  9
$LUPREC
 70
     1
  9
$SKETCHINC
 40
0.1
  9
$FILLETRAD
 40
0.0
  9
$AUNITS
 70
     0
  9
$AUPREC
 70
     0
  9
$MENU
  1
acad
  9
$ELEVATION
 40
0.0
  9
$PELEVATION
 40
0.0
  9
$THICKNESS
 40
0.0
  9
$LIMCHECK
 70
     0
  9
$BLIPMODE
 70
     0
  9
$CHAMFERA
 40
0.0
  9
$CHAMFERB
 40
0.0
  9
$SKPOLY
 70
     0
  9
$TDCREATE
 40
2450373.687919
  9
$TDUPDATE
 40
2453032.667924
  9
$TDINDWG
 40
1.063338
  9
$TDUSRTIMER
 40
1.063338
  9
$USRTIMER
 70
     1
  9
$ANGBASE
 50
0.0
  9
$ANGDIR
 70
     0
  9
$PDMODE
 70
    32
  9
$PDSIZE
 40
0.0
  9
$PLINEWID
 40
0.0
  9
$COORDS
 70
     1
  9
$SPLFRAME
 70
     0
  9
$SPLINETYPE
 70
     6
  9
$SPLINESEGS
 70
     8
  9
$ATTDIA
 70
     0
  9
$ATTREQ
 70
     1
  9
$HANDLING
 70
     1
  9
$HANDSEED
  5
ABE5
  9
$SURFTAB1
 70
     6
  9
$SURFTAB2
 70
     6
  9
$SURFTYPE
 70
     6
  9
$SURFU
 70
     6
  9
$SURFV
 70
     6
  9
$UCSNAME
  2

  9
$UCSORG
 10
0.0
 20
0.0
 30
0.0
  9
$UCSXDIR
 10
1.0
 20
0.0
 30
0.0
  9
$UCSYDIR
 10
0.0
 20
1.0
 30
0.0
  9
$PUCSNAME
  2

  9
$PUCSORG
 10
0.0
 20
0.0
 30
0.0
  9
$PUCSXDIR
 10
1.0
 20
0.0
 30
0.0
  9
$PUCSYDIR
 10
0.0
 20
1.0
 30
0.0
  9
$USERI1
 70
     0
  9
$USERI2
 70
     0
  9
$USERI3
 70
     0
  9
$USERI4
 70
     0
  9
$USERI5
 70
     0
  9
$USERR1
 40
0.0
  9
$USERR2
 40
0.0
  9
$USERR3
 40
0.0
  9
$USERR4
 40
0.0
  9
$USERR5
 40
0.0
  9
$WORLDVIEW
 70
     1
  9
$SHADEDGE
 70
     3
  9
$SHADEDIF
 70
    70
  9
$TILEMODE
 70
     1
  9
$MAXACTVP
 70
    16
  9
$PLIMCHECK
 70
     0
  9
$PEXTMIN
 10
-1.452248
 20
-0.437698
 30
0.0
  9
$PEXTMAX
 10
12.749749
 20
8.310198
 30
0.0
  9
$PLIMMIN
 10
0.0
 20
0.0
  9
$PLIMMAX
 10
12.0
 20
9.0
  9
$UNITMODE
 70
     0
  9
$VISRETAIN
 70
     0
  9
$PLINEGEN
 70
     0
  9
$PSLTSCALE
 70
     0
  0
ENDSEC
  0
SECTION
  2
TABLES
  0
TABLE
  2
VPORT
 70
     2
  0
VPORT
  2
*ACTIVE
 70
     0
 10
0.0
 20
0.0
 11
1.0
 21
1.0
 12
117.210997
 22
63.200151
 13
0.0
 23
0.0
 14
1.0
 24
1.0
 15
10.0
 25
10.0
 16
0.0
 26
0.0
 36
1.0
 17
0.0
 27
0.0
 37
0.0
 40
127.442444
 41
1.466346
 42
50.0
 43
0.0
 44
0.0
 50
0.0
 51
0.0
 71
     0
 72
   100
 73
     1
 74
     0
 75
     0
 76
     0
 77
     0
 78
     0
  0
ENDTAB
  0
TABLE
  2
LTYPE
 70
     2
  0
LTYPE
  2
CONTINUOUS
 70
     0
  3
Solid line
 72
    65
 73
     0
 40
0.0
  0
LTYPE
  2
AXES2
 70
     0
  3
___ _ ___ _ ___ _ ___ _ ___ _ ___ _ ___ _ ___ _
 72
    65
 73
     4
 40
1.125
 49
0.75
 49
-0.125
 49
0.125
 49
-0.125
  0
ENDTAB
  0
TABLE
  2
LAYER
 70
     5
  0
LAYER
  2
0
 70
     0
 62
   255
  6
CONTINUOUS
  0
LAYER
  2
COTATION1
 70
     0
 62
     2
  6
CONTINUOUS
  0
LAYER
  2
AXE
 70
     0
 62
    80
  6
AXES2
  0
LAYER
  2
DEFPOINTS
 70
     0
 62
     7
  6
CONTINUOUS
  0
LAYER
  2
ALPHA
 70
     0
 62
   254
  6
CONTINUOUS
  0
ENDTAB
  0
TABLE
  2
STYLE
 70
     2
  0
STYLE
  2
ROMANS
 70
     0
 40
0.0
 41
1.0
 50
0.0
 71
     0
 42
6.0
  3
romans
  4

  0
STYLE
  2
STANDARD
 70
     0
 40
0.0
 41
1.0
 50
0.0
 71
     0
 42
0.2
  3
txt
  4

  0
ENDTAB
  0
TABLE
  2
VIEW
 70
     0
  0
ENDTAB
  0
TABLE
  2
UCS
 70
     0
  0
ENDTAB
  0
TABLE
  2
APPID
 70
     1
  0
APPID
  2
ACAD
 70
     0
  0
ENDTAB
  0
TABLE
  2
DIMSTYLE
 70
     2
  0
DIMSTYLE
  2
SC_DEFAUT
 70
     0
  3

  4

  5
OPEN30
  6

  7

 40
1.0
 41
5.0
 42
2.0
 43
0.38
 44
2.5
 45
0.0
 46
0.0
 47
0.0
 48
0.0
140
2.5
141
0.0
142
0.0
143
25.4
144
1.0
145
0.0
146
1.0
147
2.0
 71
     0
 72
     0
 73
     1
 74
     1
 75
     0
 76
     0
 77
     1
 78
    12
170
     0
171
     2
172
     0
173
     0
174
     0
175
     0
176
     0
177
     0
178
     0
  0
DIMSTYLE
  2
STANDARD
 70
     0
  3

  4

  5

  6

  7

 40
1.0
 41
0.18
 42
0.0625
 43
0.38
 44
0.18
 45
0.0
 46
0.0
 47
0.0
 48
0.0
140
0.18
141
0.09
142
0.0
143
25.4
144
1.0
145
0.0
146
1.0
147
0.09
 71
     0
 72
     0
 73
     1
 74
     1
 75
     0
 76
     0
 77
     0
 78
     0
170
     0
171
     2
172
     0
173
     0
174
     0
175
     0
176
     0
177
     0
178
     0
  0
ENDTAB
  0
ENDSEC
  0
SECTION
  2
BLOCKS
  0
BLOCK
  8
0
  2
$MODEL_SPACE
 70
     0
 10
0.0
 20
0.0
 30
0.0
  3
$MODEL_SPACE
  1

  0
ENDBLK
  5
ABDE
  8
0
  0
BLOCK
 67
     1
  8
0
  2
$PAPER_SPACE
 70
     0
 10
0.0
 20
0.0
 30
0.0
  3
$PAPER_SPACE
  1

  0
ENDBLK
  5
ABDC
 67
     1
  8
0
  0
BLOCK
  8
0
  2
COTE
 70
     0
 10
0.0
 20
0.0
 30
0.0
  3
COTE
  1

  0
ENDBLK
  5
F
  8
0
  0
BLOCK
  8
0
  2
FOND
 70
     0
 10
0.0
 20
0.0
 30
0.0
  3
FOND
  1

  0
ENDBLK
  5
75
  8
0
  0
BLOCK
  8
0
  2
_OPEN30
 70
     0
 10
0.0
 20
0.0
 30
0.0
  3
_OPEN30
  1

  0
LINE
  5
4B05
  8
COTATION1
 62
     0
 10
-1.0
 20
0.267949
 30
0.0
 11
0.0
 21
0.0
 31
0.0
1001
ACAD
1000
RTLwPs
1070
   158
  0
LINE
  5
4B06
  8
COTATION1
 62
     0
 10
0.0
 20
0.0
 30
0.0
 11
-1.0
 21
-0.267949
 31
0.0
1001
ACAD
1000
RTLwPs
1070
   158
  0
LINE
  5
4B07
  8
COTATION1
 62
     0
 10
0.0
 20
0.0
 30
0.0
 11
-1.0
 21
0.0
 31
0.0
1001
ACAD
1000
RTLwPs
1070
   158
  0
ENDBLK
  5
4B09
  8
0
  0
BLOCK
  8
0
  2
*D3
 70
     1
 10
0.0
 20
0.0
 30
0.0
  3
*D3
  1

  0
LINE
  5
AAB5
  8
COTATION1
 62
     0
 10
100.465285
 20
28.459123
 30
0.0
 11
100.465285
 21
-0.040877
 31
0.0
1001
ACAD
1000
RTLwPs
1070
   158
  0
LINE
  5
AAB6
  8
COTATION1
 62
     0
 10
116.465285
 20
28.459123
 30
0.0
 11
116.465285
 21
-0.040877
 31
0.0
1001
ACAD
1000
RTLwPs
1070
   158
  0
LINE
  5
AAB7
  8
COTATION1
 62
     0
 10
105.465285
 20
2.459123
 30
0.0
 11
111.465285
 21
2.459123
 31
0.0
1001
ACAD
1000
RTLwPs
1070
   158
  0
INSERT
  5
AAB8
  8
COTATION1
 62
     0
  2
_OPEN30
 10
100.465285
 20
2.459123
 30
0.0
 41
5.0
 42
5.0
 43
5.0
 50
180.0
1001
ACAD
1000
RTLwPs
1070
   158
  0
INSERT
  5
AAB9
  8
COTATION1
 62
     0
  2
_OPEN30
 10
116.465285
 20
2.459123
 30
0.0
 41
5.0
 42
5.0
 43
5.0
1001
ACAD
1000
RTLwPs
1070
   158
  0
TEXT
  5
AABA
  8
COTATION1
 62
     0
 10
105.905761
 20
4.459123
 30
0.0
 40
2.5
  1
16
1001
ACAD
1000
MTEXTBEGIN
1070
    73
1070
     1
1070
    44
1040
1.0
1070
    74
1070
     0
1000
MTEXTEND
  0
POINT
  5
AABB
  8
DEFPOINTS
 62
     0
 10
100.465285
 20
30.459123
 30
0.0
  0
POINT
  5
AABC
  8
DEFPOINTS
 62
     0
 10
116.465285
 20
30.459123
 30
0.0
  0
POINT
  5
AABD
  8
DEFPOINTS
 62
     0
 10
116.465285
 20
2.459123
 30
0.0
  0
ENDBLK
  5
9E99
  8
0
  0
BLOCK
  8
0
  2
*D4
 70
     1
 10
0.0
 20
0.0
 30
0.0
  3
*D4
  1

  0
LINE
  5
AAA2
  8
COTATION1
 62
     0
 10
110.465285
 20
121.459123
 30
0.0
 11
136.145285
 21
121.459123
 31
0.0
1001
ACAD
1000
RTLwPs
1070
   158
  0
LINE
  5
AAA3
  8
COTATION1
 62
     0
 10
110.465285
 20
22.459123
 30
0.0
 11
136.145285
 21
22.459123
 31
0.0
1001
ACAD
1000
RTLwPs
1070
   158
  0
LINE
  5
AAA4
  8
COTATION1
 62
     0
 10
133.645285
 20
116.459123
 30
0.0
 11
133.645285
 21
75.209123
 31
0.0
1001
ACAD
1000
RTLwPs
1070
   158
  0
LINE
  5
AAA5
  8
COTATION1
 62
     0
 10
133.645285
 20
27.459123
 30
0.0
 11
133.645285
 21
68.709123
 31
0.0
1001
ACAD
1000
RTLwPs
1070
   158
  0
INSERT
  5
AAA6
  8
COTATION1
 62
     0
  2
_OPEN30
 10
133.645285
 20
121.459123
 30
0.0
 41
5.0
 42
5.0
 43
5.0
 50
90.0
1001
ACAD
1000
RTLwPs
1070
   158
  0
INSERT
  5
AAA7
  8
COTATION1
 62
     0
  2
_OPEN30
 10
133.645285
 20
22.459123
 30
0.0
 41
5.0
 42
5.0
 43
5.0
 50
270.0
1001
ACAD
1000
RTLwPs
1070
   158
  0
TEXT
  5
AAA8
  8
COTATION1
 62
     0
 10
131.323857
 20
70.709123
 30
0.0
 40
2.5
  1
99
1001
ACAD
1000
MTEXTBEGIN
1070
    73
1070
     1
1070
    44
1040
1.0
1070
    74
1070
     0
1000
MTEXTEND
  0
POINT
  5
AAA9
  8
DEFPOINTS
 62
     0
 10
108.465285
 20
121.459123
 30
0.0
  0
POINT
  5
AAAA
  8
DEFPOINTS
 62
     0
 10
108.465285
 20
22.459123
 30
0.0
  0
POINT
  5
AAAB
  8
DEFPOINTS
 62
     0
 10
133.645285
 20
22.459123
 30
0.0
  0
ENDBLK
  5
9EDF
  8
0
  0
ENDSEC
  0
SECTION
  2
ENTITIES
  0
INSERT
  5
A
  8
0
  2
COTE
 10
0.0
 20
0.0
 30
0.0
  0
INSERT
  5
17
  8
0
  2
COTE
 10
284.010391
 20
6.373258
 30
0.0
  0
INSERT
  5
72
  8
0
  2
FOND
 10
0.0
 20
0.0
 30
0.0
  0
LINE
  5
9E8A
  8
AXE
 10
98.965285
 20
70.759123
 30
0.0
 11
123.645285
 21
70.759123
 31
0.0
  0
TEXT
  5
9E8B
  8
AXE
 10
119.597666
 20
71.759123
 30
0.0
 40
5.0
  1
X
 72
     2
 11
123.645285
 21
71.759123
 31
0.0
  0
DIMENSION
  5
9E8D
  8
COTATION1
  2
*D3
 10
116.465285
 20
2.459123
 30
0.0
 11
108.465285
 21
5.709123
 31
0.0
 13
100.465285
 23
30.459123
 33
0.0
 14
116.465285
 24
30.459123
 34
0.0
  0
LINE
  5
9ED0
  8
AXE
 10
108.465285
 20
12.459123
 30
0.0
 11
108.465285
 21
126.459123
 31
0.0
  0
TEXT
  5
9ED1
  8
AXE
 10
103.417666
 20
12.459123
 30
0.0
 40
5.0
  1
Y
 72
     2
 11
107.465285
 21
12.459123
 31
0.0
  0
DIMENSION
  5
9ED2
  8
COTATION1
  2
*D4
 10
133.645285
 20
22.459123
 30
0.0
 11
133.645285
 21
71.959123
 31
0.0
 13
108.465285
 23
121.459123
 33
0.0
 14
108.465285
 24
22.459123
 34
0.0
 50
90.0
  0
LINE
  5
9F08
  8
AXE
 10
98.289396
 20
30.459123
 30
0.0
 11
118.641175
 21
30.459123
 31
0.0
  0
ARC
  5
A5F4
  8
ALPHA
 10
101.965285
 20
36.959123
 30
0.0
 40
1.5
 50
90.0
 51
180.0
  0
ARC
  5
A613
  8
ALPHA
 10
114.965285
 20
36.959123
 30
0.0
 40
1.5
 50
0.0
 51
90.0
  0
ARC
  5
A614
  8
ALPHA
 10
113.302363
 20
29.852242
 30
0.0
 40
0.3
 50
352.848784
 51
77.0
  0
ARC
  5
A615
  8
ALPHA
 10
103.628208
 20
29.852242
 30
0.0
 40
0.3
 50
103.0
 51
187.151216
  0
ARC
  5
A616
  8
ALPHA
 10
108.465285
 20
30.459123
 30
0.0
 40
8.0
 50
180.0
 51
0.0
  0
ARC
  5
A617
  8
ALPHA
 10
108.465285
 20
25.939123
 30
0.0
 40
0.22
 50
13.0
 51
167.0
  0
LINE
  5
A618
  8
ALPHA
 10
108.150715
 20
25.55456
 30
0.0
 11
108.250924
 21
25.988612
 31
0.0
  0
LINE
  5
A619
  8
ALPHA
 10
106.415672
 20
26.480366
 30
0.0
 11
106.28543
 21
26.054362
 31
0.0
  0
ARC
  5
A61A
  8
ALPHA
 10
106.572321
 20
25.96665
 30
0.0
 40
0.3
 50
163.0
 51
247.151216
  0
ARC
  5
A61B
  8
ALPHA
 10
108.465285
 20
30.459123
 30
0.0
 40
5.175
 50
247.151216
 51
262.848784
  0
ARC
  5
A61C
  8
ALPHA
 10
107.858404
 20
25.622045
 30
0.0
 40
0.3
 50
262.848784
 51
347.0
  0
LINE
  5
A61D
  8
ALPHA
 10
105.740578
 20
26.368932
 30
0.0
 11
106.044387
 21
26.694728
 31
0.0
  0
LINE
  5
A61E
  8
ALPHA
 10
104.70089
 20
28.038225
 30
0.0
 11
104.375094
 21
27.734416
 31
0.0
  0
ARC
  5
A61F
  8
ALPHA
 10
108.465285
 20
30.459123
 30
0.0
 40
5.175
 50
217.151216
 51
232.848784
  0
ARC
  5
A620
  8
ALPHA
 10
104.55085
 20
28.199123
 30
0.0
 40
0.22
 50
313.0
 51
107.0
  0
ARC
  5
A621
  8
ALPHA
 10
104.579694
 20
27.515009
 30
0.0
 40
0.3
 50
133.0
 51
217.151216
  0
ARC
  5
A622
  8
ALPHA
 10
105.521172
 20
26.573531
 30
0.0
 40
0.3
 50
232.848784
 51
317.0
  0
ARC
  5
A623
  8
ALPHA
 10
108.465285
 20
30.459123
 30
0.0
 40
5.175
 50
187.151216
 51
202.848784
  0
ARC
  5
A624
  8
ALPHA
 10
103.972812
 20
28.566159
 30
0.0
 40
0.3
 50
202.848784
 51
287.0
  0
LINE
  5
A625
  8
ALPHA
 10
104.060524
 20
28.279267
 30
0.0
 11
104.486529
 21
28.40951
 31
0.0
  0
ARC
  5
A626
  8
ALPHA
 10
106.205285
 20
26.544688
 30
0.0
 40
0.22
 50
343.0
 51
137.0
  0
LINE
  5
A627
  8
ALPHA
 10
112.444042
 20
28.40951
 30
0.0
 11
112.870046
 21
28.279267
 31
0.0
  0
ARC
  5
A628
  8
ALPHA
 10
108.465285
 20
30.459123
 30
0.0
 40
5.175
 50
337.151216
 51
352.848784
  0
ARC
  5
A629
  8
ALPHA
 10
112.957758
 20
28.566159
 30
0.0
 40
0.3
 50
253.0
 51
337.151216
  0
ARC
  5
A62A
  8
ALPHA
 10
112.350877
 20
27.515009
 30
0.0
 40
0.3
 50
322.848784
 51
47.0
  0
LINE
  5
A62B
  8
ALPHA
 10
110.886183
 20
26.694728
 30
0.0
 11
111.189992
 21
26.368932
 31
0.0
  0
LINE
  5
A62C
  8
ALPHA
 10
110.645141
 20
26.054362
 30
0.0
 11
110.514898
 21
26.480366
 31
0.0
  0
ARC
  5
A62D
  8
ALPHA
 10
111.409399
 20
26.573531
 30
0.0
 40
0.3
 50
223.0
 51
307.151216
  0
ARC
  5
A62E
  8
ALPHA
 10
110.725285
 20
26.544688
 30
0.0
 40
0.22
 50
43.0
 51
197.0
  0
ARC
  5
A62F
  8
ALPHA
 10
110.358249
 20
25.96665
 30
0.0
 40
0.3
 50
292.848784
 51
17.0
  0
LINE
  5
A630
  8
ALPHA
 10
112.555476
 20
27.734416
 30
0.0
 11
112.22968
 21
28.038225
 31
0.0
  0
ARC
  5
A631
  8
ALPHA
 10
108.465285
 20
30.459123
 30
0.0
 40
5.175
 50
307.151216
 51
322.848784
  0
ARC
  5
A632
  8
ALPHA
 10
112.37972
 20
28.199123
 30
0.0
 40
0.22
 50
73.0
 51
227.0
  0
LINE
  5
A633
  8
ALPHA
 10
108.679647
 20
25.988612
 30
0.0
 11
108.779855
 21
25.55456
 31
0.0
  0
ARC
  5
A634
  8
ALPHA
 10
109.072166
 20
25.622045
 30
0.0
 40
0.3
 50
193.0
 51
277.151216
  0
ARC
  5
A635
  8
ALPHA
 10
108.465285
 20
30.459123
 30
0.0
 40
5.175
 50
277.151216
 51
292.848784
  0
LINE
  5
A636
  8
ALPHA
 10
108.29208
 20
36.459123
 30
0.0
 11
108.63849
 21
36.459123
 31
0.0
  0
ARC
  5
A637
  8
ALPHA
 10
108.465285
 20
34.979123
 30
0.0
 40
0.22
 50
193.0
 51
347.0
  0
LINE
  5
A638
  8
ALPHA
 10
105.001184
 20
37.459123
 30
0.0
 11
111.929387
 21
37.459123
 31
0.0
  0
LINE
  5
A639
  8
ALPHA
 10
104.496658
 20
37.959123
 30
0.0
 11
112.433912
 21
37.959123
 31
0.0
  0
LINE
  5
A63A
  8
ALPHA
 10
114.465285
 20
39.459123
 30
0.0
 11
102.465285
 21
39.459123
 31
0.0
  0
LINE
  5
A63B
  8
ALPHA
 10
102.465285
 20
41.459123
 30
0.0
 11
114.465285
 21
41.459123
 31
0.0
  0
LINE
  5
A63C
  8
ALPHA
 10
106.28543
 20
34.863884
 30
0.0
 11
106.415672
 21
34.437879
 31
0.0
  0
LINE
  5
A63D
  8
ALPHA
 10
108.250924
 20
34.929634
 30
0.0
 11
108.150715
 21
35.363686
 31
0.0
  0
ARC
  5
A63E
  8
ALPHA
 10
108.465285
 20
30.459123
 30
0.0
 40
5.175
 50
97.151216
 51
112.848784
  0
ARC
  5
A63F
  8
ALPHA
 10
107.858404
 20
35.296201
 30
0.0
 40
0.3
 50
13.0
 51
97.151216
  0
ARC
  5
A640
  8
ALPHA
 10
106.572321
 20
34.951596
 30
0.0
 40
0.3
 50
112.848784
 51
197.0
  0
LINE
  5
A641
  8
ALPHA
 10
108.29208
 20
37.459123
 30
0.0
 11
108.29208
 21
36.459123
 31
0.0
  0
LINE
  5
A642
  8
ALPHA
 10
104.465285
 20
38.459123
 30
0.0
 11
104.496658
 21
38.459123
 31
0.0
  0
LINE
  5
A643
  8
ALPHA
 10
104.465285
 20
38.459123
 30
0.0
 11
104.465285
 21
39.459123
 31
0.0
  0
LINE
  5
A644
  8
ALPHA
 10
104.496658
 20
37.959123
 30
0.0
 11
104.496658
 21
38.459123
 31
0.0
  0
LINE
  5
A645
  8
ALPHA
 10
105.001184
 20
37.459123
 30
0.0
 11
104.496658
 21
37.959123
 31
0.0
  0
LINE
  5
A646
  8
ALPHA
 10
102.465285
 20
39.459123
 30
0.0
 11
102.465285
 21
41.459123
 31
0.0
  0
LINE
  5
A647
  8
ALPHA
 10
103.465285
 20
38.659123
 30
0.0
 11
103.465285
 21
39.459123
 31
0.0
  0
ARC
  5
A648
  8
ALPHA
 10
103.265285
 20
38.659123
 30
0.0
 40
0.2
 50
270.0
 51
0.0
  0
LINE
  5
A649
  8
ALPHA
 10
104.375094
 20
33.18383
 30
0.0
 11
104.70089
 21
32.880021
 31
0.0
  0
LINE
  5
A64A
  8
ALPHA
 10
106.044387
 20
34.223518
 30
0.0
 11
105.740578
 21
34.549314
 31
0.0
  0
ARC
  5
A64B
  8
ALPHA
 10
108.465285
 20
30.459123
 30
0.0
 40
5.175
 50
127.151216
 51
142.848784
  0
ARC
  5
A64C
  8
ALPHA
 10
105.521172
 20
34.344714
 30
0.0
 40
0.3
 50
43.0
 51
127.151216
  0
ARC
  5
A64D
  8
ALPHA
 10
104.579694
 20
33.403236
 30
0.0
 40
0.3
 50
142.848784
 51
227.0
  0
ARC
  5
A64E
  8
ALPHA
 10
104.55085
 20
32.719123
 30
0.0
 40
0.22
 50
253.0
 51
47.0
  0
ARC
  5
A64F
  8
ALPHA
 10
103.972812
 20
32.352087
 30
0.0
 40
0.3
 50
73.0
 51
157.151216
  0
LINE
  5
A650
  8
ALPHA
 10
104.486529
 20
32.508736
 30
0.0
 11
104.060524
 21
32.638979
 31
0.0
  0
ARC
  5
A651
  8
ALPHA
 10
106.205285
 20
34.373558
 30
0.0
 40
0.22
 50
223.0
 51
17.0
  0
LINE
  5
A652
  8
ALPHA
 10
103.560722
 20
30.773693
 30
0.0
 11
103.994774
 21
30.673484
 31
0.0
  0
LINE
  5
A653
  8
ALPHA
 10
103.994774
 20
30.244761
 30
0.0
 11
103.560722
 21
30.144553
 31
0.0
  0
ARC
  5
A654
  8
ALPHA
 10
103.628208
 20
31.066004
 30
0.0
 40
0.3
 50
172.848784
 51
257.0
  0
ARC
  5
A655
  8
ALPHA
 10
103.945285
 20
30.459123
 30
0.0
 40
0.22
 50
283.0
 51
77.0
  0
ARC
  5
A656
  8
ALPHA
 10
108.465285
 20
30.459123
 30
0.0
 40
5.175
 50
157.151216
 51
172.848784
  0
LINE
  5
A657
  8
ALPHA
 10
100.465285
 20
30.459123
 30
0.0
 11
100.465285
 21
36.959123
 31
0.0
  0
LINE
  5
A658
  8
ALPHA
 10
100.551072
 20
37.459123
 30
0.0
 11
105.001184
 21
37.459123
 31
0.0
  0
LINE
  5
A659
  8
ALPHA
 10
103.265285
 20
38.459123
 30
0.0
 11
101.965285
 21
38.459123
 31
0.0
  0
LINE
  5
A65A
  8
ALPHA
 10
114.465285
 20
39.459123
 30
0.0
 11
114.465285
 21
41.459123
 31
0.0
  0
LINE
  5
A65B
  8
ALPHA
 10
112.433912
 20
38.459123
 30
0.0
 11
112.465285
 21
38.459123
 31
0.0
  0
LINE
  5
A65C
  8
ALPHA
 10
112.433912
 20
37.959123
 30
0.0
 11
112.433912
 21
38.459123
 31
0.0
  0
LINE
  5
A65D
  8
ALPHA
 10
112.465285
 20
38.459123
 30
0.0
 11
112.465285
 21
39.459123
 31
0.0
  0
LINE
  5
A65E
  8
ALPHA
 10
113.465285
 20
38.659123
 30
0.0
 11
113.465285
 21
39.459123
 31
0.0
  0
ARC
  5
A65F
  8
ALPHA
 10
113.665285
 20
38.659123
 30
0.0
 40
0.2
 50
180.0
 51
270.0
  0
LINE
  5
A660
  8
ALPHA
 10
111.929387
 20
37.459123
 30
0.0
 11
112.433912
 21
37.959123
 31
0.0
  0
LINE
  5
A661
  8
ALPHA
 10
112.870046
 20
32.638979
 30
0.0
 11
112.444042
 21
32.508736
 31
0.0
  0
ARC
  5
A662
  8
ALPHA
 10
112.957758
 20
32.352087
 30
0.0
 40
0.3
 50
22.848784
 51
107.0
  0
ARC
  5
A663
  8
ALPHA
 10
112.350877
 20
33.403236
 30
0.0
 40
0.3
 50
313.0
 51
37.151216
  0
LINE
  5
A664
  8
ALPHA
 10
110.514898
 20
34.437879
 30
0.0
 11
110.645141
 21
34.863884
 31
0.0
  0
LINE
  5
A665
  8
ALPHA
 10
111.189992
 20
34.549314
 30
0.0
 11
110.886183
 21
34.223518
 31
0.0
  0
ARC
  5
A666
  8
ALPHA
 10
111.409399
 20
34.344714
 30
0.0
 40
0.3
 50
52.848784
 51
137.0
  0
ARC
  5
A667
  8
ALPHA
 10
110.725285
 20
34.373558
 30
0.0
 40
0.22
 50
163.0
 51
317.0
  0
ARC
  5
A668
  8
ALPHA
 10
110.358249
 20
34.951596
 30
0.0
 40
0.3
 50
343.0
 51
67.151216
  0
LINE
  5
A669
  8
ALPHA
 10
112.22968
 20
32.880021
 30
0.0
 11
112.555476
 21
33.18383
 31
0.0
  0
ARC
  5
A66A
  8
ALPHA
 10
108.465285
 20
30.459123
 30
0.0
 40
5.175
 50
37.151216
 51
52.848784
  0
ARC
  5
A66B
  8
ALPHA
 10
112.37972
 20
32.719123
 30
0.0
 40
0.22
 50
133.0
 51
287.0
  0
LINE
  5
A66C
  8
ALPHA
 10
111.929387
 20
37.459123
 30
0.0
 11
116.379499
 21
37.459123
 31
0.0
  0
LINE
  5
A66D
  8
ALPHA
 10
114.965285
 20
38.459123
 30
0.0
 11
113.665285
 21
38.459123
 31
0.0
  0
LINE
  5
A66E
  8
ALPHA
 10
112.935796
 20
30.673484
 30
0.0
 11
113.369848
 21
30.773693
 31
0.0
  0
LINE
  5
A66F
  8
ALPHA
 10
113.369848
 20
30.144553
 30
0.0
 11
112.935796
 21
30.244761
 31
0.0
  0
ARC
  5
A670
  8
ALPHA
 10
113.302363
 20
31.066004
 30
0.0
 40
0.3
 50
283.0
 51
7.151216
  0
ARC
  5
A671
  8
ALPHA
 10
112.985285
 20
30.459123
 30
0.0
 40
0.22
 50
103.0
 51
257.0
  0
LINE
  5
A672
  8
ALPHA
 10
116.465285
 20
30.459123
 30
0.0
 11
116.465285
 21
36.959123
 31
0.0
  0
ARC
  5
A673
  8
ALPHA
 10
108.465285
 20
30.459123
 30
0.0
 40
5.175
 50
7.151216
 51
22.848784
  0
LINE
  5
A674
  8
ALPHA
 10
108.779855
 20
35.363686
 30
0.0
 11
108.679647
 21
34.929634
 31
0.0
  0
ARC
  5
A675
  8
ALPHA
 10
109.072166
 20
35.296201
 30
0.0
 40
0.3
 50
82.848784
 51
167.0
  0
LINE
  5
A676
  8
ALPHA
 10
108.465285
 20
36.459123
 30
0.0
 11
108.465285
 21
37.459123
 31
0.0
  0
LINE
  5
A677
  8
ALPHA
 10
108.63849
 20
37.459123
 30
0.0
 11
108.63849
 21
36.459123
 31
0.0
  0
ARC
  5
A678
  8
ALPHA
 10
108.465285
 20
30.459123
 30
0.0
 40
5.175
 50
67.151216
 51
82.848784
  0
LINE
  5
A748
  8
ALPHA
 10
104.715285
 20
85.429606
 30
0.0
 11
106.467917
 21
119.561685
 31
0.0
  0
LINE
  5
A749
  8
ALPHA
 10
112.215285
 20
85.429606
 30
0.0
 11
110.462654
 21
119.561685
 31
0.0
  0
LINE
  5
A7E8
  8
ALPHA
 10
103.846483
 20
81.459123
 30
0.0
 11
113.084087
 21
81.459123
 31
0.0
  0
LINE
  5
A7E9
  8
ALPHA
 10
106.155884
 20
85.443853
 30
0.0
 11
110.774686
 21
85.443853
 31
0.0
  0
LINE
  5
A7EA
  8
ALPHA
 10
104.715311
 20
85.434372
 30
0.0
 11
104.836026
 21
85.433929
 31
0.0
  0
LINE
  5
A7EB
  8
ALPHA
 10
104.836026
 20
85.433929
 30
0.0
 11
106.155884
 21
85.443853
 31
0.0
  0
LINE
  5
A7EC
  8
ALPHA
 10
103.846483
 20
85.443853
 30
0.0
 11
104.715311
 21
85.434372
 31
0.0
  0
LINE
  5
A7F4
  8
ALPHA
 10
103.846483
 20
81.459123
 30
0.0
 11
103.846483
 21
85.443853
 31
0.0
  0
LINE
  5
A7F5
  8
ALPHA
 10
106.155884
 20
81.459123
 30
0.0
 11
106.155884
 21
85.443853
 31
0.0
  0
LINE
  5
A7FC
  8
ALPHA
 10
110.774686
 20
85.443853
 30
0.0
 11
112.094621
 21
85.433929
 31
0.0
  0
LINE
  5
A7FD
  8
ALPHA
 10
112.094621
 20
85.433929
 30
0.0
 11
112.21526
 21
85.434372
 31
0.0
  0
LINE
  5
A7FE
  8
ALPHA
 10
112.21526
 20
85.434372
 30
0.0
 11
113.084087
 21
85.443853
 31
0.0
  0
LINE
  5
A805
  8
ALPHA
 10
110.774686
 20
81.459123
 30
0.0
 11
110.774686
 21
85.443853
 31
0.0
  0
LINE
  5
A806
  8
ALPHA
 10
113.084087
 20
81.459123
 30
0.0
 11
113.084087
 21
85.443853
 31
0.0
  0
LINE
  5
A807
  8
ALPHA
 10
106.467917
 20
119.561685
 30
0.0
 11
110.462654
 21
119.561685
 31
0.0
  0
ARC
  5
A808
  8
ALPHA
 10
108.465285
 20
119.459123
 30
0.0
 40
2.0
 50
2.939471
 51
177.060529
  0
LINE
  5
A809
  8
ALPHA
 10
104.565225
 20
41.459769
 30
0.0
 11
104.565225
 21
81.459123
 31
0.0
  0
LINE
  5
A80A
  8
ALPHA
 62
   255
 10
105.023864
 20
37.959123
 30
0.0
 11
105.023864
 21
39.459123
 31
0.0
  0
LINE
  5
A842
  8
ALPHA
 62
   255
 10
111.906706
 20
37.959123
 30
0.0
 11
111.906706
 21
39.459123
 31
0.0
  0
LINE
  5
A843
  8
ALPHA
 10
112.365345
 20
41.459769
 30
0.0
 11
112.365345
 21
81.459123
 31
0.0
  0
LINE
  5
AB70
  8
ALPHA
 62
   255
 10
111.906706
 20
41.459123
 30
0.0
 11
111.906706
 21
81.459123
 31
0.0
  0
LINE
  5
AB71
  8
ALPHA
 62
   255
 10
105.023864
 20
41.459123
 30
0.0
 11
105.023864
 21
81.459123
 31
0.0
  0
VIEWPORT
  5
494D
 67
     1
  8
0
 10
4.995325
 20
6.556512
 30
0.0
 40
22.70986
 41
13.988421
 68
    -1
 69
     1
1001
ACAD
1000
MVIEW
1002
{
1070
    16
1010
0.0
1020
0.0
1030
0.0
1010
0.0
1020
0.0
1030
1.0
1040
0.0
1040
13.988421
1040
4.995325
1040
6.556512
1040
50.0
1040
0.0
1040
0.0
1070
     0
1070
   100
1070
     1
1070
     1
1070
     0
1070
     0
1070
     0
1070
     0
1040
0.0
1040
0.0
1040
0.0
1040
10.0
1040
10.0
1040
10.0
1040
10.0
1070
     0
1002
{
1002
}
1002
}
  0
ENDSEC
  0
EOF
