  0
SECTION
  2
HEADER
  9
$ACADVER
  1
AC1014
  9
$ACADMAINTVER
 70
     0
  9
$DWGCODEPAGE
  3
ANSI_1252
  9
$INSBASE
 10
107.731496
 20
98.358165
 30
0.0
  9
$EXTMIN
 10
70.823584
 20
78.365487
 30
0.0
  9
$EXTMAX
 10
173.982641
 20
200.090065
 30
0.0
  9
$LIMMIN
 10
0.0
 20
0.0
  9
$LIMMAX
 10
210.0
 20
297.0
  9
$ORTHOMODE
 70
     1
  9
$REGENMODE
 70
     1
  9
$FILLMODE
 70
     1
  9
$QTEXTMODE
 70
     0
  9
$MIRRTEXT
 70
     1
  9
$DRAGMODE
 70
     2
  9
$LTSCALE
 40
10.0
  9
$OSMODE
 70
     0
  9
$ATTMODE
 70
     1
  9
$TEXTSIZE
 40
2.9
  9
$TRACEWID
 40
0.05
  9
$TEXTSTYLE
  7
ROMANS
  9
$CLAYER
  8
AXE
  9
$CELTYPE
  6
BYLAYER
  9
$CECOLOR
 62
   256
  9
$CELTSCALE
 40
1.0
  9
$DELOBJ
 70
     1
  9
$DISPSILH
 70
     0
  9
$DIMSCALE
 40
1.0
  9
$DIMASZ
 40
3.0
  9
$DIMEXO
 40
0.0625
  9
$DIMDLI
 40
0.38
  9
$DIMRND
 40
0.01
  9
$DIMDLE
 40
0.0
  9
$DIMEXE
 40
0.18
  9
$DIMTP
 40
0.0
  9
$DIMTM
 40
0.0
  9
$DIMTXT
 40
2.5
  9
$DIMCEN
 40
0.09
  9
$DIMTSZ
 40
0.0
  9
$DIMTOL
 70
     0
  9
$DIMLIM
 70
     0
  9
$DIMTIH
 70
     0
  9
$DIMTOH
 70
     0
  9
$DIMSE1
 70
     0
  9
$DIMSE2
 70
     0
  9
$DIMTAD
 70
     1
  9
$DIMZIN
 70
    12
  9
$DIMBLK
  1

  9
$DIMASO
 70
     1
  9
$DIMSHO
 70
     1
  9
$DIMPOST
  1

  9
$DIMAPOST
  1

  9
$DIMALT
 70
     0
  9
$DIMALTD
 70
     2
  9
$DIMALTF
 40
25.4
  9
$DIMLFAC
 40
1.0
  9
$DIMTOFL
 70
     1
  9
$DIMTVP
 40
0.0
  9
$DIMTIX
 70
     0
  9
$DIMSOXD
 70
     0
  9
$DIMSAH
 70
     1
  9
$DIMBLK1
  1
_OPEN
  9
$DIMBLK2
  1
_OPEN
  9
$DIMSTYLE
  2
SC_STAND
  9
$DIMCLRD
 70
     0
  9
$DIMCLRE
 70
     0
  9
$DIMCLRT
 70
     0
  9
$DIMTFAC
 40
1.0
  9
$DIMGAP
 40
1.0
  9
$DIMJUST
 70
     0
  9
$DIMSD1
 70
     0
  9
$DIMSD2
 70
     0
  9
$DIMTOLJ
 70
     1
  9
$DIMTZIN
 70
    12
  9
$DIMALTZ
 70
    12
  9
$DIMALTTZ
 70
    12
  9
$DIMFIT
 70
     5
  9
$DIMUPT
 70
     0
  9
$DIMUNIT
 70
     2
  9
$DIMDEC
 70
     4
  9
$DIMTDEC
 70
     4
  9
$DIMALTU
 70
     2
  9
$DIMALTTD
 70
     2
  9
$DIMTXSTY
  7
ROMANS
  9
$DIMAUNIT
 70
     0
  9
$LUNITS
 70
     2
  9
$LUPREC
 70
     4
  9
$SKETCHINC
 40
0.1
  9
$FILLETRAD
 40
5.0
  9
$AUNITS
 70
     0
  9
$AUPREC
 70
     0
  9
$MENU
  1
.
  9
$ELEVATION
 40
0.0
  9
$PELEVATION
 40
0.0
  9
$THICKNESS
 40
0.0
  9
$LIMCHECK
 70
     0
  9
$BLIPMODE
 70
     1
  9
$CHAMFERA
 40
0.0
  9
$CHAMFERB
 40
0.0
  9
$CHAMFERC
 40
0.0
  9
$CHAMFERD
 40
0.0
  9
$SKPOLY
 70
     0
  9
$TDCREATE
 40
2451263.714510069
  9
$TDUPDATE
 40
2451387.896622199
  9
$TDINDWG
 40
0.0218296296
  9
$TDUSRTIMER
 40
0.0218296296
  9
$USRTIMER
 70
     1
  9
$ANGBASE
 50
0.0
  9
$ANGDIR
 70
     0
  9
$PDMODE
 70
     0
  9
$PDSIZE
 40
0.0
  9
$PLINEWID
 40
0.0
  9
$COORDS
 70
     1
  9
$SPLFRAME
 70
     0
  9
$SPLINETYPE
 70
     6
  9
$SPLINESEGS
 70
     8
  9
$ATTDIA
 70
     1
  9
$ATTREQ
 70
     1
  9
$HANDLING
 70
     1
  9
$HANDSEED
  5
DC
  9
$SURFTAB1
 70
     6
  9
$SURFTAB2
 70
     6
  9
$SURFTYPE
 70
     6
  9
$SURFU
 70
     6
  9
$SURFV
 70
     6
  9
$UCSNAME
  2

  9
$UCSORG
 10
0.0
 20
0.0
 30
0.0
  9
$UCSXDIR
 10
1.0
 20
0.0
 30
0.0
  9
$UCSYDIR
 10
0.0
 20
1.0
 30
0.0
  9
$PUCSNAME
  2

  9
$PUCSORG
 10
0.0
 20
0.0
 30
0.0
  9
$PUCSXDIR
 10
1.0
 20
0.0
 30
0.0
  9
$PUCSYDIR
 10
0.0
 20
1.0
 30
0.0
  9
$USERI1
 70
     0
  9
$USERI2
 70
     0
  9
$USERI3
 70
     0
  9
$USERI4
 70
     0
  9
$USERI5
 70
     0
  9
$USERR1
 40
0.0
  9
$USERR2
 40
0.0
  9
$USERR3
 40
0.0
  9
$USERR4
 40
0.0
  9
$USERR5
 40
0.0
  9
$WORLDVIEW
 70
     1
  9
$SHADEDGE
 70
     3
  9
$SHADEDIF
 70
    70
  9
$TILEMODE
 70
     1
  9
$MAXACTVP
 70
    16
  9
$PINSBASE
 10
0.0
 20
0.0
 30
0.0
  9
$PLIMCHECK
 70
     0
  9
$PEXTMIN
 10
0.0
 20
0.0
 30
0.0
  9
$PEXTMAX
 10
420.0
 20
297.0
 30
0.0
  9
$PLIMMIN
 10
0.0
 20
0.0
  9
$PLIMMAX
 10
420.0
 20
297.0
  9
$UNITMODE
 70
     0
  9
$VISRETAIN
 70
     0
  9
$PLINEGEN
 70
     0
  9
$PSLTSCALE
 70
     1
  9
$TREEDEPTH
 70
  3020
  9
$PICKSTYLE
 70
     1
  9
$CMLSTYLE
  2
STANDARD
  9
$CMLJUST
 70
     0
  9
$CMLSCALE
 40
1.0
  9
$PROXYGRAPHICS
 70
     1
  9
$MEASUREMENT
 70
     0
  0
ENDSEC
  0
SECTION
  2
CLASSES
  0
CLASS
  1
DICTIONARYVAR
  2
AcDbDictionaryVar
  3
"AutoCAD"
 90
        0
280
     0
281
     0
  0
CLASS
  1
LWPOLYLINE
  2
AcDbPolyline
  3
"AutoCAD"
 90
        0
280
     0
281
     1
  0
ENDSEC
  0
SECTION
  2
TABLES
  0
TABLE
  2
VPORT
  5
AD
100
AcDbSymbolTable
 70
     1
  0
VPORT
  5
D7
100
AcDbSymbolTableRecord
100
AcDbViewportTableRecord
  2
*ACTIVE
 70
     0
 10
0.0
 20
0.0
 11
1.0
 21
1.0
 12
110.713191
 22
143.267866
 13
0.0
 23
0.0
 14
1.0
 24
1.0
 15
0.0
 25
0.0
 16
0.0
 26
0.0
 36
1.0
 17
0.0
 27
0.0
 37
0.0
 40
138.567989
 41
1.671053
 42
50.0
 43
0.0
 44
0.0
 50
0.0
 51
0.0
 71
     0
 72
   100
 73
     1
 74
     1
 75
     0
 76
     0
 77
     0
 78
     0
  0
ENDTAB
  0
TABLE
  2
LTYPE
  5
AA
100
AcDbSymbolTable
 70
     2
  0
LTYPE
  5
B6
100
AcDbSymbolTableRecord
100
AcDbLinetypeTableRecord
  2
BYBLOCK
 70
     0
  3

 72
    65
 73
     0
 40
0.0
  0
LTYPE
  5
B7
100
AcDbSymbolTableRecord
100
AcDbLinetypeTableRecord
  2
BYLAYER
 70
     0
  3

 72
    65
 73
     0
 40
0.0
  0
LTYPE
  5
B8
100
AcDbSymbolTableRecord
100
AcDbLinetypeTableRecord
  2
CONTINUOUS
 70
     0
  3
Solid line
 72
    65
 73
     0
 40
0.0
  0
LTYPE
  5
C7
100
AcDbSymbolTableRecord
100
AcDbLinetypeTableRecord
  2
AXES2
 70
     0
  3
___ _ ___ _ ___ _ ___ _ ___ _ ___ _ ___ _ ___ _
 72
    65
 73
     4
 40
1.125
 49
0.75
 74
     0
 49
-0.125
 74
     0
 49
0.125
 74
     0
 49
-0.125
 74
     0
  0
ENDTAB
  0
TABLE
  2
LAYER
  5
A7
100
AcDbSymbolTable
 70
     5
  0
LAYER
  5
B3
100
AcDbSymbolTableRecord
100
AcDbLayerTableRecord
  2
0
 70
     0
 62
   255
  6
CONTINUOUS
  0
LAYER
  5
CA
100
AcDbSymbolTableRecord
100
AcDbLayerTableRecord
  2
AXE
 70
     0
 62
    80
  6
AXES2
  0
LAYER
  5
CB
100
AcDbSymbolTableRecord
100
AcDbLayerTableRecord
  2
COTATION1
 70
     0
 62
     2
  6
CONTINUOUS
  0
LAYER
  5
CC
100
AcDbSymbolTableRecord
100
AcDbLayerTableRecord
  2
ALPHA
 70
     0
 62
   254
  6
CONTINUOUS
  0
LAYER
  5
CD
100
AcDbSymbolTableRecord
100
AcDbLayerTableRecord
  2
DEFPOINTS
 70
     0
 62
     7
  6
CONTINUOUS
  0
ENDTAB
  0
TABLE
  2
STYLE
  5
A8
100
AcDbSymbolTable
 70
     2
  0
STYLE
  5
B4
100
AcDbSymbolTableRecord
100
AcDbTextStyleTableRecord
  2
STANDARD
 70
     0
 40
0.0
 41
1.0
 50
0.0
 71
     0
 42
0.2
  3
txt
  4

  0
STYLE
  5
C6
100
AcDbSymbolTableRecord
100
AcDbTextStyleTableRecord
  2
ROMANS
 70
     0
 40
0.0
 41
1.0
 50
0.0
 71
     0
 42
2.9
  3
romans.shx
  4

  0
ENDTAB
  0
TABLE
  2
VIEW
  5
AB
100
AcDbSymbolTable
 70
     0
  0
ENDTAB
  0
TABLE
  2
UCS
  5
AC
100
AcDbSymbolTable
 70
     0
  0
ENDTAB
  0
TABLE
  2
APPID
  5
AE
100
AcDbSymbolTable
 70
     1
  0
APPID
  5
B5
100
AcDbSymbolTableRecord
100
AcDbRegAppTableRecord
  2
ACAD
 70
     0
  0
ENDTAB
  0
TABLE
  2
DIMSTYLE
  5
AF
100
AcDbSymbolTable
 70
     1
  0
DIMSTYLE
105
C9
102
{ACAD_REACTORS
330
22
330
37
330
5F
330
6C
102
}
100
AcDbSymbolTableRecord
100
AcDbDimStyleTableRecord
  2
SC_STAND
 70
     0
  3

  4

  5

  6

  7

 40
1.0
 41
3.0
 42
0.0625
 43
0.38
 44
0.18
 45
0.01
 46
0.0
 47
0.0
 48
0.0
140
2.5
141
0.09
142
0.0
143
25.4
144
1.0
145
0.0
146
1.0
147
1.0
 71
     0
 72
     0
 73
     0
 74
     0
 75
     0
 76
     0
 77
     1
 78
    12
170
     0
171
     2
172
     1
173
     0
174
     0
175
     0
176
     0
177
     0
178
     0
270
     2
271
     4
272
     4
273
     2
274
     2
340
C6
275
     0
280
     0
281
     0
282
     0
283
     1
284
    12
285
    12
286
    12
287
     5
288
     0
  0
ENDTAB
  0
TABLE
  2
BLOCK_RECORD
  5
A6
100
AcDbSymbolTable
 70
     5
  0
BLOCK_RECORD
  5
BC
100
AcDbSymbolTableRecord
100
AcDbBlockTableRecord
  2
*MODEL_SPACE
  0
BLOCK_RECORD
  5
B9
100
AcDbSymbolTableRecord
100
AcDbBlockTableRecord
  2
*PAPER_SPACE
  0
BLOCK_RECORD
  5
C1
100
AcDbSymbolTableRecord
100
AcDbBlockTableRecord
  2
_OPEN
  0
BLOCK_RECORD
  5
C2
100
AcDbSymbolTableRecord
100
AcDbBlockTableRecord
  2
*D1
  0
BLOCK_RECORD
  5
C3
100
AcDbSymbolTableRecord
100
AcDbBlockTableRecord
  2
*D2
  0
BLOCK_RECORD
  5
C4
100
AcDbSymbolTableRecord
100
AcDbBlockTableRecord
  2
*D3
  0
BLOCK_RECORD
  5
C5
100
AcDbSymbolTableRecord
100
AcDbBlockTableRecord
  2
*D4
  0
ENDTAB
  0
ENDSEC
  0
SECTION
  2
BLOCKS
  0
BLOCK
  5
D0
100
AcDbEntity
  8
0
100
AcDbBlockBegin
  2
*MODEL_SPACE
 70
     0
 10
0.0
 20
0.0
 30
0.0
  3
*MODEL_SPACE
  1

  0
ENDBLK
  5
D1
100
AcDbEntity
  8
0
100
AcDbBlockEnd
  0
BLOCK
  5
CE
100
AcDbEntity
 67
     1
  8
0
100
AcDbBlockBegin
  2
*PAPER_SPACE
 70
     0
 10
0.0
 20
0.0
 30
0.0
  3
*PAPER_SPACE
  1

  0
ENDBLK
  5
CF
100
AcDbEntity
 67
     1
  8
0
100
AcDbBlockEnd
  0
BLOCK
  5
2D
100
AcDbEntity
  8
0
100
AcDbBlockBegin
  2
_OPEN
 70
     0
 10
0.0
 20
0.0
 30
0.0
  3
_OPEN
  1
AVE_GLOBAL
  0
LINE
  5
2A
100
AcDbEntity
  8
0
  6
BYBLOCK
 62
     0
100
AcDbLine
 10
-1.0
 20
0.166667
 30
0.0
 11
0.0
 21
0.0
 31
0.0
  0
LINE
  5
2B
100
AcDbEntity
  8
0
  6
BYBLOCK
 62
     0
100
AcDbLine
 10
0.0
 20
0.0
 30
0.0
 11
-1.0
 21
-0.166667
 31
0.0
  0
LINE
  5
2C
100
AcDbEntity
  8
0
  6
BYBLOCK
 62
     0
100
AcDbLine
 10
0.0
 20
0.0
 30
0.0
 11
-1.0
 21
0.0
 31
0.0
  0
ENDBLK
  5
2E
100
AcDbEntity
  8
0
100
AcDbBlockEnd
  0
BLOCK
  5
42
100
AcDbEntity
  8
0
100
AcDbBlockBegin
  2
*D1
 70
     1
 10
0.0
 20
0.0
 30
0.0
  3
*D1
  1
AVE_GLOBAL
  0
LINE
  5
39
100
AcDbEntity
  8
0
  6
BYBLOCK
 62
     0
100
AcDbLine
 10
69.031034
 20
160.420665
 30
0.0
 11
69.031034
 21
170.613329
 31
0.0
  0
LINE
  5
3A
100
AcDbEntity
  8
0
  6
BYBLOCK
 62
     0
100
AcDbLine
 10
104.031034
 20
160.670665
 30
0.0
 11
104.031034
 21
170.613329
 31
0.0
  0
LINE
  5
3B
100
AcDbEntity
  8
0
  6
BYBLOCK
 62
     0
100
AcDbLine
 10
72.031034
 20
170.433329
 30
0.0
 11
101.031034
 21
170.433329
 31
0.0
  0
INSERT
  5
3C
100
AcDbEntity
  8
0
  6
BYBLOCK
 62
     0
100
AcDbBlockReference
  2
_OPEN
 10
69.031034
 20
170.433329
 30
0.0
 41
3.0
 42
3.0
 43
3.0
 50
180.0
  0
INSERT
  5
3D
100
AcDbEntity
  8
0
  6
BYBLOCK
 62
     0
100
AcDbBlockReference
  2
_OPEN
 10
104.031034
 20
170.433329
 30
0.0
 41
3.0
 42
3.0
 43
3.0
  0
TEXT
  5
3E
100
AcDbEntity
  8
0
  6
BYBLOCK
 62
     0
100
AcDbText
 10
84.447701
 20
171.433329
 30
0.0
 40
2.5
  1
35
100
AcDbText
  0
POINT
  5
3F
100
AcDbEntity
  8
DEFPOINTS
  6
BYBLOCK
 62
     0
100
AcDbPoint
 10
69.031034
 20
160.358165
 30
0.0
  0
POINT
  5
40
100
AcDbEntity
  8
DEFPOINTS
  6
BYBLOCK
 62
     0
100
AcDbPoint
 10
104.031034
 20
160.608165
 30
0.0
  0
POINT
  5
41
100
AcDbEntity
  8
DEFPOINTS
  6
BYBLOCK
 62
     0
100
AcDbPoint
 10
104.031034
 20
170.433329
 30
0.0
  0
ENDBLK
  5
43
100
AcDbEntity
  8
0
100
AcDbBlockEnd
  0
BLOCK
  5
35
100
AcDbEntity
  8
0
100
AcDbBlockBegin
  2
*D2
 70
     1
 10
0.0
 20
0.0
 30
0.0
  3
*D2
  1
AVE_GLOBAL
  0
LINE
  5
25
100
AcDbEntity
  8
0
  6
BYBLOCK
 62
     0
100
AcDbLine
 10
60.781034
 20
157.920665
 30
0.0
 11
60.781034
 21
178.182996
 31
0.0
  0
LINE
  5
26
100
AcDbEntity
  8
0
  6
BYBLOCK
 62
     0
100
AcDbLine
 10
112.281034
 20
157.920665
 30
0.0
 11
112.281034
 21
178.182996
 31
0.0
  0
LINE
  5
27
100
AcDbEntity
  8
0
  6
BYBLOCK
 62
     0
100
AcDbLine
 10
63.781034
 20
178.002996
 30
0.0
 11
109.281034
 21
178.002996
 31
0.0
  0
INSERT
  5
28
100
AcDbEntity
  8
0
  6
BYBLOCK
 62
     0
100
AcDbBlockReference
  2
_OPEN
 10
60.781034
 20
178.002996
 30
0.0
 41
3.0
 42
3.0
 43
3.0
 50
180.0
  0
INSERT
  5
2F
100
AcDbEntity
  8
0
  6
BYBLOCK
 62
     0
100
AcDbBlockReference
  2
_OPEN
 10
112.281034
 20
178.002996
 30
0.0
 41
3.0
 42
3.0
 43
3.0
  0
TEXT
  5
30
100
AcDbEntity
  8
0
  6
BYBLOCK
 62
     0
100
AcDbText
 10
83.197701
 20
179.002996
 30
0.0
 40
2.5
  1
51.5
100
AcDbText
  0
POINT
  5
31
100
AcDbEntity
  8
DEFPOINTS
  6
BYBLOCK
 62
     0
100
AcDbPoint
 10
60.781034
 20
157.858165
 30
0.0
  0
POINT
  5
33
100
AcDbEntity
  8
DEFPOINTS
  6
BYBLOCK
 62
     0
100
AcDbPoint
 10
112.281034
 20
157.858165
 30
0.0
  0
POINT
  5
34
100
AcDbEntity
  8
DEFPOINTS
  6
BYBLOCK
 62
     0
100
AcDbPoint
 10
112.281034
 20
178.002996
 30
0.0
  0
ENDBLK
  5
36
100
AcDbEntity
  8
0
100
AcDbBlockEnd
  0
BLOCK
  5
77
100
AcDbEntity
  8
0
100
AcDbBlockBegin
  2
*D3
 70
     1
 10
0.0
 20
0.0
 30
0.0
  3
*D3
  1
AVE_GLOBAL
  0
LINE
  5
6E
100
AcDbEntity
  8
0
  6
BYBLOCK
 62
     0
100
AcDbLine
 10
110.343534
 20
151.858165
 30
0.0
 11
125.707224
 21
151.858165
 31
0.0
  0
LINE
  5
6F
100
AcDbEntity
  8
0
  6
BYBLOCK
 62
     0
100
AcDbLine
 10
110.343534
 20
104.858165
 30
0.0
 11
125.707224
 21
104.858165
 31
0.0
  0
LINE
  5
70
100
AcDbEntity
  8
0
  6
BYBLOCK
 62
     0
100
AcDbLine
 10
125.527224
 20
148.858165
 30
0.0
 11
125.527224
 21
107.858165
 31
0.0
  0
INSERT
  5
71
100
AcDbEntity
  8
0
  6
BYBLOCK
 62
     0
100
AcDbBlockReference
  2
_OPEN
 10
125.527224
 20
151.858165
 30
0.0
 41
3.0
 42
3.0
 43
3.0
 50
90.0
  0
INSERT
  5
72
100
AcDbEntity
  8
0
  6
BYBLOCK
 62
     0
100
AcDbBlockReference
  2
_OPEN
 10
125.527224
 20
104.858165
 30
0.0
 41
3.0
 42
3.0
 43
3.0
 50
270.0
  0
TEXT
  5
73
100
AcDbEntity
  8
0
  6
BYBLOCK
 62
     0
100
AcDbText
 10
124.527224
 20
126.274832
 30
0.0
 40
2.5
  1
47
 50
90.0
100
AcDbText
  0
POINT
  5
74
100
AcDbEntity
  8
DEFPOINTS
  6
BYBLOCK
 62
     0
100
AcDbPoint
 10
110.281034
 20
151.858165
 30
0.0
  0
POINT
  5
75
100
AcDbEntity
  8
DEFPOINTS
  6
BYBLOCK
 62
     0
100
AcDbPoint
 10
110.281034
 20
104.858165
 30
0.0
  0
POINT
  5
76
100
AcDbEntity
  8
DEFPOINTS
  6
BYBLOCK
 62
     0
100
AcDbPoint
 10
125.527224
 20
104.858165
 30
0.0
  0
ENDBLK
  5
78
100
AcDbEntity
  8
0
100
AcDbBlockEnd
  0
BLOCK
  5
6A
100
AcDbEntity
  8
0
100
AcDbBlockBegin
  2
*D4
 70
     1
 10
0.0
 20
0.0
 30
0.0
  3
*D4
  1
AVE_GLOBAL
  0
LINE
  5
61
100
AcDbEntity
  8
0
  6
BYBLOCK
 62
     0
100
AcDbLine
 10
108.631729
 20
158.358165
 30
0.0
 11
133.835399
 21
158.358165
 31
0.0
  0
LINE
  5
62
100
AcDbEntity
  8
0
  6
BYBLOCK
 62
     0
100
AcDbLine
 10
111.367147
 20
98.358165
 30
0.0
 11
133.835399
 21
98.358165
 31
0.0
  0
LINE
  5
63
100
AcDbEntity
  8
0
  6
BYBLOCK
 62
     0
100
AcDbLine
 10
133.655399
 20
155.358165
 30
0.0
 11
133.655399
 21
101.358165
 31
0.0
  0
INSERT
  5
64
100
AcDbEntity
  8
0
  6
BYBLOCK
 62
     0
100
AcDbBlockReference
  2
_OPEN
 10
133.655399
 20
158.358165
 30
0.0
 41
3.0
 42
3.0
 43
3.0
 50
90.0
  0
INSERT
  5
65
100
AcDbEntity
  8
0
  6
BYBLOCK
 62
     0
100
AcDbBlockReference
  2
_OPEN
 10
133.655399
 20
98.358165
 30
0.0
 41
3.0
 42
3.0
 43
3.0
 50
270.0
  0
TEXT
  5
66
100
AcDbEntity
  8
0
  6
BYBLOCK
 62
     0
100
AcDbText
 10
132.655399
 20
126.483165
 30
0.0
 40
2.5
  1
60
 50
90.0
100
AcDbText
  0
POINT
  5
67
100
AcDbEntity
  8
DEFPOINTS
  6
BYBLOCK
 62
     0
100
AcDbPoint
 10
108.569229
 20
158.358165
 30
0.0
  0
POINT
  5
68
100
AcDbEntity
  8
DEFPOINTS
  6
BYBLOCK
 62
     0
100
AcDbPoint
 10
111.304647
 20
98.358165
 30
0.0
  0
POINT
  5
69
100
AcDbEntity
  8
DEFPOINTS
  6
BYBLOCK
 62
     0
100
AcDbPoint
 10
133.655399
 20
98.358165
 30
0.0
  0
ENDBLK
  5
6B
100
AcDbEntity
  8
0
100
AcDbBlockEnd
  0
ENDSEC
  0
SECTION
  2
ENTITIES
  0
TEXT
  5
21
100
AcDbEntity
  8
AXE
100
AcDbText
 10
91.678586
 20
184.518032
 30
0.0
 40
15.0
  1
Y
  7
ROMANS
100
AcDbText
  0
DIMENSION
  5
22
100
AcDbEntity
  8
COTATION1
100
AcDbDimension
  2
*D2
 10
133.481496
 20
178.002996
 30
0.0
 11
107.731496
 21
180.252996
 31
0.0
 12
21.200462
 22
0.0
 32
0.0
  3
SC_STAND
100
AcDbAlignedDimension
 13
81.981496
 23
157.858165
 33
0.0
 14
133.481496
 24
157.858165
 34
0.0
100
AcDbRotatedDimension
1001
ACAD
1000
DSTYLE
1002
{
1070
   284
1070
     0
1070
   340
1005
E
1070
   173
1070
     1
1070
   287
1070
     3
1070
     7
1000
_OPEN
1070
     6
1000
_OPEN
1070
   285
1070
     0
1070
   286
1070
     0
1002
}
  0
DIMENSION
  5
37
100
AcDbEntity
  8
COTATION1
100
AcDbDimension
  2
*D1
 10
125.231496
 20
170.433329
 30
0.0
 11
107.731496
 21
172.683329
 31
0.0
 12
21.200462
 22
0.0
 32
0.0
  3
SC_STAND
100
AcDbAlignedDimension
 13
90.231496
 23
160.358165
 33
0.0
 14
125.231496
 24
160.608165
 34
0.0
100
AcDbRotatedDimension
1001
ACAD
1000
DSTYLE
1002
{
1070
   284
1070
     0
1070
   340
1005
E
1070
   173
1070
     1
1070
   287
1070
     3
1070
     7
1000
_OPEN
1070
     6
1000
_OPEN
1070
   285
1070
     0
1070
   286
1070
     0
1002
}
  0
LINE
  5
44
100
AcDbEntity
  8
AXE
100
AcDbLine
 10
85.693301
 20
98.358165
 30
0.0
 11
173.982641
 21
98.358165
 31
0.0
  0
LINE
  5
45
100
AcDbEntity
  8
AXE
100
AcDbLine
 10
129.76969
 20
158.358165
 30
0.0
 11
82.957883
 21
158.358165
 31
0.0
  0
LINE
  5
46
100
AcDbEntity
  8
ALPHA
100
AcDbLine
 10
83.981496
 20
104.858165
 30
0.0
 11
131.481496
 21
104.858165
 31
0.0
  0
LINE
  5
47
100
AcDbEntity
  8
ALPHA
100
AcDbLine
 10
131.481496
 20
151.858165
 30
0.0
 11
83.981496
 21
151.858165
 31
0.0
  0
LINE
  5
48
100
AcDbEntity
  8
ALPHA
100
AcDbLine
 10
81.981496
 20
102.858165
 30
0.0
 11
133.481496
 21
102.858165
 31
0.0
  0
LINE
  5
49
100
AcDbEntity
  8
ALPHA
100
AcDbLine
 10
133.481496
 20
153.858165
 30
0.0
 11
81.981496
 21
153.858165
 31
0.0
  0
LINE
  5
4A
100
AcDbEntity
  8
ALPHA
100
AcDbLine
 10
128.481496
 20
162.858165
 30
0.0
 11
86.981496
 21
162.858165
 31
0.0
  0
LINE
  5
4B
100
AcDbEntity
  8
ALPHA
100
AcDbLine
 10
86.981496
 20
93.858165
 30
0.0
 11
128.481496
 21
93.858165
 31
0.0
  0
LINE
  5
4C
100
AcDbEntity
  8
ALPHA
100
AcDbLine
 10
83.981496
 20
151.858165
 30
0.0
 11
83.981496
 21
104.858165
 31
0.0
  0
LINE
  5
4D
100
AcDbEntity
  8
ALPHA
100
AcDbLine
 10
81.981496
 20
157.858165
 30
0.0
 11
81.981496
 21
98.858165
 31
0.0
  0
INSERT
  5
4E
100
AcDbEntity
  8
COTATION1
100
AcDbBlockReference
  2
_OPEN
 10
90.231496
 20
98.358165
 30
0.0
 41
3.0
 42
3.0
 43
3.0
 50
65.256353
1001
ACAD
1000
DSTYLE
1002
{
1070
   284
1070
     0
1070
   340
1005
143502020000000E
1070
   173
1070
     1
1070
   287
1070
     3
1070
     7
1000
_OPEN
1070
     6
1000
_OPEN
1070
   285
1070
     0
1070
   286
1070
     0
1002
}
  0
LWPOLYLINE
  5
94
100
AcDbEntity
  8
COTATION1
100
AcDbPolyline
 90
        3
 70
   128
 43
0.0
 10
88.975818
 20
95.633596
 10
82.693606
 20
82.00245
 10
101.693606
 20
82.00245
1001
ACAD
1000
R13OBJECT
1002
{
1005
4E
1002
}
  0
ARC
  5
4F
100
AcDbEntity
  8
ALPHA
100
AcDbCircle
 10
86.981496
 20
98.858165
 30
0.0
 40
5.0
100
AcDbArc
 50
180.0
 51
270.0
  0
INSERT
  5
50
100
AcDbEntity
  8
COTATION1
100
AcDbBlockReference
  2
_OPEN
 10
83.519016
 20
95.251056
 30
0.0
 41
3.0
 42
3.0
 43
3.0
 50
49.006882
1001
ACAD
1000
DSTYLE
1002
{
1070
   284
1070
     0
1070
   340
1005
EC2A02020000000E
1070
   173
1070
     1
1070
   287
1070
     3
1070
     7
1000
_OPEN
1070
     6
1000
_OPEN
1070
   285
1070
     0
1070
   286
1070
     0
1002
}
  0
LWPOLYLINE
  5
99
100
AcDbEntity
  8
COTATION1
100
AcDbPolyline
 90
        3
 70
   128
 43
0.0
 10
81.551111
 20
92.986691
 10
78.990251
 20
90.040042
 10
70.823584
 20
90.040042
1001
ACAD
1000
R13OBJECT
1002
{
1005
50
1002
}
  0
TEXT
  5
51
100
AcDbEntity
  8
COTATION1
100
AcDbText
 10
70.823584
 20
91.040042
 30
0.0
 40
2.5
  1
R5
100
AcDbText
  0
TEXT
  5
52
100
AcDbEntity
  8
COTATION1
100
AcDbText
 10
86.693606
 20
83.00245
 30
0.0
 40
2.5
  1
x4 
100
AcDbText
  0
TEXT
  5
9E
100
AcDbEntity
  8
COTATION1
100
AcDbText
 10
94.193606
 20
83.00245
 30
0.0
 40
2.5
  1
%%c
100
AcDbText
1001
ACAD
1000
R13OBJECT
1002
{
1005
52
1002
}
  0
TEXT
  5
9F
100
AcDbEntity
  8
COTATION1
100
AcDbText
 10
96.693606
 20
83.00245
 30
0.0
 40
2.5
  1
4.5
100
AcDbText
1001
ACAD
1000
R13OBJECT
1002
{
1005
52
1002
}
  0
CIRCLE
  5
53
100
AcDbEntity
  8
ALPHA
100
AcDbCircle
 10
90.231496
 20
98.358165
 30
0.0
 40
2.25
  0
LINE
  5
54
100
AcDbEntity
  8
AXE
100
AcDbLine
 10
90.231496
 20
94.617514
 30
0.0
 11
90.231496
 21
101.867279
 31
0.0
  0
ARC
  5
55
100
AcDbEntity
  8
ALPHA
100
AcDbCircle
 10
86.981496
 20
157.858165
 30
0.0
 40
5.0
100
AcDbArc
 50
90.0
 51
180.0
  0
ARC
  5
56
100
AcDbEntity
  8
ALPHA
100
AcDbCircle
 10
86.231496
 20
158.358165
 30
0.0
 40
2.0
100
AcDbArc
 50
90.0
 51
270.0
  0
LINE
  5
57
100
AcDbEntity
  8
ALPHA
100
AcDbLine
 10
94.231496
 20
156.358165
 30
0.0
 11
90.231496
 21
156.358165
 31
0.0
  0
LINE
  5
58
100
AcDbEntity
  8
ALPHA
100
AcDbLine
 10
94.231496
 20
160.358165
 30
0.0
 11
90.231496
 21
160.358165
 31
0.0
  0
LINE
  5
59
100
AcDbEntity
  8
AXE
100
AcDbLine
 10
86.231496
 20
160.795487
 30
0.0
 11
86.231496
 21
155.908005
 31
0.0
  0
LINE
  5
5A
100
AcDbEntity
  8
AXE
100
AcDbLine
 10
90.231496
 20
162.098816
 30
0.0
 11
90.231496
 21
154.849051
 31
0.0
  0
LINE
  5
5B
100
AcDbEntity
  8
ALPHA
100
AcDbLine
 10
86.231496
 20
156.358165
 30
0.0
 11
90.231496
 21
156.358165
 31
0.0
  0
LINE
  5
5C
100
AcDbEntity
  8
ALPHA
100
AcDbLine
 10
86.231496
 20
160.358165
 30
0.0
 11
90.231496
 21
160.358165
 31
0.0
  0
ARC
  5
5D
100
AcDbEntity
  8
ALPHA
100
AcDbCircle
 10
94.231496
 20
158.358165
 30
0.0
 40
2.0
100
AcDbArc
 50
270.0
 51
90.0
  0
LINE
  5
5E
100
AcDbEntity
  8
AXE
100
AcDbLine
 10
94.231496
 20
160.795487
 30
0.0
 11
94.231496
 21
155.989463
 31
0.0
  0
DIMENSION
  5
5F
100
AcDbEntity
  8
COTATION1
100
AcDbDimension
  2
*D4
 10
154.855861
 20
98.358165
 30
0.0
 11
152.605861
 21
128.358165
 31
0.0
 12
21.200462
 22
0.0
 32
0.0
  3
SC_STAND
100
AcDbAlignedDimension
 13
129.76969
 23
158.358165
 33
0.0
 14
132.505108
 24
98.358165
 34
0.0
 50
90.0
100
AcDbRotatedDimension
1001
ACAD
1000
DSTYLE
1002
{
1070
   284
1070
     0
1070
   340
1005
E
1070
   173
1070
     1
1070
   287
1070
     3
1070
     7
1000
_OPEN
1070
     6
1000
_OPEN
1070
   285
1070
     0
1070
   286
1070
     0
1002
}
  0
DIMENSION
  5
6C
100
AcDbEntity
  8
COTATION1
100
AcDbDimension
  2
*D3
 10
146.727685
 20
104.858165
 30
0.0
 11
144.477685
 21
128.358165
 31
0.0
 12
21.200462
 22
0.0
 32
0.0
  3
SC_STAND
100
AcDbAlignedDimension
 13
131.481496
 23
151.858165
 33
0.0
 14
131.481496
 24
104.858165
 34
0.0
 50
90.0
100
AcDbRotatedDimension
1001
ACAD
1000
DSTYLE
1002
{
1070
   284
1070
     0
1070
   340
1005
E
1070
   173
1070
     1
1070
   287
1070
     3
1070
     7
1000
_OPEN
1070
     6
1000
_OPEN
1070
   285
1070
     0
1070
   286
1070
     0
1002
}
  0
LINE
  5
79
100
AcDbEntity
  8
AXE
100
AcDbLine
 10
107.731496
 20
94.594134
 30
0.0
 11
107.731496
 21
169.555156
 31
0.0
  0
LINE
  5
7A
100
AcDbEntity
  8
ALPHA
100
AcDbLine
 10
131.481496
 20
104.858165
 30
0.0
 11
131.481496
 21
151.858165
 31
0.0
  0
LINE
  5
7B
100
AcDbEntity
  8
ALPHA
100
AcDbLine
 10
133.481496
 20
98.858165
 30
0.0
 11
133.481496
 21
157.858165
 31
0.0
  0
TEXT
  5
7C
100
AcDbEntity
  8
AXE
100
AcDbText
 10
158.169059
 20
101.210514
 30
0.0
 40
15.0
  1
X
  7
ROMANS
100
AcDbText
  0
INSERT
  5
7D
100
AcDbEntity
  8
COTATION1
100
AcDbBlockReference
  2
_OPEN
 10
125.231496
 20
98.358165
 30
0.0
 41
3.0
 42
3.0
 43
3.0
 50
79.689536
1001
ACAD
1000
DSTYLE
1002
{
1070
   284
1070
     0
1070
   340
1005
5C0802020000000E
1070
   173
1070
     1
1070
   287
1070
     3
1070
     7
1000
_OPEN
1070
     6
1000
_OPEN
1070
   285
1070
     0
1070
   286
1070
     0
1002
}
  0
LWPOLYLINE
  5
A0
100
AcDbEntity
  8
COTATION1
100
AcDbPolyline
 90
        3
 70
   128
 43
0.0
 10
124.69455
 20
95.406608
 10
121.594438
 20
78.365487
 10
108.427771
 20
78.365487
1001
ACAD
1000
R13OBJECT
1002
{
1005
7D
1002
}
  0
ARC
  5
7E
100
AcDbEntity
  8
ALPHA
100
AcDbCircle
 10
121.231496
 20
98.358165
 30
0.0
 40
2.0
100
AcDbArc
 50
90.0
 51
270.0
  0
CIRCLE
  5
7F
100
AcDbEntity
  8
ALPHA
100
AcDbCircle
 10
107.731496
 20
98.358165
 30
0.0
 40
2.25
  0
LINE
  5
80
100
AcDbEntity
  8
ALPHA
100
AcDbLine
 10
129.231496
 20
96.358165
 30
0.0
 11
125.231496
 21
96.358165
 31
0.0
  0
LINE
  5
81
100
AcDbEntity
  8
ALPHA
100
AcDbLine
 10
129.231496
 20
100.358165
 30
0.0
 11
125.231496
 21
100.358165
 31
0.0
  0
LINE
  5
82
100
AcDbEntity
  8
ALPHA
100
AcDbLine
 10
121.231496
 20
96.358165
 30
0.0
 11
125.231496
 21
96.358165
 31
0.0
  0
LINE
  5
83
100
AcDbEntity
  8
ALPHA
100
AcDbLine
 10
121.231496
 20
100.358165
 30
0.0
 11
125.231496
 21
100.358165
 31
0.0
  0
LINE
  5
84
100
AcDbEntity
  8
AXE
100
AcDbLine
 10
121.231496
 20
95.920843
 30
0.0
 11
121.231496
 21
100.726867
 31
0.0
  0
LINE
  5
85
100
AcDbEntity
  8
AXE
100
AcDbLine
 10
125.231496
 20
94.617514
 30
0.0
 11
125.231496
 21
101.867279
 31
0.0
  0
ARC
  5
86
100
AcDbEntity
  8
ALPHA
100
AcDbCircle
 10
128.481496
 20
98.858165
 30
0.0
 40
5.0
100
AcDbArc
 50
270.0
 51
0.0
  0
LINE
  5
87
100
AcDbEntity
  8
AXE
100
AcDbLine
 10
129.231496
 20
95.920843
 30
0.0
 11
129.231496
 21
100.808325
 31
0.0
  0
ARC
  5
88
100
AcDbEntity
  8
ALPHA
100
AcDbCircle
 10
129.231496
 20
98.358165
 30
0.0
 40
2.0
100
AcDbArc
 50
270.0
 51
90.0
  0
LINE
  5
89
100
AcDbEntity
  8
AXE
100
AcDbLine
 10
107.731496
 20
183.108938
 30
0.0
 11
107.731496
 21
200.090065
 31
0.0
  0
CIRCLE
  5
8A
100
AcDbEntity
  8
ALPHA
100
AcDbCircle
 10
107.731496
 20
158.358165
 30
0.0
 40
2.25
  0
LINE
  5
8B
100
AcDbEntity
  8
AXE
100
AcDbLine
 10
107.731496
 20
174.683614
 30
0.0
 11
107.731496
 21
176.881525
 31
0.0
  0
CIRCLE
  5
8C
100
AcDbEntity
  8
ALPHA
100
AcDbCircle
 10
125.231496
 20
158.358165
 30
0.0
 40
2.25
  0
LINE
  5
8D
100
AcDbEntity
  8
AXE
100
AcDbLine
 10
125.231496
 20
162.098816
 30
0.0
 11
125.231496
 21
154.849051
 31
0.0
  0
ARC
  5
8E
100
AcDbEntity
  8
ALPHA
100
AcDbCircle
 10
128.481496
 20
157.858165
 30
0.0
 40
5.0
100
AcDbArc
 50
0.0
 51
90.0
  0
TEXT
  5
8F
100
AcDbEntity
  8
COTATION1
100
AcDbText
 10
108.427771
 20
79.365487
 30
0.0
 40
2.5
  1
%%c
100
AcDbText
  0
TEXT
  5
A5
100
AcDbEntity
  8
COTATION1
100
AcDbText
 10
110.927771
 20
79.365487
 30
0.0
 40
2.5
  1
4x8
100
AcDbText
1001
ACAD
1000
R13OBJECT
1002
{
1005
8F
1002
}
  0
ENDSEC
  0
SECTION
  2
OBJECTS
  0
DICTIONARY
  5
B1
100
AcDbDictionary
  3
ACAD_GROUP
350
B2
  3
ACAD_MLINESTYLE
350
BF
  3
ACDBVARIABLEDICTIONARY
350
D2
  0
DICTIONARY
  5
B2
102
{ACAD_REACTORS
330
B1
102
}
100
AcDbDictionary
  0
DICTIONARY
  5
BF
102
{ACAD_REACTORS
330
B1
102
}
100
AcDbDictionary
  3
STANDARD
350
C0
  0
DICTIONARY
  5
D2
102
{ACAD_REACTORS
330
B1
102
}
100
AcDbDictionary
  3
DIMADEC
350
D3
  0
MLINESTYLE
  5
C0
102
{ACAD_REACTORS
330
BF
102
}
100
AcDbMlineStyle
  2
STANDARD
 70
     0
  3

 62
   256
 51
90.0
 52
90.0
 71
     2
 49
0.5
 62
   256
  6
BYLAYER
 49
-0.5
 62
   256
  6
BYLAYER
  0
DICTIONARYVAR
  5
D3
102
{ACAD_REACTORS
330
D2
102
}
100
DictionaryVariables
280
     0
  1
0
  0
ENDSEC
  0
EOF
