  0
SECTION
  2
HEADER
  9
$ACADVER
  1
AC1009
  9
$INSBASE
 10
402.590624
 20
-1.041018
 30
0.0
  9
$EXTMIN
 10
4.827094
 20
65.677385
 30
0.0
  9
$EXTMAX
 10
84.00745
 20
118.527385
 30
0.0
  9
$LIMMIN
 10
-407.970438
 20
-367.832444
  9
$LIMMAX
 10
429.804077
 20
234.370848
  9
$ORTHOMODE
 70
     1
  9
$REGENMODE
 70
     1
  9
$FILLMODE
 70
     1
  9
$QTEXTMODE
 70
     0
  9
$MIRRTEXT
 70
     1
  9
$DRAGMODE
 70
     2
  9
$LTSCALE
 40
10.0
  9
$OSMODE
 70
    35
  9
$ATTMODE
 70
     1
  9
$TEXTSIZE
 40
6.0
  9
$TRACEWID
 40
1.0
  9
$TEXTSTYLE
  7
ROMANS
  9
$CLAYER
  8
ALPHA
  9
$CELTYPE
  6
BYLAYER
  9
$CECOLOR
 62
   256
  9
$DIMSCALE
 40
1.0
  9
$DIMASZ
 40
5.0
  9
$DIMEXO
 40
2.0
  9
$DIMDLI
 40
0.38
  9
$DIMRND
 40
0.0
  9
$DIMDLE
 40
0.0
  9
$DIMEXE
 40
2.5
  9
$DIMTP
 40
0.0
  9
$DIMTM
 40
0.0
  9
$DIMTXT
 40
2.5
  9
$DIMCEN
 40
0.0
  9
$DIMTSZ
 40
0.0
  9
$DIMTOL
 70
     0
  9
$DIMLIM
 70
     0
  9
$DIMTIH
 70
     1
  9
$DIMTOH
 70
     1
  9
$DIMSE1
 70
     0
  9
$DIMSE2
 70
     0
  9
$DIMTAD
 70
     1
  9
$DIMZIN
 70
    12
  9
$DIMBLK
  1
OPEN30
  9
$DIMASO
 70
     1
  9
$DIMSHO
 70
     1
  9
$DIMPOST
  1

  9
$DIMAPOST
  1

  9
$DIMALT
 70
     0
  9
$DIMALTD
 70
     2
  9
$DIMALTF
 40
25.4
  9
$DIMLFAC
 40
1.0
  9
$DIMTOFL
 70
     0
  9
$DIMTVP
 40
0.0
  9
$DIMTIX
 70
     0
  9
$DIMSOXD
 70
     0
  9
$DIMSAH
 70
     0
  9
$DIMBLK1
  1

  9
$DIMBLK2
  1

  9
$DIMSTYLE
  2
SC_DEFAUT
  9
$DIMCLRD
 70
     0
  9
$DIMCLRE
 70
     0
  9
$DIMCLRT
 70
     0
  9
$DIMTFAC
 40
1.0
  9
$DIMGAP
 40
2.0
  9
$LUNITS
 70
     2
  9
$LUPREC
 70
     1
  9
$SKETCHINC
 40
0.1
  9
$FILLETRAD
 40
0.0
  9
$AUNITS
 70
     0
  9
$AUPREC
 70
     0
  9
$MENU
  1
acad
  9
$ELEVATION
 40
0.0
  9
$PELEVATION
 40
0.0
  9
$THICKNESS
 40
0.0
  9
$LIMCHECK
 70
     0
  9
$BLIPMODE
 70
     0
  9
$CHAMFERA
 40
0.0
  9
$CHAMFERB
 40
0.0
  9
$SKPOLY
 70
     0
  9
$TDCREATE
 40
2450373.687919
  9
$TDUPDATE
 40
2453034.41061
  9
$TDINDWG
 40
0.978626
  9
$TDUSRTIMER
 40
0.978626
  9
$USRTIMER
 70
     1
  9
$ANGBASE
 50
0.0
  9
$ANGDIR
 70
     0
  9
$PDMODE
 70
    32
  9
$PDSIZE
 40
0.0
  9
$PLINEWID
 40
0.0
  9
$COORDS
 70
     1
  9
$SPLFRAME
 70
     0
  9
$SPLINETYPE
 70
     6
  9
$SPLINESEGS
 70
     8
  9
$ATTDIA
 70
     0
  9
$ATTREQ
 70
     1
  9
$HANDLING
 70
     1
  9
$HANDSEED
  5
9438
  9
$SURFTAB1
 70
     6
  9
$SURFTAB2
 70
     6
  9
$SURFTYPE
 70
     6
  9
$SURFU
 70
     6
  9
$SURFV
 70
     6
  9
$UCSNAME
  2

  9
$UCSORG
 10
0.0
 20
0.0
 30
0.0
  9
$UCSXDIR
 10
1.0
 20
0.0
 30
0.0
  9
$UCSYDIR
 10
0.0
 20
1.0
 30
0.0
  9
$PUCSNAME
  2

  9
$PUCSORG
 10
0.0
 20
0.0
 30
0.0
  9
$PUCSXDIR
 10
1.0
 20
0.0
 30
0.0
  9
$PUCSYDIR
 10
0.0
 20
1.0
 30
0.0
  9
$USERI1
 70
     0
  9
$USERI2
 70
     0
  9
$USERI3
 70
     0
  9
$USERI4
 70
     0
  9
$USERI5
 70
     0
  9
$USERR1
 40
0.0
  9
$USERR2
 40
0.0
  9
$USERR3
 40
0.0
  9
$USERR4
 40
0.0
  9
$USERR5
 40
0.0
  9
$WORLDVIEW
 70
     1
  9
$SHADEDGE
 70
     3
  9
$SHADEDIF
 70
    70
  9
$TILEMODE
 70
     1
  9
$MAXACTVP
 70
    16
  9
$PLIMCHECK
 70
     0
  9
$PEXTMIN
 10
-1.452248
 20
-0.437698
 30
0.0
  9
$PEXTMAX
 10
12.749749
 20
8.310198
 30
0.0
  9
$PLIMMIN
 10
0.0
 20
0.0
  9
$PLIMMAX
 10
12.0
 20
9.0
  9
$UNITMODE
 70
     0
  9
$VISRETAIN
 70
     0
  9
$PLINEGEN
 70
     0
  9
$PSLTSCALE
 70
     0
  0
ENDSEC
  0
SECTION
  2
TABLES
  0
TABLE
  2
VPORT
 70
     2
  0
VPORT
  2
*ACTIVE
 70
     0
 10
0.0
 20
0.0
 11
1.0
 21
1.0
 12
44.409394
 22
92.099219
 13
0.0
 23
0.0
 14
1.0
 24
1.0
 15
10.0
 25
10.0
 16
0.0
 26
0.0
 36
1.0
 17
0.0
 27
0.0
 37
0.0
 40
54.316338
 41
1.466346
 42
50.0
 43
0.0
 44
0.0
 50
0.0
 51
0.0
 71
     0
 72
   100
 73
     1
 74
     0
 75
     0
 76
     0
 77
     0
 78
     0
  0
ENDTAB
  0
TABLE
  2
LTYPE
 70
     2
  0
LTYPE
  2
CONTINUOUS
 70
     0
  3
Solid line
 72
    65
 73
     0
 40
0.0
  0
LTYPE
  2
AXES2
 70
     0
  3
___ _ ___ _ ___ _ ___ _ ___ _ ___ _ ___ _ ___ _
 72
    65
 73
     4
 40
1.125
 49
0.75
 49
-0.125
 49
0.125
 49
-0.125
  0
ENDTAB
  0
TABLE
  2
LAYER
 70
     5
  0
LAYER
  2
0
 70
     0
 62
   255
  6
CONTINUOUS
  0
LAYER
  2
COTATION1
 70
     0
 62
     2
  6
CONTINUOUS
  0
LAYER
  2
AXE
 70
     0
 62
    80
  6
AXES2
  0
LAYER
  2
DEFPOINTS
 70
     0
 62
     7
  6
CONTINUOUS
  0
LAYER
  2
ALPHA
 70
     0
 62
   254
  6
CONTINUOUS
  0
ENDTAB
  0
TABLE
  2
STYLE
 70
     2
  0
STYLE
  2
ROMANS
 70
     0
 40
0.0
 41
1.0
 50
0.0
 71
     0
 42
6.0
  3
romans
  4

  0
STYLE
  2
STANDARD
 70
     0
 40
0.0
 41
1.0
 50
0.0
 71
     0
 42
0.2
  3
txt
  4

  0
ENDTAB
  0
TABLE
  2
VIEW
 70
     0
  0
ENDTAB
  0
TABLE
  2
UCS
 70
     0
  0
ENDTAB
  0
TABLE
  2
APPID
 70
     1
  0
APPID
  2
ACAD
 70
     0
  0
ENDTAB
  0
TABLE
  2
DIMSTYLE
 70
     2
  0
DIMSTYLE
  2
SC_DEFAUT
 70
     0
  3

  4

  5
OPEN30
  6

  7

 40
1.0
 41
5.0
 42
2.0
 43
0.38
 44
2.5
 45
0.0
 46
0.0
 47
0.0
 48
0.0
140
2.5
141
0.0
142
0.0
143
25.4
144
1.0
145
0.0
146
1.0
147
2.0
 71
     0
 72
     0
 73
     1
 74
     1
 75
     0
 76
     0
 77
     1
 78
    12
170
     0
171
     2
172
     0
173
     0
174
     0
175
     0
176
     0
177
     0
178
     0
  0
DIMSTYLE
  2
STANDARD
 70
     0
  3

  4

  5

  6

  7

 40
1.0
 41
0.18
 42
0.0625
 43
0.38
 44
0.18
 45
0.0
 46
0.0
 47
0.0
 48
0.0
140
0.18
141
0.09
142
0.0
143
25.4
144
1.0
145
0.0
146
1.0
147
0.09
 71
     0
 72
     0
 73
     1
 74
     1
 75
     0
 76
     0
 77
     0
 78
     0
170
     0
171
     2
172
     0
173
     0
174
     0
175
     0
176
     0
177
     0
178
     0
  0
ENDTAB
  0
ENDSEC
  0
SECTION
  2
BLOCKS
  0
BLOCK
  8
0
  2
$MODEL_SPACE
 70
     0
 10
0.0
 20
0.0
 30
0.0
  3
$MODEL_SPACE
  1

  0
ENDBLK
  5
93F1
  8
0
  0
BLOCK
 67
     1
  8
0
  2
$PAPER_SPACE
 70
     0
 10
0.0
 20
0.0
 30
0.0
  3
$PAPER_SPACE
  1

  0
ENDBLK
  5
93EF
 67
     1
  8
0
  0
BLOCK
  8
0
  2
COTE
 70
     0
 10
0.0
 20
0.0
 30
0.0
  3
COTE
  1

  0
ENDBLK
  5
F
  8
0
  0
BLOCK
  8
0
  2
FOND
 70
     0
 10
0.0
 20
0.0
 30
0.0
  3
FOND
  1

  0
ENDBLK
  5
75
  8
0
  0
BLOCK
  8
0
  2
_OPEN30
 70
     0
 10
0.0
 20
0.0
 30
0.0
  3
_OPEN30
  1

  0
LINE
  5
4B05
  8
COTATION1
 62
     0
 10
-1.0
 20
0.267949
 30
0.0
 11
0.0
 21
0.0
 31
0.0
1001
ACAD
1000
RTLwPs
1070
   158
  0
LINE
  5
4B06
  8
COTATION1
 62
     0
 10
0.0
 20
0.0
 30
0.0
 11
-1.0
 21
-0.267949
 31
0.0
1001
ACAD
1000
RTLwPs
1070
   158
  0
LINE
  5
4B07
  8
COTATION1
 62
     0
 10
0.0
 20
0.0
 30
0.0
 11
-1.0
 21
0.0
 31
0.0
1001
ACAD
1000
RTLwPs
1070
   158
  0
ENDBLK
  5
4B09
  8
0
  0
BLOCK
  8
0
  2
*D3
 70
     1
 10
0.0
 20
0.0
 30
0.0
  3
*D3
  1

  0
LINE
  5
933A
  8
COTATION1
 62
     0
 10
43.879661
 20
86.977385
 30
0.0
 11
43.879661
 21
116.527385
 31
0.0
1001
ACAD
1000
RTLwPs
1070
   158
  0
LINE
  5
933B
  8
COTATION1
 62
     0
 10
59.879661
 20
86.977385
 30
0.0
 11
59.879661
 21
116.527385
 31
0.0
1001
ACAD
1000
RTLwPs
1070
   158
  0
LINE
  5
933C
  8
COTATION1
 62
     0
 10
48.879661
 20
114.027385
 30
0.0
 11
54.879661
 21
114.027385
 31
0.0
1001
ACAD
1000
RTLwPs
1070
   158
  0
INSERT
  5
933D
  8
COTATION1
 62
     0
  2
_OPEN30
 10
43.879661
 20
114.027385
 30
0.0
 41
5.0
 42
5.0
 43
5.0
 50
180.0
1001
ACAD
1000
RTLwPs
1070
   158
  0
INSERT
  5
933E
  8
COTATION1
 62
     0
  2
_OPEN30
 10
59.879661
 20
114.027385
 30
0.0
 41
5.0
 42
5.0
 43
5.0
1001
ACAD
1000
RTLwPs
1070
   158
  0
TEXT
  5
933F
  8
COTATION1
 62
     0
 10
48.486804
 20
116.027385
 30
0.0
 40
2.5
  1
%%c
1001
ACAD
1000
MTEXTBEGIN
1070
    73
1070
     1
1070
    44
1040
1.0
1070
    74
1070
     0
1000
MTEXTEND
  0
TEXT
  5
93C1
  8
COTATION1
 62
     0
 10
50.748709
 20
116.027385
 30
0.0
 40
2.5
  1
16
1001
ACAD
1000
R13OBJECT
1002
{
1005
933F
1002
}
  0
POINT
  5
9340
  8
DEFPOINTS
 62
     0
 10
43.879661
 20
84.977385
 30
0.0
  0
POINT
  5
9341
  8
DEFPOINTS
 62
     0
 10
59.879661
 20
84.977385
 30
0.0
  0
POINT
  5
9342
  8
DEFPOINTS
 62
     0
 10
59.879661
 20
114.027385
 30
0.0
  0
ENDBLK
  5
7F3E
  8
0
  0
BLOCK
  8
0
  2
*D4
 70
     1
 10
0.0
 20
0.0
 30
0.0
  3
*D4
  1

  0
LINE
  5
9197
  8
COTATION1
 62
     0
 10
49.879626
 20
103.777385
 30
0.0
 11
28.237846
 21
103.777385
 31
0.0
1001
ACAD
1000
RTLwPs
1070
   158
  0
LINE
  5
9198
  8
COTATION1
 62
     0
 10
41.879626
 20
83.977385
 30
0.0
 11
28.237846
 21
83.977385
 31
0.0
1001
ACAD
1000
RTLwPs
1070
   158
  0
LINE
  5
9199
  8
COTATION1
 62
     0
 10
30.737846
 20
98.777385
 30
0.0
 11
30.737846
 21
97.127385
 31
0.0
1001
ACAD
1000
RTLwPs
1070
   158
  0
LINE
  5
919A
  8
COTATION1
 62
     0
 10
30.737846
 20
88.977385
 30
0.0
 11
30.737846
 21
90.627385
 31
0.0
1001
ACAD
1000
RTLwPs
1070
   158
  0
TEXT
  5
919B
  8
COTATION1
 62
     0
 10
26.392608
 20
92.627385
 30
0.0
 40
2.5
  1
19.8
1001
ACAD
1000
MTEXTBEGIN
1070
    73
1070
     1
1070
    44
1040
1.0
1070
    74
1070
     0
1000
MTEXTEND
  0
INSERT
  5
919C
  8
COTATION1
 62
     0
  2
_OPEN30
 10
30.737846
 20
103.777385
 30
0.0
 41
5.0
 42
5.0
 43
5.0
 50
90.0
1001
ACAD
1000
RTLwPs
1070
   158
  0
INSERT
  5
919D
  8
COTATION1
 62
     0
  2
_OPEN30
 10
30.737846
 20
83.977385
 30
0.0
 41
5.0
 42
5.0
 43
5.0
 50
270.0
1001
ACAD
1000
RTLwPs
1070
   158
  0
POINT
  5
919E
  8
DEFPOINTS
 62
     0
 10
51.879626
 20
103.777385
 30
0.0
  0
POINT
  5
919F
  8
DEFPOINTS
 62
     0
 10
43.879626
 20
83.977385
 30
0.0
  0
POINT
  5
91A0
  8
DEFPOINTS
 62
     0
 10
30.737846
 20
83.977385
 30
0.0
  0
ENDBLK
  5
7F4B
  8
0
  0
BLOCK
  8
0
  2
*D5
 70
     1
 10
0.0
 20
0.0
 30
0.0
  3
*D5
  1

  0
LINE
  5
91EE
  8
COTATION1
 62
     0
 10
53.879626
 20
103.777385
 30
0.0
 11
83.055069
 21
103.777385
 31
0.0
1001
ACAD
1000
RTLwPs
1070
   158
  0
LINE
  5
91EF
  8
COTATION1
 62
     0
 10
59.729626
 20
75.677385
 30
0.0
 11
83.055069
 21
75.677385
 31
0.0
1001
ACAD
1000
RTLwPs
1070
   158
  0
LINE
  5
91F0
  8
COTATION1
 62
     0
 10
80.555069
 20
98.777385
 30
0.0
 11
80.555069
 21
92.977385
 31
0.0
1001
ACAD
1000
RTLwPs
1070
   158
  0
LINE
  5
91F1
  8
COTATION1
 62
     0
 10
80.555069
 20
80.677385
 30
0.0
 11
80.555069
 21
86.477385
 31
0.0
1001
ACAD
1000
RTLwPs
1070
   158
  0
TEXT
  5
91F2
  8
COTATION1
 62
     0
 10
76.745545
 20
88.477385
 30
0.0
 40
2.5
  1
28.1
1001
ACAD
1000
MTEXTBEGIN
1070
    73
1070
     1
1070
    44
1040
1.0
1070
    74
1070
     0
1000
MTEXTEND
  0
INSERT
  5
91F3
  8
COTATION1
 62
     0
  2
_OPEN30
 10
80.555069
 20
103.777385
 30
0.0
 41
5.0
 42
5.0
 43
5.0
 50
90.0
1001
ACAD
1000
RTLwPs
1070
   158
  0
INSERT
  5
91F4
  8
COTATION1
 62
     0
  2
_OPEN30
 10
80.555069
 20
75.677385
 30
0.0
 41
5.0
 42
5.0
 43
5.0
 50
270.0
1001
ACAD
1000
RTLwPs
1070
   158
  0
POINT
  5
91F5
  8
DEFPOINTS
 62
     0
 10
51.879626
 20
103.777385
 30
0.0
  0
POINT
  5
91F6
  8
DEFPOINTS
 62
     0
 10
57.729626
 20
75.677385
 30
0.0
  0
POINT
  5
91F7
  8
DEFPOINTS
 62
     0
 10
80.555069
 20
75.677385
 30
0.0
  0
ENDBLK
  5
8EB4
  8
0
  0
ENDSEC
  0
SECTION
  2
ENTITIES
  0
INSERT
  5
A
  8
0
  2
COTE
 10
0.0
 20
0.0
 30
0.0
  0
INSERT
  5
17
  8
0
  2
COTE
 10
284.010391
 20
6.373258
 30
0.0
  0
INSERT
  5
72
  8
0
  2
FOND
 10
0.0
 20
0.0
 30
0.0
  0
DIMENSION
  5
7F30
  8
COTATION1
  2
*D3
 10
59.879661
 20
114.027385
 30
0.0
 11
51.879661
 21
117.277385
 31
0.0
  1
%%c<>
 13
43.879661
 23
84.977385
 33
0.0
 14
59.879661
 24
84.977385
 34
0.0
  0
DIMENSION
  5
7F31
  8
COTATION1
  2
*D4
 10
30.737846
 20
83.977385
 30
0.0
 11
30.737846
 21
93.877385
 31
0.0
 70
   128
 13
51.879626
 23
103.777385
 33
0.0
 14
43.879626
 24
83.977385
 34
0.0
 50
90.0
  0
LINE
  5
8AD3
  8
AXE
 10
51.879661
 20
65.677385
 30
0.0
 11
51.879661
 21
108.42673
 31
0.0
  0
TEXT
  5
8AD4
  8
AXE
 10
46.832042
 20
65.677385
 30
0.0
 40
5.0
  1
Y
 72
     2
 11
50.879661
 21
65.677385
 31
0.0
  0
LINE
  5
8AD5
  8
AXE
 10
38.879661
 20
82.922385
 30
0.0
 11
69.879661
 21
82.922385
 31
0.0
  0
TEXT
  5
8AD6
  8
AXE
 10
65.832042
 20
83.922385
 30
0.0
 40
5.0
  1
X
 72
     2
 11
69.879661
 21
83.922385
 31
0.0
  0
LINE
  5
8B73
  8
COTATION1
 10
18.077094
 20
86.477385
 30
0.0
 11
18.077094
 21
111.436307
 31
0.0
  0
LINE
  5
8B74
  8
COTATION1
 10
9.976741
 20
83.977385
 30
0.0
 11
42.879661
 21
83.977385
 31
0.0
  0
SOLID
  5
8B75
  8
COTATION1
 10
19.520469
 20
83.977385
 30
0.0
 11
16.633718
 21
83.977385
 31
0.0
 12
18.077094
 22
86.477385
 32
0.0
 13
18.077094
 23
86.477385
 33
0.0
  0
LINE
  5
8B76
  8
COTATION1
 10
4.827094
 20
116.436307
 30
0.0
 11
31.327094
 21
116.436307
 31
0.0
  0
LINE
  5
8B77
  8
COTATION1
 10
31.327094
 20
111.436307
 30
0.0
 11
4.827094
 21
111.436307
 31
0.0
  0
TEXT
  5
8B78
  8
COTATION1
 10
6.077094
 20
112.686307
 30
0.0
 40
2.5
  1
PLANE_TO_LINE_UP
 41
0.626087
  7
STANDARD
 72
     5
 11
30.077094
 21
112.686307
 31
0.0
  0
LINE
  5
8B79
  8
COTATION1
 10
31.327094
 20
116.436307
 30
0.0
 11
31.327094
 21
111.436307
 31
0.0
  0
LINE
  5
8B7A
  8
COTATION1
 10
4.827094
 20
111.436307
 30
0.0
 11
4.827094
 21
116.436307
 31
0.0
  0
LINE
  5
8CEC
  8
ALPHA
 10
57.729661
 20
75.677385
 30
0.0
 11
46.029661
 21
75.677385
 31
0.0
  0
DIMENSION
  5
8EA7
  8
COTATION1
  2
*D5
 10
80.555069
 20
75.677385
 30
0.0
 11
80.555069
 21
89.727385
 31
0.0
 70
   128
 13
51.879626
 23
103.777385
 33
0.0
 14
57.729626
 24
75.677385
 34
0.0
 50
90.0
  0
ARC
  5
9078
  8
ALPHA
 10
51.879626
 20
97.354769
 30
0.0
 40
6.5
 50
60.527879
 51
81.150117
  0
LINE
  5
9079
  8
ALPHA
 10
48.436141
 20
99.958536
 30
0.0
 11
55.323112
 21
99.958536
 31
0.0
  0
LINE
  5
907A
  8
ALPHA
 10
47.919626
 20
100.177385
 30
0.0
 11
55.839626
 21
100.177385
 31
0.0
  0
LINE
  5
907B
  8
ALPHA
 10
47.919626
 20
101.707745
 30
0.0
 11
55.839626
 21
101.707745
 31
0.0
  0
LINE
  5
907C
  8
ALPHA
 10
48.681626
 20
103.013638
 30
0.0
 11
55.077626
 21
103.013638
 31
0.0
  0
LINE
  5
907D
  8
ALPHA
 10
57.939145
 20
88.127385
 30
0.0
 11
52.14396
 21
88.127385
 31
0.0
  0
LINE
  5
907E
  8
ALPHA
 10
57.939145
 20
87.427385
 30
0.0
 11
52.14396
 21
87.427385
 31
0.0
  0
LINE
  5
907F
  8
ALPHA
 10
45.529626
 20
78.177385
 30
0.0
 11
58.229626
 21
78.177385
 31
0.0
  0
LINE
  5
9080
  8
ALPHA
 10
57.879626
 20
78.377385
 30
0.0
 11
45.879626
 21
78.377385
 31
0.0
  0
LINE
  5
9081
  8
ALPHA
 10
58.229626
 20
79.377385
 30
0.0
 11
45.529626
 21
79.377385
 31
0.0
  0
LINE
  5
9082
  8
ALPHA
 10
58.229626
 20
80.527385
 30
0.0
 11
45.529626
 21
80.527385
 31
0.0
  0
LINE
  5
9083
  8
ALPHA
 10
58.57956
 20
81.867385
 30
0.0
 11
45.179693
 21
81.867385
 31
0.0
  0
LINE
  5
9084
  8
ALPHA
 10
44.379714
 20
86.177385
 30
0.0
 11
59.379539
 21
86.177385
 31
0.0
  0
LINE
  5
9085
  8
ALPHA
 10
46.029626
 20
86.277385
 30
0.0
 11
57.729626
 21
86.277385
 31
0.0
  0
LINE
  5
9086
  8
ALPHA
 10
46.029626
 20
86.977385
 30
0.0
 11
57.729626
 21
86.977385
 31
0.0
  0
LINE
  5
9087
  8
ALPHA
 10
46.029626
 20
88.577385
 30
0.0
 11
57.729626
 21
88.577385
 31
0.0
  0
LINE
  5
9088
  8
ALPHA
 10
46.029626
 20
89.757371
 30
0.0
 11
57.729626
 21
89.757371
 31
0.0
  0
LINE
  5
9089
  8
ALPHA
 10
45.106673
 20
94.253831
 30
0.0
 11
58.65258
 21
94.253831
 31
0.0
  0
LINE
  5
908A
  8
ALPHA
 10
45.335641
 20
95.39889
 30
0.0
 11
58.423612
 21
95.39889
 31
0.0
  0
LINE
  5
908C
  8
ALPHA
 10
45.529626
 20
76.177385
 30
0.0
 11
58.229626
 21
76.177385
 31
0.0
  0
LINE
  5
908D
  8
ALPHA
 10
43.879626
 20
83.977385
 30
0.0
 11
59.879626
 21
83.977385
 31
0.0
  0
LINE
  5
908E
  8
ALPHA
 10
43.879626
 20
85.677385
 30
0.0
 11
59.879626
 21
85.677385
 31
0.0
  0
ARC
  5
908F
  8
ALPHA
 10
46.576039
 20
94.555436
 30
0.0
 40
1.5
 50
145.784815
 51
191.599544
  0
LINE
  5
9090
  8
ALPHA
 10
52.251583
 20
81.867385
 30
0.0
 11
52.251583
 21
83.977385
 31
0.0
  0
LINE
  5
9091
  8
ALPHA
 10
52.550259
 20
81.867385
 30
0.0
 11
52.550259
 21
83.977385
 31
0.0
  0
LINE
  5
9092
  8
ALPHA
 10
52.742252
 20
81.867385
 30
0.0
 11
52.742252
 21
83.977385
 31
0.0
  0
LINE
  5
9093
  8
ALPHA
 10
52.948598
 20
81.867385
 30
0.0
 11
52.948598
 21
83.977385
 31
0.0
  0
LINE
  5
9094
  8
ALPHA
 10
53.11045
 20
81.867385
 30
0.0
 11
53.11045
 21
83.977385
 31
0.0
  0
LINE
  5
9095
  8
ALPHA
 10
53.277608
 20
83.977385
 30
0.0
 11
53.277608
 21
81.867385
 31
0.0
  0
LINE
  5
9096
  8
ALPHA
 10
53.422301
 20
83.977385
 30
0.0
 11
53.422301
 21
81.867385
 31
0.0
  0
LINE
  5
9097
  8
ALPHA
 10
53.803622
 20
81.867385
 30
0.0
 11
53.803622
 21
83.977385
 31
0.0
  0
LINE
  5
9098
  8
ALPHA
 10
53.996172
 20
81.867385
 30
0.0
 11
53.996172
 21
83.977385
 31
0.0
  0
LINE
  5
9099
  8
ALPHA
 10
54.406013
 20
81.867385
 30
0.0
 11
54.406013
 21
83.977385
 31
0.0
  0
LINE
  5
909A
  8
ALPHA
 10
54.615062
 20
81.867385
 30
0.0
 11
54.615062
 21
83.977385
 31
0.0
  0
LINE
  5
909B
  8
ALPHA
 10
54.807346
 20
81.867385
 30
0.0
 11
54.807346
 21
83.977385
 31
0.0
  0
LINE
  5
909C
  8
ALPHA
 10
48.702022
 20
81.867385
 30
0.0
 11
48.702022
 21
83.977385
 31
0.0
  0
LINE
  5
909D
  8
ALPHA
 10
48.806978
 20
81.867385
 30
0.0
 11
48.806978
 21
83.977385
 31
0.0
  0
LINE
  5
909E
  8
ALPHA
 10
48.831225
 20
81.867385
 30
0.0
 11
48.831225
 21
83.977385
 31
0.0
  0
LINE
  5
909F
  8
ALPHA
 10
48.951907
 20
81.867385
 30
0.0
 11
48.951907
 21
83.977385
 31
0.0
  0
LINE
  5
90A0
  8
ALPHA
 10
49.144191
 20
81.867385
 30
0.0
 11
49.144191
 21
83.977385
 31
0.0
  0
LINE
  5
90A1
  8
ALPHA
 10
49.35324
 20
81.867385
 30
0.0
 11
49.35324
 21
83.977385
 31
0.0
  0
LINE
  5
90A2
  8
ALPHA
 10
49.76308
 20
83.977385
 30
0.0
 11
49.76308
 21
81.867385
 31
0.0
  0
LINE
  5
90A3
  8
ALPHA
 10
49.955631
 20
83.977385
 30
0.0
 11
49.955631
 21
81.867385
 31
0.0
  0
LINE
  5
90A4
  8
ALPHA
 10
50.336952
 20
81.867385
 30
0.0
 11
50.336952
 21
83.977385
 31
0.0
  0
LINE
  5
90A5
  8
ALPHA
 10
50.481645
 20
81.867385
 30
0.0
 11
50.481645
 21
83.977385
 31
0.0
  0
LINE
  5
90A6
  8
ALPHA
 10
50.648803
 20
81.867385
 30
0.0
 11
50.648803
 21
83.977385
 31
0.0
  0
LINE
  5
90A7
  8
ALPHA
 10
50.810655
 20
81.867385
 30
0.0
 11
50.810655
 21
83.977385
 31
0.0
  0
LINE
  5
90A8
  8
ALPHA
 10
51.017001
 20
81.867385
 30
0.0
 11
51.017001
 21
83.977385
 31
0.0
  0
LINE
  5
90A9
  8
ALPHA
 10
51.208994
 20
81.867385
 30
0.0
 11
51.208994
 21
83.977385
 31
0.0
  0
LINE
  5
90AA
  8
ALPHA
 10
51.50767
 20
83.977385
 30
0.0
 11
51.50767
 21
81.867385
 31
0.0
  0
LINE
  5
90AB
  8
ALPHA
 10
51.68224
 20
83.977385
 30
0.0
 11
51.68224
 21
81.867385
 31
0.0
  0
LINE
  5
90AC
  8
ALPHA
 10
52.077013
 20
81.867385
 30
0.0
 11
52.077013
 21
83.977385
 31
0.0
  0
LINE
  5
90AD
  8
ALPHA
 10
45.179626
 20
81.867385
 30
0.0
 11
45.179626
 21
83.977385
 31
0.0
  0
LINE
  5
90AE
  8
ALPHA
 10
46.379626
 20
81.867385
 30
0.0
 11
46.379626
 21
80.527385
 31
0.0
  0
LINE
  5
90AF
  8
ALPHA
 10
45.529626
 20
80.527385
 30
0.0
 11
45.529626
 21
79.377385
 31
0.0
  0
ARC
  5
90B0
  8
ALPHA
 10
45.879626
 20
78.877385
 30
0.0
 40
0.5
 50
90.0
 51
270.0
  0
ARC
  5
90B1
  8
ALPHA
 10
45.979626
 20
78.477385
 30
0.0
 40
0.3
 50
270.000018
 51
340.4299
  0
ARC
  5
90B2
  8
ALPHA
 10
46.029626
 20
76.177385
 30
0.0
 40
0.5
 50
180.0
 51
270.0
  0
LINE
  5
90B3
  8
ALPHA
 10
45.529626
 20
78.177385
 30
0.0
 11
45.529626
 21
76.177385
 31
0.0
  0
LINE
  5
90B4
  8
ALPHA
 10
51.615293
 20
88.127385
 30
0.0
 11
45.820108
 21
88.127385
 31
0.0
  0
LINE
  5
90B5
  8
ALPHA
 10
51.615293
 20
87.427385
 30
0.0
 11
45.820108
 21
87.427385
 31
0.0
  0
LINE
  5
90B6
  8
ALPHA
 10
46.029626
 20
89.757371
 30
0.0
 11
46.029626
 21
88.577385
 31
0.0
  0
LINE
  5
90B7
  8
ALPHA
 10
46.029626
 20
88.577385
 30
0.0
 11
46.46792
 21
88.127385
 31
0.0
  0
LINE
  5
90B8
  8
ALPHA
 10
45.106673
 20
94.253831
 30
0.0
 11
46.029626
 21
89.757371
 31
0.0
  0
LINE
  5
90B9
  8
ALPHA
 10
46.029626
 20
86.277385
 30
0.0
 11
46.029626
 21
86.977385
 31
0.0
  0
LINE
  5
90BA
  8
ALPHA
 10
46.46792
 20
87.427385
 30
0.0
 11
46.029626
 21
86.977385
 31
0.0
  0
ARC
  5
90BB
  8
ALPHA
 10
45.819626
 20
87.777385
 30
0.0
 40
0.35
 50
90.0
 51
270.0
  0
LINE
  5
90BC
  8
ALPHA
 10
43.879626
 20
83.977385
 30
0.0
 11
43.879626
 21
85.677385
 31
0.0
  0
LINE
  5
90BD
  8
ALPHA
 10
43.879626
 20
85.677385
 30
0.0
 11
44.379626
 21
86.177385
 31
0.0
  0
POLYLINE
  5
90BE
  8
ALPHA
 66
     1
 10
0.0
 20
0.0
 30
0.0
  0
VERTEX
  5
93F7
  8
ALPHA
 10
52.159227
 20
87.777385
 30
0.0
  0
VERTEX
  5
93F8
  8
ALPHA
 10
52.158707
 20
87.686798
 30
0.0
  0
VERTEX
  5
93F9
  8
ALPHA
 10
52.157181
 20
87.602385
 30
0.0
  0
VERTEX
  5
93FA
  8
ALPHA
 10
52.154755
 20
87.529898
 30
0.0
  0
VERTEX
  5
93FB
  8
ALPHA
 10
52.151593
 20
87.474276
 30
0.0
  0
VERTEX
  5
93FC
  8
ALPHA
 10
52.147911
 20
87.439311
 30
0.0
  0
VERTEX
  5
93FD
  8
ALPHA
 10
52.14396
 20
87.427385
 30
0.0
  0
SEQEND
  5
93FE
  8
ALPHA
  0
POLYLINE
  5
90BF
  8
ALPHA
 66
     1
 10
0.0
 20
0.0
 30
0.0
  0
VERTEX
  5
93FF
  8
ALPHA
 10
52.14396
 20
88.127385
 30
0.0
  0
VERTEX
  5
9400
  8
ALPHA
 10
52.147911
 20
88.115459
 30
0.0
  0
VERTEX
  5
9401
  8
ALPHA
 10
52.151593
 20
88.080494
 30
0.0
  0
VERTEX
  5
9402
  8
ALPHA
 10
52.154755
 20
88.024872
 30
0.0
  0
VERTEX
  5
9403
  8
ALPHA
 10
52.157181
 20
87.952385
 30
0.0
  0
VERTEX
  5
9404
  8
ALPHA
 10
52.158707
 20
87.867972
 30
0.0
  0
VERTEX
  5
9405
  8
ALPHA
 10
52.159227
 20
87.777385
 30
0.0
  0
SEQEND
  5
9406
  8
ALPHA
  0
LINE
  5
90C0
  8
ALPHA
 10
51.629155
 20
87.63784
 30
0.0
 11
52.130098
 21
87.63784
 31
0.0
  0
LINE
  5
90C1
  8
ALPHA
 10
51.629155
 20
87.916931
 30
0.0
 11
52.130098
 21
87.916931
 31
0.0
  0
POLYLINE
  5
90C2
  8
ALPHA
 66
     1
 10
0.0
 20
0.0
 30
0.0
  0
VERTEX
  5
9407
  8
ALPHA
 10
51.600026
 20
87.777385
 30
0.0
  0
VERTEX
  5
9408
  8
ALPHA
 10
51.600546
 20
87.686798
 30
0.0
  0
VERTEX
  5
9409
  8
ALPHA
 10
51.602072
 20
87.602385
 30
0.0
  0
VERTEX
  5
940A
  8
ALPHA
 10
51.604498
 20
87.529898
 30
0.0
  0
VERTEX
  5
940B
  8
ALPHA
 10
51.60766
 20
87.474276
 30
0.0
  0
VERTEX
  5
940C
  8
ALPHA
 10
51.611342
 20
87.439311
 30
0.0
  0
VERTEX
  5
940D
  8
ALPHA
 10
51.615293
 20
87.427385
 30
0.0
  0
SEQEND
  5
940E
  8
ALPHA
  0
POLYLINE
  5
90C3
  8
ALPHA
 66
     1
 10
0.0
 20
0.0
 30
0.0
  0
VERTEX
  5
940F
  8
ALPHA
 10
51.615293
 20
87.427385
 30
0.0
  0
VERTEX
  5
9410
  8
ALPHA
 10
51.619244
 20
87.439311
 30
0.0
  0
VERTEX
  5
9411
  8
ALPHA
 10
51.622926
 20
87.474276
 30
0.0
  0
VERTEX
  5
9412
  8
ALPHA
 10
51.626088
 20
87.529898
 30
0.0
  0
VERTEX
  5
9413
  8
ALPHA
 10
51.628514
 20
87.602385
 30
0.0
  0
VERTEX
  5
9414
  8
ALPHA
 10
51.63004
 20
87.686798
 30
0.0
  0
VERTEX
  5
9415
  8
ALPHA
 10
51.63056
 20
87.777385
 30
0.0
  0
SEQEND
  5
9416
  8
ALPHA
  0
LINE
  5
90C4
  8
ALPHA
 10
46.879626
 20
86.277385
 30
0.0
 11
46.879626
 21
86.177385
 31
0.0
  0
POLYLINE
  5
90C5
  8
ALPHA
 66
     1
 10
0.0
 20
0.0
 30
0.0
  0
VERTEX
  5
9417
  8
ALPHA
 10
51.63056
 20
87.777385
 30
0.0
  0
VERTEX
  5
9418
  8
ALPHA
 10
51.63004
 20
87.867972
 30
0.0
  0
VERTEX
  5
9419
  8
ALPHA
 10
51.628514
 20
87.952385
 30
0.0
  0
VERTEX
  5
941A
  8
ALPHA
 10
51.626088
 20
88.024872
 30
0.0
  0
VERTEX
  5
941B
  8
ALPHA
 10
51.622926
 20
88.080494
 30
0.0
  0
VERTEX
  5
941C
  8
ALPHA
 10
51.619244
 20
88.115459
 30
0.0
  0
VERTEX
  5
941D
  8
ALPHA
 10
51.615293
 20
88.127385
 30
0.0
  0
SEQEND
  5
941E
  8
ALPHA
  0
POLYLINE
  5
90C6
  8
ALPHA
 66
     1
 10
0.0
 20
0.0
 30
0.0
  0
VERTEX
  5
941F
  8
ALPHA
 10
51.615293
 20
88.127385
 30
0.0
  0
VERTEX
  5
9420
  8
ALPHA
 10
51.611342
 20
88.115459
 30
0.0
  0
VERTEX
  5
9421
  8
ALPHA
 10
51.60766
 20
88.080494
 30
0.0
  0
VERTEX
  5
9422
  8
ALPHA
 10
51.604498
 20
88.024872
 30
0.0
  0
VERTEX
  5
9423
  8
ALPHA
 10
51.602072
 20
87.952385
 30
0.0
  0
VERTEX
  5
9424
  8
ALPHA
 10
51.600546
 20
87.867972
 30
0.0
  0
VERTEX
  5
9425
  8
ALPHA
 10
51.600026
 20
87.777385
 30
0.0
  0
SEQEND
  5
9426
  8
ALPHA
  0
POLYLINE
  5
90C7
  8
ALPHA
 66
     1
 10
0.0
 20
0.0
 30
0.0
  0
VERTEX
  5
9427
  8
ALPHA
 10
52.14396
 20
87.427385
 30
0.0
  0
VERTEX
  5
9428
  8
ALPHA
 10
52.140009
 20
87.439311
 30
0.0
  0
VERTEX
  5
9429
  8
ALPHA
 10
52.136327
 20
87.474276
 30
0.0
  0
VERTEX
  5
942A
  8
ALPHA
 10
52.133165
 20
87.529898
 30
0.0
  0
VERTEX
  5
942B
  8
ALPHA
 10
52.130738
 20
87.602385
 30
0.0
  0
VERTEX
  5
942C
  8
ALPHA
 10
52.129213
 20
87.686798
 30
0.0
  0
VERTEX
  5
942D
  8
ALPHA
 10
52.128693
 20
87.777385
 30
0.0
  0
SEQEND
  5
942E
  8
ALPHA
  0
POLYLINE
  5
90C8
  8
ALPHA
 66
     1
 10
0.0
 20
0.0
 30
0.0
  0
VERTEX
  5
942F
  8
ALPHA
 10
52.128693
 20
87.777385
 30
0.0
  0
VERTEX
  5
9430
  8
ALPHA
 10
52.129213
 20
87.867972
 30
0.0
  0
VERTEX
  5
9431
  8
ALPHA
 10
52.130738
 20
87.952385
 30
0.0
  0
VERTEX
  5
9432
  8
ALPHA
 10
52.133165
 20
88.024872
 30
0.0
  0
VERTEX
  5
9433
  8
ALPHA
 10
52.136327
 20
88.080494
 30
0.0
  0
VERTEX
  5
9434
  8
ALPHA
 10
52.140009
 20
88.115459
 30
0.0
  0
VERTEX
  5
9435
  8
ALPHA
 10
52.14396
 20
88.127385
 30
0.0
  0
SEQEND
  5
9436
  8
ALPHA
  0
LINE
  5
90C9
  8
ALPHA
 10
48.436141
 20
99.958536
 30
0.0
 11
45.335641
 21
95.39889
 31
0.0
  0
ARC
  5
90CA
  8
ALPHA
 10
48.849607
 20
99.677385
 30
0.0
 40
0.5
 50
90.0
 51
145.784814
  0
ARC
  5
90CB
  8
ALPHA
 10
51.879626
 20
97.354769
 30
0.0
 40
6.5
 50
98.849883
 51
119.472121
  0
LINE
  5
90CC
  8
ALPHA
 10
47.919626
 20
100.177385
 30
0.0
 11
47.919626
 21
101.707745
 31
0.0
  0
ARC
  5
90CD
  8
ALPHA
 10
49.419626
 20
101.707745
 30
0.0
 40
1.5
 50
119.472121
 51
180.0
  0
LINE
  5
90CE
  8
ALPHA
 10
52.879626
 20
103.777385
 30
0.0
 11
50.879626
 21
103.777385
 31
0.0
  0
ARC
  5
90CF
  8
ALPHA
 10
57.183214
 20
94.555436
 30
0.0
 40
1.5
 50
348.400456
 51
34.215185
  0
LINE
  5
90D0
  8
ALPHA
 10
58.579626
 20
81.867385
 30
0.0
 11
58.579626
 21
83.977385
 31
0.0
  0
LINE
  5
90D1
  8
ALPHA
 10
54.928028
 20
81.867385
 30
0.0
 11
54.928028
 21
83.977385
 31
0.0
  0
LINE
  5
90D2
  8
ALPHA
 10
54.952275
 20
83.977385
 30
0.0
 11
54.952275
 21
81.867385
 31
0.0
  0
LINE
  5
90D3
  8
ALPHA
 10
55.057231
 20
83.977385
 30
0.0
 11
55.057231
 21
81.867385
 31
0.0
  0
LINE
  5
90D4
  8
ALPHA
 10
57.379626
 20
81.867385
 30
0.0
 11
57.379626
 21
80.527385
 31
0.0
  0
LINE
  5
90D5
  8
ALPHA
 10
58.229626
 20
80.527385
 30
0.0
 11
58.229626
 21
79.377385
 31
0.0
  0
ARC
  5
90D6
  8
ALPHA
 10
57.779626
 20
78.477385
 30
0.0
 40
0.3
 50
199.5701
 51
269.999982
  0
ARC
  5
90D7
  8
ALPHA
 10
57.879626
 20
78.877385
 30
0.0
 40
0.5
 50
270.0
 51
90.0
  0
ARC
  5
90D8
  8
ALPHA
 10
57.729626
 20
76.177385
 30
0.0
 40
0.5
 50
270.0
 51
0.0
  0
LINE
  5
90D9
  8
ALPHA
 10
58.229626
 20
78.177385
 30
0.0
 11
58.229626
 21
76.177385
 31
0.0
  0
LINE
  5
90DA
  8
ALPHA
 10
57.729626
 20
88.577385
 30
0.0
 11
57.291333
 21
88.127385
 31
0.0
  0
LINE
  5
90DB
  8
ALPHA
 10
57.729626
 20
89.757371
 30
0.0
 11
57.729626
 21
88.577385
 31
0.0
  0
LINE
  5
90DC
  8
ALPHA
 10
58.65258
 20
94.253831
 30
0.0
 11
57.729626
 21
89.757371
 31
0.0
  0
LINE
  5
90DD
  8
ALPHA
 10
59.879626
 20
85.677385
 30
0.0
 11
59.379626
 21
86.177385
 31
0.0
  0
LINE
  5
90DE
  8
ALPHA
 10
59.879626
 20
83.977385
 30
0.0
 11
59.879626
 21
85.677385
 31
0.0
  0
LINE
  5
90DF
  8
ALPHA
 10
57.291333
 20
87.427385
 30
0.0
 11
57.729626
 21
86.977385
 31
0.0
  0
LINE
  5
90E0
  8
ALPHA
 10
56.879626
 20
86.277385
 30
0.0
 11
56.879626
 21
86.177385
 31
0.0
  0
LINE
  5
90E1
  8
ALPHA
 10
57.729626
 20
86.277385
 30
0.0
 11
57.729626
 21
86.977385
 31
0.0
  0
ARC
  5
90E2
  8
ALPHA
 10
57.939626
 20
87.777385
 30
0.0
 40
0.35
 50
270.0
 51
90.0
  0
LINE
  5
90E3
  8
ALPHA
 10
55.839626
 20
100.177385
 30
0.0
 11
55.839626
 21
101.707745
 31
0.0
  0
ARC
  5
90E4
  8
ALPHA
 10
54.339626
 20
101.707745
 30
0.0
 40
1.5
 50
0.0
 51
60.527879
  0
ARC
  5
90E5
  8
ALPHA
 10
54.909646
 20
99.677385
 30
0.0
 40
0.5
 50
34.215186
 51
90.0
  0
LINE
  5
90E6
  8
ALPHA
 10
55.323112
 20
99.958536
 30
0.0
 11
58.423612
 21
95.39889
 31
0.0
  0
VIEWPORT
  5
494D
 67
     1
  8
0
 10
4.995325
 20
6.556512
 30
0.0
 40
22.70986
 41
13.988421
 68
    -1
 69
     1
1001
ACAD
1000
MVIEW
1002
{
1070
    16
1010
0.0
1020
0.0
1030
0.0
1010
0.0
1020
0.0
1030
1.0
1040
0.0
1040
13.988421
1040
4.995325
1040
6.556512
1040
50.0
1040
0.0
1040
0.0
1070
     0
1070
   100
1070
     1
1070
     1
1070
     0
1070
     0
1070
     0
1070
     0
1040
0.0
1040
0.0
1040
0.0
1040
10.0
1040
10.0
1040
10.0
1040
10.0
1070
     0
1002
{
1002
}
1002
}
  0
ENDSEC
  0
EOF
