  0
SECTION
  2
HEADER
  9
$ACADVER
  1
AC1014
  9
$ACADMAINTVER
 70
     0
  9
$DWGCODEPAGE
  3
ANSI_1252
  9
$INSBASE
 10
122.737054
 20
154.052434
 30
0.0
  9
$EXTMIN
 10
99.619707
 20
111.432571
 30
0.0
  9
$EXTMAX
 10
186.905134
 20
195.658131
 30
0.0
  9
$LIMMIN
 10
0.0
 20
0.0
  9
$LIMMAX
 10
210.0
 20
297.0
  9
$ORTHOMODE
 70
     0
  9
$REGENMODE
 70
     1
  9
$FILLMODE
 70
     1
  9
$QTEXTMODE
 70
     0
  9
$MIRRTEXT
 70
     1
  9
$DRAGMODE
 70
     2
  9
$LTSCALE
 40
10.0
  9
$OSMODE
 70
     0
  9
$ATTMODE
 70
     1
  9
$TEXTSIZE
 40
2.9
  9
$TRACEWID
 40
0.05
  9
$TEXTSTYLE
  7
ROMANS
  9
$CLAYER
  8
AXE
  9
$CELTYPE
  6
BYLAYER
  9
$CECOLOR
 62
   256
  9
$CELTSCALE
 40
1.0
  9
$DELOBJ
 70
     1
  9
$DISPSILH
 70
     0
  9
$DIMSCALE
 40
1.0
  9
$DIMASZ
 40
3.0
  9
$DIMEXO
 40
0.0625
  9
$DIMDLI
 40
0.38
  9
$DIMRND
 40
0.01
  9
$DIMDLE
 40
0.0
  9
$DIMEXE
 40
0.18
  9
$DIMTP
 40
0.0
  9
$DIMTM
 40
0.0
  9
$DIMTXT
 40
2.5
  9
$DIMCEN
 40
0.09
  9
$DIMTSZ
 40
0.0
  9
$DIMTOL
 70
     0
  9
$DIMLIM
 70
     0
  9
$DIMTIH
 70
     0
  9
$DIMTOH
 70
     0
  9
$DIMSE1
 70
     0
  9
$DIMSE2
 70
     0
  9
$DIMTAD
 70
     1
  9
$DIMZIN
 70
    12
  9
$DIMBLK
  1

  9
$DIMASO
 70
     1
  9
$DIMSHO
 70
     1
  9
$DIMPOST
  1

  9
$DIMAPOST
  1

  9
$DIMALT
 70
     0
  9
$DIMALTD
 70
     2
  9
$DIMALTF
 40
25.4
  9
$DIMLFAC
 40
1.0
  9
$DIMTOFL
 70
     1
  9
$DIMTVP
 40
0.0
  9
$DIMTIX
 70
     0
  9
$DIMSOXD
 70
     0
  9
$DIMSAH
 70
     1
  9
$DIMBLK1
  1
_OPEN
  9
$DIMBLK2
  1
_OPEN
  9
$DIMSTYLE
  2
SC_STAND
  9
$DIMCLRD
 70
     0
  9
$DIMCLRE
 70
     0
  9
$DIMCLRT
 70
     0
  9
$DIMTFAC
 40
1.0
  9
$DIMGAP
 40
1.0
  9
$DIMJUST
 70
     0
  9
$DIMSD1
 70
     0
  9
$DIMSD2
 70
     0
  9
$DIMTOLJ
 70
     1
  9
$DIMTZIN
 70
    12
  9
$DIMALTZ
 70
    12
  9
$DIMALTTZ
 70
    12
  9
$DIMFIT
 70
     5
  9
$DIMUPT
 70
     0
  9
$DIMUNIT
 70
     2
  9
$DIMDEC
 70
     4
  9
$DIMTDEC
 70
     4
  9
$DIMALTU
 70
     2
  9
$DIMALTTD
 70
     2
  9
$DIMTXSTY
  7
ROMANS
  9
$DIMAUNIT
 70
     0
  9
$LUNITS
 70
     2
  9
$LUPREC
 70
     4
  9
$SKETCHINC
 40
0.1
  9
$FILLETRAD
 40
0.0
  9
$AUNITS
 70
     0
  9
$AUPREC
 70
     0
  9
$MENU
  1
.
  9
$ELEVATION
 40
0.0
  9
$PELEVATION
 40
0.0
  9
$THICKNESS
 40
0.0
  9
$LIMCHECK
 70
     0
  9
$BLIPMODE
 70
     1
  9
$CHAMFERA
 40
0.0
  9
$CHAMFERB
 40
0.0
  9
$CHAMFERC
 40
0.0
  9
$CHAMFERD
 40
0.0
  9
$SKPOLY
 70
     0
  9
$TDCREATE
 40
2451264.382125000
  9
$TDUPDATE
 40
2451387.895851192
  9
$TDINDWG
 40
0.1087689931
  9
$TDUSRTIMER
 40
0.1087689931
  9
$USRTIMER
 70
     1
  9
$ANGBASE
 50
0.0
  9
$ANGDIR
 70
     0
  9
$PDMODE
 70
     0
  9
$PDSIZE
 40
0.0
  9
$PLINEWID
 40
0.0
  9
$COORDS
 70
     1
  9
$SPLFRAME
 70
     0
  9
$SPLINETYPE
 70
     6
  9
$SPLINESEGS
 70
     8
  9
$ATTDIA
 70
     1
  9
$ATTREQ
 70
     1
  9
$HANDLING
 70
     1
  9
$HANDSEED
  5
F6
  9
$SURFTAB1
 70
     6
  9
$SURFTAB2
 70
     6
  9
$SURFTYPE
 70
     6
  9
$SURFU
 70
     6
  9
$SURFV
 70
     6
  9
$UCSNAME
  2

  9
$UCSORG
 10
0.0
 20
0.0
 30
0.0
  9
$UCSXDIR
 10
1.0
 20
0.0
 30
0.0
  9
$UCSYDIR
 10
0.0
 20
1.0
 30
0.0
  9
$PUCSNAME
  2

  9
$PUCSORG
 10
0.0
 20
0.0
 30
0.0
  9
$PUCSXDIR
 10
1.0
 20
0.0
 30
0.0
  9
$PUCSYDIR
 10
0.0
 20
1.0
 30
0.0
  9
$USERI1
 70
     0
  9
$USERI2
 70
     0
  9
$USERI3
 70
     0
  9
$USERI4
 70
     0
  9
$USERI5
 70
     0
  9
$USERR1
 40
0.0
  9
$USERR2
 40
0.0
  9
$USERR3
 40
0.0
  9
$USERR4
 40
0.0
  9
$USERR5
 40
0.0
  9
$WORLDVIEW
 70
     1
  9
$SHADEDGE
 70
     3
  9
$SHADEDIF
 70
    70
  9
$TILEMODE
 70
     1
  9
$MAXACTVP
 70
    16
  9
$PINSBASE
 10
0.0
 20
0.0
 30
0.0
  9
$PLIMCHECK
 70
     0
  9
$PEXTMIN
 10
0.0
 20
0.0
 30
0.0
  9
$PEXTMAX
 10
420.0
 20
297.0
 30
0.0
  9
$PLIMMIN
 10
0.0
 20
0.0
  9
$PLIMMAX
 10
420.0
 20
297.0
  9
$UNITMODE
 70
     0
  9
$VISRETAIN
 70
     0
  9
$PLINEGEN
 70
     0
  9
$PSLTSCALE
 70
     1
  9
$TREEDEPTH
 70
  3020
  9
$PICKSTYLE
 70
     1
  9
$CMLSTYLE
  2
STANDARD
  9
$CMLJUST
 70
     0
  9
$CMLSCALE
 40
1.0
  9
$PROXYGRAPHICS
 70
     1
  9
$MEASUREMENT
 70
     0
  0
ENDSEC
  0
SECTION
  2
CLASSES
  0
CLASS
  1
DICTIONARYVAR
  2
AcDbDictionaryVar
  3
"AutoCAD"
 90
        0
280
     0
281
     0
  0
ENDSEC
  0
SECTION
  2
TABLES
  0
TABLE
  2
VPORT
  5
C1
100
AcDbSymbolTable
 70
     1
  0
VPORT
  5
F1
100
AcDbSymbolTableRecord
100
AcDbViewportTableRecord
  2
*ACTIVE
 70
     0
 10
0.0
 20
0.0
 11
1.0
 21
1.0
 12
106.02052
 22
159.835962
 13
0.0
 23
0.0
 14
1.0
 24
1.0
 15
0.0
 25
0.0
 16
0.0
 26
0.0
 36
1.0
 17
0.0
 27
0.0
 37
0.0
 40
96.806782
 41
1.671053
 42
50.0
 43
0.0
 44
0.0
 50
0.0
 51
0.0
 71
     0
 72
   100
 73
     1
 74
     1
 75
     0
 76
     0
 77
     0
 78
     0
  0
ENDTAB
  0
TABLE
  2
LTYPE
  5
BE
100
AcDbSymbolTable
 70
     3
  0
LTYPE
  5
CA
100
AcDbSymbolTableRecord
100
AcDbLinetypeTableRecord
  2
BYBLOCK
 70
     0
  3

 72
    65
 73
     0
 40
0.0
  0
LTYPE
  5
CB
100
AcDbSymbolTableRecord
100
AcDbLinetypeTableRecord
  2
BYLAYER
 70
     0
  3

 72
    65
 73
     0
 40
0.0
  0
LTYPE
  5
CC
100
AcDbSymbolTableRecord
100
AcDbLinetypeTableRecord
  2
CONTINUOUS
 70
     0
  3
Solid line
 72
    65
 73
     0
 40
0.0
  0
LTYPE
  5
DF
100
AcDbSymbolTableRecord
100
AcDbLinetypeTableRecord
  2
AXES2
 70
     0
  3
___ _ ___ _ ___ _ ___ _ ___ _ ___ _ ___ _ ___ _
 72
    65
 73
     4
 40
1.125
 49
0.75
 74
     0
 49
-0.125
 74
     0
 49
0.125
 74
     0
 49
-0.125
 74
     0
  0
LTYPE
  5
E0
100
AcDbSymbolTableRecord
100
AcDbLinetypeTableRecord
  2
CACHE
 70
     0
  3
__ __ __ __ __ __ __ __ __ __ __ __ __ __ __ __
 72
    65
 73
     2
 40
0.375
 49
0.25
 74
     0
 49
-0.125
 74
     0
  0
ENDTAB
  0
TABLE
  2
LAYER
  5
BB
100
AcDbSymbolTable
 70
     6
  0
LAYER
  5
C7
100
AcDbSymbolTableRecord
100
AcDbLayerTableRecord
  2
0
 70
     0
 62
   255
  6
CONTINUOUS
  0
LAYER
  5
E3
100
AcDbSymbolTableRecord
100
AcDbLayerTableRecord
  2
AXE
 70
     0
 62
    80
  6
AXES2
  0
LAYER
  5
E4
100
AcDbSymbolTableRecord
100
AcDbLayerTableRecord
  2
COTATION1
 70
     0
 62
     2
  6
CONTINUOUS
  0
LAYER
  5
E5
100
AcDbSymbolTableRecord
100
AcDbLayerTableRecord
  2
POINTILLE_MOYEN
 70
     0
 62
   140
  6
CACHE
  0
LAYER
  5
E6
100
AcDbSymbolTableRecord
100
AcDbLayerTableRecord
  2
ALPHA
 70
     0
 62
   254
  6
CONTINUOUS
  0
LAYER
  5
E7
100
AcDbSymbolTableRecord
100
AcDbLayerTableRecord
  2
DEFPOINTS
 70
     0
 62
     7
  6
CONTINUOUS
  0
ENDTAB
  0
TABLE
  2
STYLE
  5
BC
100
AcDbSymbolTable
 70
     2
  0
STYLE
  5
C8
100
AcDbSymbolTableRecord
100
AcDbTextStyleTableRecord
  2
STANDARD
 70
     0
 40
0.0
 41
1.0
 50
0.0
 71
     0
 42
0.2
  3
txt
  4

  0
STYLE
  5
DE
100
AcDbSymbolTableRecord
100
AcDbTextStyleTableRecord
  2
ROMANS
 70
     0
 40
0.0
 41
1.0
 50
0.0
 71
     0
 42
2.9
  3
romans.shx
  4

  0
ENDTAB
  0
TABLE
  2
VIEW
  5
BF
100
AcDbSymbolTable
 70
     0
  0
ENDTAB
  0
TABLE
  2
UCS
  5
C0
100
AcDbSymbolTable
 70
     0
  0
ENDTAB
  0
TABLE
  2
APPID
  5
C2
100
AcDbSymbolTable
 70
     1
  0
APPID
  5
C9
100
AcDbSymbolTableRecord
100
AcDbRegAppTableRecord
  2
ACAD
 70
     0
  0
ENDTAB
  0
TABLE
  2
DIMSTYLE
  5
C3
100
AcDbSymbolTable
 70
     1
  0
DIMSTYLE
105
E2
102
{ACAD_REACTORS
330
21
330
34
330
44
330
51
330
5E
330
73
330
82
330
96
102
}
100
AcDbSymbolTableRecord
100
AcDbDimStyleTableRecord
  2
SC_STAND
 70
     0
  3

  4

  5

  6

  7

 40
1.0
 41
3.0
 42
0.0625
 43
0.38
 44
0.18
 45
0.01
 46
0.0
 47
0.0
 48
0.0
140
2.5
141
0.09
142
0.0
143
25.4
144
1.0
145
0.0
146
1.0
147
1.0
 71
     0
 72
     0
 73
     0
 74
     0
 75
     0
 76
     0
 77
     1
 78
    12
170
     0
171
     2
172
     1
173
     0
174
     0
175
     0
176
     0
177
     0
178
     0
270
     2
271
     4
272
     4
273
     2
274
     2
340
DE
275
     0
280
     0
281
     0
282
     0
283
     1
284
    12
285
    12
286
    12
287
     5
288
     0
  0
ENDTAB
  0
TABLE
  2
BLOCK_RECORD
  5
BA
100
AcDbSymbolTable
 70
     9
  0
BLOCK_RECORD
  5
D0
100
AcDbSymbolTableRecord
100
AcDbBlockTableRecord
  2
*MODEL_SPACE
  0
BLOCK_RECORD
  5
CD
100
AcDbSymbolTableRecord
100
AcDbBlockTableRecord
  2
*PAPER_SPACE
  0
BLOCK_RECORD
  5
D5
100
AcDbSymbolTableRecord
100
AcDbBlockTableRecord
  2
_OPEN
  0
BLOCK_RECORD
  5
D6
100
AcDbSymbolTableRecord
100
AcDbBlockTableRecord
  2
*D1
  0
BLOCK_RECORD
  5
D7
100
AcDbSymbolTableRecord
100
AcDbBlockTableRecord
  2
*D2
  0
BLOCK_RECORD
  5
D8
100
AcDbSymbolTableRecord
100
AcDbBlockTableRecord
  2
*D3
  0
BLOCK_RECORD
  5
D9
100
AcDbSymbolTableRecord
100
AcDbBlockTableRecord
  2
*D4
  0
BLOCK_RECORD
  5
DA
100
AcDbSymbolTableRecord
100
AcDbBlockTableRecord
  2
*D5
  0
BLOCK_RECORD
  5
DB
100
AcDbSymbolTableRecord
100
AcDbBlockTableRecord
  2
*D6
  0
BLOCK_RECORD
  5
DC
100
AcDbSymbolTableRecord
100
AcDbBlockTableRecord
  2
*D7
  0
BLOCK_RECORD
  5
DD
100
AcDbSymbolTableRecord
100
AcDbBlockTableRecord
  2
*D8
  0
ENDTAB
  0
ENDSEC
  0
SECTION
  2
BLOCKS
  0
BLOCK
  5
EA
100
AcDbEntity
  8
0
100
AcDbBlockBegin
  2
*MODEL_SPACE
 70
     0
 10
0.0
 20
0.0
 30
0.0
  3
*MODEL_SPACE
  1

  0
ENDBLK
  5
EB
100
AcDbEntity
  8
0
100
AcDbBlockEnd
  0
BLOCK
  5
E8
100
AcDbEntity
 67
     1
  8
0
100
AcDbBlockBegin
  2
*PAPER_SPACE
 70
     0
 10
0.0
 20
0.0
 30
0.0
  3
*PAPER_SPACE
  1

  0
ENDBLK
  5
E9
100
AcDbEntity
 67
     1
  8
0
100
AcDbBlockEnd
  0
BLOCK
  5
2B
100
AcDbEntity
  8
0
100
AcDbBlockBegin
  2
_OPEN
 70
     0
 10
0.0
 20
0.0
 30
0.0
  3
_OPEN
  1
AVE_GLOBAL
  0
LINE
  5
28
100
AcDbEntity
  8
0
  6
BYBLOCK
 62
     0
100
AcDbLine
 10
-1.0
 20
0.166667
 30
0.0
 11
0.0
 21
0.0
 31
0.0
  0
LINE
  5
29
100
AcDbEntity
  8
0
  6
BYBLOCK
 62
     0
100
AcDbLine
 10
0.0
 20
0.0
 30
0.0
 11
-1.0
 21
-0.166667
 31
0.0
  0
LINE
  5
2A
100
AcDbEntity
  8
0
  6
BYBLOCK
 62
     0
100
AcDbLine
 10
0.0
 20
0.0
 30
0.0
 11
-1.0
 21
0.0
 31
0.0
  0
ENDBLK
  5
2C
100
AcDbEntity
  8
0
100
AcDbBlockEnd
  0
BLOCK
  5
69
100
AcDbEntity
  8
0
100
AcDbBlockBegin
  2
*D1
 70
     1
 10
0.0
 20
0.0
 30
0.0
  3
*D1
  1
AVE_GLOBAL
  0
LINE
  5
60
100
AcDbEntity
  8
0
  6
BYBLOCK
 62
     0
100
AcDbLine
 10
144.799554
 20
136.052434
 30
0.0
 11
153.585186
 21
136.052434
 31
0.0
  0
LINE
  5
61
100
AcDbEntity
  8
0
  6
BYBLOCK
 62
     0
100
AcDbLine
 10
146.601076
 20
154.052434
 30
0.0
 11
153.585186
 21
154.052434
 31
0.0
  0
LINE
  5
62
100
AcDbEntity
  8
0
  6
BYBLOCK
 62
     0
100
AcDbLine
 10
153.405186
 20
139.052434
 30
0.0
 11
153.405186
 21
151.052434
 31
0.0
  0
INSERT
  5
63
100
AcDbEntity
  8
0
  6
BYBLOCK
 62
     0
100
AcDbBlockReference
  2
_OPEN
 10
153.405186
 20
136.052434
 30
0.0
 41
3.0
 42
3.0
 43
3.0
 50
270.0
  0
INSERT
  5
64
100
AcDbEntity
  8
0
  6
BYBLOCK
 62
     0
100
AcDbBlockReference
  2
_OPEN
 10
153.405186
 20
154.052434
 30
0.0
 41
3.0
 42
3.0
 43
3.0
 50
90.0
  0
TEXT
  5
65
100
AcDbEntity
  8
0
  6
BYBLOCK
 62
     0
100
AcDbText
 10
152.405186
 20
143.385768
 30
0.0
 40
2.5
  1
18
 50
90.0
100
AcDbText
  0
POINT
  5
66
100
AcDbEntity
  8
DEFPOINTS
  6
BYBLOCK
 62
     0
100
AcDbPoint
 10
144.737054
 20
136.052434
 30
0.0
  0
POINT
  5
67
100
AcDbEntity
  8
DEFPOINTS
  6
BYBLOCK
 62
     0
100
AcDbPoint
 10
146.538576
 20
154.052434
 30
0.0
  0
POINT
  5
68
100
AcDbEntity
  8
DEFPOINTS
  6
BYBLOCK
 62
     0
100
AcDbPoint
 10
153.405186
 20
154.052434
 30
0.0
  0
ENDBLK
  5
6A
100
AcDbEntity
  8
0
100
AcDbBlockEnd
  0
BLOCK
  5
5C
100
AcDbEntity
  8
0
100
AcDbBlockBegin
  2
*D2
 70
     1
 10
0.0
 20
0.0
 30
0.0
  3
*D2
  1
AVE_GLOBAL
  0
LINE
  5
53
100
AcDbEntity
  8
0
  6
BYBLOCK
 62
     0
100
AcDbLine
 10
144.799554
 20
136.052434
 30
0.0
 11
162.163604
 21
136.052434
 31
0.0
  0
LINE
  5
54
100
AcDbEntity
  8
0
  6
BYBLOCK
 62
     0
100
AcDbLine
 10
143.299554
 20
160.052434
 30
0.0
 11
162.163604
 21
160.052434
 31
0.0
  0
LINE
  5
55
100
AcDbEntity
  8
0
  6
BYBLOCK
 62
     0
100
AcDbLine
 10
161.983604
 20
139.052434
 30
0.0
 11
161.983604
 21
157.052434
 31
0.0
  0
INSERT
  5
56
100
AcDbEntity
  8
0
  6
BYBLOCK
 62
     0
100
AcDbBlockReference
  2
_OPEN
 10
161.983604
 20
136.052434
 30
0.0
 41
3.0
 42
3.0
 43
3.0
 50
270.0
  0
INSERT
  5
57
100
AcDbEntity
  8
0
  6
BYBLOCK
 62
     0
100
AcDbBlockReference
  2
_OPEN
 10
161.983604
 20
160.052434
 30
0.0
 41
3.0
 42
3.0
 43
3.0
 50
90.0
  0
TEXT
  5
58
100
AcDbEntity
  8
0
  6
BYBLOCK
 62
     0
100
AcDbText
 10
160.983604
 20
145.969101
 30
0.0
 40
2.5
  1
24
 50
90.0
100
AcDbText
  0
POINT
  5
59
100
AcDbEntity
  8
DEFPOINTS
  6
BYBLOCK
 62
     0
100
AcDbPoint
 10
144.737054
 20
136.052434
 30
0.0
  0
POINT
  5
5A
100
AcDbEntity
  8
DEFPOINTS
  6
BYBLOCK
 62
     0
100
AcDbPoint
 10
143.237054
 20
160.052434
 30
0.0
  0
POINT
  5
5B
100
AcDbEntity
  8
DEFPOINTS
  6
BYBLOCK
 62
     0
100
AcDbPoint
 10
161.983604
 20
160.052434
 30
0.0
  0
ENDBLK
  5
5D
100
AcDbEntity
  8
0
100
AcDbBlockEnd
  0
BLOCK
  5
4F
100
AcDbEntity
  8
0
100
AcDbBlockBegin
  2
*D3
 70
     1
 10
0.0
 20
0.0
 30
0.0
  3
*D3
  1
AVE_GLOBAL
  0
LINE
  5
46
100
AcDbEntity
  8
0
  6
BYBLOCK
 62
     0
100
AcDbLine
 10
144.799554
 20
136.052434
 30
0.0
 11
169.767202
 21
136.052434
 31
0.0
  0
LINE
  5
47
100
AcDbEntity
  8
0
  6
BYBLOCK
 62
     0
100
AcDbLine
 10
144.799554
 20
166.052434
 30
0.0
 11
169.767202
 21
166.052434
 31
0.0
  0
LINE
  5
48
100
AcDbEntity
  8
0
  6
BYBLOCK
 62
     0
100
AcDbLine
 10
169.587202
 20
139.052434
 30
0.0
 11
169.587202
 21
163.052434
 31
0.0
  0
INSERT
  5
49
100
AcDbEntity
  8
0
  6
BYBLOCK
 62
     0
100
AcDbBlockReference
  2
_OPEN
 10
169.587202
 20
136.052434
 30
0.0
 41
3.0
 42
3.0
 43
3.0
 50
270.0
  0
INSERT
  5
4A
100
AcDbEntity
  8
0
  6
BYBLOCK
 62
     0
100
AcDbBlockReference
  2
_OPEN
 10
169.587202
 20
166.052434
 30
0.0
 41
3.0
 42
3.0
 43
3.0
 50
90.0
  0
TEXT
  5
4B
100
AcDbEntity
  8
0
  6
BYBLOCK
 62
     0
100
AcDbText
 10
168.587202
 20
149.177434
 30
0.0
 40
2.5
  1
30
 50
90.0
100
AcDbText
  0
POINT
  5
4C
100
AcDbEntity
  8
DEFPOINTS
  6
BYBLOCK
 62
     0
100
AcDbPoint
 10
144.737054
 20
136.052434
 30
0.0
  0
POINT
  5
4D
100
AcDbEntity
  8
DEFPOINTS
  6
BYBLOCK
 62
     0
100
AcDbPoint
 10
144.737054
 20
166.052434
 30
0.0
  0
POINT
  5
4E
100
AcDbEntity
  8
DEFPOINTS
  6
BYBLOCK
 62
     0
100
AcDbPoint
 10
169.587202
 20
166.052434
 30
0.0
  0
ENDBLK
  5
50
100
AcDbEntity
  8
0
100
AcDbBlockEnd
  0
BLOCK
  5
A3
100
AcDbEntity
  8
0
100
AcDbBlockBegin
  2
*D4
 70
     1
 10
0.0
 20
0.0
 30
0.0
  3
*D4
  1
AVE_GLOBAL
  0
LINE
  5
98
100
AcDbEntity
  8
0
  6
BYBLOCK
 62
     0
100
AcDbLine
 10
134.737054
 20
160.114934
 30
0.0
 11
134.737054
 21
174.09132
 31
0.0
  0
LINE
  5
99
100
AcDbEntity
  8
0
  6
BYBLOCK
 62
     0
100
AcDbLine
 10
140.737054
 20
160.114934
 30
0.0
 11
140.737054
 21
174.09132
 31
0.0
  0
LINE
  5
9A
100
AcDbEntity
  8
0
  6
BYBLOCK
 62
     0
100
AcDbLine
 10
131.737054
 20
173.91132
 30
0.0
 11
128.737054
 21
173.91132
 31
0.0
  0
LINE
  5
9B
100
AcDbEntity
  8
0
  6
BYBLOCK
 62
     0
100
AcDbLine
 10
143.737054
 20
173.91132
 30
0.0
 11
152.90372
 21
173.91132
 31
0.0
  0
LINE
  5
9C
100
AcDbEntity
  8
0
  6
BYBLOCK
 62
     0
100
AcDbLine
 10
134.737054
 20
173.91132
 30
0.0
 11
140.737054
 21
173.91132
 31
0.0
  0
INSERT
  5
9D
100
AcDbEntity
  8
0
  6
BYBLOCK
 62
     0
100
AcDbBlockReference
  2
_OPEN
 10
134.737054
 20
173.91132
 30
0.0
 41
3.0
 42
3.0
 43
3.0
  0
INSERT
  5
9E
100
AcDbEntity
  8
0
  6
BYBLOCK
 62
     0
100
AcDbBlockReference
  2
_OPEN
 10
140.737054
 20
173.91132
 30
0.0
 41
3.0
 42
3.0
 43
3.0
 50
180.0
  0
TEXT
  5
9F
100
AcDbEntity
  8
0
  6
BYBLOCK
 62
     0
100
AcDbText
 10
147.737054
 20
174.91132
 30
0.0
 40
2.5
  1
%%c6
100
AcDbText
  0
POINT
  5
A0
100
AcDbEntity
  8
DEFPOINTS
  6
BYBLOCK
 62
     0
100
AcDbPoint
 10
134.737054
 20
160.052434
 30
0.0
  0
POINT
  5
A1
100
AcDbEntity
  8
DEFPOINTS
  6
BYBLOCK
 62
     0
100
AcDbPoint
 10
140.737054
 20
160.052434
 30
0.0
  0
POINT
  5
A2
100
AcDbEntity
  8
DEFPOINTS
  6
BYBLOCK
 62
     0
100
AcDbPoint
 10
140.737054
 20
173.91132
 30
0.0
  0
ENDBLK
  5
A4
100
AcDbEntity
  8
0
100
AcDbBlockEnd
  0
BLOCK
  5
8D
100
AcDbEntity
  8
0
100
AcDbBlockBegin
  2
*D5
 70
     1
 10
0.0
 20
0.0
 30
0.0
  3
*D5
  1
AVE_GLOBAL
  0
LINE
  5
84
100
AcDbEntity
  8
0
  6
BYBLOCK
 62
     0
100
AcDbLine
 10
107.737054
 20
132.989934
 30
0.0
 11
107.737054
 21
123.291718
 31
0.0
  0
LINE
  5
85
100
AcDbEntity
  8
0
  6
BYBLOCK
 62
     0
100
AcDbLine
 10
137.737054
 20
133.611361
 30
0.0
 11
137.737054
 21
123.291718
 31
0.0
  0
LINE
  5
86
100
AcDbEntity
  8
0
  6
BYBLOCK
 62
     0
100
AcDbLine
 10
110.737054
 20
123.471718
 30
0.0
 11
134.737054
 21
123.471718
 31
0.0
  0
INSERT
  5
87
100
AcDbEntity
  8
0
  6
BYBLOCK
 62
     0
100
AcDbBlockReference
  2
_OPEN
 10
107.737054
 20
123.471718
 30
0.0
 41
3.0
 42
3.0
 43
3.0
 50
180.0
  0
INSERT
  5
88
100
AcDbEntity
  8
0
  6
BYBLOCK
 62
     0
100
AcDbBlockReference
  2
_OPEN
 10
137.737054
 20
123.471718
 30
0.0
 41
3.0
 42
3.0
 43
3.0
  0
TEXT
  5
89
100
AcDbEntity
  8
0
  6
BYBLOCK
 62
     0
100
AcDbText
 10
115.862054
 20
124.471718
 30
0.0
 40
2.5
  1
= 30 =
100
AcDbText
  0
POINT
  5
8A
100
AcDbEntity
  8
DEFPOINTS
  6
BYBLOCK
 62
     0
100
AcDbPoint
 10
107.737054
 20
133.052434
 30
0.0
  0
POINT
  5
8B
100
AcDbEntity
  8
DEFPOINTS
  6
BYBLOCK
 62
     0
100
AcDbPoint
 10
137.737054
 20
133.673861
 30
0.0
  0
POINT
  5
8C
100
AcDbEntity
  8
DEFPOINTS
  6
BYBLOCK
 62
     0
100
AcDbPoint
 10
137.737054
 20
123.471718
 30
0.0
  0
ENDBLK
  5
8E
100
AcDbEntity
  8
0
100
AcDbBlockEnd
  0
BLOCK
  5
80
100
AcDbEntity
  8
0
100
AcDbBlockBegin
  2
*D6
 70
     1
 10
0.0
 20
0.0
 30
0.0
  3
*D6
  1
AVE_GLOBAL
  0
LINE
  5
75
100
AcDbEntity
  8
0
  6
BYBLOCK
 62
     0
100
AcDbLine
 10
137.737054
 20
123.534218
 30
0.0
 11
137.737054
 21
123.651718
 31
0.0
  0
LINE
  5
76
100
AcDbEntity
  8
0
  6
BYBLOCK
 62
     0
100
AcDbLine
 10
144.737054
 20
135.989934
 30
0.0
 11
144.737054
 21
123.291718
 31
0.0
  0
LINE
  5
77
100
AcDbEntity
  8
0
  6
BYBLOCK
 62
     0
100
AcDbLine
 10
134.737054
 20
123.471718
 30
0.0
 11
131.737054
 21
123.471718
 31
0.0
  0
LINE
  5
78
100
AcDbEntity
  8
0
  6
BYBLOCK
 62
     0
100
AcDbLine
 10
147.737054
 20
123.471718
 30
0.0
 11
150.737054
 21
123.471718
 31
0.0
  0
LINE
  5
79
100
AcDbEntity
  8
0
  6
BYBLOCK
 62
     0
100
AcDbLine
 10
137.737054
 20
123.471718
 30
0.0
 11
144.737054
 21
123.471718
 31
0.0
  0
INSERT
  5
7A
100
AcDbEntity
  8
0
  6
BYBLOCK
 62
     0
100
AcDbBlockReference
  2
_OPEN
 10
137.737054
 20
123.471718
 30
0.0
 41
3.0
 42
3.0
 43
3.0
  0
INSERT
  5
7B
100
AcDbEntity
  8
0
  6
BYBLOCK
 62
     0
100
AcDbBlockReference
  2
_OPEN
 10
144.737054
 20
123.471718
 30
0.0
 41
3.0
 42
3.0
 43
3.0
 50
180.0
  0
TEXT
  5
7C
100
AcDbEntity
  8
0
  6
BYBLOCK
 62
     0
100
AcDbText
 10
140.40372
 20
124.471718
 30
0.0
 40
2.5
  1
7
100
AcDbText
  0
POINT
  5
7D
100
AcDbEntity
  8
DEFPOINTS
  6
BYBLOCK
 62
     0
100
AcDbPoint
 10
137.737054
 20
123.471718
 30
0.0
  0
POINT
  5
7E
100
AcDbEntity
  8
DEFPOINTS
  6
BYBLOCK
 62
     0
100
AcDbPoint
 10
144.737054
 20
136.052434
 30
0.0
  0
POINT
  5
7F
100
AcDbEntity
  8
DEFPOINTS
  6
BYBLOCK
 62
     0
100
AcDbPoint
 10
144.737054
 20
123.471718
 30
0.0
  0
ENDBLK
  5
81
100
AcDbEntity
  8
0
100
AcDbBlockEnd
  0
BLOCK
  5
3F
100
AcDbEntity
  8
0
100
AcDbBlockBegin
  2
*D7
 70
     1
 10
0.0
 20
0.0
 30
0.0
  3
*D7
  1
AVE_GLOBAL
  0
LINE
  5
36
100
AcDbEntity
  8
0
  6
BYBLOCK
 62
     0
100
AcDbLine
 10
144.737054
 20
135.927434
 30
0.0
 11
144.737054
 21
111.752571
 31
0.0
  0
LINE
  5
37
100
AcDbEntity
  8
0
  6
BYBLOCK
 62
     0
100
AcDbLine
 10
103.737054
 20
135.989934
 30
0.0
 11
103.737054
 21
111.752571
 31
0.0
  0
LINE
  5
38
100
AcDbEntity
  8
0
  6
BYBLOCK
 62
     0
100
AcDbLine
 10
141.737054
 20
111.932571
 30
0.0
 11
106.737054
 21
111.932571
 31
0.0
  0
INSERT
  5
39
100
AcDbEntity
  8
0
  6
BYBLOCK
 62
     0
100
AcDbBlockReference
  2
_OPEN
 10
144.737054
 20
111.932571
 30
0.0
 41
3.0
 42
3.0
 43
3.0
  0
INSERT
  5
3A
100
AcDbEntity
  8
0
  6
BYBLOCK
 62
     0
100
AcDbBlockReference
  2
_OPEN
 10
103.737054
 20
111.932571
 30
0.0
 41
3.0
 42
3.0
 43
3.0
 50
180.0
  0
TEXT
  5
3B
100
AcDbEntity
  8
0
  6
BYBLOCK
 62
     0
100
AcDbText
 10
122.570387
 20
112.932571
 30
0.0
 40
2.5
  1
41
100
AcDbText
  0
POINT
  5
3C
100
AcDbEntity
  8
DEFPOINTS
  6
BYBLOCK
 62
     0
100
AcDbPoint
 10
144.737054
 20
135.989934
 30
0.0
  0
POINT
  5
3D
100
AcDbEntity
  8
DEFPOINTS
  6
BYBLOCK
 62
     0
100
AcDbPoint
 10
103.737054
 20
136.052434
 30
0.0
  0
POINT
  5
3E
100
AcDbEntity
  8
DEFPOINTS
  6
BYBLOCK
 62
     0
100
AcDbPoint
 10
103.737054
 20
111.932571
 30
0.0
  0
ENDBLK
  5
40
100
AcDbEntity
  8
0
100
AcDbBlockEnd
  0
BLOCK
  5
32
100
AcDbEntity
  8
0
100
AcDbBlockBegin
  2
*D8
 70
     1
 10
0.0
 20
0.0
 30
0.0
  3
*D8
  1
AVE_GLOBAL
  0
LINE
  5
24
100
AcDbEntity
  8
0
  6
BYBLOCK
 62
     0
100
AcDbLine
 10
127.662079
 20
150.538658
 30
0.0
 11
117.812028
 21
157.566211
 31
0.0
  0
LINE
  5
25
100
AcDbEntity
  8
0
  6
BYBLOCK
 62
     0
100
AcDbLine
 10
115.369867
 20
159.308579
 30
0.0
 11
99.619707
 21
170.545584
 31
0.0
  0
INSERT
  5
26
100
AcDbEntity
  8
0
  6
BYBLOCK
 62
     0
100
AcDbBlockReference
  2
_OPEN
 10
130.104241
 20
148.79629
 30
0.0
 41
3.0
 42
3.0
 43
3.0
 50
324.493913
  0
INSERT
  5
2D
100
AcDbEntity
  8
0
  6
BYBLOCK
 62
     0
100
AcDbBlockReference
  2
_OPEN
 10
115.369867
 20
159.308579
 30
0.0
 41
3.0
 42
3.0
 43
3.0
 50
144.493913
  0
TEXT
  5
2E
100
AcDbEntity
  8
0
  6
BYBLOCK
 62
     0
100
AcDbText
 10
101.01455
 20
170.778848
 30
0.0
 40
2.5
  1
%%c18.1
 50
324.493913
100
AcDbText
  0
POINT
  5
2F
100
AcDbEntity
  8
DEFPOINTS
  6
BYBLOCK
 62
     0
100
AcDbPoint
 10
115.369867
 20
159.308579
 30
0.0
  0
POINT
  5
31
100
AcDbEntity
  8
DEFPOINTS
  6
BYBLOCK
 62
     0
100
AcDbPoint
 10
130.104241
 20
148.79629
 30
0.0
  0
ENDBLK
  5
33
100
AcDbEntity
  8
0
100
AcDbBlockEnd
  0
ENDSEC
  0
SECTION
  2
ENTITIES
  0
DIMENSION
  5
21
100
AcDbEntity
  8
COTATION1
100
AcDbDimension
  2
*D8
 10
130.104241
 20
148.79629
 30
0.0
 11
103.825652
 21
167.544838
 31
0.0
 70
   131
  3
SC_STAND
100
AcDbDiametricDimension
 15
115.369867
 25
159.308579
 35
0.0
 40
0.0
1001
ACAD
1000
DSTYLE
1002
{
1070
   284
1070
     0
1070
   340
1005
E
1070
   173
1070
     1
1070
   287
1070
     3
1070
     7
1000
_OPEN
1070
     6
1000
_OPEN
1070
   285
1070
     0
1070
   286
1070
     0
1002
}
  0
DIMENSION
  5
34
100
AcDbEntity
  8
COTATION1
100
AcDbDimension
  2
*D7
 10
103.737054
 20
111.932571
 30
0.0
 11
124.237054
 21
114.182571
 31
0.0
  3
SC_STAND
100
AcDbAlignedDimension
 13
144.737054
 23
135.989934
 33
0.0
 14
103.737054
 24
136.052434
 34
0.0
100
AcDbRotatedDimension
1001
ACAD
1000
DSTYLE
1002
{
1070
   284
1070
     0
1070
   340
1005
E
1070
   173
1070
     1
1070
   287
1070
     3
1070
     7
1000
_OPEN
1070
     6
1000
_OPEN
1070
   285
1070
     0
1070
   286
1070
     0
1002
}
  0
ARC
  5
41
100
AcDbEntity
  8
ALPHA
100
AcDbCircle
 10
105.237054
 20
152.552434
 30
0.0
 40
1.5
100
AcDbArc
 50
90.0
 51
180.0
  0
LINE
  5
42
100
AcDbEntity
  8
ALPHA
100
AcDbLine
 10
103.737054
 20
136.052434
 30
0.0
 11
144.737054
 21
136.052434
 31
0.0
  0
LINE
  5
43
100
AcDbEntity
  8
ALPHA
100
AcDbLine
 10
103.737054
 20
152.552434
 30
0.0
 11
103.737054
 21
136.052434
 31
0.0
  0
DIMENSION
  5
44
100
AcDbEntity
  8
COTATION1
100
AcDbDimension
  2
*D3
 10
169.587202
 20
166.052434
 30
0.0
 11
167.337202
 21
151.052434
 31
0.0
  3
SC_STAND
100
AcDbAlignedDimension
 13
144.737054
 23
136.052434
 33
0.0
 14
144.737054
 24
166.052434
 34
0.0
 50
90.0
100
AcDbRotatedDimension
1001
ACAD
1000
DSTYLE
1002
{
1070
   284
1070
     0
1070
   340
1005
E
1070
   173
1070
     1
1070
   287
1070
     3
1070
     7
1000
_OPEN
1070
     6
1000
_OPEN
1070
   285
1070
     0
1070
   286
1070
     0
1002
}
  0
DIMENSION
  5
51
100
AcDbEntity
  8
COTATION1
100
AcDbDimension
  2
*D2
 10
161.983604
 20
160.052434
 30
0.0
 11
159.733604
 21
148.052434
 31
0.0
  3
SC_STAND
100
AcDbAlignedDimension
 13
144.737054
 23
136.052434
 33
0.0
 14
143.237054
 24
160.052434
 34
0.0
 50
90.0
100
AcDbRotatedDimension
1001
ACAD
1000
DSTYLE
1002
{
1070
   284
1070
     0
1070
   340
1005
E
1070
   173
1070
     1
1070
   287
1070
     3
1070
     7
1000
_OPEN
1070
     6
1000
_OPEN
1070
   285
1070
     0
1070
   286
1070
     0
1002
}
  0
DIMENSION
  5
5E
100
AcDbEntity
  8
COTATION1
100
AcDbDimension
  2
*D1
 10
153.405186
 20
154.052434
 30
0.0
 11
151.155186
 21
145.052434
 31
0.0
  3
SC_STAND
100
AcDbAlignedDimension
 13
144.737054
 23
136.052434
 33
0.0
 14
146.538576
 24
154.052434
 34
0.0
 50
90.0
100
AcDbRotatedDimension
1001
ACAD
1000
DSTYLE
1002
{
1070
   284
1070
     0
1070
   340
1005
E
1070
   173
1070
     1
1070
   287
1070
     3
1070
     7
1000
_OPEN
1070
     6
1000
_OPEN
1070
   285
1070
     0
1070
   286
1070
     0
1002
}
  0
LINE
  5
6B
100
AcDbEntity
  8
POINTILLE_MOYEN
100
AcDbLine
 10
134.737054
 20
152.802434
 30
0.0
 11
134.737054
 21
136.052434
 31
0.0
  0
LINE
  5
6E
100
AcDbEntity
  8
POINTILLE_MOYEN
100
AcDbLine
 10
140.737054
 20
152.802434
 30
0.0
 11
140.737054
 21
136.052434
 31
0.0
  0
LINE
  5
6F
100
AcDbEntity
  8
ALPHA
100
AcDbLine
 10
144.737054
 20
152.802434
 30
0.0
 11
144.737054
 21
136.052434
 31
0.0
  0
LINE
  5
70
100
AcDbEntity
  8
AXE
100
AcDbLine
 10
137.737054
 20
168.645807
 30
0.0
 11
137.737054
 21
133.673861
 31
0.0
  0
ARC
  5
71
100
AcDbEntity
  8
ALPHA
100
AcDbCircle
 10
122.737054
 20
154.052434
 30
0.0
 40
9.05
100
AcDbArc
 50
7.939163
 51
352.060837
  0
LINE
  5
72
100
AcDbEntity
  8
AXE
100
AcDbLine
 10
122.737054
 20
195.658131
 30
0.0
 11
122.737054
 21
129.314143
 31
0.0
  0
DIMENSION
  5
73
100
AcDbEntity
  8
COTATION1
100
AcDbDimension
  2
*D6
 10
144.737054
 20
123.471718
 30
0.0
 11
141.237054
 21
125.721718
 31
0.0
  3
SC_STAND
100
AcDbAlignedDimension
 13
137.737054
 23
123.471718
 33
0.0
 14
144.737054
 24
136.052434
 34
0.0
100
AcDbRotatedDimension
1001
ACAD
1000
DSTYLE
1002
{
1070
   284
1070
     0
1070
   340
1005
E
1070
   173
1070
     1
1070
   287
1070
     3
1070
     7
1000
_OPEN
1070
     6
1000
_OPEN
1070
   285
1070
     0
1070
   286
1070
     0
1002
}
  0
DIMENSION
  5
82
100
AcDbEntity
  8
COTATION1
100
AcDbDimension
  2
*D5
 10
137.737054
 20
123.471718
 30
0.0
 11
122.737054
 21
125.721718
 31
0.0
  1
{= <> =}
  3
SC_STAND
100
AcDbAlignedDimension
 13
107.737054
 23
133.052434
 33
0.0
 14
137.737054
 24
133.673861
 34
0.0
100
AcDbRotatedDimension
1001
ACAD
1000
DSTYLE
1002
{
1070
   284
1070
     0
1070
   340
1005
E
1070
   173
1070
     1
1070
   287
1070
     3
1070
     7
1000
_OPEN
1070
     6
1000
_OPEN
1070
   285
1070
     0
1070
   286
1070
     0
1002
}
  0
LINE
  5
8F
100
AcDbEntity
  8
AXE
100
AcDbLine
 10
107.737054
 20
138.801327
 30
0.0
 11
107.737054
 21
131.833232
 31
0.0
  0
LINE
  5
90
100
AcDbEntity
  8
ALPHA
100
AcDbLine
 10
110.187054
 20
133.052434
 30
0.0
 11
107.737054
 21
133.052434
 31
0.0
  0
LINE
  5
91
100
AcDbEntity
  8
ALPHA
100
AcDbLine
 10
105.287054
 20
133.052434
 30
0.0
 11
107.737054
 21
133.052434
 31
0.0
  0
LINE
  5
92
100
AcDbEntity
  8
ALPHA
100
AcDbLine
 10
105.287054
 20
136.052434
 30
0.0
 11
105.287054
 21
133.052434
 31
0.0
  0
LINE
  5
93
100
AcDbEntity
  8
ALPHA
100
AcDbLine
 10
110.187054
 20
136.052434
 30
0.0
 11
110.187054
 21
133.052434
 31
0.0
  0
LINE
  5
94
100
AcDbEntity
  8
AXE
100
AcDbLine
 10
122.737054
 20
121.913738
 30
0.0
 11
122.737054
 21
119.187273
 31
0.0
  0
LINE
  5
95
100
AcDbEntity
  8
AXE
100
AcDbLine
 10
109.320646
 20
154.052434
 30
0.0
 11
186.905134
 21
154.052434
 31
0.0
  0
DIMENSION
  5
96
100
AcDbEntity
  8
COTATION1
100
AcDbDimension
  2
*D4
 10
140.737054
 20
173.91132
 30
0.0
 11
149.820387
 21
176.16132
 31
0.0
  1
{%%c<>}
  3
SC_STAND
100
AcDbAlignedDimension
 13
134.737054
 23
160.052434
 33
0.0
 14
140.737054
 24
160.052434
 34
0.0
100
AcDbRotatedDimension
1001
ACAD
1000
DSTYLE
1002
{
1070
   284
1070
     0
1070
   340
1005
E
1070
   173
1070
     1
1070
   287
1070
     3
1070
     7
1000
_OPEN
1070
     6
1000
_OPEN
1070
   285
1070
     0
1070
   286
1070
     0
1002
}
  0
LINE
  5
A5
100
AcDbEntity
  8
POINTILLE_MOYEN
100
AcDbLine
 10
132.237054
 20
160.052434
 30
0.0
 11
143.237054
 21
160.052434
 31
0.0
  0
LINE
  5
A6
100
AcDbEntity
  8
ALPHA
100
AcDbLine
 10
131.700312
 20
152.802434
 30
0.0
 11
144.737054
 21
152.802434
 31
0.0
  0
LINE
  5
A7
100
AcDbEntity
  8
ALPHA
100
AcDbLine
 10
131.700312
 20
155.302434
 30
0.0
 11
144.737054
 21
155.302434
 31
0.0
  0
LINE
  5
A8
100
AcDbEntity
  8
ALPHA
100
AcDbLine
 10
116.253581
 20
166.052434
 30
0.0
 11
144.737054
 21
166.052434
 31
0.0
  0
ARC
  5
A9
100
AcDbEntity
  8
ALPHA
100
AcDbCircle
 10
122.737054
 20
154.052434
 30
0.0
 40
12.0
100
AcDbArc
 50
128.932573
 51
173.62063
  0
LINE
  5
AA
100
AcDbEntity
  8
ALPHA
100
AcDbLine
 10
109.320646
 20
154.052434
 30
0.0
 11
105.237054
 21
154.052434
 31
0.0
  0
ARC
  5
AB
100
AcDbEntity
  8
ALPHA
100
AcDbCircle
 10
109.320646
 20
155.552434
 30
0.0
 40
1.5
100
AcDbArc
 50
270.0
 51
353.62063
  0
ARC
  5
AC
100
AcDbEntity
  8
ALPHA
100
AcDbCircle
 10
116.253581
 20
165.552434
 30
0.0
 40
0.5
100
AcDbArc
 50
90.0
 51
180.0
  0
ARC
  5
AD
100
AcDbEntity
  8
ALPHA
100
AcDbCircle
 10
114.253581
 20
164.553896
 30
0.0
 40
1.5
100
AcDbArc
 50
308.932573
 51
0.0
  0
LINE
  5
AE
100
AcDbEntity
  8
ALPHA
100
AcDbLine
 10
115.753581
 20
165.552434
 30
0.0
 11
115.753581
 21
164.553896
 31
0.0
  0
TEXT
  5
AF
100
AcDbEntity
  8
AXE
100
AcDbText
 10
106.816416
 20
178.865417
 30
0.0
 40
15.0
  1
Y
  7
ROMANS
100
AcDbText
  0
LINE
  5
B0
100
AcDbEntity
  8
POINTILLE_MOYEN
100
AcDbLine
 10
132.237054
 20
166.052434
 30
0.0
 11
132.237054
 21
160.052434
 31
0.0
  0
LINE
  5
B1
100
AcDbEntity
  8
POINTILLE_MOYEN
100
AcDbLine
 10
134.737054
 20
160.052434
 30
0.0
 11
134.737054
 21
155.302434
 31
0.0
  0
LINE
  5
B2
100
AcDbEntity
  8
POINTILLE_MOYEN
100
AcDbLine
 10
143.237054
 20
166.052434
 30
0.0
 11
143.237054
 21
160.052434
 31
0.0
  0
LINE
  5
B3
100
AcDbEntity
  8
ALPHA
100
AcDbLine
 10
144.737054
 20
166.052434
 30
0.0
 11
144.737054
 21
155.302434
 31
0.0
  0
LINE
  5
B4
100
AcDbEntity
  8
POINTILLE_MOYEN
100
AcDbLine
 10
140.737054
 20
160.052434
 30
0.0
 11
140.737054
 21
155.302434
 31
0.0
  0
TEXT
  5
B5
100
AcDbEntity
  8
AXE
100
AcDbText
 10
173.033374
 20
155.769976
 30
0.0
 40
15.0
  1
X
  7
ROMANS
100
AcDbText
  0
ENDSEC
  0
SECTION
  2
OBJECTS
  0
DICTIONARY
  5
C5
100
AcDbDictionary
  3
ACAD_GROUP
350
C6
  3
ACAD_MLINESTYLE
350
D3
  3
ACDBVARIABLEDICTIONARY
350
EC
  0
DICTIONARY
  5
C6
102
{ACAD_REACTORS
330
C5
102
}
100
AcDbDictionary
  0
DICTIONARY
  5
D3
102
{ACAD_REACTORS
330
C5
102
}
100
AcDbDictionary
  3
STANDARD
350
D4
  0
DICTIONARY
  5
EC
102
{ACAD_REACTORS
330
C5
102
}
100
AcDbDictionary
  3
DIMADEC
350
ED
  0
MLINESTYLE
  5
D4
102
{ACAD_REACTORS
330
D3
102
}
100
AcDbMlineStyle
  2
STANDARD
 70
     0
  3

 62
   256
 51
90.0
 52
90.0
 71
     2
 49
0.5
 62
   256
  6
BYLAYER
 49
-0.5
 62
   256
  6
BYLAYER
  0
DICTIONARYVAR
  5
ED
102
{ACAD_REACTORS
330
EC
102
}
100
DictionaryVariables
280
     0
  1
0
  0
ENDSEC
  0
EOF
