  0
SECTION
  2
HEADER
  9
$ACADVER
  1
AC1009
  9
$INSBASE
 10
-146.27124
 20
-153.796096
 30
0.0
  9
$EXTMIN
 10
535.938029
 20
-199.456948
 30
0.0
  9
$EXTMAX
 10
643.114985
 20
-66.956923
 30
0.0
  9
$LIMMIN
 10
-407.970438
 20
-367.832444
  9
$LIMMAX
 10
429.804077
 20
234.370848
  9
$ORTHOMODE
 70
     1
  9
$REGENMODE
 70
     1
  9
$FILLMODE
 70
     1
  9
$QTEXTMODE
 70
     0
  9
$MIRRTEXT
 70
     1
  9
$DRAGMODE
 70
     2
  9
$LTSCALE
 40
10.0
  9
$OSMODE
 70
    37
  9
$ATTMODE
 70
     1
  9
$TEXTSIZE
 40
6.0
  9
$TRACEWID
 40
1.0
  9
$TEXTSTYLE
  7
ROMANS
  9
$CLAYER
  8
COTATION1
  9
$CELTYPE
  6
BYLAYER
  9
$CECOLOR
 62
   256
  9
$DIMSCALE
 40
1.0
  9
$DIMASZ
 40
2.0
  9
$DIMEXO
 40
0.5
  9
$DIMDLI
 40
0.38
  9
$DIMRND
 40
0.0
  9
$DIMDLE
 40
0.0
  9
$DIMEXE
 40
0.18
  9
$DIMTP
 40
0.0
  9
$DIMTM
 40
0.0
  9
$DIMTXT
 40
2.0
  9
$DIMCEN
 40
0.09
  9
$DIMTSZ
 40
0.0
  9
$DIMTOL
 70
     0
  9
$DIMLIM
 70
     0
  9
$DIMTIH
 70
     0
  9
$DIMTOH
 70
     1
  9
$DIMSE1
 70
     0
  9
$DIMSE2
 70
     0
  9
$DIMTAD
 70
     1
  9
$DIMZIN
 70
    12
  9
$DIMBLK
  1
OPEN30
  9
$DIMASO
 70
     1
  9
$DIMSHO
 70
     1
  9
$DIMPOST
  1

  9
$DIMAPOST
  1

  9
$DIMALT
 70
     0
  9
$DIMALTD
 70
     2
  9
$DIMALTF
 40
25.4
  9
$DIMLFAC
 40
1.0
  9
$DIMTOFL
 70
     0
  9
$DIMTVP
 40
0.0
  9
$DIMTIX
 70
     0
  9
$DIMSOXD
 70
     0
  9
$DIMSAH
 70
     0
  9
$DIMBLK1
  1

  9
$DIMBLK2
  1

  9
$DIMSTYLE
  2
ROMANS
  9
$DIMCLRD
 70
     0
  9
$DIMCLRE
 70
     0
  9
$DIMCLRT
 70
     0
  9
$DIMTFAC
 40
1.0
  9
$DIMGAP
 40
0.5
  9
$LUNITS
 70
     2
  9
$LUPREC
 70
     1
  9
$SKETCHINC
 40
0.1
  9
$FILLETRAD
 40
0.0
  9
$AUNITS
 70
     0
  9
$AUPREC
 70
     0
  9
$MENU
  1
acad
  9
$ELEVATION
 40
0.0
  9
$PELEVATION
 40
0.0
  9
$THICKNESS
 40
0.0
  9
$LIMCHECK
 70
     0
  9
$BLIPMODE
 70
     0
  9
$CHAMFERA
 40
0.0
  9
$CHAMFERB
 40
0.0
  9
$SKPOLY
 70
     0
  9
$TDCREATE
 40
2450365.355314
  9
$TDUPDATE
 40
2452608.371884
  9
$TDINDWG
 40
0.589062
  9
$TDUSRTIMER
 40
0.589062
  9
$USRTIMER
 70
     1
  9
$ANGBASE
 50
0.0
  9
$ANGDIR
 70
     0
  9
$PDMODE
 70
    32
  9
$PDSIZE
 40
0.0
  9
$PLINEWID
 40
0.0
  9
$COORDS
 70
     2
  9
$SPLFRAME
 70
     0
  9
$SPLINETYPE
 70
     6
  9
$SPLINESEGS
 70
     8
  9
$ATTDIA
 70
     0
  9
$ATTREQ
 70
     1
  9
$HANDLING
 70
     1
  9
$HANDSEED
  5
5365
  9
$SURFTAB1
 70
     6
  9
$SURFTAB2
 70
     6
  9
$SURFTYPE
 70
     6
  9
$SURFU
 70
     6
  9
$SURFV
 70
     6
  9
$UCSNAME
  2

  9
$UCSORG
 10
0.0
 20
0.0
 30
0.0
  9
$UCSXDIR
 10
1.0
 20
0.0
 30
0.0
  9
$UCSYDIR
 10
0.0
 20
1.0
 30
0.0
  9
$PUCSNAME
  2

  9
$PUCSORG
 10
0.0
 20
0.0
 30
0.0
  9
$PUCSXDIR
 10
1.0
 20
0.0
 30
0.0
  9
$PUCSYDIR
 10
0.0
 20
1.0
 30
0.0
  9
$USERI1
 70
     0
  9
$USERI2
 70
     0
  9
$USERI3
 70
     0
  9
$USERI4
 70
     0
  9
$USERI5
 70
     0
  9
$USERR1
 40
0.0
  9
$USERR2
 40
0.0
  9
$USERR3
 40
0.0
  9
$USERR4
 40
0.0
  9
$USERR5
 40
0.0
  9
$WORLDVIEW
 70
     1
  9
$SHADEDGE
 70
     3
  9
$SHADEDIF
 70
    70
  9
$TILEMODE
 70
     1
  9
$MAXACTVP
 70
    16
  9
$PLIMCHECK
 70
     0
  9
$PEXTMIN
 10
1.000000E+020
 20
1.000000E+020
 30
1.000000E+020
  9
$PEXTMAX
 10
-1.000000E+020
 20
-1.000000E+020
 30
-1.000000E+020
  9
$PLIMMIN
 10
0.0
 20
0.0
  9
$PLIMMAX
 10
12.0
 20
9.0
  9
$UNITMODE
 70
     0
  9
$VISRETAIN
 70
     0
  9
$PLINEGEN
 70
     0
  9
$PSLTSCALE
 70
     0
  0
ENDSEC
  0
SECTION
  2
TABLES
  0
TABLE
  2
VPORT
 70
     2
  0
VPORT
  2
*ACTIVE
 70
     0
 10
0.0
 20
0.0
 11
1.0
 21
1.0
 12
589.539078
 22
-133.189465
 13
0.0
 23
0.0
 14
1.0
 24
1.0
 15
10.0
 25
10.0
 16
0.0
 26
0.0
 36
1.0
 17
0.0
 27
0.0
 37
0.0
 40
133.749327
 41
1.63142
 42
50.0
 43
0.0
 44
0.0
 50
0.0
 51
0.0
 71
     0
 72
   100
 73
     1
 74
     0
 75
     0
 76
     0
 77
     0
 78
     0
  0
ENDTAB
  0
TABLE
  2
LTYPE
 70
    26
  0
LTYPE
  2
CONTINUOUS
 70
     0
  3
Solid line
 72
    65
 73
     0
 40
0.0
  0
LTYPE
  2
AXES2
 70
     0
  3
___ _ ___ _ ___ _ ___ _ ___ _ ___ _ ___ _ ___ _
 72
    65
 73
     4
 40
1.125
 49
0.75
 49
-0.125
 49
0.125
 49
-0.125
  0
LTYPE
  2
ACAD_ISO04W100
 70
     0
  3
ISO Lang gestrichelt punktiert ____ . ____ . __
 72
    65
 73
     4
 40
30.5
 49
24.0
 49
-3.0
 49
0.5
 49
-3.0
  0
LTYPE
  2
AXES
 70
     0
  3
____ _ ____ _ ____ _ ____ _ ____ _ ____ _ ____ 
 72
    65
 73
     4
 40
2.0
 49
1.25
 49
-0.25
 49
0.25
 49
-0.25
  0
LTYPE
  2
AXESX2
 70
     0
  3
________  __  ________  __  ________  __  _____
 72
    65
 73
     4
 40
4.0
 49
2.5
 49
-0.5
 49
0.5
 49
-0.5
  0
LTYPE
  2
TIRETPT
 70
     0
  3
__ . __ . __ . __ . __ . __ . __ . __ . __ . __
 72
    65
 73
     4
 40
1.0
 49
0.5
 49
-0.25
 49
0.0
 49
-0.25
  0
LTYPE
  2
TIRETPT2
 70
     0
  3
_._._._._._._._._._._._._._._._._._._._._._._._
 72
    65
 73
     4
 40
0.5
 49
0.25
 49
-0.125
 49
0.0
 49
-0.125
  0
LTYPE
  2
TIRETPTX2
 70
     0
  3
____  .  ____  .  ____  .  ____  .  ____  .  __
 72
    65
 73
     4
 40
2.0
 49
1.0
 49
-0.5
 49
0.0
 49
-0.5
  0
LTYPE
  2
DISCONTINU
 70
     0
  3
__ __ __ __ __ __ __ __ __ __ __ __ __ __ __ __
 72
    65
 73
     2
 40
0.75
 49
0.5
 49
-0.25
  0
LTYPE
  2
DISCONTINU2
 70
     0
  3
_ _ _ _ _ _ _ _ _ _ _ _ _ _ _ _ _ _ _ _ _ _ _ _
 72
    65
 73
     2
 40
0.375
 49
0.25
 49
-0.125
  0
LTYPE
  2
DISCONTINUX2
 70
     0
  3
____  ____  ____  ____  ____  ____  ____  ____ 
 72
    65
 73
     2
 40
1.5
 49
1.0
 49
-0.5
  0
LTYPE
  2
DIVISE
 70
     0
  3
____ . . ____ . . ____ . . ____ . . ____ . . __
 72
    65
 73
     6
 40
1.25
 49
0.5
 49
-0.25
 49
0.0
 49
-0.25
 49
0.0
 49
-0.25
  0
LTYPE
  2
DIVISE2
 70
     0
  3
__..__..__..__..__..__..__..__..__..__..__..__.
 72
    65
 73
     6
 40
0.625
 49
0.25
 49
-0.125
 49
0.0
 49
-0.125
 49
0.0
 49
-0.125
  0
LTYPE
  2
DIVISEX2
 70
     0
  3
________  .  .  ________  .  .  ________  .  . 
 72
    65
 73
     6
 40
2.5
 49
1.0
 49
-0.5
 49
0.0
 49
-0.5
 49
0.0
 49
-0.5
  0
LTYPE
  2
POINTILLE
 70
     0
  3
. . . . . . . . . . . . . . . . . . . . . . . .
 72
    65
 73
     2
 40
0.25
 49
0.0
 49
-0.25
  0
LTYPE
  2
POINTILLE2
 70
     0
  3
...............................................
 72
    65
 73
     2
 40
0.125
 49
0.0
 49
-0.125
  0
LTYPE
  2
POINTILLEX2
 70
     0
  3
.  .  .  .  .  .  .  .  .  .  .  .  .  .  .  . 
 72
    65
 73
     2
 40
0.5
 49
0.0
 49
-0.5
  0
LTYPE
  2
CACHE
 70
     0
  3
__ __ __ __ __ __ __ __ __ __ __ __ __ __ __ __
 72
    65
 73
     2
 40
0.375
 49
0.25
 49
-0.125
  0
LTYPE
  2
CACHE2
 70
     0
  3
_ _ _ _ _ _ _ _ _ _ _ _ _ _ _ _ _ _ _ _ _ _ _ _
 72
    65
 73
     2
 40
0.1875
 49
0.125
 49
-0.0625
  0
LTYPE
  2
CACHEX2
 70
     0
  3
____ ____ ____ ____ ____ ____ ____ ____ ____ __
 72
    65
 73
     2
 40
0.75
 49
0.5
 49
-0.25
  0
LTYPE
  2
FANTOME
 70
     0
  3
______  __  __  ______  __  __  ______  __  __ 
 72
    65
 73
     6
 40
2.5
 49
1.25
 49
-0.25
 49
0.25
 49
-0.25
 49
0.25
 49
-0.25
  0
LTYPE
  2
FANTOME2
 70
     0
  3
___ _ _ ___ _ _ ___ _ _ ___ _ _ ___ _ _ ___ _ _
 72
    65
 73
     6
 40
1.25
 49
0.625
 49
-0.125
 49
0.125
 49
-0.125
 49
0.125
 49
-0.125
  0
LTYPE
  2
FANTOMEX2
 70
     0
  3
____________    ____    ____    ____________   
 72
    65
 73
     6
 40
5.0
 49
2.5
 49
-0.5
 49
0.5
 49
-0.5
 49
0.5
 49
-0.5
  0
LTYPE
  2
0
 70
     0
  3
MEDUSA PEN 0
 72
    65
 73
     0
 40
0.0
  0
LTYPE
  2
AI9-LTYPE1
 70
     0
  3
Illustrator Dash Style No.1
 72
    65
 73
     4
 40
5.64621
 49
4.106333
 49
-0.307975
 49
0.923926
 49
-0.307975
  0
LTYPE
  2
AI9-LTYPE2
 70
     0
  3
Illustrator Dash Style No.2
 72
    65
 73
     2
 40
1.33456
 49
1.026585
 49
-0.307975
  0
ENDTAB
  0
TABLE
  2
LAYER
 70
    17
  0
LAYER
  2
0
 70
     0
 62
     7
  6
CONTINUOUS
  0
LAYER
  2
TEXTE_MOYEN
 70
     0
 62
   131
  6
CONTINUOUS
  0
LAYER
  2
ALPHA
 70
     0
 62
   254
  6
CONTINUOUS
  0
LAYER
  2
COTATION1
 70
     0
 62
    50
  6
CONTINUOUS
  0
LAYER
  2
AXE
 70
     0
 62
    80
  6
AXES2
  0
LAYER
  2
DEFPOINTS
 70
     0
 62
     7
  6
CONTINUOUS
  0
LAYER
  2
HACHURES1
 70
     0
 62
   130
  6
CONTINUOUS
  0
LAYER
  2
FMULT
 70
     0
 62
   210
  6
CONTINUOUS
  0
LAYER
  2
FDP_CARTOUCHE
 70
     0
 62
   136
  6
CONTINUOUS
  0
LAYER
  2
FDP_TEXTES
 70
     0
 62
   171
  6
CONTINUOUS
  0
LAYER
  2
FDP_LOGO_MG
 70
     0
 62
    30
  6
CONTINUOUS
  0
LAYER
  2
FDP_LOGO_SCH
 70
     0
 62
    90
  6
CONTINUOUS
  0
LAYER
  2
FDP_FDP
 70
     0
 62
   170
  6
CONTINUOUS
  0
LAYER
  2
POINTILLE_COURT2
 70
     0
 62
    41
  6
CACHE2
  0
LAYER
  2
POINTILLE_MOYEN2
 70
     0
 62
   141
  6
CACHE
  0
LAYER
  2
POINTILLE_LONG2
 70
     0
 62
   241
  6
CACHEX2
  0
LAYER
  2
ALPHA_FIN
 70
     0
 62
   255
  6
CONTINUOUS
  0
ENDTAB
  0
TABLE
  2
STYLE
 70
     5
  0
STYLE
  2
ROMANS
 70
     0
 40
0.0
 41
1.0
 50
0.0
 71
     0
 42
6.0
  3
romans
  4

  0
STYLE
  2
STANDARD
 70
     0
 40
0.2
 41
1.0
 50
0.0
 71
     0
 42
0.2
  3
txt
  4

  0
STYLE
  2
STD
 70
     0
 40
0.0
 41
1.0
 50
0.0
 71
     0
 42
0.0
  3
txt
  4

  0
STYLE
  2
INFOCAR
 70
     0
 40
0.0
 41
1.34
 50
0.0
 71
     0
 42
2.0
  3
ROMANS.SHX
  4

  0
STYLE
  2
CARTOUCHE
 70
     0
 40
0.0
 41
1.0
 50
0.0
 71
     0
 42
0.2
  3
ROMANS.SHX
  4

  0
ENDTAB
  0
TABLE
  2
VIEW
 70
     0
  0
ENDTAB
  0
TABLE
  2
UCS
 70
     0
  0
ENDTAB
  0
TABLE
  2
APPID
 70
     3
  0
APPID
  2
ACAD
 70
     0
  0
APPID
  2
AVE_RENDER
 70
     0
  0
APPID
  2
AVE_MATERIAL
 70
     0
  0
ENDTAB
  0
TABLE
  2
DIMSTYLE
 70
     1
  0
DIMSTYLE
  2
ROMANS
 70
     0
  3

  4

  5
OPEN30
  6

  7

 40
1.0
 41
2.0
 42
0.5
 43
0.38
 44
0.18
 45
0.0
 46
0.0
 47
0.0
 48
0.0
140
2.0
141
0.09
142
0.0
143
25.4
144
1.0
145
0.0
146
1.0
147
0.5
 71
     0
 72
     0
 73
     0
 74
     1
 75
     0
 76
     0
 77
     1
 78
    12
170
     0
171
     2
172
     0
173
     0
174
     0
175
     0
176
     0
177
     0
178
     0
  0
ENDTAB
  0
ENDSEC
  0
SECTION
  2
BLOCKS
  0
BLOCK
  8
0
  2
$MODEL_SPACE
 70
     0
 10
0.0
 20
0.0
 30
0.0
  3
$MODEL_SPACE
  1

  0
ENDBLK
  5
5290
  8
0
  0
BLOCK
 67
     1
  8
0
  2
$PAPER_SPACE
 70
     0
 10
0.0
 20
0.0
 30
0.0
  3
$PAPER_SPACE
  1

  0
ENDBLK
  5
528E
 67
     1
  8
0
  0
BLOCK
  8
0
  2
COTE
 70
     0
 10
0.0
 20
0.0
 30
0.0
  3
COTE
  1

  0
ENDBLK
  5
35
  8
0
  0
BLOCK
  8
0
  2
FOND
 70
     0
 10
0.0
 20
0.0
 30
0.0
  3
FOND
  1

  0
ENDBLK
  5
39
  8
0
  0
BLOCK
  8
0
  2
SCH_ISO
 70
     0
 10
0.0
 20
0.0
 30
0.0
  3
SCH_ISO
  1

  0
ENDBLK
  5
24AD
  8
0
  0
BLOCK
  8
0
  2
_OPEN30
 70
     0
 10
0.0
 20
0.0
 30
0.0
  3
_OPEN30
  1

  0
LINE
  5
27E1
  8
COTATION1
 62
     0
 10
-1.0
 20
0.267949
 30
0.0
 11
0.0
 21
0.0
 31
0.0
1001
ACAD
1000
RTLwPs
1070
   158
  0
LINE
  5
27E2
  8
COTATION1
 62
     0
 10
0.0
 20
0.0
 30
0.0
 11
-1.0
 21
-0.267949
 31
0.0
1001
ACAD
1000
RTLwPs
1070
   158
  0
LINE
  5
27E3
  8
COTATION1
 62
     0
 10
0.0
 20
0.0
 30
0.0
 11
-1.0
 21
0.0
 31
0.0
1001
ACAD
1000
RTLwPs
1070
   158
  0
ENDBLK
  5
27E5
  8
0
  0
BLOCK
  8
0
  2
*D4
 70
     1
 10
0.0
 20
0.0
 30
0.0
  3
*D4
  1

  0
LINE
  5
510A
  8
COTATION1
 62
     0
 10
574.951014
 20
-84.456923
 30
0.0
 11
538.258029
 21
-84.456923
 31
0.0
1001
ACAD
1000
RTLwPs
1070
   158
  0
LINE
  5
510B
  8
COTATION1
 62
     0
 10
574.946253
 20
-184.456948
 30
0.0
 11
538.258029
 21
-184.456948
 31
0.0
1001
ACAD
1000
RTLwPs
1070
   158
  0
LINE
  5
510C
  8
COTATION1
 62
     0
 10
538.438029
 20
-86.456923
 30
0.0
 11
538.438029
 21
-182.456948
 31
0.0
1001
ACAD
1000
RTLwPs
1070
   158
  0
INSERT
  5
510D
  8
COTATION1
 62
     0
  2
_OPEN30
 10
538.438029
 20
-84.456923
 30
0.0
 41
2.0
 42
2.0
 43
2.0
 50
90.0
1001
ACAD
1000
RTLwPs
1070
   158
  0
INSERT
  5
510E
  8
COTATION1
 62
     0
  2
_OPEN30
 10
538.438029
 20
-184.456948
 30
0.0
 41
2.0
 42
2.0
 43
2.0
 50
270.0
1001
ACAD
1000
RTLwPs
1070
   158
  0
TEXT
  5
510F
  8
COTATION1
 62
     0
 10
537.938029
 20
-137.456935
 30
0.0
 40
2.0
  1
100
 50
90.0
1001
ACAD
1000
MTEXTBEGIN
1070
    73
1070
     1
1070
    44
1040
1.0
1070
    74
1070
     0
1000
MTEXTEND
  0
POINT
  5
5110
  8
DEFPOINTS
 62
     0
 10
575.451014
 20
-84.456923
 30
0.0
  0
POINT
  5
5111
  8
DEFPOINTS
 62
     0
 10
575.446253
 20
-184.456948
 30
0.0
  0
POINT
  5
5112
  8
DEFPOINTS
 62
     0
 10
538.438029
 20
-184.456948
 30
0.0
  0
ENDBLK
  5
4C5D
  8
0
  0
BLOCK
  8
0
  2
*D5
 70
     1
 10
0.0
 20
0.0
 30
0.0
  3
*D5
  1

  0
LINE
  5
511C
  8
COTATION1
 62
     0
 10
615.938006
 20
-133.94695
 30
0.0
 11
615.938006
 21
-69.276923
 31
0.0
1001
ACAD
1000
RTLwPs
1070
   158
  0
LINE
  5
511D
  8
COTATION1
 62
     0
 10
563.438029
 20
-99.288085
 30
0.0
 11
563.438029
 21
-69.276923
 31
0.0
1001
ACAD
1000
RTLwPs
1070
   158
  0
LINE
  5
511E
  8
COTATION1
 62
     0
 10
613.938006
 20
-69.456923
 30
0.0
 11
565.438029
 21
-69.456923
 31
0.0
1001
ACAD
1000
RTLwPs
1070
   158
  0
INSERT
  5
511F
  8
COTATION1
 62
     0
  2
_OPEN30
 10
615.938006
 20
-69.456923
 30
0.0
 41
2.0
 42
2.0
 43
2.0
1001
ACAD
1000
RTLwPs
1070
   158
  0
INSERT
  5
5120
  8
COTATION1
 62
     0
  2
_OPEN30
 10
563.438029
 20
-69.456923
 30
0.0
 41
2.0
 42
2.0
 43
2.0
 50
180.0
1001
ACAD
1000
RTLwPs
1070
   158
  0
TEXT
  5
5121
  8
COTATION1
 62
     0
 10
586.354684
 20
-68.956923
 30
0.0
 40
2.0
  1
52.5
1001
ACAD
1000
MTEXTBEGIN
1070
    73
1070
     1
1070
    44
1040
1.0
1070
    74
1070
     0
1000
MTEXTEND
  0
POINT
  5
5122
  8
DEFPOINTS
 62
     0
 10
615.938006
 20
-134.44695
 30
0.0
  0
POINT
  5
5123
  8
DEFPOINTS
 62
     0
 10
563.438029
 20
-99.788085
 30
0.0
  0
POINT
  5
5124
  8
DEFPOINTS
 62
     0
 10
563.438029
 20
-69.456923
 30
0.0
  0
ENDBLK
  5
4C7C
  8
0
  0
BLOCK
  8
0
  2
*D6
 70
     1
 10
0.0
 20
0.0
 30
0.0
  3
*D6
  1

  0
LINE
  5
5113
  8
COTATION1
 62
     0
 10
574.243971
 20
-97.956935
 30
0.0
 11
548.258029
 21
-97.956935
 31
0.0
1001
ACAD
1000
RTLwPs
1070
   158
  0
LINE
  5
5114
  8
COTATION1
 62
     0
 10
574.243971
 20
-170.956935
 30
0.0
 11
548.258029
 21
-170.956935
 31
0.0
1001
ACAD
1000
RTLwPs
1070
   158
  0
LINE
  5
5115
  8
COTATION1
 62
     0
 10
548.438029
 20
-99.956935
 30
0.0
 11
548.438029
 21
-168.956935
 31
0.0
1001
ACAD
1000
RTLwPs
1070
   158
  0
INSERT
  5
5116
  8
COTATION1
 62
     0
  2
_OPEN30
 10
548.438029
 20
-97.956935
 30
0.0
 41
2.0
 42
2.0
 43
2.0
 50
90.0
1001
ACAD
1000
RTLwPs
1070
   158
  0
INSERT
  5
5117
  8
COTATION1
 62
     0
  2
_OPEN30
 10
548.438029
 20
-170.956935
 30
0.0
 41
2.0
 42
2.0
 43
2.0
 50
270.0
1001
ACAD
1000
RTLwPs
1070
   158
  0
TEXT
  5
5118
  8
COTATION1
 62
     0
 10
547.938029
 20
-136.361697
 30
0.0
 40
2.0
  1
73
 50
90.0
1001
ACAD
1000
MTEXTBEGIN
1070
    73
1070
     1
1070
    44
1040
1.0
1070
    74
1070
     0
1000
MTEXTEND
  0
POINT
  5
5119
  8
DEFPOINTS
 62
     0
 10
574.743971
 20
-97.956935
 30
0.0
  0
POINT
  5
511A
  8
DEFPOINTS
 62
     0
 10
574.743971
 20
-170.956935
 30
0.0
  0
POINT
  5
511B
  8
DEFPOINTS
 62
     0
 10
548.438029
 20
-170.956935
 30
0.0
  0
ENDBLK
  5
4E04
  8
0
  0
BLOCK
  8
0
  2
*D7
 70
     1
 10
0.0
 20
0.0
 30
0.0
  3
*D7
  1

  0
LINE
  5
5125
  8
COTATION1
 62
     0
 10
545.788117
 20
-71.761212
 30
0.0
 11
552.288117
 21
-71.761212
 31
0.0
1001
ACAD
1000
RTLwPs
1070
   158
  0
LINE
  5
5126
  8
COTATION1
 62
     0
 10
552.288117
 20
-71.761212
 30
0.0
 11
571.652523
 21
-94.350628
 31
0.0
1001
ACAD
1000
RTLwPs
1070
   158
  0
TEXT
  5
5127
  8
COTATION1
 62
     0
 10
545.597641
 20
-71.261212
 30
0.0
 40
2.0
  1
%%c5.5
1001
ACAD
1000
MTEXTBEGIN
1070
    73
1070
     1
1070
    44
1040
1.0
1070
    74
1070
     0
1000
MTEXTEND
  0
INSERT
  5
5128
  8
COTATION1
 62
     0
  2
_OPEN30
 10
572.954186
 20
-95.869073
 30
0.0
 41
2.0
 42
2.0
 43
2.0
 50
310.604292
1001
ACAD
1000
RTLwPs
1070
   158
  0
LINE
  5
5129
  8
COTATION1
 62
     0
 10
574.653971
 20
-97.956935
 30
0.0
 11
574.833971
 21
-97.956935
 31
0.0
1001
ACAD
1000
RTLwPs
1070
   158
  0
LINE
  5
512A
  8
COTATION1
 62
     0
 10
574.743971
 20
-98.046935
 30
0.0
 11
574.743971
 21
-97.866935
 31
0.0
1001
ACAD
1000
RTLwPs
1070
   158
  0
POINT
  5
512B
  8
DEFPOINTS
 62
     0
 10
572.954186
 20
-95.869073
 30
0.0
  0
POINT
  5
512C
  8
DEFPOINTS
 62
     0
 10
576.533757
 20
-100.044797
 30
0.0
  0
ENDBLK
  5
4E9A
  8
0
  0
ENDSEC
  0
SECTION
  2
ENTITIES
  0
INSERT
  5
32
  8
0
  2
COTE
 10
0.0
 20
0.0
 30
0.0
  0
INSERT
  5
36
  8
0
  2
FOND
 10
0.0
 20
0.0
 30
0.0
  0
INSERT
  5
24AE
  8
ALPHA
  2
SCH_ISO
 10
-66.27012
 20
-238.940658
 30
0.0
  0
POLYLINE
  5
459C
  8
ALPHA
 66
     1
 10
0.0
 20
0.0
 30
0.0
 70
   128
210
0.0
220
0.0
230
-1.0
  0
VERTEX
  5
5296
  8
ALPHA
 10
-611.382235
 20
-125.34518
 30
0.0
  0
VERTEX
  5
5297
  8
ALPHA
 10
-613.395948
 20
-127.077617
 30
0.0
  0
VERTEX
  5
5298
  8
ALPHA
 10
-614.817389
 20
-129.156099
 30
0.0
  0
VERTEX
  5
5299
  8
ALPHA
 10
-615.660229
 20
-131.594574
 30
0.0
  0
VERTEX
  5
529A
  8
ALPHA
 10
-615.938138
 20
-134.406992
 30
0.0
  0
VERTEX
  5
529B
  8
ALPHA
 10
-615.633261
 20
-137.19155
 30
0.0
  0
VERTEX
  5
529C
  8
ALPHA
 10
-614.743143
 20
-139.692107
 30
0.0
  0
VERTEX
  5
529D
  8
ALPHA
 10
-613.304554
 20
-141.859899
 30
0.0
  0
VERTEX
  5
529E
  8
ALPHA
 10
-611.354263
 20
-143.64616
 30
0.0
  0
SEQEND
  5
529F
  8
ALPHA
  0
LINE
  5
4603
  8
ALPHA
 10
623.171042
 20
-136.824507
 30
0.0
 11
623.171042
 21
-131.989478
 31
0.0
  0
LINE
  5
4604
  8
ALPHA
 10
628.114985
 20
-130.231393
 30
0.0
 11
628.114985
 21
-138.6921
 31
0.0
  0
LINE
  5
4605
  8
ALPHA
 10
623.171042
 20
-138.6921
 30
0.0
 11
623.171042
 21
-130.231393
 31
0.0
  0
LINE
  5
4611
  8
ALPHA
 10
628.114985
 20
-138.6921
 30
0.0
 11
623.171042
 21
-138.6921
 31
0.0
  0
LINE
  5
4612
  8
ALPHA
 10
615.48225
 20
-136.824507
 30
0.0
 11
623.171042
 21
-136.824507
 31
0.0
  0
LINE
  5
4613
  8
ALPHA
 10
615.81137
 20
-136.274585
 30
0.0
 11
623.061534
 21
-136.274585
 31
0.0
  0
LINE
  5
463C
  8
ALPHA
 10
623.171042
 20
-130.231393
 30
0.0
 11
628.114985
 21
-130.231393
 31
0.0
  0
LINE
  5
463D
  8
ALPHA
 10
623.171042
 20
-131.989478
 30
0.0
 11
615.701862
 21
-131.989478
 31
0.0
  0
LINE
  5
463E
  8
ALPHA
 10
615.918498
 20
-132.538209
 30
0.0
 11
623.171042
 21
-132.538209
 31
0.0
  0
POLYLINE
  5
464C
  8
ALPHA
 66
     1
 10
0.0
 20
0.0
 30
0.0
 70
   128
210
0.0
220
0.0
230
-1.0
  0
VERTEX
  5
52A0
  8
ALPHA
 10
-563.438029
 20
-99.688099
 30
0.0
  0
VERTEX
  5
52A1
  8
ALPHA
 10
-563.643915
 20
-99.681508
 30
0.0
  0
VERTEX
  5
52A2
  8
ALPHA
 10
-564.311789
 20
-99.677554
 30
0.0
  0
VERTEX
  5
52A3
  8
ALPHA
 10
-564.84251
 20
-99.68398
 30
0.0
  0
VERTEX
  5
52A4
  8
ALPHA
 10
-564.997283
 20
-99.686964
 30
0.0
  0
VERTEX
  5
52A5
  8
ALPHA
 10
-565.345951
 20
-99.689913
 30
0.0
  0
VERTEX
  5
52A6
  8
ALPHA
 10
-566.123465
 20
-99.646164
 30
0.0
  0
VERTEX
  5
52A7
  8
ALPHA
 10
-567.252333
 20
-99.352573
 30
0.0
  0
VERTEX
  5
52A8
  8
ALPHA
 10
-567.929559
 20
-98.814711
 30
0.0
  0
VERTEX
  5
52A9
  8
ALPHA
 10
-568.295026
 20
-98.069206
 30
0.0
  0
VERTEX
  5
52AA
  8
ALPHA
 10
-568.488618
 20
-97.152683
 30
0.0
  0
VERTEX
  5
52AB
  8
ALPHA
 10
-568.564674
 20
-96.641737
 30
0.0
  0
VERTEX
  5
52AC
  8
ALPHA
 10
-568.584487
 20
-96.509287
 30
0.0
  0
VERTEX
  5
52AD
  8
ALPHA
 10
-568.591438
 20
-96.355172
 30
0.0
  0
VERTEX
  5
52AE
  8
ALPHA
 10
-568.593939
 20
-96.030059
 30
0.0
  0
VERTEX
  5
52AF
  8
ALPHA
 10
-568.633262
 20
-94.783118
 30
0.0
  0
VERTEX
  5
52B0
  8
ALPHA
 10
-568.844996
 20
-92.538713
 30
0.0
  0
VERTEX
  5
52B1
  8
ALPHA
 10
-569.218489
 20
-90.611836
 30
0.0
  0
VERTEX
  5
52B2
  8
ALPHA
 10
-569.734909
 20
-88.984357
 30
0.0
  0
VERTEX
  5
52B3
  8
ALPHA
 10
-570.375426
 20
-87.638146
 30
0.0
  0
VERTEX
  5
52B4
  8
ALPHA
 10
-571.121208
 20
-86.55507
 30
0.0
  0
VERTEX
  5
52B5
  8
ALPHA
 10
-571.953425
 20
-85.717
 30
0.0
  0
VERTEX
  5
52B6
  8
ALPHA
 10
-572.853245
 20
-85.105805
 30
0.0
  0
VERTEX
  5
52B7
  8
ALPHA
 10
-573.801838
 20
-84.703354
 30
0.0
  0
VERTEX
  5
52B8
  8
ALPHA
 10
-575.770016
 20
-84.452161
 30
0.0
  0
VERTEX
  5
52B9
  8
ALPHA
 10
-576.680336
 20
-84.494176
 30
0.0
  0
VERTEX
  5
52BA
  8
ALPHA
 10
-577.925009
 20
-84.584899
 30
0.0
  0
VERTEX
  5
52BB
  8
ALPHA
 10
-579.498174
 20
-84.765761
 30
0.0
  0
VERTEX
  5
52BC
  8
ALPHA
 10
-581.393969
 20
-85.078189
 30
0.0
  0
VERTEX
  5
52BD
  8
ALPHA
 10
-583.606533
 20
-85.563611
 30
0.0
  0
VERTEX
  5
52BE
  8
ALPHA
 10
-584.208483
 20
-85.716852
 30
0.0
  0
VERTEX
  5
52BF
  8
ALPHA
 10
-584.413703
 20
-85.801798
 30
0.0
  0
VERTEX
  5
52C0
  8
ALPHA
 10
-584.417677
 20
-85.89286
 30
0.0
  0
VERTEX
  5
52C1
  8
ALPHA
 10
-584.478946
 20
-86.238895
 30
0.0
  0
VERTEX
  5
52C2
  8
ALPHA
 10
-584.793391
 20
-86.852951
 30
0.0
  0
VERTEX
  5
52C3
  8
ALPHA
 10
-585.31063
 20
-87.382252
 30
0.0
  0
VERTEX
  5
52C4
  8
ALPHA
 10
-586.698707
 20
-88.279049
 30
0.0
  0
VERTEX
  5
52C5
  8
ALPHA
 10
-587.072948
 20
-88.486394
 30
0.0
  0
VERTEX
  5
52C6
  8
ALPHA
 10
-587.166033
 20
-88.537967
 30
0.0
  0
VERTEX
  5
52C7
  8
ALPHA
 10
-587.349698
 20
-88.634605
 30
0.0
  0
VERTEX
  5
52C8
  8
ALPHA
 10
-587.807201
 20
-88.878976
 30
0.0
  0
VERTEX
  5
52C9
  8
ALPHA
 10
-589.625159
 20
-89.945354
 30
0.0
  0
VERTEX
  5
52CA
  8
ALPHA
 10
-593.181725
 20
-92.490092
 30
0.0
  0
VERTEX
  5
52CB
  8
ALPHA
 10
-596.588422
 20
-95.553956
 30
0.0
  0
VERTEX
  5
52CC
  8
ALPHA
 10
-599.792373
 20
-99.100727
 30
0.0
  0
VERTEX
  5
52CD
  8
ALPHA
 10
-602.740695
 20
-103.094184
 30
0.0
  0
VERTEX
  5
52CE
  8
ALPHA
 10
-605.380511
 20
-107.498107
 30
0.0
  0
VERTEX
  5
52CF
  8
ALPHA
 10
-607.658939
 20
-112.276274
 30
0.0
  0
VERTEX
  5
52D0
  8
ALPHA
 10
-609.5231
 20
-117.392467
 30
0.0
  0
VERTEX
  5
52D1
  8
ALPHA
 10
-610.920114
 20
-122.810465
 30
0.0
  0
VERTEX
  5
52D2
  8
ALPHA
 10
-611.797101
 20
-128.494047
 30
0.0
  0
VERTEX
  5
52D3
  8
ALPHA
 10
-612.101181
 20
-134.406992
 30
0.0
  0
SEQEND
  5
52D4
  8
ALPHA
  0
POLYLINE
  5
464D
  8
ALPHA
 66
     1
 10
0.0
 20
0.0
 30
0.0
 70
   128
210
0.0
220
0.0
230
-1.0
  0
VERTEX
  5
52D5
  8
ALPHA
 10
-612.101181
 20
-134.406992
 30
0.0
  0
VERTEX
  5
52D6
  8
ALPHA
 10
-611.797101
 20
-140.319636
 30
0.0
  0
VERTEX
  5
52D7
  8
ALPHA
 10
-610.920114
 20
-146.002983
 30
0.0
  0
VERTEX
  5
52D8
  8
ALPHA
 10
-609.5231
 20
-151.42082
 30
0.0
  0
VERTEX
  5
52D9
  8
ALPHA
 10
-607.658939
 20
-156.536931
 30
0.0
  0
VERTEX
  5
52DA
  8
ALPHA
 10
-605.380511
 20
-161.315101
 30
0.0
  0
VERTEX
  5
52DB
  8
ALPHA
 10
-602.740695
 20
-165.719116
 30
0.0
  0
VERTEX
  5
52DC
  8
ALPHA
 10
-599.792373
 20
-169.71276
 30
0.0
  0
VERTEX
  5
52DD
  8
ALPHA
 10
-596.588422
 20
-173.259819
 30
0.0
  0
VERTEX
  5
52DE
  8
ALPHA
 10
-593.181725
 20
-176.324077
 30
0.0
  0
VERTEX
  5
52DF
  8
ALPHA
 10
-589.625159
 20
-178.86932
 30
0.0
  0
VERTEX
  5
52E0
  8
ALPHA
 10
-587.807201
 20
-179.935994
 30
0.0
  0
VERTEX
  5
52E1
  8
ALPHA
 10
-587.349698
 20
-180.180443
 30
0.0
  0
VERTEX
  5
52E2
  8
ALPHA
 10
-587.166033
 20
-180.277081
 30
0.0
  0
VERTEX
  5
52E3
  8
ALPHA
 10
-587.072948
 20
-180.32857
 30
0.0
  0
VERTEX
  5
52E4
  8
ALPHA
 10
-586.698707
 20
-180.535584
 30
0.0
  0
VERTEX
  5
52E5
  8
ALPHA
 10
-585.31063
 20
-181.431335
 30
0.0
  0
VERTEX
  5
52E6
  8
ALPHA
 10
-584.793391
 20
-181.960442
 30
0.0
  0
VERTEX
  5
52E7
  8
ALPHA
 10
-584.478946
 20
-182.574651
 30
0.0
  0
VERTEX
  5
52E8
  8
ALPHA
 10
-584.417677
 20
-182.920921
 30
0.0
  0
VERTEX
  5
52E9
  8
ALPHA
 10
-584.413703
 20
-183.012059
 30
0.0
  0
VERTEX
  5
52EA
  8
ALPHA
 10
-584.208483
 20
-183.097034
 30
0.0
  0
VERTEX
  5
52EB
  8
ALPHA
 10
-583.606533
 20
-183.250287
 30
0.0
  0
VERTEX
  5
52EC
  8
ALPHA
 10
-581.393969
 20
-183.735863
 30
0.0
  0
VERTEX
  5
52ED
  8
ALPHA
 10
-579.498174
 20
-184.048508
 30
0.0
  0
VERTEX
  5
52EE
  8
ALPHA
 10
-577.925009
 20
-184.229508
 30
0.0
  0
VERTEX
  5
52EF
  8
ALPHA
 10
-576.680336
 20
-184.320151
 30
0.0
  0
VERTEX
  5
52F0
  8
ALPHA
 10
-575.770016
 20
-184.361723
 30
0.0
  0
VERTEX
  5
52F1
  8
ALPHA
 10
-573.801838
 20
-184.110862
 30
0.0
  0
VERTEX
  5
52F2
  8
ALPHA
 10
-572.853245
 20
-183.708369
 30
0.0
  0
VERTEX
  5
52F3
  8
ALPHA
 10
-571.953425
 20
-183.097031
 30
0.0
  0
VERTEX
  5
52F4
  8
ALPHA
 10
-571.121208
 20
-182.258747
 30
0.0
  0
VERTEX
  5
52F5
  8
ALPHA
 10
-570.375426
 20
-181.175417
 30
0.0
  0
VERTEX
  5
52F6
  8
ALPHA
 10
-569.734909
 20
-179.828939
 30
0.0
  0
VERTEX
  5
52F7
  8
ALPHA
 10
-569.218489
 20
-178.201212
 30
0.0
  0
VERTEX
  5
52F8
  8
ALPHA
 10
-568.844996
 20
-176.274133
 30
0.0
  0
VERTEX
  5
52F9
  8
ALPHA
 10
-568.633262
 20
-174.029603
 30
0.0
  0
VERTEX
  5
52FA
  8
ALPHA
 10
-568.593939
 20
-172.782637
 30
0.0
  0
VERTEX
  5
52FB
  8
ALPHA
 10
-568.591438
 20
-172.457522
 30
0.0
  0
VERTEX
  5
52FC
  8
ALPHA
 10
-568.584488
 20
-172.303456
 30
0.0
  0
VERTEX
  5
52FD
  8
ALPHA
 10
-568.564677
 20
-172.17139
 30
0.0
  0
VERTEX
  5
52FE
  8
ALPHA
 10
-568.488667
 20
-171.665091
 30
0.0
  0
VERTEX
  5
52FF
  8
ALPHA
 10
-568.295266
 20
-170.767308
 30
0.0
  0
VERTEX
  5
5300
  8
ALPHA
 10
-567.930005
 20
-170.041876
 30
0.0
  0
VERTEX
  5
5301
  8
ALPHA
 10
-567.25286
 20
-169.51191
 30
0.0
  0
VERTEX
  5
5302
  8
ALPHA
 10
-566.123806
 20
-169.200526
 30
0.0
  0
VERTEX
  5
5303
  8
ALPHA
 10
-565.346056
 20
-169.134025
 30
0.0
  0
VERTEX
  5
5304
  8
ALPHA
 10
-564.779054
 20
-169.121862
 30
0.0
  0
VERTEX
  5
5305
  8
ALPHA
 10
-564.14934
 20
-169.115742
 30
0.0
  0
VERTEX
  5
5306
  8
ALPHA
 10
-563.542384
 20
-169.119509
 30
0.0
  0
VERTEX
  5
5307
  8
ALPHA
 10
-563.438029
 20
-169.125786
 30
0.0
  0
SEQEND
  5
5308
  8
ALPHA
  0
POLYLINE
  5
4652
  8
ALPHA
 66
     1
 10
0.0
 20
0.0
 30
0.0
 70
   128
  0
VERTEX
  5
5309
  8
ALPHA
 10
603.578578
 20
-125.433263
 30
0.0
  0
VERTEX
  5
530A
  8
ALPHA
 10
604.002465
 20
-125.433263
 30
0.0
  0
VERTEX
  5
530B
  8
ALPHA
 10
604.708943
 20
-125.433263
 30
0.0
  0
VERTEX
  5
530C
  8
ALPHA
 10
604.903224
 20
-125.433263
 30
0.0
  0
VERTEX
  5
530D
  8
ALPHA
 10
604.917299
 20
-125.433263
 30
0.0
  0
VERTEX
  5
530E
  8
ALPHA
 10
604.992706
 20
-125.475478
 30
0.0
  0
VERTEX
  5
530F
  8
ALPHA
 10
605.213709
 20
-125.605516
 30
0.0
  0
VERTEX
  5
5310
  8
ALPHA
 10
606.061581
 20
-126.175192
 30
0.0
  0
VERTEX
  5
5311
  8
ALPHA
 10
607.565985
 20
-127.536315
 30
0.0
  0
VERTEX
  5
5312
  8
ALPHA
 10
608.778586
 20
-129.160414
 30
0.0
  0
VERTEX
  5
5313
  8
ALPHA
 10
609.655367
 20
-131.008225
 30
0.0
  0
VERTEX
  5
5314
  8
ALPHA
 10
610.15231
 20
-133.040487
 30
0.0
  0
VERTEX
  5
5315
  8
ALPHA
 10
610.226614
 20
-135.195769
 30
0.0
  0
VERTEX
  5
5316
  8
ALPHA
 10
609.875631
 20
-137.265739
 30
0.0
  0
VERTEX
  5
5317
  8
ALPHA
 10
609.140087
 20
-139.178282
 30
0.0
  0
VERTEX
  5
5318
  8
ALPHA
 10
608.062234
 20
-140.889333
 30
0.0
  0
VERTEX
  5
5319
  8
ALPHA
 10
606.684323
 20
-142.354828
 30
0.0
  0
VERTEX
  5
531A
  8
ALPHA
 10
605.048608
 20
-143.5307
 30
0.0
  0
SEQEND
  5
531B
  8
ALPHA
  0
POLYLINE
  5
4653
  8
ALPHA
 66
     1
 10
0.0
 20
0.0
 30
0.0
 70
   128
210
0.0
220
0.0
230
-1.0
  0
VERTEX
  5
531C
  8
ALPHA
 10
-592.100442
 20
-143.562839
 30
0.0
  0
VERTEX
  5
531D
  8
ALPHA
 10
-589.86112
 20
-141.959941
 30
0.0
  0
VERTEX
  5
531E
  8
ALPHA
 10
-588.124963
 20
-139.851757
 30
0.0
  0
VERTEX
  5
531F
  8
ALPHA
 10
-587.002336
 20
-137.328007
 30
0.0
  0
VERTEX
  5
5320
  8
ALPHA
 10
-586.705584
 20
-135.938332
 30
0.0
  0
VERTEX
  5
5321
  8
ALPHA
 10
-586.603601
 20
-134.478411
 30
0.0
  0
VERTEX
  5
5322
  8
ALPHA
 10
-586.983839
 20
-131.652844
 30
0.0
  0
VERTEX
  5
5323
  8
ALPHA
 10
-588.062249
 20
-129.147321
 30
0.0
  0
VERTEX
  5
5324
  8
ALPHA
 10
-589.745372
 20
-127.048436
 30
0.0
  0
VERTEX
  5
5325
  8
ALPHA
 10
-591.93975
 20
-125.442786
 30
0.0
  0
SEQEND
  5
5326
  8
ALPHA
  0
POLYLINE
  5
4654
  8
ALPHA
 66
     1
 10
0.0
 20
0.0
 30
0.0
 70
   128
210
0.0
220
0.0
230
-1.0
  0
VERTEX
  5
5327
  8
ALPHA
 10
-611.61256
 20
-127.919816
 30
0.0
  0
VERTEX
  5
5328
  8
ALPHA
 10
-612.450248
 20
-129.376845
 30
0.0
  0
VERTEX
  5
5329
  8
ALPHA
 10
-613.072844
 20
-130.956737
 30
0.0
  0
VERTEX
  5
532A
  8
ALPHA
 10
-613.460764
 20
-132.639962
 30
0.0
  0
VERTEX
  5
532B
  8
ALPHA
 10
-613.594422
 20
-134.406992
 30
0.0
  0
VERTEX
  5
532C
  8
ALPHA
 10
-613.483472
 20
-136.138946
 30
0.0
  0
VERTEX
  5
532D
  8
ALPHA
 10
-613.145602
 20
-137.746252
 30
0.0
  0
VERTEX
  5
532E
  8
ALPHA
 10
-612.573278
 20
-139.25067
 30
0.0
  0
VERTEX
  5
532F
  8
ALPHA
 10
-611.758968
 20
-140.673962
 30
0.0
  0
SEQEND
  5
5330
  8
ALPHA
  0
LINE
  5
4655
  8
ALPHA
 10
584.413435
 20
-86.063838
 30
0.0
 11
584.413435
 21
-183.18927
 31
0.0
  0
LINE
  5
4656
  8
ALPHA
 10
579.28678
 20
-85.037793
 30
0.0
 11
579.28678
 21
-183.774902
 31
0.0
  0
LINE
  5
4657
  8
ALPHA
 10
595.851101
 20
-124.381031
 30
0.0
 11
595.851101
 21
-144.576981
 31
0.0
  0
LINE
  5
4658
  8
ALPHA
 10
600.993825
 20
-124.381031
 30
0.0
 11
600.993825
 21
-144.540081
 31
0.0
  0
POLYLINE
  5
4659
  8
ALPHA
 66
     1
 10
0.0
 20
0.0
 30
0.0
 70
   128
  0
VERTEX
  5
5331
  8
ALPHA
 10
605.048608
 20
-143.5307
 30
0.0
  0
VERTEX
  5
5332
  8
ALPHA
 10
604.898556
 20
-143.5307
 30
0.0
  0
VERTEX
  5
5333
  8
ALPHA
 10
604.534144
 20
-143.5307
 30
0.0
  0
VERTEX
  5
5334
  8
ALPHA
 10
603.676704
 20
-143.5307
 30
0.0
  0
VERTEX
  5
5335
  8
ALPHA
 10
603.440908
 20
-143.5307
 30
0.0
  0
VERTEX
  5
5336
  8
ALPHA
 10
603.279332
 20
-143.611017
 30
0.0
  0
VERTEX
  5
5337
  8
ALPHA
 10
602.841141
 20
-143.839318
 30
0.0
  0
VERTEX
  5
5338
  8
ALPHA
 10
600.975822
 20
-144.548265
 30
0.0
  0
VERTEX
  5
5339
  8
ALPHA
 10
598.960357
 20
-144.891136
 30
0.0
  0
VERTEX
  5
533A
  8
ALPHA
 10
596.942595
 20
-144.815061
 30
0.0
  0
VERTEX
  5
533B
  8
ALPHA
 10
595.059177
 20
-144.338531
 30
0.0
  0
VERTEX
  5
533C
  8
ALPHA
 10
593.320507
 20
-143.562839
 30
0.0
  0
SEQEND
  5
533D
  8
ALPHA
  0
LINE
  5
465A
  8
ALPHA
 10
600.993825
 20
-141.025103
 30
0.0
 11
595.96299
 21
-141.025103
 31
0.0
  0
LINE
  5
465B
  8
ALPHA
 10
600.993825
 20
-140.544219
 30
0.0
 11
595.96299
 21
-140.544219
 31
0.0
  0
LINE
  5
465C
  8
ALPHA
 10
593.320507
 20
-143.562839
 30
0.0
 11
592.100442
 21
-143.562839
 31
0.0
  0
POLYLINE
  5
465F
  8
ALPHA
 66
     1
 10
0.0
 20
0.0
 30
0.0
 70
   128
  0
VERTEX
  5
533E
  8
ALPHA
 10
591.93975
 20
-125.442786
 30
0.0
  0
VERTEX
  5
533F
  8
ALPHA
 10
592.32654
 20
-125.442786
 30
0.0
  0
VERTEX
  5
5340
  8
ALPHA
 10
592.971189
 20
-125.442786
 30
0.0
  0
VERTEX
  5
5341
  8
ALPHA
 10
593.148468
 20
-125.442786
 30
0.0
  0
VERTEX
  5
5342
  8
ALPHA
 10
593.302718
 20
-125.366401
 30
0.0
  0
VERTEX
  5
5343
  8
ALPHA
 10
593.734284
 20
-125.146438
 30
0.0
  0
VERTEX
  5
5344
  8
ALPHA
 10
595.587374
 20
-124.433851
 30
0.0
  0
VERTEX
  5
5345
  8
ALPHA
 10
597.580817
 20
-124.068257
 30
0.0
  0
VERTEX
  5
5346
  8
ALPHA
 10
599.693024
 20
-124.129486
 30
0.0
  0
VERTEX
  5
5347
  8
ALPHA
 10
601.723993
 20
-124.587603
 30
0.0
  0
VERTEX
  5
5348
  8
ALPHA
 10
603.578578
 20
-125.433263
 30
0.0
  0
SEQEND
  5
5349
  8
ALPHA
  0
LINE
  5
4660
  8
ALPHA
 10
600.993825
 20
-128.968477
 30
0.0
 11
595.96299
 21
-128.968477
 31
0.0
  0
LINE
  5
4661
  8
ALPHA
 10
600.993825
 20
-128.486402
 30
0.0
 11
595.96299
 21
-128.486402
 31
0.0
  0
LINE
  5
4662
  8
ALPHA
 10
596.887264
 20
-128.486402
 30
0.0
 11
596.887264
 21
-124.233433
 31
0.0
  0
CIRCLE
  5
4663
  8
ALPHA
 10
574.743971
 20
-97.956935
 30
0.0
 40
2.75
  0
POLYLINE
  5
466B
  8
ALPHA
 66
     1
 10
0.0
 20
0.0
 30
0.0
 70
   128
  0
VERTEX
  5
534A
  8
ALPHA
 10
563.438029
 20
-169.125786
 30
0.0
  0
VERTEX
  5
534B
  8
ALPHA
 10
563.438029
 20
-168.926593
 30
0.0
  0
VERTEX
  5
534C
  8
ALPHA
 10
563.438029
 20
-168.345968
 30
0.0
  0
VERTEX
  5
534D
  8
ALPHA
 10
563.438029
 20
-167.409339
 30
0.0
  0
VERTEX
  5
534E
  8
ALPHA
 10
563.438029
 20
-166.142135
 30
0.0
  0
VERTEX
  5
534F
  8
ALPHA
 10
563.438029
 20
-164.569785
 30
0.0
  0
VERTEX
  5
5350
  8
ALPHA
 10
563.438029
 20
-162.717718
 30
0.0
  0
VERTEX
  5
5351
  8
ALPHA
 10
563.438029
 20
-160.611362
 30
0.0
  0
VERTEX
  5
5352
  8
ALPHA
 10
563.438029
 20
-158.276147
 30
0.0
  0
VERTEX
  5
5353
  8
ALPHA
 10
563.438029
 20
-153.020853
 30
0.0
  0
VERTEX
  5
5354
  8
ALPHA
 10
563.438029
 20
-147.155268
 30
0.0
  0
VERTEX
  5
5355
  8
ALPHA
 10
563.438029
 20
-140.88282
 30
0.0
  0
VERTEX
  5
5356
  8
ALPHA
 10
563.438029
 20
-134.406942
 30
0.0
  0
VERTEX
  5
5357
  8
ALPHA
 10
563.438029
 20
-127.931064
 30
0.0
  0
VERTEX
  5
5358
  8
ALPHA
 10
563.438029
 20
-121.658617
 30
0.0
  0
VERTEX
  5
5359
  8
ALPHA
 10
563.438029
 20
-115.793031
 30
0.0
  0
VERTEX
  5
535A
  8
ALPHA
 10
563.438029
 20
-110.537738
 30
0.0
  0
VERTEX
  5
535B
  8
ALPHA
 10
563.438029
 20
-108.202523
 30
0.0
  0
VERTEX
  5
535C
  8
ALPHA
 10
563.438029
 20
-106.096167
 30
0.0
  0
VERTEX
  5
535D
  8
ALPHA
 10
563.438029
 20
-104.2441
 30
0.0
  0
VERTEX
  5
535E
  8
ALPHA
 10
563.438029
 20
-102.67175
 30
0.0
  0
VERTEX
  5
535F
  8
ALPHA
 10
563.438029
 20
-101.404546
 30
0.0
  0
VERTEX
  5
5360
  8
ALPHA
 10
563.438029
 20
-100.467917
 30
0.0
  0
VERTEX
  5
5361
  8
ALPHA
 10
563.438029
 20
-99.887292
 30
0.0
  0
VERTEX
  5
5362
  8
ALPHA
 10
563.438029
 20
-99.688099
 30
0.0
  0
SEQEND
  5
5363
  8
ALPHA
  0
DIMENSION
  5
4C51
  8
COTATION1
  2
*D4
 10
538.438029
 20
-184.456948
 30
0.0
 11
536.938029
 21
-134.456935
 31
0.0
 13
575.451014
 23
-84.456923
 33
0.0
 14
575.446253
 24
-184.456948
 34
0.0
 50
90.0
  0
DIMENSION
  5
4C70
  8
COTATION1
  2
*D5
 10
563.438029
 20
-69.456923
 30
0.0
 11
589.688017
 21
-67.956923
 31
0.0
 13
615.938006
 23
-134.44695
 33
0.0
 14
563.438029
 24
-99.788085
 34
0.0
 50
180.0
  0
LINE
  5
4D28
  8
AXE
 10
643.114985
 20
-134.456935
 30
0.0
 11
558.438029
 21
-134.456935
 31
0.0
  0
CIRCLE
  5
4D6F
  8
ALPHA
 10
574.743971
 20
-170.956935
 30
0.0
 40
2.75
  0
DIMENSION
  5
4DF8
  8
COTATION1
  2
*D6
 10
548.438029
 20
-170.956935
 30
0.0
 11
546.938029
 21
-134.456935
 31
0.0
 13
574.743971
 23
-97.956935
 33
0.0
 14
574.743971
 24
-170.956935
 34
0.0
 50
90.0
  0
LINE
  5
4E49
  8
AXE
 10
598.478408
 20
-199.456948
 30
0.0
 11
598.478408
 21
-79.456923
 31
0.0
  0
TEXT
  5
4E4A
  8
AXE
 10
636.638794
 20
-132.982001
 30
0.0
 40
8.0
  1
Z
 72
     2
 11
643.114985
 21
-132.982001
 31
0.0
  0
TEXT
  5
4E4B
  8
AXE
 10
597.248894
 20
-199.456948
 30
0.0
 40
8.0
  1
Y
 71
     2
 72
     2
 11
590.772704
 21
-199.456948
 31
0.0
  0
DIMENSION
  5
4E90
  8
COTATION1
  2
*D7
 10
576.533757
 20
-100.044797
 30
0.0
 11
548.788117
 21
-71.761212
 31
0.0
 70
   131
 15
572.954186
 25
-95.869073
 35
0.0
 40
0.0
  0
ENDSEC
  0
EOF
