  0
SECTION
  2
HEADER
  9
$ACADVER
  1
AC1009
  9
$INSBASE
 10
402.590624
 20
-1.041018
 30
0.0
  9
$EXTMIN
 10
0.99206
 20
0.840414
 30
0.0
  9
$EXTMAX
 10
70.745967
 20
44.926568
 30
0.0
  9
$LIMMIN
 10
-407.970438
 20
-367.832444
  9
$LIMMAX
 10
429.804077
 20
234.370848
  9
$ORTHOMODE
 70
     1
  9
$REGENMODE
 70
     1
  9
$FILLMODE
 70
     1
  9
$QTEXTMODE
 70
     0
  9
$MIRRTEXT
 70
     1
  9
$DRAGMODE
 70
     2
  9
$LTSCALE
 40
10.0
  9
$OSMODE
 70
    35
  9
$ATTMODE
 70
     1
  9
$TEXTSIZE
 40
6.0
  9
$TRACEWID
 40
1.0
  9
$TEXTSTYLE
  7
STANDARD
  9
$CLAYER
  8
ALPHA
  9
$CELTYPE
  6
BYLAYER
  9
$CECOLOR
 62
   256
  9
$DIMSCALE
 40
1.0
  9
$DIMASZ
 40
5.0
  9
$DIMEXO
 40
2.0
  9
$DIMDLI
 40
0.38
  9
$DIMRND
 40
0.0
  9
$DIMDLE
 40
0.0
  9
$DIMEXE
 40
2.5
  9
$DIMTP
 40
0.0
  9
$DIMTM
 40
0.0
  9
$DIMTXT
 40
2.5
  9
$DIMCEN
 40
0.0
  9
$DIMTSZ
 40
0.0
  9
$DIMTOL
 70
     0
  9
$DIMLIM
 70
     0
  9
$DIMTIH
 70
     1
  9
$DIMTOH
 70
     1
  9
$DIMSE1
 70
     0
  9
$DIMSE2
 70
     0
  9
$DIMTAD
 70
     1
  9
$DIMZIN
 70
    12
  9
$DIMBLK
  1
OPEN30
  9
$DIMASO
 70
     1
  9
$DIMSHO
 70
     1
  9
$DIMPOST
  1

  9
$DIMAPOST
  1

  9
$DIMALT
 70
     0
  9
$DIMALTD
 70
     2
  9
$DIMALTF
 40
25.4
  9
$DIMLFAC
 40
1.0
  9
$DIMTOFL
 70
     0
  9
$DIMTVP
 40
0.0
  9
$DIMTIX
 70
     0
  9
$DIMSOXD
 70
     0
  9
$DIMSAH
 70
     0
  9
$DIMBLK1
  1

  9
$DIMBLK2
  1

  9
$DIMSTYLE
  2
SC_DEFAUT
  9
$DIMCLRD
 70
     0
  9
$DIMCLRE
 70
     0
  9
$DIMCLRT
 70
     0
  9
$DIMTFAC
 40
1.0
  9
$DIMGAP
 40
2.0
  9
$LUNITS
 70
     2
  9
$LUPREC
 70
     1
  9
$SKETCHINC
 40
0.1
  9
$FILLETRAD
 40
0.0
  9
$AUNITS
 70
     0
  9
$AUPREC
 70
     0
  9
$MENU
  1
acad
  9
$ELEVATION
 40
0.0
  9
$PELEVATION
 40
0.0
  9
$THICKNESS
 40
0.0
  9
$LIMCHECK
 70
     0
  9
$BLIPMODE
 70
     0
  9
$CHAMFERA
 40
0.0
  9
$CHAMFERB
 40
0.0
  9
$SKPOLY
 70
     0
  9
$TDCREATE
 40
2450373.687919
  9
$TDUPDATE
 40
2453038.441309
  9
$TDINDWG
 40
1.152659
  9
$TDUSRTIMER
 40
1.152659
  9
$USRTIMER
 70
     1
  9
$ANGBASE
 50
0.0
  9
$ANGDIR
 70
     0
  9
$PDMODE
 70
    32
  9
$PDSIZE
 40
0.0
  9
$PLINEWID
 40
0.0
  9
$COORDS
 70
     1
  9
$SPLFRAME
 70
     0
  9
$SPLINETYPE
 70
     6
  9
$SPLINESEGS
 70
     8
  9
$ATTDIA
 70
     0
  9
$ATTREQ
 70
     1
  9
$HANDLING
 70
     1
  9
$HANDSEED
  5
DF2A
  9
$SURFTAB1
 70
     6
  9
$SURFTAB2
 70
     6
  9
$SURFTYPE
 70
     6
  9
$SURFU
 70
     6
  9
$SURFV
 70
     6
  9
$UCSNAME
  2

  9
$UCSORG
 10
0.0
 20
0.0
 30
0.0
  9
$UCSXDIR
 10
1.0
 20
0.0
 30
0.0
  9
$UCSYDIR
 10
0.0
 20
1.0
 30
0.0
  9
$PUCSNAME
  2

  9
$PUCSORG
 10
0.0
 20
0.0
 30
0.0
  9
$PUCSXDIR
 10
1.0
 20
0.0
 30
0.0
  9
$PUCSYDIR
 10
0.0
 20
1.0
 30
0.0
  9
$USERI1
 70
     0
  9
$USERI2
 70
     0
  9
$USERI3
 70
     0
  9
$USERI4
 70
     0
  9
$USERI5
 70
     0
  9
$USERR1
 40
0.0
  9
$USERR2
 40
0.0
  9
$USERR3
 40
0.0
  9
$USERR4
 40
0.0
  9
$USERR5
 40
0.0
  9
$WORLDVIEW
 70
     1
  9
$SHADEDGE
 70
     3
  9
$SHADEDIF
 70
    70
  9
$TILEMODE
 70
     1
  9
$MAXACTVP
 70
    16
  9
$PLIMCHECK
 70
     0
  9
$PEXTMIN
 10
-1.452248
 20
-0.437698
 30
0.0
  9
$PEXTMAX
 10
12.749749
 20
8.310198
 30
0.0
  9
$PLIMMIN
 10
0.0
 20
0.0
  9
$PLIMMAX
 10
12.0
 20
9.0
  9
$UNITMODE
 70
     0
  9
$VISRETAIN
 70
     0
  9
$PLINEGEN
 70
     0
  9
$PSLTSCALE
 70
     0
  0
ENDSEC
  0
SECTION
  2
TABLES
  0
TABLE
  2
VPORT
 70
     2
  0
VPORT
  2
*ACTIVE
 70
     0
 10
0.0
 20
0.0
 11
1.0
 21
1.0
 12
35.876458
 22
22.883883
 13
0.0
 23
0.0
 14
1.0
 24
1.0
 15
10.0
 25
10.0
 16
0.0
 26
0.0
 36
1.0
 17
0.0
 27
0.0
 37
0.0
 40
47.877224
 41
1.466346
 42
50.0
 43
0.0
 44
0.0
 50
0.0
 51
0.0
 71
     0
 72
   100
 73
     1
 74
     0
 75
     0
 76
     0
 77
     0
 78
     0
  0
ENDTAB
  0
TABLE
  2
LTYPE
 70
     2
  0
LTYPE
  2
CONTINUOUS
 70
     0
  3
Solid line
 72
    65
 73
     0
 40
0.0
  0
LTYPE
  2
AXES2
 70
     0
  3
___ _ ___ _ ___ _ ___ _ ___ _ ___ _ ___ _ ___ _
 72
    65
 73
     4
 40
1.125
 49
0.75
 49
-0.125
 49
0.125
 49
-0.125
  0
ENDTAB
  0
TABLE
  2
LAYER
 70
     5
  0
LAYER
  2
0
 70
     0
 62
   255
  6
CONTINUOUS
  0
LAYER
  2
COTATION1
 70
     0
 62
     2
  6
CONTINUOUS
  0
LAYER
  2
AXE
 70
     0
 62
    80
  6
AXES2
  0
LAYER
  2
DEFPOINTS
 70
     0
 62
     7
  6
CONTINUOUS
  0
LAYER
  2
ALPHA
 70
     0
 62
   254
  6
CONTINUOUS
  0
ENDTAB
  0
TABLE
  2
STYLE
 70
     2
  0
STYLE
  2
ROMANS
 70
     0
 40
0.0
 41
1.0
 50
0.0
 71
     0
 42
6.0
  3
romans
  4

  0
STYLE
  2
STANDARD
 70
     0
 40
0.0
 41
1.0
 50
0.0
 71
     0
 42
0.2
  3
txt
  4

  0
ENDTAB
  0
TABLE
  2
VIEW
 70
     0
  0
ENDTAB
  0
TABLE
  2
UCS
 70
     0
  0
ENDTAB
  0
TABLE
  2
APPID
 70
     1
  0
APPID
  2
ACAD
 70
     0
  0
ENDTAB
  0
TABLE
  2
DIMSTYLE
 70
     2
  0
DIMSTYLE
  2
SC_DEFAUT
 70
     0
  3

  4

  5
OPEN30
  6

  7

 40
1.0
 41
5.0
 42
2.0
 43
0.38
 44
2.5
 45
0.0
 46
0.0
 47
0.0
 48
0.0
140
2.5
141
0.0
142
0.0
143
25.4
144
1.0
145
0.0
146
1.0
147
2.0
 71
     0
 72
     0
 73
     1
 74
     1
 75
     0
 76
     0
 77
     1
 78
    12
170
     0
171
     2
172
     0
173
     0
174
     0
175
     0
176
     0
177
     0
178
     0
  0
DIMSTYLE
  2
STANDARD
 70
     0
  3

  4

  5

  6

  7

 40
1.0
 41
0.18
 42
0.0625
 43
0.38
 44
0.18
 45
0.0
 46
0.0
 47
0.0
 48
0.0
140
0.18
141
0.09
142
0.0
143
25.4
144
1.0
145
0.0
146
1.0
147
0.09
 71
     0
 72
     0
 73
     1
 74
     1
 75
     0
 76
     0
 77
     0
 78
     0
170
     0
171
     2
172
     0
173
     0
174
     0
175
     0
176
     0
177
     0
178
     0
  0
ENDTAB
  0
ENDSEC
  0
SECTION
  2
BLOCKS
  0
BLOCK
  8
0
  2
$MODEL_SPACE
 70
     0
 10
0.0
 20
0.0
 30
0.0
  3
$MODEL_SPACE
  1

  0
ENDBLK
  5
DEE4
  8
0
  0
BLOCK
 67
     1
  8
0
  2
$PAPER_SPACE
 70
     0
 10
0.0
 20
0.0
 30
0.0
  3
$PAPER_SPACE
  1

  0
ENDBLK
  5
DEE2
 67
     1
  8
0
  0
BLOCK
  8
0
  2
COTE
 70
     0
 10
0.0
 20
0.0
 30
0.0
  3
COTE
  1

  0
ENDBLK
  5
F
  8
0
  0
BLOCK
  8
0
  2
FOND
 70
     0
 10
0.0
 20
0.0
 30
0.0
  3
FOND
  1

  0
ENDBLK
  5
75
  8
0
  0
BLOCK
  8
0
  2
_OPEN30
 70
     0
 10
0.0
 20
0.0
 30
0.0
  3
_OPEN30
  1

  0
LINE
  5
4B05
  8
COTATION1
 62
     0
 10
-1.0
 20
0.267949
 30
0.0
 11
0.0
 21
0.0
 31
0.0
1001
ACAD
1000
RTLwPs
1070
   158
  0
LINE
  5
4B06
  8
COTATION1
 62
     0
 10
0.0
 20
0.0
 30
0.0
 11
-1.0
 21
-0.267949
 31
0.0
1001
ACAD
1000
RTLwPs
1070
   158
  0
LINE
  5
4B07
  8
COTATION1
 62
     0
 10
0.0
 20
0.0
 30
0.0
 11
-1.0
 21
0.0
 31
0.0
1001
ACAD
1000
RTLwPs
1070
   158
  0
ENDBLK
  5
4B09
  8
0
  0
BLOCK
  8
0
  2
*D3
 70
     1
 10
0.0
 20
0.0
 30
0.0
  3
*D3
  1

  0
LINE
  5
D982
  8
COTATION1
 62
     0
 10
22.215015
 20
27.426568
 30
0.0
 11
22.215015
 21
42.926568
 31
0.0
1001
ACAD
1000
RTLwPs
1070
   158
  0
LINE
  5
D983
  8
COTATION1
 62
     0
 10
47.115015
 20
27.426568
 30
0.0
 11
47.115015
 21
42.926568
 31
0.0
1001
ACAD
1000
RTLwPs
1070
   158
  0
LINE
  5
D984
  8
COTATION1
 62
     0
 10
27.215015
 20
40.426568
 30
0.0
 11
42.115015
 21
40.426568
 31
0.0
1001
ACAD
1000
RTLwPs
1070
   158
  0
INSERT
  5
D985
  8
COTATION1
 62
     0
  2
_OPEN30
 10
22.215015
 20
40.426568
 30
0.0
 41
5.0
 42
5.0
 43
5.0
 50
180.0
1001
ACAD
1000
RTLwPs
1070
   158
  0
INSERT
  5
D986
  8
COTATION1
 62
     0
  2
_OPEN30
 10
47.115015
 20
40.426568
 30
0.0
 41
5.0
 42
5.0
 43
5.0
1001
ACAD
1000
RTLwPs
1070
   158
  0
TEXT
  5
D987
  8
COTATION1
 62
     0
 10
30.557872
 20
42.426568
 30
0.0
 40
2.5
  1
24.9
1001
ACAD
1000
MTEXTBEGIN
1070
    73
1070
     1
1070
    44
1040
1.0
1070
    74
1070
     0
1000
MTEXTEND
  0
POINT
  5
D988
  8
DEFPOINTS
 62
     0
 10
22.215015
 20
25.426568
 30
0.0
  0
POINT
  5
D989
  8
DEFPOINTS
 62
     0
 10
47.115015
 20
25.426568
 30
0.0
  0
POINT
  5
D98A
  8
DEFPOINTS
 62
     0
 10
47.115015
 20
40.426568
 30
0.0
  0
ENDBLK
  5
D507
  8
0
  0
BLOCK
  8
0
  2
*D4
 70
     1
 10
0.0
 20
0.0
 30
0.0
  3
*D4
  1

  0
LINE
  5
D98B
  8
COTATION1
 62
     0
 10
49.115015
 20
25.426568
 30
0.0
 11
69.615015
 21
25.426568
 31
0.0
1001
ACAD
1000
RTLwPs
1070
   158
  0
LINE
  5
D98C
  8
COTATION1
 62
     0
 10
47.514988
 20
11.626568
 30
0.0
 11
69.615015
 21
11.626568
 31
0.0
1001
ACAD
1000
RTLwPs
1070
   158
  0
LINE
  5
D98D
  8
COTATION1
 62
     0
 10
67.115015
 20
30.426568
 30
0.0
 11
67.115015
 21
35.426568
 31
0.0
1001
ACAD
1000
RTLwPs
1070
   158
  0
LINE
  5
D98E
  8
COTATION1
 62
     0
 10
67.115015
 20
6.626568
 30
0.0
 11
67.115015
 21
1.626568
 31
0.0
1001
ACAD
1000
RTLwPs
1070
   158
  0
INSERT
  5
D98F
  8
COTATION1
 62
     0
  2
_OPEN30
 10
67.115015
 20
25.426568
 30
0.0
 41
5.0
 42
5.0
 43
5.0
 50
270.0
1001
ACAD
1000
RTLwPs
1070
   158
  0
INSERT
  5
D990
  8
COTATION1
 62
     0
  2
_OPEN30
 10
67.115015
 20
11.626568
 30
0.0
 41
5.0
 42
5.0
 43
5.0
 50
90.0
1001
ACAD
1000
RTLwPs
1070
   158
  0
TEXT
  5
D991
  8
COTATION1
 62
     0
 10
62.769776
 20
17.276568
 30
0.0
 40
2.5
  1
13.8
1001
ACAD
1000
MTEXTBEGIN
1070
    73
1070
     1
1070
    44
1040
1.0
1070
    74
1070
     0
1000
MTEXTEND
  0
POINT
  5
D992
  8
DEFPOINTS
 62
     0
 10
47.115015
 20
25.426568
 30
0.0
  0
POINT
  5
D993
  8
DEFPOINTS
 62
     0
 10
45.514988
 20
11.626568
 30
0.0
  0
POINT
  5
D994
  8
DEFPOINTS
 62
     0
 10
67.115015
 20
11.626568
 30
0.0
  0
ENDBLK
  5
D54C
  8
0
  0
ENDSEC
  0
SECTION
  2
ENTITIES
  0
INSERT
  5
A
  8
0
  2
COTE
 10
0.0
 20
0.0
 30
0.0
  0
INSERT
  5
17
  8
0
  2
COTE
 10
284.010391
 20
6.373258
 30
0.0
  0
INSERT
  5
72
  8
0
  2
FOND
 10
0.0
 20
0.0
 30
0.0
  0
LINE
  5
D4E5
  8
AXE
 10
34.665015
 20
0.840414
 30
0.0
 11
34.665015
 21
30.426568
 31
0.0
  0
TEXT
  5
D4E6
  8
AXE
 10
29.617396
 20
0.840414
 30
0.0
 40
5.0
  1
Y
 72
     2
 11
33.665015
 21
0.840414
 31
0.0
  0
DIMENSION
  5
D4FB
  8
COTATION1
  2
*D3
 10
47.115015
 20
40.426568
 30
0.0
 11
34.665015
 21
43.676568
 31
0.0
 13
22.215015
 23
25.426568
 33
0.0
 14
47.115015
 24
25.426568
 34
0.0
  0
DIMENSION
  5
D53F
  8
COTATION1
  2
*D4
 10
67.115015
 20
11.626568
 30
0.0
 11
67.115015
 21
18.526568
 31
0.0
 13
47.115015
 23
25.426568
 33
0.0
 14
45.514988
 24
11.626568
 34
0.0
 50
90.0
  0
LINE
  5
D563
  8
AXE
 10
17.215015
 20
18.526568
 30
0.0
 11
57.115015
 21
18.526568
 31
0.0
  0
TEXT
  5
D564
  8
AXE
 10
53.067396
 20
19.526568
 30
0.0
 40
5.0
  1
X
 72
     2
 11
57.115015
 21
19.526568
 31
0.0
  0
LINE
  5
DA86
  8
ALPHA
 10
22.215015
 20
25.426568
 30
0.0
 11
47.115015
 21
25.426568
 31
0.0
  0
LINE
  5
DCEB
  8
ALPHA
 10
31.675655
 20
18.559535
 30
0.0
 11
23.115015
 21
18.559535
 31
0.0
  0
LINE
  5
DCEC
  8
ALPHA
 10
23.115015
 20
19.326568
 30
0.0
 11
31.675655
 21
19.326568
 31
0.0
  0
LINE
  5
DCED
  8
ALPHA
 10
22.215015
 20
23.926568
 30
0.0
 11
38.715015
 21
23.926568
 31
0.0
  0
LINE
  5
DCEE
  8
ALPHA
 10
26.023452
 20
24.426568
 30
0.0
 11
38.715015
 21
24.426568
 31
0.0
  0
LINE
  5
DCF0
  8
ALPHA
 10
23.815041
 20
11.626568
 30
0.0
 11
45.514988
 21
11.626568
 31
0.0
  0
LINE
  5
DCF1
  8
ALPHA
 10
23.815015
 20
12.426568
 30
0.0
 11
45.515015
 21
12.426568
 31
0.0
  0
LINE
  5
DCF2
  8
ALPHA
 10
23.965015
 20
12.926568
 30
0.0
 11
45.365015
 21
12.926568
 31
0.0
  0
LINE
  5
DCF3
  8
ALPHA
 10
24.02194
 20
14.676568
 30
0.0
 11
45.308089
 21
14.676568
 31
0.0
  0
LINE
  5
DCF4
  8
ALPHA
 10
23.965015
 20
14.876568
 30
0.0
 11
45.365015
 21
14.876568
 31
0.0
  0
LINE
  5
DCF5
  8
ALPHA
 10
23.965015
 20
15.67819
 30
0.0
 11
45.365015
 21
15.67819
 31
0.0
  0
LINE
  5
DCF6
  8
ALPHA
 10
23.892198
 20
16.052797
 30
0.0
 11
45.437831
 21
16.052797
 31
0.0
  0
LINE
  5
DCF7
  8
ALPHA
 10
45.996566
 20
17.435715
 30
0.0
 11
23.333463
 21
17.435715
 31
0.0
  0
LINE
  5
DCF8
  8
ALPHA
 10
23.415015
 20
19.626568
 30
0.0
 11
45.914854
 21
19.626568
 31
0.0
  0
LINE
  5
DCF9
  8
ALPHA
 10
23.365015
 20
19.926568
 30
0.0
 11
45.965015
 21
19.926568
 31
0.0
  0
LINE
  5
DCFA
  8
ALPHA
 10
23.365015
 20
20.755288
 30
0.0
 11
45.965015
 21
20.755288
 31
0.0
  0
LINE
  5
DCFB
  8
ALPHA
 10
22.565015
 20
21.426568
 30
0.0
 11
46.765015
 21
21.426568
 31
0.0
  0
LINE
  5
DCFC
  8
ALPHA
 10
23.365015
 20
22.097848
 30
0.0
 11
45.965015
 21
22.097848
 31
0.0
  0
LINE
  5
DCFD
  8
ALPHA
 10
22.215015
 20
22.926568
 30
0.0
 11
47.115015
 21
22.926568
 31
0.0
  0
LINE
  5
DCFE
  8
ALPHA
 10
22.215015
 20
25.426568
 30
0.0
 11
47.115015
 21
25.426568
 31
0.0
  0
LINE
  5
DCFF
  8
ALPHA
 10
23.115015
 20
18.559535
 30
0.0
 11
23.115015
 21
19.326568
 31
0.0
  0
LINE
  5
DD00
  8
0
  6
CONTINUOUS
 62
     2
 10
5.99206
 20
20.426568
 30
0.0
 11
5.99206
 21
15.426568
 31
0.0
  0
TEXT
  5
DD01
  8
0
  6
CONTINUOUS
 62
     2
 10
2.24206
 20
11.676568
 30
0.0
 40
2.5
  1
ENTRY
 41
0.642857
  7
STANDARD
 72
     5
 11
9.74206
 21
11.676568
 31
0.0
  0
LINE
  5
DD02
  8
0
  6
CONTINUOUS
 62
     2
 10
10.99206
 20
10.426568
 30
0.0
 11
0.99206
 21
10.426568
 31
0.0
  0
LINE
  5
DD03
  8
0
  6
CONTINUOUS
 62
     2
 10
0.99206
 20
15.426568
 30
0.0
 11
10.99206
 21
15.426568
 31
0.0
  0
LINE
  5
DD04
  8
0
  6
CONTINUOUS
 62
     2
 10
0.99206
 20
10.426568
 30
0.0
 11
0.99206
 21
15.426568
 31
0.0
  0
LINE
  5
DD05
  8
0
  6
CONTINUOUS
 62
     2
 10
10.99206
 20
15.426568
 30
0.0
 11
10.99206
 21
10.426568
 31
0.0
  0
LINE
  5
DD06
  8
ALPHA
 10
27.818685
 20
14.676568
 30
0.0
 11
27.818685
 21
12.926568
 31
0.0
  0
POLYLINE
  5
DD07
  8
ALPHA
 66
     1
 10
0.0
 20
0.0
 30
0.0
  0
VERTEX
  5
DEEA
  8
ALPHA
 10
27.928798
 20
14.876568
 30
0.0
  0
VERTEX
  5
DEEB
  8
ALPHA
 10
27.89311
 20
14.811047
 30
0.0
  0
VERTEX
  5
DEEC
  8
ALPHA
 10
27.818685
 20
14.676568
 30
0.0
  0
SEQEND
  5
DEED
  8
ALPHA
  0
LINE
  5
DD08
  8
ALPHA
 10
23.892198
 20
16.052797
 30
0.0
 11
23.333463
 21
17.435715
 31
0.0
  0
ARC
  5
DD09
  8
ALPHA
 10
26.115015
 20
18.559535
 30
0.0
 40
3.0
 50
180.0
 51
202.0
  0
ARC
  5
DD0A
  8
ALPHA
 10
22.965015
 20
15.67819
 30
0.0
 40
1.0
 50
0.0
 51
22.0
  0
LINE
  5
DD0B
  8
ALPHA
 10
23.815015
 20
12.426568
 30
0.0
 11
23.815015
 21
11.626568
 31
0.0
  0
LINE
  5
DD0C
  8
ALPHA
 10
24.02194
 20
12.926568
 30
0.0
 11
24.02194
 21
14.676568
 31
0.0
  0
ARC
  5
DD0D
  8
ALPHA
 10
24.315015
 20
12.426568
 30
0.0
 40
0.5
 50
90.0
 51
180.0
  0
LINE
  5
DD0E
  8
ALPHA
 10
24.017816
 20
14.876568
 30
0.0
 11
24.02194
 21
14.676568
 31
0.0
  0
LINE
  5
DD0F
  8
ALPHA
 10
23.965015
 20
12.926568
 30
0.0
 11
23.965015
 21
15.67819
 31
0.0
  0
LINE
  5
DD10
  8
0
  6
CONTINUOUS
 62
     2
 10
22.215015
 20
22.926568
 30
0.0
 11
5.99206
 21
22.926568
 31
0.0
  0
SOLID
  5
DD11
  8
0
  6
CONTINUOUS
 62
     2
 10
4.548684
 20
22.926568
 30
0.0
 11
7.435436
 21
22.926568
 31
0.0
 12
5.99206
 22
20.426568
 32
0.0
 13
5.99206
 23
20.426568
 33
0.0
  0
POLYLINE
  5
DD12
  8
ALPHA
 66
     1
 10
0.0
 20
0.0
 30
0.0
  0
VERTEX
  5
DEEE
  8
ALPHA
 10
26.023452
 20
24.426568
 30
0.0
  0
VERTEX
  5
DEEF
  8
ALPHA
 10
26.036971
 20
24.21479
 30
0.0
  0
VERTEX
  5
DEF0
  8
ALPHA
 10
26.060693
 20
24.057192
 30
0.0
  0
VERTEX
  5
DEF1
  8
ALPHA
 10
26.096768
 20
23.959707
 30
0.0
  0
VERTEX
  5
DEF2
  8
ALPHA
 10
26.146065
 20
23.926568
 30
0.0
  0
SEQEND
  5
DEF3
  8
ALPHA
  0
LINE
  5
DD13
  8
ALPHA
 10
25.745034
 20
24.69854
 30
0.0
 11
26.023452
 21
24.426568
 31
0.0
  0
POLYLINE
  5
DD14
  8
ALPHA
 66
     1
 10
0.0
 20
0.0
 30
0.0
  0
VERTEX
  5
DEF4
  8
ALPHA
 10
25.015015
 20
25.426568
 30
0.0
  0
VERTEX
  5
DEF5
  8
ALPHA
 10
25.407087
 20
25.034642
 30
0.0
  0
VERTEX
  5
DEF6
  8
ALPHA
 10
25.745034
 20
24.69854
 30
0.0
  0
SEQEND
  5
DEF7
  8
ALPHA
  0
LINE
  5
DD15
  8
ALPHA
 10
22.597218
 20
22.926568
 30
0.0
 11
22.597218
 21
23.926568
 31
0.0
  0
LINE
  5
DD16
  8
ALPHA
 10
23.365015
 20
22.926568
 30
0.0
 11
23.365015
 21
22.097848
 31
0.0
  0
LINE
  5
DD17
  8
ALPHA
 10
23.365015
 20
22.097848
 30
0.0
 11
22.565015
 21
21.426568
 31
0.0
  0
LINE
  5
DD18
  8
ALPHA
 10
22.565015
 20
21.426568
 30
0.0
 11
23.365015
 21
20.755288
 31
0.0
  0
LINE
  5
DD19
  8
ALPHA
 10
22.215015
 20
22.926568
 30
0.0
 11
22.215015
 21
25.426568
 31
0.0
  0
ARC
  5
DD1A
  8
ALPHA
 10
24.465015
 20
20.026568
 30
0.0
 40
0.4
 50
270.0
 51
345.437694
  0
ARC
  5
DD1B
  8
ALPHA
 10
23.415015
 20
19.326568
 30
0.0
 40
0.3
 50
90.0
 51
180.0
  0
LINE
  5
DD1C
  8
ALPHA
 10
23.365015
 20
20.755288
 30
0.0
 11
23.365015
 21
19.926568
 31
0.0
  0
LINE
  5
DD1E
  8
ALPHA
 10
46.215015
 20
18.559535
 30
0.0
 11
46.215015
 21
19.326568
 31
0.0
  0
LINE
  5
DD20
  8
ALPHA
 10
36.72585
 20
18.704725
 30
0.0
 11
37.03283
 21
19.436332
 31
0.0
  0
LINE
  5
DD21
  8
ALPHA
 10
37.164392
 20
19.436332
 30
0.0
 11
36.791632
 21
18.550703
 31
0.0
  0
LINE
  5
DD22
  8
ALPHA
 10
37.602611
 20
17.482502
 30
0.0
 11
37.602611
 21
19.609411
 31
0.0
  0
LINE
  5
DD23
  8
ALPHA
 10
37.654375
 20
18.559535
 30
0.0
 11
37.654375
 21
19.326568
 31
0.0
  0
LINE
  5
DD24
  8
ALPHA
 10
34.967358
 20
18.559535
 30
0.0
 11
34.966984
 21
19.418123
 31
0.0
  0
LINE
  5
DD25
  8
ALPHA
 10
35.67335
 20
18.704725
 30
0.0
 11
35.980329
 21
19.436332
 31
0.0
  0
LINE
  5
DD26
  8
ALPHA
 10
36.111892
 20
19.436332
 30
0.0
 11
35.739131
 21
18.550703
 31
0.0
  0
LINE
  5
DD27
  8
ALPHA
 10
35.607569
 20
18.550703
 30
0.0
 11
35.234808
 21
19.436332
 31
0.0
  0
LINE
  5
DD28
  8
ALPHA
 10
35.366371
 20
19.436332
 30
0.0
 11
35.67335
 21
18.704725
 31
0.0
  0
LINE
  5
DD29
  8
ALPHA
 10
36.660069
 20
18.550703
 30
0.0
 11
36.287309
 21
19.436332
 31
0.0
  0
LINE
  5
DD2A
  8
ALPHA
 10
36.418871
 20
19.436332
 30
0.0
 11
36.72585
 21
18.704725
 31
0.0
  0
LINE
  5
DD2B
  8
ALPHA
 10
32.844755
 20
18.897254
 30
0.0
 11
32.844755
 21
19.01277
 31
0.0
  0
LINE
  5
DD2C
  8
ALPHA
 10
32.976317
 20
19.01277
 30
0.0
 11
32.976317
 21
18.858748
 31
0.0
  0
LINE
  5
DD2D
  8
ALPHA
 10
33.151734
 20
18.820242
 30
0.0
 11
33.173661
 21
19.01277
 31
0.0
  0
LINE
  5
DD2E
  8
ALPHA
 10
33.305224
 20
18.974265
 30
0.0
 11
33.283296
 21
18.820242
 31
0.0
  0
LINE
  5
DD2F
  8
ALPHA
 10
34.363259
 20
18.193125
 30
0.0
 11
34.362671
 21
19.326568
 31
0.0
  0
LINE
  5
DD30
  8
ALPHA
 10
31.675655
 20
18.559535
 30
0.0
 11
31.675655
 21
19.326568
 31
0.0
  0
LINE
  5
DD31
  8
ALPHA
 10
31.727418
 20
17.482502
 30
0.0
 11
31.727418
 21
19.609411
 31
0.0
  0
LINE
  5
DD32
  8
ALPHA
 10
32.165015
 20
17.626568
 30
0.0
 11
32.165015
 21
19.436332
 31
0.0
  0
LINE
  5
DD33
  8
ALPHA
 10
32.296577
 20
19.243804
 30
0.0
 11
32.296577
 21
18.66622
 31
0.0
  0
LINE
  5
DD35
  8
ALPHA
 10
46.215015
 20
18.559535
 30
0.0
 11
37.654375
 21
18.559535
 31
0.0
  0
LINE
  5
DD36
  8
ALPHA
 10
37.602611
 20
17.482502
 30
0.0
 11
34.962123
 21
17.482502
 31
0.0
  0
LINE
  5
DD37
  8
ALPHA
 10
36.287309
 20
17.626568
 30
0.0
 11
36.660069
 21
18.550703
 31
0.0
  0
LINE
  5
DD38
  8
ALPHA
 10
36.72585
 20
18.358175
 30
0.0
 11
36.418871
 21
17.626568
 31
0.0
  0
LINE
  5
DD39
  8
ALPHA
 10
36.418871
 20
17.626568
 30
0.0
 11
36.287309
 21
17.626568
 31
0.0
  0
LINE
  5
DD3A
  8
ALPHA
 10
36.111892
 20
17.626568
 30
0.0
 11
35.980329
 21
17.626568
 31
0.0
  0
LINE
  5
DD3B
  8
ALPHA
 10
35.366371
 20
17.626568
 30
0.0
 11
35.234808
 21
17.626568
 31
0.0
  0
POLYLINE
  5
DD3C
  8
ALPHA
 66
     1
 10
0.0
 20
0.0
 30
0.0
  0
VERTEX
  5
DEF8
  8
ALPHA
 10
34.962123
 20
17.482502
 30
0.0
  0
VERTEX
  5
DEF9
  8
ALPHA
 10
34.965016
 20
17.832223
 30
0.0
  0
VERTEX
  5
DEFA
  8
ALPHA
 10
34.96677
 20
18.193125
 30
0.0
  0
VERTEX
  5
DEFB
  8
ALPHA
 10
34.967358
 20
18.559535
 30
0.0
  0
SEQEND
  5
DEFC
  8
ALPHA
  0
LINE
  5
DD3D
  8
ALPHA
 10
35.234808
 20
17.626568
 30
0.0
 11
35.607569
 21
18.550703
 31
0.0
  0
LINE
  5
DD3E
  8
ALPHA
 10
35.67335
 20
18.358175
 30
0.0
 11
35.366371
 21
17.626568
 31
0.0
  0
LINE
  5
DD3F
  8
ALPHA
 10
35.980329
 20
17.626568
 30
0.0
 11
35.67335
 21
18.358175
 31
0.0
  0
LINE
  5
DD40
  8
ALPHA
 10
35.739131
 20
18.550703
 30
0.0
 11
36.111892
 21
17.626568
 31
0.0
  0
LINE
  5
DD41
  8
ALPHA
 10
32.822827
 20
18.781737
 30
0.0
 11
32.844755
 21
18.897254
 31
0.0
  0
LINE
  5
DD42
  8
ALPHA
 10
33.151734
 20
18.242658
 30
0.0
 11
33.151734
 21
18.820242
 31
0.0
  0
LINE
  5
DD43
  8
ALPHA
 10
33.283296
 20
18.820242
 30
0.0
 11
33.283296
 21
18.242658
 31
0.0
  0
LINE
  5
DD44
  8
ALPHA
 10
33.677984
 20
18.39668
 30
0.0
 11
33.677984
 21
18.627714
 31
0.0
  0
LINE
  5
DD45
  8
ALPHA
 10
32.976317
 20
18.858748
 30
0.0
 11
32.95439
 21
18.743231
 31
0.0
  0
LINE
  5
DD46
  8
ALPHA
 10
32.95439
 20
18.743231
 30
0.0
 11
32.888609
 21
18.589208
 31
0.0
  0
LINE
  5
DD47
  8
ALPHA
 10
32.778973
 20
18.704725
 30
0.0
 11
32.822827
 21
18.781737
 31
0.0
  0
LINE
  5
DD48
  8
ALPHA
 10
32.888609
 20
18.589208
 30
0.0
 11
32.8009
 21
18.473691
 31
0.0
  0
LINE
  5
DD49
  8
ALPHA
 10
32.713192
 20
18.66622
 30
0.0
 11
32.778973
 21
18.704725
 31
0.0
  0
LINE
  5
DD4A
  8
ALPHA
 10
33.699911
 20
17.626568
 30
0.0
 11
33.502567
 21
17.626568
 31
0.0
  0
LINE
  5
DD4B
  8
ALPHA
 10
33.502567
 20
17.626568
 30
0.0
 11
33.392932
 21
17.665073
 31
0.0
  0
LINE
  5
DD4C
  8
ALPHA
 10
33.414859
 20
17.896107
 30
0.0
 11
33.502567
 21
17.857602
 31
0.0
  0
LINE
  5
DD4D
  8
ALPHA
 10
33.392932
 20
17.665073
 30
0.0
 11
33.305224
 21
17.742085
 31
0.0
  0
LINE
  5
DD4E
  8
ALPHA
 10
33.349078
 20
17.973119
 30
0.0
 11
33.414859
 21
17.896107
 31
0.0
  0
LINE
  5
DD4F
  8
ALPHA
 10
33.305224
 20
17.742085
 30
0.0
 11
33.217515
 21
17.896107
 31
0.0
  0
LINE
  5
DD50
  8
ALPHA
 10
33.305224
 20
18.088635
 30
0.0
 11
33.349078
 21
17.973119
 31
0.0
  0
LINE
  5
DD51
  8
ALPHA
 10
33.217515
 20
17.896107
 30
0.0
 11
33.173661
 21
18.05013
 31
0.0
  0
LINE
  5
DD52
  8
ALPHA
 10
33.283296
 20
18.242658
 30
0.0
 11
33.305224
 21
18.088635
 31
0.0
  0
LINE
  5
DD53
  8
ALPHA
 10
33.173661
 20
18.05013
 30
0.0
 11
33.151734
 21
18.242658
 31
0.0
  0
POLYLINE
  5
DD54
  8
ALPHA
 66
     1
 10
0.0
 20
0.0
 30
0.0
  0
VERTEX
  5
DEFD
  8
ALPHA
 10
34.367906
 20
17.482502
 30
0.0
  0
VERTEX
  5
DEFE
  8
ALPHA
 10
34.365014
 20
17.832223
 30
0.0
  0
VERTEX
  5
DEFF
  8
ALPHA
 10
34.363259
 20
18.193125
 30
0.0
  0
SEQEND
  5
DF00
  8
ALPHA
  0
LINE
  5
DD55
  8
ALPHA
 10
33.875328
 20
18.088635
 30
0.0
 11
33.875328
 21
18.39668
 31
0.0
  0
LINE
  5
DD56
  8
ALPHA
 10
34.006891
 20
18.627714
 30
0.0
 11
34.006891
 21
18.05013
 31
0.0
  0
LINE
  5
DD57
  8
ALPHA
 10
34.006891
 20
18.05013
 30
0.0
 11
33.984964
 21
17.896107
 31
0.0
  0
LINE
  5
DD58
  8
ALPHA
 10
33.853401
 20
17.973119
 30
0.0
 11
33.875328
 21
18.088635
 31
0.0
  0
LINE
  5
DD59
  8
ALPHA
 10
33.984964
 20
17.896107
 30
0.0
 11
33.897255
 21
17.742085
 31
0.0
  0
LINE
  5
DD5A
  8
ALPHA
 10
33.78762
 20
17.896107
 30
0.0
 11
33.853401
 21
17.973119
 31
0.0
  0
LINE
  5
DD5B
  8
ALPHA
 10
33.897255
 20
17.742085
 30
0.0
 11
33.809547
 21
17.665073
 31
0.0
  0
LINE
  5
DD5C
  8
ALPHA
 10
32.8009
 20
18.473691
 30
0.0
 11
32.691265
 21
18.435186
 31
0.0
  0
LINE
  5
DD5D
  8
ALPHA
 10
33.502567
 20
17.857602
 30
0.0
 11
33.699911
 21
17.857602
 31
0.0
  0
LINE
  5
DD5E
  8
ALPHA
 10
33.875328
 20
18.39668
 30
0.0
 11
33.677984
 21
18.39668
 31
0.0
  0
LINE
  5
DD5F
  8
ALPHA
 10
33.677984
 20
18.627714
 30
0.0
 11
34.006891
 21
18.627714
 31
0.0
  0
LINE
  5
DD60
  8
ALPHA
 10
33.699911
 20
17.857602
 30
0.0
 11
33.78762
 21
17.896107
 31
0.0
  0
LINE
  5
DD61
  8
ALPHA
 10
33.809547
 20
17.665073
 30
0.0
 11
33.699911
 21
17.626568
 31
0.0
  0
POLYLINE
  5
DD62
  8
ALPHA
 66
     1
 10
0.0
 20
0.0
 30
0.0
  0
VERTEX
  5
DF01
  8
ALPHA
 10
31.727418
 20
17.482502
 30
0.0
  0
VERTEX
  5
DF02
  8
ALPHA
 10
31.698819
 20
17.832223
 30
0.0
  0
VERTEX
  5
DF03
  8
ALPHA
 10
31.681468
 20
18.193125
 30
0.0
  0
VERTEX
  5
DF04
  8
ALPHA
 10
31.675655
 20
18.559535
 30
0.0
  0
SEQEND
  5
DF05
  8
ALPHA
  0
LINE
  5
DD63
  8
ALPHA
 10
32.296577
 20
18.435186
 30
0.0
 11
32.296577
 21
17.626568
 31
0.0
  0
LINE
  5
DD64
  8
ALPHA
 10
32.296577
 20
17.626568
 30
0.0
 11
32.165015
 21
17.626568
 31
0.0
  0
LINE
  5
DD65
  8
ALPHA
 10
34.367906
 20
17.482502
 30
0.0
 11
31.727418
 21
17.482502
 31
0.0
  0
LINE
  5
DD66
  8
ALPHA
 10
32.691265
 20
18.435186
 30
0.0
 11
32.296577
 21
18.435186
 31
0.0
  0
LINE
  5
DD67
  8
ALPHA
 10
32.296577
 20
18.66622
 30
0.0
 11
32.713192
 21
18.66622
 31
0.0
  0
LINE
  5
DD68
  8
ALPHA
 10
29.685055
 20
12.926568
 30
0.0
 11
29.685055
 21
14.676568
 31
0.0
  0
LINE
  5
DD69
  8
ALPHA
 10
29.685055
 20
14.676568
 30
0.0
 11
29.725379
 21
14.876568
 31
0.0
  0
LINE
  5
DD6A
  8
ALPHA
 10
34.967358
 20
18.559535
 30
0.0
 11
34.362671
 21
18.559535
 31
0.0
  0
LINE
  5
DD6B
  8
ALPHA
 10
41.401231
 20
14.876568
 30
0.0
 11
41.436919
 21
14.811047
 31
0.0
  0
LINE
  5
DD6C
  8
ALPHA
 10
41.511344
 20
12.926568
 30
0.0
 11
41.511344
 21
14.676568
 31
0.0
  0
LINE
  5
DD6D
  8
ALPHA
 10
39.644974
 20
12.926568
 30
0.0
 11
39.644974
 21
14.676568
 31
0.0
  0
LINE
  5
DD6E
  8
ALPHA
 10
41.436919
 20
14.811047
 30
0.0
 11
41.511344
 21
14.676568
 31
0.0
  0
LINE
  5
DD6F
  8
ALPHA
 10
39.644974
 20
14.676568
 30
0.0
 11
39.60465
 21
14.876568
 31
0.0
  0
LINE
  5
DD70
  8
ALPHA
 10
37.164392
 20
17.626568
 30
0.0
 11
37.03283
 21
17.626568
 31
0.0
  0
LINE
  5
DD71
  8
ALPHA
 10
37.03283
 20
17.626568
 30
0.0
 11
36.72585
 21
18.358175
 31
0.0
  0
LINE
  5
DD72
  8
ALPHA
 10
36.791632
 20
18.550703
 30
0.0
 11
37.164392
 21
17.626568
 31
0.0
  0
POLYLINE
  5
DD73
  8
ALPHA
 66
     1
 10
0.0
 20
0.0
 30
0.0
  0
VERTEX
  5
DF06
  8
ALPHA
 10
37.602611
 20
17.482502
 30
0.0
  0
VERTEX
  5
DF07
  8
ALPHA
 10
37.631211
 20
17.832223
 30
0.0
  0
VERTEX
  5
DF08
  8
ALPHA
 10
37.648561
 20
18.193125
 30
0.0
  0
VERTEX
  5
DF09
  8
ALPHA
 10
37.654375
 20
18.559535
 30
0.0
  0
SEQEND
  5
DF0A
  8
ALPHA
  0
LINE
  5
DD74
  8
ALPHA
 10
45.437831
 20
16.052797
 30
0.0
 11
45.996566
 21
17.435715
 31
0.0
  0
ARC
  5
DD75
  8
ALPHA
 10
43.215015
 20
18.559535
 30
0.0
 40
3.0
 50
338.0
 51
0.0
  0
ARC
  5
DD76
  8
ALPHA
 10
46.365015
 20
15.67819
 30
0.0
 40
1.0
 50
158.0
 51
180.0
  0
LINE
  5
DD77
  8
ALPHA
 10
45.308089
 20
12.926568
 30
0.0
 11
45.308089
 21
14.676568
 31
0.0
  0
LINE
  5
DD78
  8
ALPHA
 10
45.515015
 20
12.426568
 30
0.0
 11
45.515015
 21
11.626568
 31
0.0
  0
ARC
  5
DD79
  8
ALPHA
 10
45.015015
 20
12.426568
 30
0.0
 40
0.5
 50
0.0
 51
90.0
  0
LINE
  5
DD7A
  8
ALPHA
 10
45.365015
 20
12.926568
 30
0.0
 11
45.365015
 21
15.67819
 31
0.0
  0
LINE
  5
DD7B
  8
ALPHA
 10
45.312213
 20
14.876568
 30
0.0
 11
45.308089
 21
14.676568
 31
0.0
  0
LINE
  5
DD7C
  8
ALPHA
 10
46.265015
 20
23.926568
 30
0.0
 11
44.265015
 21
23.926568
 31
0.0
  0
LINE
  5
DD7D
  8
ALPHA
 10
44.565015
 20
24.226568
 30
0.0
 11
45.965015
 21
24.226568
 31
0.0
  0
ARC
  5
DD7E
  8
ALPHA
 10
44.865015
 20
20.026568
 30
0.0
 40
0.4
 50
194.562306
 51
270.0
  0
LINE
  5
DD7F
  8
ALPHA
 10
37.654375
 20
19.326568
 30
0.0
 11
46.215015
 21
19.326568
 31
0.0
  0
LINE
  5
DD80
  8
ALPHA
 10
37.602611
 20
19.609411
 30
0.0
 11
34.962123
 21
19.609411
 31
0.0
  0
LINE
  5
DD81
  8
ALPHA
 10
30.615015
 20
23.526568
 30
0.0
 11
38.715015
 21
23.526568
 31
0.0
  0
POLYLINE
  5
DD82
  8
ALPHA
 66
     1
 10
0.0
 20
0.0
 30
0.0
  0
VERTEX
  5
DF0B
  8
ALPHA
 10
34.966984
 20
19.418123
 30
0.0
  0
VERTEX
  5
DF0C
  8
ALPHA
 10
34.965913
 20
19.500024
 30
0.0
  0
VERTEX
  5
DF0D
  8
ALPHA
 10
34.964241
 20
19.565892
 30
0.0
  0
VERTEX
  5
DF0E
  8
ALPHA
 10
34.962123
 20
19.609411
 30
0.0
  0
SEQEND
  5
DF0F
  8
ALPHA
  0
LINE
  5
DD83
  8
ALPHA
 10
35.234808
 20
19.436332
 30
0.0
 11
35.366371
 21
19.436332
 31
0.0
  0
LINE
  5
DD84
  8
ALPHA
 10
35.980329
 20
19.436332
 30
0.0
 11
36.111892
 21
19.436332
 31
0.0
  0
LINE
  5
DD85
  8
ALPHA
 10
36.287309
 20
19.436332
 30
0.0
 11
36.418871
 21
19.436332
 31
0.0
  0
LINE
  5
DD86
  8
ALPHA
 10
30.615015
 20
23.926568
 30
0.0
 11
30.615015
 21
22.926568
 31
0.0
  0
LINE
  5
DD87
  8
ALPHA
 10
29.665015
 20
23.926568
 30
0.0
 11
29.665015
 21
22.926568
 31
0.0
  0
LINE
  5
DD88
  8
ALPHA
 10
33.173661
 20
19.01277
 30
0.0
 11
33.217515
 21
19.166793
 31
0.0
  0
LINE
  5
DD89
  8
ALPHA
 10
33.349078
 20
19.089782
 30
0.0
 11
33.305224
 21
18.974265
 31
0.0
  0
LINE
  5
DD8A
  8
ALPHA
 10
33.217515
 20
19.166793
 30
0.0
 11
33.305224
 21
19.320815
 31
0.0
  0
LINE
  5
DD8B
  8
ALPHA
 10
33.414859
 20
19.166793
 30
0.0
 11
33.349078
 21
19.089782
 31
0.0
  0
LINE
  5
DD8C
  8
ALPHA
 10
33.305224
 20
19.320815
 30
0.0
 11
33.392932
 21
19.397826
 31
0.0
  0
LINE
  5
DD8D
  8
ALPHA
 10
33.502567
 20
19.205298
 30
0.0
 11
33.414859
 21
19.166793
 31
0.0
  0
LINE
  5
DD8E
  8
ALPHA
 10
33.392932
 20
19.397826
 30
0.0
 11
33.502567
 21
19.436332
 31
0.0
  0
LINE
  5
DD8F
  8
ALPHA
 10
32.8009
 20
19.397826
 30
0.0
 11
32.888609
 21
19.28231
 31
0.0
  0
LINE
  5
DD90
  8
ALPHA
 10
32.822827
 20
19.128287
 30
0.0
 11
32.778973
 21
19.205298
 31
0.0
  0
LINE
  5
DD91
  8
ALPHA
 10
32.888609
 20
19.28231
 30
0.0
 11
32.95439
 21
19.128287
 31
0.0
  0
LINE
  5
DD92
  8
ALPHA
 10
32.844755
 20
19.01277
 30
0.0
 11
32.822827
 21
19.128287
 31
0.0
  0
LINE
  5
DD93
  8
ALPHA
 10
32.95439
 20
19.128287
 30
0.0
 11
32.976317
 21
19.01277
 31
0.0
  0
POLYLINE
  5
DD94
  8
ALPHA
 66
     1
 10
0.0
 20
0.0
 30
0.0
  0
VERTEX
  5
DF10
  8
ALPHA
 10
34.362671
 20
19.326568
 30
0.0
  0
VERTEX
  5
DF11
  8
ALPHA
 10
34.363045
 20
19.418123
 30
0.0
  0
VERTEX
  5
DF12
  8
ALPHA
 10
34.364117
 20
19.500024
 30
0.0
  0
VERTEX
  5
DF13
  8
ALPHA
 10
34.365789
 20
19.565892
 30
0.0
  0
VERTEX
  5
DF14
  8
ALPHA
 10
34.367906
 20
19.609411
 30
0.0
  0
SEQEND
  5
DF15
  8
ALPHA
  0
LINE
  5
DD95
  8
ALPHA
 10
32.778973
 20
19.205298
 30
0.0
 11
32.713192
 21
19.243804
 31
0.0
  0
LINE
  5
DD96
  8
ALPHA
 10
33.809547
 20
19.397826
 30
0.0
 11
33.897255
 21
19.320815
 31
0.0
  0
LINE
  5
DD97
  8
ALPHA
 10
33.853401
 20
19.089782
 30
0.0
 11
33.78762
 21
19.166793
 31
0.0
  0
LINE
  5
DD98
  8
ALPHA
 10
33.897255
 20
19.320815
 30
0.0
 11
33.984964
 21
19.166793
 31
0.0
  0
LINE
  5
DD99
  8
ALPHA
 10
33.875328
 20
18.974265
 30
0.0
 11
33.853401
 21
19.089782
 31
0.0
  0
LINE
  5
DD9A
  8
ALPHA
 10
33.984964
 20
19.166793
 30
0.0
 11
34.006891
 21
18.974265
 31
0.0
  0
LINE
  5
DD9B
  8
ALPHA
 10
34.006891
 20
18.974265
 30
0.0
 11
33.875328
 21
18.974265
 31
0.0
  0
LINE
  5
DD9C
  8
ALPHA
 10
33.699911
 20
19.205298
 30
0.0
 11
33.502567
 21
19.205298
 31
0.0
  0
LINE
  5
DD9D
  8
ALPHA
 10
33.502567
 20
19.436332
 30
0.0
 11
33.699911
 21
19.436332
 31
0.0
  0
LINE
  5
DD9E
  8
ALPHA
 10
32.691265
 20
19.436332
 30
0.0
 11
32.8009
 21
19.397826
 31
0.0
  0
LINE
  5
DD9F
  8
ALPHA
 10
33.699911
 20
19.436332
 30
0.0
 11
33.809547
 21
19.397826
 31
0.0
  0
LINE
  5
DDA0
  8
ALPHA
 10
33.78762
 20
19.166793
 30
0.0
 11
33.699911
 21
19.205298
 31
0.0
  0
POLYLINE
  5
DDA1
  8
ALPHA
 66
     1
 10
0.0
 20
0.0
 30
0.0
  0
VERTEX
  5
DF16
  8
ALPHA
 10
31.675655
 20
19.326568
 30
0.0
  0
VERTEX
  5
DF17
  8
ALPHA
 10
31.679303
 20
19.417447
 30
0.0
  0
VERTEX
  5
DF18
  8
ALPHA
 10
31.689904
 20
19.499779
 30
0.0
  0
VERTEX
  5
DF19
  8
ALPHA
 10
31.706461
 20
19.565835
 30
0.0
  0
VERTEX
  5
DF1A
  8
ALPHA
 10
31.727418
 20
19.609411
 30
0.0
  0
SEQEND
  5
DF1B
  8
ALPHA
  0
LINE
  5
DDA2
  8
ALPHA
 10
32.713192
 20
19.243804
 30
0.0
 11
32.296577
 21
19.243804
 31
0.0
  0
LINE
  5
DDA3
  8
ALPHA
 10
32.165015
 20
19.436332
 30
0.0
 11
32.691265
 21
19.436332
 31
0.0
  0
LINE
  5
DDA4
  8
ALPHA
 10
34.367906
 20
19.609411
 30
0.0
 11
31.727418
 21
19.609411
 31
0.0
  0
LINE
  5
DDA5
  8
ALPHA
 10
34.967358
 20
19.326568
 30
0.0
 11
34.362671
 21
19.326568
 31
0.0
  0
LINE
  5
DDA6
  8
ALPHA
 10
44.565015
 20
25.426568
 30
0.0
 11
44.265015
 21
25.126568
 31
0.0
  0
LINE
  5
DDA7
  8
ALPHA
 10
44.565015
 20
24.226568
 30
0.0
 11
44.265015
 21
23.926568
 31
0.0
  0
LINE
  5
DDA8
  8
ALPHA
 10
44.265015
 20
25.126568
 30
0.0
 11
42.915015
 21
25.126568
 31
0.0
  0
LINE
  5
DDA9
  8
ALPHA
 10
42.915015
 20
25.426568
 30
0.0
 11
42.915015
 21
25.126568
 31
0.0
  0
LINE
  5
DDAA
  8
ALPHA
 10
44.265015
 20
25.126568
 30
0.0
 11
44.265015
 21
23.926568
 31
0.0
  0
LINE
  5
DDAB
  8
ALPHA
 10
44.565015
 20
25.426568
 30
0.0
 11
44.565015
 21
24.226568
 31
0.0
  0
LINE
  5
DDAC
  8
ALPHA
 10
38.715015
 20
22.926568
 30
0.0
 11
38.715015
 21
25.426568
 31
0.0
  0
LINE
  5
DDAD
  8
ALPHA
 10
39.665015
 20
22.926568
 30
0.0
 11
39.665015
 21
25.426568
 31
0.0
  0
LINE
  5
DDAE
  8
ALPHA
 10
37.03283
 20
19.436332
 30
0.0
 11
37.164392
 21
19.436332
 31
0.0
  0
POLYLINE
  5
DDAF
  8
ALPHA
 66
     1
 10
0.0
 20
0.0
 30
0.0
  0
VERTEX
  5
DF1C
  8
ALPHA
 10
37.654375
 20
19.326568
 30
0.0
  0
VERTEX
  5
DF1D
  8
ALPHA
 10
37.650726
 20
19.417447
 30
0.0
  0
VERTEX
  5
DF1E
  8
ALPHA
 10
37.640125
 20
19.499779
 30
0.0
  0
VERTEX
  5
DF1F
  8
ALPHA
 10
37.623568
 20
19.565835
 30
0.0
  0
VERTEX
  5
DF20
  8
ALPHA
 10
37.602611
 20
19.609411
 30
0.0
  0
SEQEND
  5
DF21
  8
ALPHA
  0
LINE
  5
DDB0
  8
ALPHA
 10
47.115015
 20
25.326568
 30
0.0
 11
46.915015
 21
25.126568
 31
0.0
  0
LINE
  5
DDB1
  8
ALPHA
 10
46.915015
 20
22.926568
 30
0.0
 11
46.915015
 21
25.126568
 31
0.0
  0
LINE
  5
DDB2
  8
ALPHA
 10
47.115015
 20
25.426568
 30
0.0
 11
47.115015
 21
22.926568
 31
0.0
  0
LINE
  5
DDB3
  8
ALPHA
 10
46.529421
 20
23.961722
 30
0.0
 11
46.265015
 21
23.926568
 31
0.0
  0
LINE
  5
DDB4
  8
ALPHA
 10
46.765015
 20
21.426568
 30
0.0
 11
45.965015
 21
20.755288
 31
0.0
  0
LINE
  5
DDB5
  8
ALPHA
 10
45.965015
 20
22.097848
 30
0.0
 11
46.765015
 21
21.426568
 31
0.0
  0
LINE
  5
DDB6
  8
ALPHA
 10
45.965015
 20
22.926568
 30
0.0
 11
45.965015
 21
22.097848
 31
0.0
  0
LINE
  5
DDB7
  8
ALPHA
 10
45.965015
 20
24.226568
 30
0.0
 11
45.965015
 21
25.426568
 31
0.0
  0
LINE
  5
DDB8
  8
ALPHA
 10
46.265015
 20
25.126568
 30
0.0
 11
46.265015
 21
23.926568
 31
0.0
  0
LINE
  5
DDB9
  8
ALPHA
 10
46.529421
 20
23.961722
 30
0.0
 11
46.529421
 21
22.926568
 31
0.0
  0
LINE
  5
DDBA
  8
ALPHA
 10
45.965015
 20
24.226568
 30
0.0
 11
46.265015
 21
23.926568
 31
0.0
  0
LINE
  5
DDBB
  8
ALPHA
 10
45.965015
 20
25.426568
 30
0.0
 11
46.265015
 21
25.126568
 31
0.0
  0
LINE
  5
DDBC
  8
ALPHA
 10
46.915015
 20
25.126568
 30
0.0
 11
46.265015
 21
25.126568
 31
0.0
  0
POLYLINE
  5
DDBD
  8
ALPHA
 66
     1
 10
0.0
 20
0.0
 30
0.0
  0
VERTEX
  5
DF22
  8
ALPHA
 10
46.915015
 20
24.242738
 30
0.0
  0
VERTEX
  5
DF23
  8
ALPHA
 10
46.894671
 20
24.161233
 30
0.0
  0
VERTEX
  5
DF24
  8
ALPHA
 10
46.837067
 20
24.087957
 30
0.0
  0
VERTEX
  5
DF25
  8
ALPHA
 10
46.750691
 20
24.02879
 30
0.0
  0
VERTEX
  5
DF26
  8
ALPHA
 10
46.645359
 20
23.986521
 30
0.0
  0
VERTEX
  5
DF27
  8
ALPHA
 10
46.529421
 20
23.961722
 30
0.0
  0
SEQEND
  5
DF28
  8
ALPHA
  0
ARC
  5
DDBE
  8
ALPHA
 10
45.915015
 20
19.326568
 30
0.0
 40
0.3
 50
0.0
 51
90.0
  0
LINE
  5
DDBF
  8
ALPHA
 10
45.965015
 20
20.755288
 30
0.0
 11
45.965015
 21
19.926568
 31
0.0
  0
VIEWPORT
  5
494D
 67
     1
  8
0
 10
4.995325
 20
6.556512
 30
0.0
 40
22.70986
 41
13.988421
 68
    -1
 69
     1
1001
ACAD
1000
MVIEW
1002
{
1070
    16
1010
0.0
1020
0.0
1030
0.0
1010
0.0
1020
0.0
1030
1.0
1040
0.0
1040
13.988421
1040
4.995325
1040
6.556512
1040
50.0
1040
0.0
1040
0.0
1070
     0
1070
   100
1070
     1
1070
     1
1070
     0
1070
     0
1070
     0
1070
     0
1040
0.0
1040
0.0
1040
0.0
1040
10.0
1040
10.0
1040
10.0
1040
10.0
1070
     0
1002
{
1002
}
1002
}
  0
ENDSEC
  0
EOF
