  0
SECTION
  2
HEADER
  9
$ACADVER
  1
AC1009
  9
$INSBASE
 10
-146.27124
 20
-153.796096
 30
0.0
  9
$EXTMIN
 10
905.28872
 20
-116.945253
 30
0.0
  9
$EXTMAX
 10
996.877288
 20
-49.510527
 30
0.0
  9
$LIMMIN
 10
-407.970438
 20
-367.832444
  9
$LIMMAX
 10
429.804077
 20
234.370848
  9
$ORTHOMODE
 70
     0
  9
$REGENMODE
 70
     1
  9
$FILLMODE
 70
     1
  9
$QTEXTMODE
 70
     0
  9
$MIRRTEXT
 70
     1
  9
$DRAGMODE
 70
     2
  9
$LTSCALE
 40
10.0
  9
$OSMODE
 70
    37
  9
$ATTMODE
 70
     1
  9
$TEXTSIZE
 40
6.0
  9
$TRACEWID
 40
1.0
  9
$TEXTSTYLE
  7
ROMANS
  9
$CLAYER
  8
COTATION1
  9
$CELTYPE
  6
BYLAYER
  9
$CECOLOR
 62
   256
  9
$DIMSCALE
 40
1.0
  9
$DIMASZ
 40
2.0
  9
$DIMEXO
 40
0.5
  9
$DIMDLI
 40
0.38
  9
$DIMRND
 40
0.0
  9
$DIMDLE
 40
0.0
  9
$DIMEXE
 40
0.18
  9
$DIMTP
 40
0.0
  9
$DIMTM
 40
0.0
  9
$DIMTXT
 40
2.0
  9
$DIMCEN
 40
0.09
  9
$DIMTSZ
 40
0.0
  9
$DIMTOL
 70
     0
  9
$DIMLIM
 70
     0
  9
$DIMTIH
 70
     0
  9
$DIMTOH
 70
     1
  9
$DIMSE1
 70
     0
  9
$DIMSE2
 70
     0
  9
$DIMTAD
 70
     1
  9
$DIMZIN
 70
    12
  9
$DIMBLK
  1
OPEN30
  9
$DIMASO
 70
     1
  9
$DIMSHO
 70
     1
  9
$DIMPOST
  1

  9
$DIMAPOST
  1

  9
$DIMALT
 70
     0
  9
$DIMALTD
 70
     2
  9
$DIMALTF
 40
25.4
  9
$DIMLFAC
 40
1.0
  9
$DIMTOFL
 70
     0
  9
$DIMTVP
 40
0.0
  9
$DIMTIX
 70
     0
  9
$DIMSOXD
 70
     0
  9
$DIMSAH
 70
     0
  9
$DIMBLK1
  1

  9
$DIMBLK2
  1

  9
$DIMSTYLE
  2
ROMANS
  9
$DIMCLRD
 70
     0
  9
$DIMCLRE
 70
     0
  9
$DIMCLRT
 70
     0
  9
$DIMTFAC
 40
1.0
  9
$DIMGAP
 40
0.5
  9
$LUNITS
 70
     2
  9
$LUPREC
 70
     1
  9
$SKETCHINC
 40
0.1
  9
$FILLETRAD
 40
0.0
  9
$AUNITS
 70
     0
  9
$AUPREC
 70
     0
  9
$MENU
  1
acad
  9
$ELEVATION
 40
0.0
  9
$PELEVATION
 40
0.0
  9
$THICKNESS
 40
0.0
  9
$LIMCHECK
 70
     0
  9
$BLIPMODE
 70
     0
  9
$CHAMFERA
 40
0.0
  9
$CHAMFERB
 40
0.0
  9
$SKPOLY
 70
     0
  9
$TDCREATE
 40
2450365.355314
  9
$TDUPDATE
 40
2452608.41341
  9
$TDINDWG
 40
0.558443
  9
$TDUSRTIMER
 40
0.558443
  9
$USRTIMER
 70
     1
  9
$ANGBASE
 50
0.0
  9
$ANGDIR
 70
     0
  9
$PDMODE
 70
    32
  9
$PDSIZE
 40
0.0
  9
$PLINEWID
 40
0.0
  9
$COORDS
 70
     2
  9
$SPLFRAME
 70
     0
  9
$SPLINETYPE
 70
     6
  9
$SPLINESEGS
 70
     8
  9
$ATTDIA
 70
     0
  9
$ATTREQ
 70
     1
  9
$HANDLING
 70
     1
  9
$HANDSEED
  5
3FE8
  9
$SURFTAB1
 70
     6
  9
$SURFTAB2
 70
     6
  9
$SURFTYPE
 70
     6
  9
$SURFU
 70
     6
  9
$SURFV
 70
     6
  9
$UCSNAME
  2

  9
$UCSORG
 10
0.0
 20
0.0
 30
0.0
  9
$UCSXDIR
 10
1.0
 20
0.0
 30
0.0
  9
$UCSYDIR
 10
0.0
 20
1.0
 30
0.0
  9
$PUCSNAME
  2

  9
$PUCSORG
 10
0.0
 20
0.0
 30
0.0
  9
$PUCSXDIR
 10
1.0
 20
0.0
 30
0.0
  9
$PUCSYDIR
 10
0.0
 20
1.0
 30
0.0
  9
$USERI1
 70
     0
  9
$USERI2
 70
     0
  9
$USERI3
 70
     0
  9
$USERI4
 70
     0
  9
$USERI5
 70
     0
  9
$USERR1
 40
0.0
  9
$USERR2
 40
0.0
  9
$USERR3
 40
0.0
  9
$USERR4
 40
0.0
  9
$USERR5
 40
0.0
  9
$WORLDVIEW
 70
     1
  9
$SHADEDGE
 70
     3
  9
$SHADEDIF
 70
    70
  9
$TILEMODE
 70
     1
  9
$MAXACTVP
 70
    16
  9
$PLIMCHECK
 70
     0
  9
$PEXTMIN
 10
1.000000E+020
 20
1.000000E+020
 30
1.000000E+020
  9
$PEXTMAX
 10
-1.000000E+020
 20
-1.000000E+020
 30
-1.000000E+020
  9
$PLIMMIN
 10
0.0
 20
0.0
  9
$PLIMMAX
 10
12.0
 20
9.0
  9
$UNITMODE
 70
     0
  9
$VISRETAIN
 70
     0
  9
$PLINEGEN
 70
     0
  9
$PSLTSCALE
 70
     0
  0
ENDSEC
  0
SECTION
  2
TABLES
  0
TABLE
  2
VPORT
 70
     2
  0
VPORT
  2
*ACTIVE
 70
     0
 10
0.0
 20
0.0
 11
1.0
 21
1.0
 12
951.100127
 22
-83.22486
 13
0.0
 23
0.0
 14
1.0
 24
1.0
 15
10.0
 25
10.0
 16
0.0
 26
0.0
 36
1.0
 17
0.0
 27
0.0
 37
0.0
 40
68.056849
 41
1.63142
 42
50.0
 43
0.0
 44
0.0
 50
0.0
 51
0.0
 71
     0
 72
   100
 73
     1
 74
     0
 75
     0
 76
     0
 77
     0
 78
     0
  0
ENDTAB
  0
TABLE
  2
LTYPE
 70
    26
  0
LTYPE
  2
CONTINUOUS
 70
     0
  3
Solid line
 72
    65
 73
     0
 40
0.0
  0
LTYPE
  2
AXES2
 70
     0
  3
___ _ ___ _ ___ _ ___ _ ___ _ ___ _ ___ _ ___ _
 72
    65
 73
     4
 40
1.125
 49
0.75
 49
-0.125
 49
0.125
 49
-0.125
  0
LTYPE
  2
ACAD_ISO04W100
 70
     0
  3
ISO Lang gestrichelt punktiert ____ . ____ . __
 72
    65
 73
     4
 40
30.5
 49
24.0
 49
-3.0
 49
0.5
 49
-3.0
  0
LTYPE
  2
AXES
 70
     0
  3
____ _ ____ _ ____ _ ____ _ ____ _ ____ _ ____ 
 72
    65
 73
     4
 40
2.0
 49
1.25
 49
-0.25
 49
0.25
 49
-0.25
  0
LTYPE
  2
AXESX2
 70
     0
  3
________  __  ________  __  ________  __  _____
 72
    65
 73
     4
 40
4.0
 49
2.5
 49
-0.5
 49
0.5
 49
-0.5
  0
LTYPE
  2
TIRETPT
 70
     0
  3
__ . __ . __ . __ . __ . __ . __ . __ . __ . __
 72
    65
 73
     4
 40
1.0
 49
0.5
 49
-0.25
 49
0.0
 49
-0.25
  0
LTYPE
  2
TIRETPT2
 70
     0
  3
_._._._._._._._._._._._._._._._._._._._._._._._
 72
    65
 73
     4
 40
0.5
 49
0.25
 49
-0.125
 49
0.0
 49
-0.125
  0
LTYPE
  2
TIRETPTX2
 70
     0
  3
____  .  ____  .  ____  .  ____  .  ____  .  __
 72
    65
 73
     4
 40
2.0
 49
1.0
 49
-0.5
 49
0.0
 49
-0.5
  0
LTYPE
  2
DISCONTINU
 70
     0
  3
__ __ __ __ __ __ __ __ __ __ __ __ __ __ __ __
 72
    65
 73
     2
 40
0.75
 49
0.5
 49
-0.25
  0
LTYPE
  2
DISCONTINU2
 70
     0
  3
_ _ _ _ _ _ _ _ _ _ _ _ _ _ _ _ _ _ _ _ _ _ _ _
 72
    65
 73
     2
 40
0.375
 49
0.25
 49
-0.125
  0
LTYPE
  2
DISCONTINUX2
 70
     0
  3
____  ____  ____  ____  ____  ____  ____  ____ 
 72
    65
 73
     2
 40
1.5
 49
1.0
 49
-0.5
  0
LTYPE
  2
DIVISE
 70
     0
  3
____ . . ____ . . ____ . . ____ . . ____ . . __
 72
    65
 73
     6
 40
1.25
 49
0.5
 49
-0.25
 49
0.0
 49
-0.25
 49
0.0
 49
-0.25
  0
LTYPE
  2
DIVISE2
 70
     0
  3
__..__..__..__..__..__..__..__..__..__..__..__.
 72
    65
 73
     6
 40
0.625
 49
0.25
 49
-0.125
 49
0.0
 49
-0.125
 49
0.0
 49
-0.125
  0
LTYPE
  2
DIVISEX2
 70
     0
  3
________  .  .  ________  .  .  ________  .  . 
 72
    65
 73
     6
 40
2.5
 49
1.0
 49
-0.5
 49
0.0
 49
-0.5
 49
0.0
 49
-0.5
  0
LTYPE
  2
POINTILLE
 70
     0
  3
. . . . . . . . . . . . . . . . . . . . . . . .
 72
    65
 73
     2
 40
0.25
 49
0.0
 49
-0.25
  0
LTYPE
  2
POINTILLE2
 70
     0
  3
...............................................
 72
    65
 73
     2
 40
0.125
 49
0.0
 49
-0.125
  0
LTYPE
  2
POINTILLEX2
 70
     0
  3
.  .  .  .  .  .  .  .  .  .  .  .  .  .  .  . 
 72
    65
 73
     2
 40
0.5
 49
0.0
 49
-0.5
  0
LTYPE
  2
CACHE
 70
     0
  3
__ __ __ __ __ __ __ __ __ __ __ __ __ __ __ __
 72
    65
 73
     2
 40
0.375
 49
0.25
 49
-0.125
  0
LTYPE
  2
CACHE2
 70
     0
  3
_ _ _ _ _ _ _ _ _ _ _ _ _ _ _ _ _ _ _ _ _ _ _ _
 72
    65
 73
     2
 40
0.1875
 49
0.125
 49
-0.0625
  0
LTYPE
  2
CACHEX2
 70
     0
  3
____ ____ ____ ____ ____ ____ ____ ____ ____ __
 72
    65
 73
     2
 40
0.75
 49
0.5
 49
-0.25
  0
LTYPE
  2
FANTOME
 70
     0
  3
______  __  __  ______  __  __  ______  __  __ 
 72
    65
 73
     6
 40
2.5
 49
1.25
 49
-0.25
 49
0.25
 49
-0.25
 49
0.25
 49
-0.25
  0
LTYPE
  2
FANTOME2
 70
     0
  3
___ _ _ ___ _ _ ___ _ _ ___ _ _ ___ _ _ ___ _ _
 72
    65
 73
     6
 40
1.25
 49
0.625
 49
-0.125
 49
0.125
 49
-0.125
 49
0.125
 49
-0.125
  0
LTYPE
  2
FANTOMEX2
 70
     0
  3
____________    ____    ____    ____________   
 72
    65
 73
     6
 40
5.0
 49
2.5
 49
-0.5
 49
0.5
 49
-0.5
 49
0.5
 49
-0.5
  0
LTYPE
  2
0
 70
     0
  3
MEDUSA PEN 0
 72
    65
 73
     0
 40
0.0
  0
LTYPE
  2
AI9-LTYPE1
 70
     0
  3
Illustrator Dash Style No.1
 72
    65
 73
     4
 40
5.64621
 49
4.106333
 49
-0.307975
 49
0.923926
 49
-0.307975
  0
LTYPE
  2
AI9-LTYPE2
 70
     0
  3
Illustrator Dash Style No.2
 72
    65
 73
     2
 40
1.33456
 49
1.026585
 49
-0.307975
  0
ENDTAB
  0
TABLE
  2
LAYER
 70
    17
  0
LAYER
  2
0
 70
     0
 62
     7
  6
CONTINUOUS
  0
LAYER
  2
TEXTE_MOYEN
 70
     0
 62
   131
  6
CONTINUOUS
  0
LAYER
  2
ALPHA
 70
     0
 62
   254
  6
CONTINUOUS
  0
LAYER
  2
COTATION1
 70
     0
 62
    50
  6
CONTINUOUS
  0
LAYER
  2
AXE
 70
     0
 62
    80
  6
AXES2
  0
LAYER
  2
DEFPOINTS
 70
     0
 62
     7
  6
CONTINUOUS
  0
LAYER
  2
HACHURES1
 70
     0
 62
   130
  6
CONTINUOUS
  0
LAYER
  2
FMULT
 70
     0
 62
   210
  6
CONTINUOUS
  0
LAYER
  2
FDP_CARTOUCHE
 70
     0
 62
   136
  6
CONTINUOUS
  0
LAYER
  2
FDP_TEXTES
 70
     0
 62
   171
  6
CONTINUOUS
  0
LAYER
  2
FDP_LOGO_MG
 70
     0
 62
    30
  6
CONTINUOUS
  0
LAYER
  2
FDP_LOGO_SCH
 70
     0
 62
    90
  6
CONTINUOUS
  0
LAYER
  2
FDP_FDP
 70
     0
 62
   170
  6
CONTINUOUS
  0
LAYER
  2
POINTILLE_COURT2
 70
     0
 62
    41
  6
CACHE2
  0
LAYER
  2
POINTILLE_MOYEN2
 70
     0
 62
   141
  6
CACHE
  0
LAYER
  2
POINTILLE_LONG2
 70
     0
 62
   241
  6
CACHEX2
  0
LAYER
  2
ALPHA_FIN
 70
     0
 62
   255
  6
CONTINUOUS
  0
ENDTAB
  0
TABLE
  2
STYLE
 70
     5
  0
STYLE
  2
ROMANS
 70
     0
 40
0.0
 41
1.0
 50
0.0
 71
     0
 42
6.0
  3
romans
  4

  0
STYLE
  2
STANDARD
 70
     0
 40
0.2
 41
1.0
 50
0.0
 71
     0
 42
0.2
  3
txt
  4

  0
STYLE
  2
STD
 70
     0
 40
0.0
 41
1.0
 50
0.0
 71
     0
 42
0.0
  3
txt
  4

  0
STYLE
  2
INFOCAR
 70
     0
 40
0.0
 41
1.34
 50
0.0
 71
     0
 42
2.0
  3
ROMANS.SHX
  4

  0
STYLE
  2
CARTOUCHE
 70
     0
 40
0.0
 41
1.0
 50
0.0
 71
     0
 42
0.2
  3
ROMANS.SHX
  4

  0
ENDTAB
  0
TABLE
  2
VIEW
 70
     0
  0
ENDTAB
  0
TABLE
  2
UCS
 70
     0
  0
ENDTAB
  0
TABLE
  2
APPID
 70
     3
  0
APPID
  2
ACAD
 70
     0
  0
APPID
  2
AVE_RENDER
 70
     0
  0
APPID
  2
AVE_MATERIAL
 70
     0
  0
ENDTAB
  0
TABLE
  2
DIMSTYLE
 70
     1
  0
DIMSTYLE
  2
ROMANS
 70
     0
  3

  4

  5
OPEN30
  6

  7

 40
1.0
 41
2.0
 42
0.5
 43
0.38
 44
0.18
 45
0.0
 46
0.0
 47
0.0
 48
0.0
140
2.0
141
0.09
142
0.0
143
25.4
144
1.0
145
0.0
146
1.0
147
0.5
 71
     0
 72
     0
 73
     0
 74
     1
 75
     0
 76
     0
 77
     1
 78
    12
170
     0
171
     2
172
     0
173
     0
174
     0
175
     0
176
     0
177
     0
178
     0
  0
ENDTAB
  0
ENDSEC
  0
SECTION
  2
BLOCKS
  0
BLOCK
  8
0
  2
$MODEL_SPACE
 70
     0
 10
0.0
 20
0.0
 30
0.0
  3
$MODEL_SPACE
  1

  0
ENDBLK
  5
3EE2
  8
0
  0
BLOCK
 67
     1
  8
0
  2
$PAPER_SPACE
 70
     0
 10
0.0
 20
0.0
 30
0.0
  3
$PAPER_SPACE
  1

  0
ENDBLK
  5
3EE0
 67
     1
  8
0
  0
BLOCK
  8
0
  2
COTE
 70
     0
 10
0.0
 20
0.0
 30
0.0
  3
COTE
  1

  0
ENDBLK
  5
35
  8
0
  0
BLOCK
  8
0
  2
FOND
 70
     0
 10
0.0
 20
0.0
 30
0.0
  3
FOND
  1

  0
ENDBLK
  5
39
  8
0
  0
BLOCK
  8
0
  2
SCH_ISO
 70
     0
 10
0.0
 20
0.0
 30
0.0
  3
SCH_ISO
  1

  0
ENDBLK
  5
24AD
  8
0
  0
BLOCK
  8
0
  2
_OPEN30
 70
     0
 10
0.0
 20
0.0
 30
0.0
  3
_OPEN30
  1

  0
LINE
  5
27E1
  8
COTATION1
 62
     0
 10
-1.0
 20
0.267949
 30
0.0
 11
0.0
 21
0.0
 31
0.0
1001
ACAD
1000
RTLwPs
1070
   158
  0
LINE
  5
27E2
  8
COTATION1
 62
     0
 10
0.0
 20
0.0
 30
0.0
 11
-1.0
 21
-0.267949
 31
0.0
1001
ACAD
1000
RTLwPs
1070
   158
  0
LINE
  5
27E3
  8
COTATION1
 62
     0
 10
0.0
 20
0.0
 30
0.0
 11
-1.0
 21
0.0
 31
0.0
1001
ACAD
1000
RTLwPs
1070
   158
  0
ENDBLK
  5
27E5
  8
0
  0
BLOCK
  8
0
  2
*D4
 70
     1
 10
0.0
 20
0.0
 30
0.0
  3
*D4
  1

  0
LINE
  5
3D10
  8
COTATION1
 62
     0
 10
928.877294
 20
-64.95427
 30
0.0
 11
928.877294
 21
-51.830527
 31
0.0
1001
ACAD
1000
RTLwPs
1070
   158
  0
LINE
  5
3D11
  8
COTATION1
 62
     0
 10
981.877288
 20
-64.95427
 30
0.0
 11
981.877288
 21
-51.830527
 31
0.0
1001
ACAD
1000
RTLwPs
1070
   158
  0
LINE
  5
3D12
  8
COTATION1
 62
     0
 10
930.877294
 20
-52.010527
 30
0.0
 11
979.877288
 21
-52.010527
 31
0.0
1001
ACAD
1000
RTLwPs
1070
   158
  0
INSERT
  5
3D13
  8
COTATION1
 62
     0
  2
_OPEN30
 10
928.877294
 20
-52.010527
 30
0.0
 41
2.0
 42
2.0
 43
2.0
 50
180.0
1001
ACAD
1000
RTLwPs
1070
   158
  0
INSERT
  5
3D14
  8
COTATION1
 62
     0
  2
_OPEN30
 10
981.877288
 20
-52.010527
 30
0.0
 41
2.0
 42
2.0
 43
2.0
1001
ACAD
1000
RTLwPs
1070
   158
  0
TEXT
  5
3D15
  8
COTATION1
 62
     0
 10
953.472529
 20
-51.510527
 30
0.0
 40
2.0
  1
53
1001
ACAD
1000
MTEXTBEGIN
1070
    73
1070
     1
1070
    44
1040
1.0
1070
    74
1070
     0
1000
MTEXTEND
  0
POINT
  5
3D16
  8
DEFPOINTS
 62
     0
 10
928.877294
 20
-65.45427
 30
0.0
  0
POINT
  5
3D17
  8
DEFPOINTS
 62
     0
 10
981.877288
 20
-65.45427
 30
0.0
  0
POINT
  5
3D18
  8
DEFPOINTS
 62
     0
 10
981.877288
 20
-52.010527
 30
0.0
  0
ENDBLK
  5
3A17
  8
0
  0
BLOCK
  8
0
  2
*D5
 70
     1
 10
0.0
 20
0.0
 30
0.0
  3
*D5
  1

  0
LINE
  5
3CFE
  8
COTATION1
 62
     0
 10
928.377294
 20
-65.45427
 30
0.0
 11
907.60872
 21
-65.45427
 31
0.0
1001
ACAD
1000
RTLwPs
1070
   158
  0
LINE
  5
3CFF
  8
COTATION1
 62
     0
 10
945.400538
 20
-101.454272
 30
0.0
 11
907.60872
 21
-101.454272
 31
0.0
1001
ACAD
1000
RTLwPs
1070
   158
  0
LINE
  5
3D00
  8
COTATION1
 62
     0
 10
907.78872
 20
-67.45427
 30
0.0
 11
907.78872
 21
-99.454272
 31
0.0
1001
ACAD
1000
RTLwPs
1070
   158
  0
INSERT
  5
3D01
  8
COTATION1
 62
     0
  2
_OPEN30
 10
907.78872
 20
-65.45427
 30
0.0
 41
2.0
 42
2.0
 43
2.0
 50
90.0
1001
ACAD
1000
RTLwPs
1070
   158
  0
INSERT
  5
3D02
  8
COTATION1
 62
     0
  2
_OPEN30
 10
907.78872
 20
-101.454272
 30
0.0
 41
2.0
 42
2.0
 43
2.0
 50
270.0
1001
ACAD
1000
RTLwPs
1070
   158
  0
TEXT
  5
3D03
  8
COTATION1
 62
     0
 10
907.28872
 20
-85.359033
 30
0.0
 40
2.0
  1
36
 50
90.0
1001
ACAD
1000
MTEXTBEGIN
1070
    73
1070
     1
1070
    44
1040
1.0
1070
    74
1070
     0
1000
MTEXTEND
  0
POINT
  5
3D04
  8
DEFPOINTS
 62
     0
 10
928.877294
 20
-65.45427
 30
0.0
  0
POINT
  5
3D05
  8
DEFPOINTS
 62
     0
 10
945.900538
 20
-101.454272
 30
0.0
  0
POINT
  5
3D06
  8
DEFPOINTS
 62
     0
 10
907.78872
 20
-101.454272
 30
0.0
  0
ENDBLK
  5
3A25
  8
0
  0
BLOCK
  8
0
  2
*D6
 70
     1
 10
0.0
 20
0.0
 30
0.0
  3
*D6
  1

  0
LINE
  5
3D07
  8
COTATION1
 62
     0
 10
954.939846
 20
-88.454308
 30
0.0
 11
918.028372
 21
-88.454308
 31
0.0
1001
ACAD
1000
RTLwPs
1070
   158
  0
LINE
  5
3D08
  8
COTATION1
 62
     0
 10
928.377294
 20
-65.45427
 30
0.0
 11
918.028372
 21
-65.45427
 31
0.0
1001
ACAD
1000
RTLwPs
1070
   158
  0
LINE
  5
3D09
  8
COTATION1
 62
     0
 10
918.208372
 20
-86.454308
 30
0.0
 11
918.208372
 21
-67.45427
 31
0.0
1001
ACAD
1000
RTLwPs
1070
   158
  0
INSERT
  5
3D0A
  8
COTATION1
 62
     0
  2
_OPEN30
 10
918.208372
 20
-88.454308
 30
0.0
 41
2.0
 42
2.0
 43
2.0
 50
270.0
1001
ACAD
1000
RTLwPs
1070
   158
  0
INSERT
  5
3D0B
  8
COTATION1
 62
     0
  2
_OPEN30
 10
918.208372
 20
-65.45427
 30
0.0
 41
2.0
 42
2.0
 43
2.0
 50
90.0
1001
ACAD
1000
RTLwPs
1070
   158
  0
TEXT
  5
3D0C
  8
COTATION1
 62
     0
 10
917.708372
 20
-78.859051
 30
0.0
 40
2.0
  1
23
 50
90.0
1001
ACAD
1000
MTEXTBEGIN
1070
    73
1070
     1
1070
    44
1040
1.0
1070
    74
1070
     0
1000
MTEXTEND
  0
POINT
  5
3D0D
  8
DEFPOINTS
 62
     0
 10
955.439846
 20
-88.454308
 30
0.0
  0
POINT
  5
3D0E
  8
DEFPOINTS
 62
     0
 10
928.877294
 20
-65.45427
 30
0.0
  0
POINT
  5
3D0F
  8
DEFPOINTS
 62
     0
 10
918.208372
 20
-65.45427
 30
0.0
  0
ENDBLK
  5
3ACF
  8
0
  0
ENDSEC
  0
SECTION
  2
ENTITIES
  0
INSERT
  5
32
  8
0
  2
COTE
 10
0.0
 20
0.0
 30
0.0
  0
INSERT
  5
36
  8
0
  2
FOND
 10
0.0
 20
0.0
 30
0.0
  0
INSERT
  5
24AE
  8
ALPHA
  2
SCH_ISO
 10
-66.27012
 20
-238.940658
 30
0.0
  0
TEXT
  5
32BC
  8
AXE
 10
947.762026
 20
-116.945253
 30
0.0
 40
8.0
  1
Y
 72
     2
 11
954.238216
 21
-116.945253
 31
0.0
  0
POLYLINE
  5
3971
  8
ALPHA
 66
     1
 10
0.0
 20
0.0
 30
0.0
 70
   128
  0
VERTEX
  5
3EE8
  8
ALPHA
 10
981.877288
 20
-65.45427
 30
0.0
  0
VERTEX
  5
3EE9
  8
ALPHA
 10
981.877288
 20
-65.665256
 30
0.0
  0
VERTEX
  5
3EEA
  8
ALPHA
 10
981.877288
 20
-66.231836
 30
0.0
  0
VERTEX
  5
3EEB
  8
ALPHA
 10
981.877288
 20
-67.054444
 30
0.0
  0
VERTEX
  5
3EEC
  8
ALPHA
 10
981.877288
 20
-68.033514
 30
0.0
  0
VERTEX
  5
3EED
  8
ALPHA
 10
981.877288
 20
-70.062771
 30
0.0
  0
VERTEX
  5
3EEE
  8
ALPHA
 10
981.877288
 20
-70.913827
 30
0.0
  0
VERTEX
  5
3EEF
  8
ALPHA
 10
981.877288
 20
-71.523078
 30
0.0
  0
VERTEX
  5
3EF0
  8
ALPHA
 10
981.877288
 20
-71.790959
 30
0.0
  0
VERTEX
  5
3EF1
  8
ALPHA
 10
981.876424
 20
-71.875566
 30
0.0
  0
VERTEX
  5
3EF2
  8
ALPHA
 10
981.867792
 20
-72.061123
 30
0.0
  0
VERTEX
  5
3EF3
  8
ALPHA
 10
981.823769
 20
-72.427316
 30
0.0
  0
VERTEX
  5
3EF4
  8
ALPHA
 10
981.637145
 20
-73.138799
 30
0.0
  0
VERTEX
  5
3EF5
  8
ALPHA
 10
981.33517
 20
-73.820089
 30
0.0
  0
VERTEX
  5
3EF6
  8
ALPHA
 10
980.462396
 20
-75.080941
 30
0.0
  0
VERTEX
  5
3EF7
  8
ALPHA
 10
979.359905
 20
-76.187572
 30
0.0
  0
VERTEX
  5
3EF8
  8
ALPHA
 10
976.943548
 20
-77.96641
 30
0.0
  0
VERTEX
  5
3EF9
  8
ALPHA
 10
975.615052
 20
-78.840009
 30
0.0
  0
VERTEX
  5
3EFA
  8
ALPHA
 10
974.434897
 20
-79.598707
 30
0.0
  0
VERTEX
  5
3EFB
  8
ALPHA
 10
973.976123
 20
-79.890161
 30
0.0
  0
VERTEX
  5
3EFC
  8
ALPHA
 10
973.645246
 20
-80.099122
 30
0.0
  0
VERTEX
  5
3EFD
  8
ALPHA
 10
973.472534
 20
-80.207667
 30
0.0
  0
VERTEX
  5
3EFE
  8
ALPHA
 10
973.457617
 20
-80.217013
 30
0.0
  0
VERTEX
  5
3EFF
  8
ALPHA
 10
973.454723
 20
-80.218824
 30
0.0
  0
VERTEX
  5
3F00
  8
ALPHA
 10
973.360334
 20
-80.288678
 30
0.0
  0
VERTEX
  5
3F01
  8
ALPHA
 10
972.730033
 20
-80.763431
 30
0.0
  0
VERTEX
  5
3F02
  8
ALPHA
 10
971.613698
 20
-81.663302
 30
0.0
  0
VERTEX
  5
3F03
  8
ALPHA
 10
970.679396
 20
-82.536018
 30
0.0
  0
VERTEX
  5
3F04
  8
ALPHA
 10
969.914741
 20
-83.428411
 30
0.0
  0
VERTEX
  5
3F05
  8
ALPHA
 10
969.30735
 20
-84.387314
 30
0.0
  0
VERTEX
  5
3F06
  8
ALPHA
 10
968.844836
 20
-85.459557
 30
0.0
  0
VERTEX
  5
3F07
  8
ALPHA
 10
968.514815
 20
-86.691973
 30
0.0
  0
VERTEX
  5
3F08
  8
ALPHA
 10
968.304902
 20
-88.131393
 30
0.0
  0
VERTEX
  5
3F09
  8
ALPHA
 10
968.202712
 20
-89.82465
 30
0.0
  0
VERTEX
  5
3F0A
  8
ALPHA
 10
968.187917
 20
-91.755962
 30
0.0
  0
VERTEX
  5
3F0B
  8
ALPHA
 10
968.187917
 20
-93.45757
 30
0.0
  0
VERTEX
  5
3F0C
  8
ALPHA
 10
968.187917
 20
-94.847808
 30
0.0
  0
VERTEX
  5
3F0D
  8
ALPHA
 10
968.187917
 20
-95.95561
 30
0.0
  0
VERTEX
  5
3F0E
  8
ALPHA
 10
968.187917
 20
-96.809907
 30
0.0
  0
VERTEX
  5
3F0F
  8
ALPHA
 10
968.187917
 20
-97.439633
 30
0.0
  0
VERTEX
  5
3F10
  8
ALPHA
 10
968.187917
 20
-97.87372
 30
0.0
  0
VERTEX
  5
3F11
  8
ALPHA
 10
968.187917
 20
-98.1411
 30
0.0
  0
VERTEX
  5
3F12
  8
ALPHA
 10
968.187917
 20
-98.270706
 30
0.0
  0
VERTEX
  5
3F13
  8
ALPHA
 10
968.187917
 20
-98.292885
 30
0.0
  0
VERTEX
  5
3F14
  8
ALPHA
 10
968.18786
 20
-98.321632
 30
0.0
  0
VERTEX
  5
3F15
  8
ALPHA
 10
968.184328
 20
-98.504774
 30
0.0
  0
VERTEX
  5
3F16
  8
ALPHA
 10
968.116014
 20
-99.175733
 30
0.0
  0
VERTEX
  5
3F17
  8
ALPHA
 10
967.963073
 20
-99.751217
 30
0.0
  0
VERTEX
  5
3F18
  8
ALPHA
 10
967.728264
 20
-100.235362
 30
0.0
  0
VERTEX
  5
3F19
  8
ALPHA
 10
967.414346
 20
-100.632302
 30
0.0
  0
VERTEX
  5
3F1A
  8
ALPHA
 10
967.024079
 20
-100.946171
 30
0.0
  0
VERTEX
  5
3F1B
  8
ALPHA
 10
966.560223
 20
-101.181103
 30
0.0
  0
VERTEX
  5
3F1C
  8
ALPHA
 10
965.42278
 20
-101.430699
 30
0.0
  0
VERTEX
  5
3F1D
  8
ALPHA
 10
964.75149
 20
-101.454272
 30
0.0
  0
VERTEX
  5
3F1E
  8
ALPHA
 10
963.841988
 20
-101.454272
 30
0.0
  0
VERTEX
  5
3F1F
  8
ALPHA
 10
962.668002
 20
-101.454272
 30
0.0
  0
VERTEX
  5
3F20
  8
ALPHA
 10
961.328726
 20
-101.454272
 30
0.0
  0
VERTEX
  5
3F21
  8
ALPHA
 10
958.551066
 20
-101.454272
 30
0.0
  0
VERTEX
  5
3F22
  8
ALPHA
 10
957.311067
 20
-101.454272
 30
0.0
  0
VERTEX
  5
3F23
  8
ALPHA
 10
956.302544
 20
-101.454272
 30
0.0
  0
VERTEX
  5
3F24
  8
ALPHA
 10
955.624689
 20
-101.454272
 30
0.0
  0
VERTEX
  5
3F25
  8
ALPHA
 10
955.44076
 20
-101.454272
 30
0.0
  0
VERTEX
  5
3F26
  8
ALPHA
 10
955.376695
 20
-101.454272
 30
0.0
  0
SEQEND
  5
3F27
  8
ALPHA
  0
POLYLINE
  5
3972
  8
ALPHA
 66
     1
 10
0.0
 20
0.0
 30
0.0
 70
   128
  0
VERTEX
  5
3F28
  8
ALPHA
 10
942.565474
 20
-98.294957
 30
0.0
  0
VERTEX
  5
3F29
  8
ALPHA
 10
942.565474
 20
-98.230175
 30
0.0
  0
VERTEX
  5
3F2A
  8
ALPHA
 10
942.565474
 20
-98.007037
 30
0.0
  0
VERTEX
  5
3F2B
  8
ALPHA
 10
942.565474
 20
-97.582356
 30
0.0
  0
VERTEX
  5
3F2C
  8
ALPHA
 10
942.565474
 20
-96.912943
 30
0.0
  0
VERTEX
  5
3F2D
  8
ALPHA
 10
942.565474
 20
-95.95561
 30
0.0
  0
VERTEX
  5
3F2E
  8
ALPHA
 10
942.565474
 20
-94.66717
 30
0.0
  0
VERTEX
  5
3F2F
  8
ALPHA
 10
942.565474
 20
-93.004434
 30
0.0
  0
VERTEX
  5
3F30
  8
ALPHA
 10
942.565474
 20
-92.019209
 30
0.0
  0
VERTEX
  5
3F31
  8
ALPHA
 10
942.565474
 20
-90.924215
 30
0.0
  0
VERTEX
  5
3F32
  8
ALPHA
 10
942.550705
 20
-89.82465
 30
0.0
  0
VERTEX
  5
3F33
  8
ALPHA
 10
942.504855
 20
-88.823262
 30
0.0
  0
VERTEX
  5
3F34
  8
ALPHA
 10
942.310637
 20
-87.080065
 30
0.0
  0
VERTEX
  5
3F35
  8
ALPHA
 10
941.964277
 20
-85.624717
 30
0.0
  0
VERTEX
  5
3F36
  8
ALPHA
 10
941.447232
 20
-84.387314
 30
0.0
  0
VERTEX
  5
3F37
  8
ALPHA
 10
940.740959
 20
-83.297947
 30
0.0
  0
VERTEX
  5
3F38
  8
ALPHA
 10
939.826914
 20
-82.286711
 30
0.0
  0
VERTEX
  5
3F39
  8
ALPHA
 10
938.686555
 20
-81.283699
 30
0.0
  0
VERTEX
  5
3F3A
  8
ALPHA
 10
937.301339
 20
-80.219005
 30
0.0
  0
SEQEND
  5
3F3B
  8
ALPHA
  0
POLYLINE
  5
3973
  8
POINTILLE_COURT2
  6
AI9-LTYPE2
 66
     1
 10
0.0
 20
0.0
 30
0.0
 70
   128
  0
VERTEX
  5
3F3C
  8
POINTILLE_COURT2
  6
AI9-LTYPE2
 10
947.538878
 20
-98.444606
 30
0.0
  0
VERTEX
  5
3F3D
  8
POINTILLE_COURT2
  6
AI9-LTYPE2
 10
947.712955
 20
-98.444606
 30
0.0
  0
VERTEX
  5
3F3E
  8
POINTILLE_COURT2
  6
AI9-LTYPE2
 10
948.204914
 20
-98.444606
 30
0.0
  0
VERTEX
  5
3F3F
  8
POINTILLE_COURT2
  6
AI9-LTYPE2
 10
948.969342
 20
-98.444606
 30
0.0
  0
VERTEX
  5
3F40
  8
POINTILLE_COURT2
  6
AI9-LTYPE2
 10
949.960828
 20
-98.444606
 30
0.0
  0
VERTEX
  5
3F41
  8
POINTILLE_COURT2
  6
AI9-LTYPE2
 10
951.13396
 20
-98.444606
 30
0.0
  0
VERTEX
  5
3F42
  8
POINTILLE_COURT2
  6
AI9-LTYPE2
 10
952.443327
 20
-98.444606
 30
0.0
  0
VERTEX
  5
3F43
  8
POINTILLE_COURT2
  6
AI9-LTYPE2
 10
955.289118
 20
-98.444606
 30
0.0
  0
VERTEX
  5
3F44
  8
POINTILLE_COURT2
  6
AI9-LTYPE2
 10
958.13491
 20
-98.444606
 30
0.0
  0
VERTEX
  5
3F45
  8
POINTILLE_COURT2
  6
AI9-LTYPE2
 10
959.444277
 20
-98.444606
 30
0.0
  0
VERTEX
  5
3F46
  8
POINTILLE_COURT2
  6
AI9-LTYPE2
 10
960.617409
 20
-98.444606
 30
0.0
  0
VERTEX
  5
3F47
  8
POINTILLE_COURT2
  6
AI9-LTYPE2
 10
961.608895
 20
-98.444606
 30
0.0
  0
VERTEX
  5
3F48
  8
POINTILLE_COURT2
  6
AI9-LTYPE2
 10
962.373323
 20
-98.444606
 30
0.0
  0
VERTEX
  5
3F49
  8
POINTILLE_COURT2
  6
AI9-LTYPE2
 10
962.865282
 20
-98.444606
 30
0.0
  0
VERTEX
  5
3F4A
  8
POINTILLE_COURT2
  6
AI9-LTYPE2
 10
963.039359
 20
-98.444606
 30
0.0
  0
VERTEX
  5
3F4B
  8
POINTILLE_COURT2
  6
AI9-LTYPE2
 10
963.813922
 20
-98.288098
 30
0.0
  0
VERTEX
  5
3F4C
  8
POINTILLE_COURT2
  6
AI9-LTYPE2
 10
964.446842
 20
-97.861431
 30
0.0
  0
VERTEX
  5
3F4D
  8
POINTILLE_COURT2
  6
AI9-LTYPE2
 10
964.873779
 20
-97.228893
 30
0.0
  0
VERTEX
  5
3F4E
  8
POINTILLE_COURT2
  6
AI9-LTYPE2
 10
965.030389
 20
-96.454768
 30
0.0
  0
SEQEND
  5
3F4F
  8
POINTILLE_COURT2
  6
AI9-LTYPE2
  0
POLYLINE
  5
3974
  8
POINTILLE_COURT2
  6
AI9-LTYPE2
 66
     1
 10
0.0
 20
0.0
 30
0.0
 70
   128
  0
VERTEX
  5
3F50
  8
POINTILLE_COURT2
  6
AI9-LTYPE2
 10
945.549039
 20
-80.954286
 30
0.0
  0
VERTEX
  5
3F51
  8
POINTILLE_COURT2
  6
AI9-LTYPE2
 10
945.549039
 20
-81.128364
 30
0.0
  0
VERTEX
  5
3F52
  8
POINTILLE_COURT2
  6
AI9-LTYPE2
 10
945.549039
 20
-81.620322
 30
0.0
  0
VERTEX
  5
3F53
  8
POINTILLE_COURT2
  6
AI9-LTYPE2
 10
945.549039
 20
-82.38475
 30
0.0
  0
VERTEX
  5
3F54
  8
POINTILLE_COURT2
  6
AI9-LTYPE2
 10
945.549039
 20
-83.376236
 30
0.0
  0
VERTEX
  5
3F55
  8
POINTILLE_COURT2
  6
AI9-LTYPE2
 10
945.549039
 20
-84.549368
 30
0.0
  0
VERTEX
  5
3F56
  8
POINTILLE_COURT2
  6
AI9-LTYPE2
 10
945.549039
 20
-85.858735
 30
0.0
  0
VERTEX
  5
3F57
  8
POINTILLE_COURT2
  6
AI9-LTYPE2
 10
945.549039
 20
-88.704527
 30
0.0
  0
VERTEX
  5
3F58
  8
POINTILLE_COURT2
  6
AI9-LTYPE2
 10
945.549039
 20
-91.550318
 30
0.0
  0
VERTEX
  5
3F59
  8
POINTILLE_COURT2
  6
AI9-LTYPE2
 10
945.549039
 20
-92.859685
 30
0.0
  0
VERTEX
  5
3F5A
  8
POINTILLE_COURT2
  6
AI9-LTYPE2
 10
945.549039
 20
-94.032817
 30
0.0
  0
VERTEX
  5
3F5B
  8
POINTILLE_COURT2
  6
AI9-LTYPE2
 10
945.549039
 20
-95.024303
 30
0.0
  0
VERTEX
  5
3F5C
  8
POINTILLE_COURT2
  6
AI9-LTYPE2
 10
945.549039
 20
-95.788731
 30
0.0
  0
VERTEX
  5
3F5D
  8
POINTILLE_COURT2
  6
AI9-LTYPE2
 10
945.549039
 20
-96.28069
 30
0.0
  0
VERTEX
  5
3F5E
  8
POINTILLE_COURT2
  6
AI9-LTYPE2
 10
945.549039
 20
-96.454768
 30
0.0
  0
VERTEX
  5
3F5F
  8
POINTILLE_COURT2
  6
AI9-LTYPE2
 10
945.705296
 20
-97.228893
 30
0.0
  0
VERTEX
  5
3F60
  8
POINTILLE_COURT2
  6
AI9-LTYPE2
 10
946.131544
 20
-97.861431
 30
0.0
  0
VERTEX
  5
3F61
  8
POINTILLE_COURT2
  6
AI9-LTYPE2
 10
946.763999
 20
-98.288098
 30
0.0
  0
VERTEX
  5
3F62
  8
POINTILLE_COURT2
  6
AI9-LTYPE2
 10
947.538878
 20
-98.444606
 30
0.0
  0
SEQEND
  5
3F63
  8
POINTILLE_COURT2
  6
AI9-LTYPE2
  0
POLYLINE
  5
3979
  8
ALPHA
 66
     1
 10
0.0
 20
0.0
 30
0.0
 70
   128
  0
VERTEX
  5
3F64
  8
ALPHA
 10
955.376695
 20
-101.454272
 30
0.0
  0
VERTEX
  5
3F65
  8
ALPHA
 10
955.293404
 20
-101.454272
 30
0.0
  0
VERTEX
  5
3F66
  8
ALPHA
 10
955.055871
 20
-101.454272
 30
0.0
  0
VERTEX
  5
3F67
  8
ALPHA
 10
954.682607
 20
-101.454272
 30
0.0
  0
VERTEX
  5
3F68
  8
ALPHA
 10
954.19212
 20
-101.454272
 30
0.0
  0
VERTEX
  5
3F69
  8
ALPHA
 10
952.933519
 20
-101.454272
 30
0.0
  0
VERTEX
  5
3F6A
  8
ALPHA
 10
951.428147
 20
-101.454272
 30
0.0
  0
VERTEX
  5
3F6B
  8
ALPHA
 10
948.26941
 20
-101.454272
 30
0.0
  0
VERTEX
  5
3F6C
  8
ALPHA
 10
946.912201
 20
-101.454272
 30
0.0
  0
VERTEX
  5
3F6D
  8
ALPHA
 10
946.353921
 20
-101.454272
 30
0.0
  0
VERTEX
  5
3F6E
  8
ALPHA
 10
945.900538
 20
-101.454272
 30
0.0
  0
VERTEX
  5
3F6F
  8
ALPHA
 10
945.152408
 20
-101.412108
 30
0.0
  0
VERTEX
  5
3F70
  8
ALPHA
 10
944.490709
 20
-101.281501
 30
0.0
  0
VERTEX
  5
3F71
  8
ALPHA
 10
943.919548
 20
-101.056281
 30
0.0
  0
VERTEX
  5
3F72
  8
ALPHA
 10
943.443028
 20
-100.730274
 30
0.0
  0
VERTEX
  5
3F73
  8
ALPHA
 10
943.065256
 20
-100.29731
 30
0.0
  0
VERTEX
  5
3F74
  8
ALPHA
 10
942.790336
 20
-99.751217
 30
0.0
  0
VERTEX
  5
3F75
  8
ALPHA
 10
942.622373
 20
-99.085823
 30
0.0
  0
VERTEX
  5
3F76
  8
ALPHA
 10
942.565474
 20
-98.294957
 30
0.0
  0
SEQEND
  5
3F77
  8
ALPHA
  0
POLYLINE
  5
3980
  8
ALPHA
 66
     1
 10
0.0
 20
0.0
 30
0.0
 70
   128
  0
VERTEX
  5
3F78
  8
ALPHA
 10
928.877294
 20
-65.45427
 30
0.0
  0
VERTEX
  5
3F79
  8
ALPHA
 10
928.953814
 20
-65.45427
 30
0.0
  0
VERTEX
  5
3F7A
  8
ALPHA
 10
929.176861
 20
-65.45427
 30
0.0
  0
VERTEX
  5
3F7B
  8
ALPHA
 10
929.536668
 20
-65.45427
 30
0.0
  0
VERTEX
  5
3F7C
  8
ALPHA
 10
930.023466
 20
-65.45427
 30
0.0
  0
VERTEX
  5
3F7D
  8
ALPHA
 10
930.627486
 20
-65.45427
 30
0.0
  0
VERTEX
  5
3F7E
  8
ALPHA
 10
931.338959
 20
-65.45427
 30
0.0
  0
VERTEX
  5
3F7F
  8
ALPHA
 10
933.045193
 20
-65.45427
 30
0.0
  0
VERTEX
  5
3F80
  8
ALPHA
 10
935.064019
 20
-65.45427
 30
0.0
  0
VERTEX
  5
3F81
  8
ALPHA
 10
937.31729
 20
-65.45427
 30
0.0
  0
VERTEX
  5
3F82
  8
ALPHA
 10
942.214571
 20
-65.45427
 30
0.0
  0
VERTEX
  5
3F83
  8
ALPHA
 10
947.111853
 20
-65.45427
 30
0.0
  0
VERTEX
  5
3F84
  8
ALPHA
 10
949.365123
 20
-65.45427
 30
0.0
  0
VERTEX
  5
3F85
  8
ALPHA
 10
951.383949
 20
-65.45427
 30
0.0
  0
VERTEX
  5
3F86
  8
ALPHA
 10
953.090183
 20
-65.45427
 30
0.0
  0
VERTEX
  5
3F87
  8
ALPHA
 10
953.801657
 20
-65.45427
 30
0.0
  0
VERTEX
  5
3F88
  8
ALPHA
 10
954.405676
 20
-65.45427
 30
0.0
  0
VERTEX
  5
3F89
  8
ALPHA
 10
954.892474
 20
-65.45427
 30
0.0
  0
VERTEX
  5
3F8A
  8
ALPHA
 10
955.252281
 20
-65.45427
 30
0.0
  0
VERTEX
  5
3F8B
  8
ALPHA
 10
955.475329
 20
-65.45427
 30
0.0
  0
VERTEX
  5
3F8C
  8
ALPHA
 10
955.551849
 20
-65.45427
 30
0.0
  0
SEQEND
  5
3F8D
  8
ALPHA
  0
POLYLINE
  5
3981
  8
POINTILLE_COURT2
  6
AI9-LTYPE2
 66
     1
 10
0.0
 20
0.0
 30
0.0
 70
   128
  0
VERTEX
  5
3F8E
  8
POINTILLE_COURT2
  6
AI9-LTYPE2
 10
963.039359
 20
-78.964448
 30
0.0
  0
VERTEX
  5
3F8F
  8
POINTILLE_COURT2
  6
AI9-LTYPE2
 10
962.865282
 20
-78.964448
 30
0.0
  0
VERTEX
  5
3F90
  8
POINTILLE_COURT2
  6
AI9-LTYPE2
 10
962.373323
 20
-78.964448
 30
0.0
  0
VERTEX
  5
3F91
  8
POINTILLE_COURT2
  6
AI9-LTYPE2
 10
961.608895
 20
-78.964448
 30
0.0
  0
VERTEX
  5
3F92
  8
POINTILLE_COURT2
  6
AI9-LTYPE2
 10
960.617409
 20
-78.964448
 30
0.0
  0
VERTEX
  5
3F93
  8
POINTILLE_COURT2
  6
AI9-LTYPE2
 10
959.444277
 20
-78.964448
 30
0.0
  0
VERTEX
  5
3F94
  8
POINTILLE_COURT2
  6
AI9-LTYPE2
 10
958.13491
 20
-78.964448
 30
0.0
  0
VERTEX
  5
3F95
  8
POINTILLE_COURT2
  6
AI9-LTYPE2
 10
955.289118
 20
-78.964448
 30
0.0
  0
VERTEX
  5
3F96
  8
POINTILLE_COURT2
  6
AI9-LTYPE2
 10
952.443327
 20
-78.964448
 30
0.0
  0
VERTEX
  5
3F97
  8
POINTILLE_COURT2
  6
AI9-LTYPE2
 10
951.13396
 20
-78.964448
 30
0.0
  0
VERTEX
  5
3F98
  8
POINTILLE_COURT2
  6
AI9-LTYPE2
 10
949.960828
 20
-78.964448
 30
0.0
  0
VERTEX
  5
3F99
  8
POINTILLE_COURT2
  6
AI9-LTYPE2
 10
948.969342
 20
-78.964448
 30
0.0
  0
VERTEX
  5
3F9A
  8
POINTILLE_COURT2
  6
AI9-LTYPE2
 10
948.204914
 20
-78.964448
 30
0.0
  0
VERTEX
  5
3F9B
  8
POINTILLE_COURT2
  6
AI9-LTYPE2
 10
947.712955
 20
-78.964448
 30
0.0
  0
VERTEX
  5
3F9C
  8
POINTILLE_COURT2
  6
AI9-LTYPE2
 10
947.538878
 20
-78.964448
 30
0.0
  0
SEQEND
  5
3F9D
  8
POINTILLE_COURT2
  6
AI9-LTYPE2
  0
CIRCLE
  5
3984
  8
ALPHA
 10
955.439846
 20
-88.454308
 30
0.0
 40
6.136923
  0
POLYLINE
  5
3989
  8
ALPHA
 66
     1
 10
0.0
 20
0.0
 30
0.0
 70
   128
  0
VERTEX
  5
3F9E
  8
ALPHA
 10
928.877294
 20
-71.795555
 30
0.0
  0
VERTEX
  5
3F9F
  8
ALPHA
 10
928.877294
 20
-71.72434
 30
0.0
  0
VERTEX
  5
3FA0
  8
ALPHA
 10
928.877294
 20
-71.523078
 30
0.0
  0
VERTEX
  5
3FA1
  8
ALPHA
 10
928.877294
 20
-70.804729
 30
0.0
  0
VERTEX
  5
3FA2
  8
ALPHA
 10
928.877294
 20
-69.789133
 30
0.0
  0
VERTEX
  5
3FA3
  8
ALPHA
 10
928.877294
 20
-68.624913
 30
0.0
  0
VERTEX
  5
3FA4
  8
ALPHA
 10
928.877294
 20
-67.460692
 30
0.0
  0
VERTEX
  5
3FA5
  8
ALPHA
 10
928.877294
 20
-66.445096
 30
0.0
  0
VERTEX
  5
3FA6
  8
ALPHA
 10
928.877294
 20
-65.726747
 30
0.0
  0
VERTEX
  5
3FA7
  8
ALPHA
 10
928.877294
 20
-65.525486
 30
0.0
  0
VERTEX
  5
3FA8
  8
ALPHA
 10
928.877294
 20
-65.45427
 30
0.0
  0
SEQEND
  5
3FA9
  8
ALPHA
  0
POLYLINE
  5
398A
  8
ALPHA
 66
     1
 10
0.0
 20
0.0
 30
0.0
 70
   128
210
0.0
220
0.0
230
-1.0
  0
VERTEX
  5
3FAA
  8
ALPHA
 10
-937.301339
 20
-80.219005
 30
0.0
  0
VERTEX
  5
3FAB
  8
ALPHA
 10
-937.177237
 20
-80.141165
 30
0.0
  0
VERTEX
  5
3FAC
  8
ALPHA
 10
-936.835101
 20
-79.925481
 30
0.0
  0
VERTEX
  5
3FAD
  8
ALPHA
 10
-936.320185
 20
-79.598707
 30
0.0
  0
VERTEX
  5
3FAE
  8
ALPHA
 10
-935.677744
 20
-79.187595
 30
0.0
  0
VERTEX
  5
3FAF
  8
ALPHA
 10
-932.737818
 20
-77.234843
 30
0.0
  0
VERTEX
  5
3FB0
  8
ALPHA
 10
-931.394174
 20
-76.187572
 30
0.0
  0
VERTEX
  5
3FB1
  8
ALPHA
 10
-930.14939
 20
-74.909741
 30
0.0
  0
VERTEX
  5
3FB2
  8
ALPHA
 10
-929.636015
 20
-74.194769
 30
0.0
  0
VERTEX
  5
3FB3
  8
ALPHA
 10
-929.233688
 20
-73.43464
 30
0.0
  0
VERTEX
  5
3FB4
  8
ALPHA
 10
-928.971189
 20
-72.633515
 30
0.0
  0
VERTEX
  5
3FB5
  8
ALPHA
 10
-928.877294
 20
-71.795555
 30
0.0
  0
SEQEND
  5
3FB6
  8
ALPHA
  0
POLYLINE
  5
398B
  8
POINTILLE_COURT2
  6
AI9-LTYPE2
 66
     1
 10
0.0
 20
0.0
 30
0.0
 70
   128
  0
VERTEX
  5
3FB7
  8
POINTILLE_COURT2
  6
AI9-LTYPE2
 10
947.538878
 20
-78.964448
 30
0.0
  0
VERTEX
  5
3FB8
  8
POINTILLE_COURT2
  6
AI9-LTYPE2
 10
946.763999
 20
-79.120788
 30
0.0
  0
VERTEX
  5
3FB9
  8
POINTILLE_COURT2
  6
AI9-LTYPE2
 10
946.131544
 20
-79.547175
 30
0.0
  0
VERTEX
  5
3FBA
  8
POINTILLE_COURT2
  6
AI9-LTYPE2
 10
945.705296
 20
-80.179658
 30
0.0
  0
VERTEX
  5
3FBB
  8
POINTILLE_COURT2
  6
AI9-LTYPE2
 10
945.549039
 20
-80.954286
 30
0.0
  0
SEQEND
  5
3FBC
  8
POINTILLE_COURT2
  6
AI9-LTYPE2
  0
POLYLINE
  5
39AF
  8
ALPHA
 66
     1
 10
0.0
 20
0.0
 30
0.0
 70
   128
  0
VERTEX
  5
3FBD
  8
ALPHA
 10
955.201542
 20
-65.45427
 30
0.0
  0
VERTEX
  5
3FBE
  8
ALPHA
 10
955.278065
 20
-65.45427
 30
0.0
  0
VERTEX
  5
3FBF
  8
ALPHA
 10
955.501123
 20
-65.45427
 30
0.0
  0
VERTEX
  5
3FC0
  8
ALPHA
 10
955.860946
 20
-65.45427
 30
0.0
  0
VERTEX
  5
3FC1
  8
ALPHA
 10
956.347765
 20
-65.45427
 30
0.0
  0
VERTEX
  5
3FC2
  8
ALPHA
 10
956.951812
 20
-65.45427
 30
0.0
  0
VERTEX
  5
3FC3
  8
ALPHA
 10
957.663317
 20
-65.45427
 30
0.0
  0
VERTEX
  5
3FC4
  8
ALPHA
 10
959.369627
 20
-65.45427
 30
0.0
  0
VERTEX
  5
3FC5
  8
ALPHA
 10
961.388543
 20
-65.45427
 30
0.0
  0
VERTEX
  5
3FC6
  8
ALPHA
 10
963.641915
 20
-65.45427
 30
0.0
  0
VERTEX
  5
3FC7
  8
ALPHA
 10
968.539415
 20
-65.45427
 30
0.0
  0
VERTEX
  5
3FC8
  8
ALPHA
 10
973.436915
 20
-65.45427
 30
0.0
  0
VERTEX
  5
3FC9
  8
ALPHA
 10
975.690286
 20
-65.45427
 30
0.0
  0
VERTEX
  5
3FCA
  8
ALPHA
 10
977.709203
 20
-65.45427
 30
0.0
  0
VERTEX
  5
3FCB
  8
ALPHA
 10
979.415513
 20
-65.45427
 30
0.0
  0
VERTEX
  5
3FCC
  8
ALPHA
 10
980.127018
 20
-65.45427
 30
0.0
  0
VERTEX
  5
3FCD
  8
ALPHA
 10
980.731065
 20
-65.45427
 30
0.0
  0
VERTEX
  5
3FCE
  8
ALPHA
 10
981.217884
 20
-65.45427
 30
0.0
  0
VERTEX
  5
3FCF
  8
ALPHA
 10
981.577707
 20
-65.45427
 30
0.0
  0
VERTEX
  5
3FD0
  8
ALPHA
 10
981.800765
 20
-65.45427
 30
0.0
  0
VERTEX
  5
3FD1
  8
ALPHA
 10
981.877288
 20
-65.45427
 30
0.0
  0
SEQEND
  5
3FD2
  8
ALPHA
  0
POLYLINE
  5
39B2
  8
POINTILLE_COURT2
  6
AI9-LTYPE2
 66
     1
 10
0.0
 20
0.0
 30
0.0
 70
   128
  0
VERTEX
  5
3FD3
  8
POINTILLE_COURT2
  6
AI9-LTYPE2
 10
965.030389
 20
-96.454768
 30
0.0
  0
VERTEX
  5
3FD4
  8
POINTILLE_COURT2
  6
AI9-LTYPE2
 10
965.030389
 20
-96.28069
 30
0.0
  0
VERTEX
  5
3FD5
  8
POINTILLE_COURT2
  6
AI9-LTYPE2
 10
965.030389
 20
-95.788731
 30
0.0
  0
VERTEX
  5
3FD6
  8
POINTILLE_COURT2
  6
AI9-LTYPE2
 10
965.030389
 20
-95.024303
 30
0.0
  0
VERTEX
  5
3FD7
  8
POINTILLE_COURT2
  6
AI9-LTYPE2
 10
965.030389
 20
-94.032817
 30
0.0
  0
VERTEX
  5
3FD8
  8
POINTILLE_COURT2
  6
AI9-LTYPE2
 10
965.030389
 20
-92.859685
 30
0.0
  0
VERTEX
  5
3FD9
  8
POINTILLE_COURT2
  6
AI9-LTYPE2
 10
965.030389
 20
-91.550318
 30
0.0
  0
VERTEX
  5
3FDA
  8
POINTILLE_COURT2
  6
AI9-LTYPE2
 10
965.030389
 20
-88.704527
 30
0.0
  0
VERTEX
  5
3FDB
  8
POINTILLE_COURT2
  6
AI9-LTYPE2
 10
965.030389
 20
-85.858735
 30
0.0
  0
VERTEX
  5
3FDC
  8
POINTILLE_COURT2
  6
AI9-LTYPE2
 10
965.030389
 20
-84.549368
 30
0.0
  0
VERTEX
  5
3FDD
  8
POINTILLE_COURT2
  6
AI9-LTYPE2
 10
965.030389
 20
-83.376236
 30
0.0
  0
VERTEX
  5
3FDE
  8
POINTILLE_COURT2
  6
AI9-LTYPE2
 10
965.030389
 20
-82.38475
 30
0.0
  0
VERTEX
  5
3FDF
  8
POINTILLE_COURT2
  6
AI9-LTYPE2
 10
965.030389
 20
-81.620322
 30
0.0
  0
VERTEX
  5
3FE0
  8
POINTILLE_COURT2
  6
AI9-LTYPE2
 10
965.030389
 20
-81.128364
 30
0.0
  0
VERTEX
  5
3FE1
  8
POINTILLE_COURT2
  6
AI9-LTYPE2
 10
965.030389
 20
-80.954286
 30
0.0
  0
VERTEX
  5
3FE2
  8
POINTILLE_COURT2
  6
AI9-LTYPE2
 10
964.873779
 20
-80.179658
 30
0.0
  0
VERTEX
  5
3FE3
  8
POINTILLE_COURT2
  6
AI9-LTYPE2
 10
964.446842
 20
-79.547175
 30
0.0
  0
VERTEX
  5
3FE4
  8
POINTILLE_COURT2
  6
AI9-LTYPE2
 10
963.813922
 20
-79.120788
 30
0.0
  0
VERTEX
  5
3FE5
  8
POINTILLE_COURT2
  6
AI9-LTYPE2
 10
963.039359
 20
-78.964448
 30
0.0
  0
SEQEND
  5
3FE6
  8
POINTILLE_COURT2
  6
AI9-LTYPE2
  0
LINE
  5
39B3
  8
ALPHA
 10
955.551849
 20
-65.45427
 30
0.0
 11
955.201542
 21
-65.45427
 31
0.0
  0
LINE
  5
3A09
  8
AXE
 10
955.439846
 20
-57.383163
 30
0.0
 11
955.439846
 21
-116.454272
 31
0.0
  0
LINE
  5
3A0A
  8
AXE
 10
926.579431
 20
-76.173338
 30
0.0
 11
996.877288
 21
-76.173338
 31
0.0
  0
DIMENSION
  5
3A0B
  8
COTATION1
  2
*D4
 10
981.877288
 20
-52.010527
 30
0.0
 11
955.377291
 21
-52.010527
 31
0.0
 70
   128
 13
928.877294
 23
-65.45427
 33
0.0
 14
981.877288
 24
-65.45427
 34
0.0
  0
DIMENSION
  5
3A18
  8
COTATION1
  2
*D5
 10
907.78872
 20
-101.454272
 30
0.0
 11
907.78872
 21
-83.454271
 31
0.0
 70
   128
 13
928.877294
 23
-65.45427
 33
0.0
 14
945.900538
 24
-101.454272
 34
0.0
 50
90.0
  0
TEXT
  5
3A9E
  8
AXE
 10
990.129052
 20
-74.649824
 30
0.0
 40
8.0
  1
X
 72
     2
 11
996.605243
 21
-74.649824
 31
0.0
  0
DIMENSION
  5
3AC3
  8
COTATION1
  2
*D6
 10
918.208372
 20
-65.45427
 30
0.0
 11
916.708372
 21
-76.954289
 31
0.0
 13
955.439846
 23
-88.454308
 33
0.0
 14
928.877294
 24
-65.45427
 34
0.0
 50
90.0
  0
LINE
  5
3AD0
  8
COTATION1
 10
954.439846
 20
-88.454308
 30
0.0
 11
956.439846
 21
-88.454308
 31
0.0
  0
LINE
  5
3AD1
  8
COTATION1
 10
955.439846
 20
-89.454308
 30
0.0
 11
955.439846
 21
-87.454308
 31
0.0
  0
ENDSEC
  0
EOF
