  0
SECTION
  2
HEADER
  9
$ACADVER
  1
AC1009
  9
$INSBASE
 10
402.590624
 20
-1.041018
 30
0.0
  9
$EXTMIN
 10
-2.62881
 20
0.93723
 30
0.0
  9
$EXTMAX
 10
80.533338
 20
58.93723
 30
0.0
  9
$LIMMIN
 10
-407.970438
 20
-367.832444
  9
$LIMMAX
 10
429.804077
 20
234.370848
  9
$ORTHOMODE
 70
     0
  9
$REGENMODE
 70
     1
  9
$FILLMODE
 70
     1
  9
$QTEXTMODE
 70
     0
  9
$MIRRTEXT
 70
     1
  9
$DRAGMODE
 70
     2
  9
$LTSCALE
 40
10.0
  9
$OSMODE
 70
    39
  9
$ATTMODE
 70
     1
  9
$TEXTSIZE
 40
6.0
  9
$TRACEWID
 40
1.0
  9
$TEXTSTYLE
  7
ROMANS
  9
$CLAYER
  8
ALPHA
  9
$CELTYPE
  6
BYLAYER
  9
$CECOLOR
 62
   256
  9
$DIMSCALE
 40
1.0
  9
$DIMASZ
 40
5.0
  9
$DIMEXO
 40
2.0
  9
$DIMDLI
 40
0.38
  9
$DIMRND
 40
0.0
  9
$DIMDLE
 40
0.0
  9
$DIMEXE
 40
2.5
  9
$DIMTP
 40
0.0
  9
$DIMTM
 40
0.0
  9
$DIMTXT
 40
2.5
  9
$DIMCEN
 40
0.0
  9
$DIMTSZ
 40
0.0
  9
$DIMTOL
 70
     0
  9
$DIMLIM
 70
     0
  9
$DIMTIH
 70
     1
  9
$DIMTOH
 70
     1
  9
$DIMSE1
 70
     0
  9
$DIMSE2
 70
     0
  9
$DIMTAD
 70
     1
  9
$DIMZIN
 70
    12
  9
$DIMBLK
  1
OPEN30
  9
$DIMASO
 70
     1
  9
$DIMSHO
 70
     1
  9
$DIMPOST
  1

  9
$DIMAPOST
  1

  9
$DIMALT
 70
     0
  9
$DIMALTD
 70
     2
  9
$DIMALTF
 40
25.4
  9
$DIMLFAC
 40
1.0
  9
$DIMTOFL
 70
     0
  9
$DIMTVP
 40
0.0
  9
$DIMTIX
 70
     0
  9
$DIMSOXD
 70
     0
  9
$DIMSAH
 70
     0
  9
$DIMBLK1
  1

  9
$DIMBLK2
  1

  9
$DIMSTYLE
  2
SC_DEFAUT
  9
$DIMCLRD
 70
     0
  9
$DIMCLRE
 70
     0
  9
$DIMCLRT
 70
     0
  9
$DIMTFAC
 40
1.0
  9
$DIMGAP
 40
2.0
  9
$LUNITS
 70
     2
  9
$LUPREC
 70
     1
  9
$SKETCHINC
 40
0.1
  9
$FILLETRAD
 40
0.0
  9
$AUNITS
 70
     0
  9
$AUPREC
 70
     0
  9
$MENU
  1
acad
  9
$ELEVATION
 40
0.0
  9
$PELEVATION
 40
0.0
  9
$THICKNESS
 40
0.0
  9
$LIMCHECK
 70
     0
  9
$BLIPMODE
 70
     0
  9
$CHAMFERA
 40
0.0
  9
$CHAMFERB
 40
0.0
  9
$SKPOLY
 70
     0
  9
$TDCREATE
 40
2450373.687919
  9
$TDUPDATE
 40
2452996.485128
  9
$TDINDWG
 40
0.881533
  9
$TDUSRTIMER
 40
0.881533
  9
$USRTIMER
 70
     1
  9
$ANGBASE
 50
0.0
  9
$ANGDIR
 70
     0
  9
$PDMODE
 70
    32
  9
$PDSIZE
 40
0.0
  9
$PLINEWID
 40
0.0
  9
$COORDS
 70
     1
  9
$SPLFRAME
 70
     0
  9
$SPLINETYPE
 70
     6
  9
$SPLINESEGS
 70
     8
  9
$ATTDIA
 70
     0
  9
$ATTREQ
 70
     1
  9
$HANDLING
 70
     1
  9
$HANDSEED
  5
9B1A
  9
$SURFTAB1
 70
     6
  9
$SURFTAB2
 70
     6
  9
$SURFTYPE
 70
     6
  9
$SURFU
 70
     6
  9
$SURFV
 70
     6
  9
$UCSNAME
  2

  9
$UCSORG
 10
0.0
 20
0.0
 30
0.0
  9
$UCSXDIR
 10
1.0
 20
0.0
 30
0.0
  9
$UCSYDIR
 10
0.0
 20
1.0
 30
0.0
  9
$PUCSNAME
  2

  9
$PUCSORG
 10
0.0
 20
0.0
 30
0.0
  9
$PUCSXDIR
 10
1.0
 20
0.0
 30
0.0
  9
$PUCSYDIR
 10
0.0
 20
1.0
 30
0.0
  9
$USERI1
 70
     0
  9
$USERI2
 70
     0
  9
$USERI3
 70
     0
  9
$USERI4
 70
     0
  9
$USERI5
 70
     0
  9
$USERR1
 40
0.0
  9
$USERR2
 40
0.0
  9
$USERR3
 40
0.0
  9
$USERR4
 40
0.0
  9
$USERR5
 40
0.0
  9
$WORLDVIEW
 70
     1
  9
$SHADEDGE
 70
     3
  9
$SHADEDIF
 70
    70
  9
$TILEMODE
 70
     1
  9
$MAXACTVP
 70
    16
  9
$PLIMCHECK
 70
     0
  9
$PEXTMIN
 10
-1.452248
 20
-0.437698
 30
0.0
  9
$PEXTMAX
 10
12.749749
 20
8.310198
 30
0.0
  9
$PLIMMIN
 10
0.0
 20
0.0
  9
$PLIMMAX
 10
12.0
 20
9.0
  9
$UNITMODE
 70
     0
  9
$VISRETAIN
 70
     0
  9
$PLINEGEN
 70
     0
  9
$PSLTSCALE
 70
     0
  0
ENDSEC
  0
SECTION
  2
TABLES
  0
TABLE
  2
VPORT
 70
     2
  0
VPORT
  2
*ACTIVE
 70
     0
 10
0.0
 20
0.0
 11
1.0
 21
1.0
 12
38.976438
 22
29.936358
 13
0.0
 23
0.0
 14
1.0
 24
1.0
 15
10.0
 25
10.0
 16
0.0
 26
0.0
 36
1.0
 17
0.0
 27
0.0
 37
0.0
 40
58.492102
 41
1.466346
 42
50.0
 43
0.0
 44
0.0
 50
0.0
 51
0.0
 71
     0
 72
   100
 73
     1
 74
     0
 75
     0
 76
     0
 77
     0
 78
     0
  0
ENDTAB
  0
TABLE
  2
LTYPE
 70
     2
  0
LTYPE
  2
CONTINUOUS
 70
     0
  3
Solid line
 72
    65
 73
     0
 40
0.0
  0
LTYPE
  2
AXES2
 70
     0
  3
___ _ ___ _ ___ _ ___ _ ___ _ ___ _ ___ _ ___ _
 72
    65
 73
     4
 40
1.125
 49
0.75
 49
-0.125
 49
0.125
 49
-0.125
  0
ENDTAB
  0
TABLE
  2
LAYER
 70
     5
  0
LAYER
  2
0
 70
     0
 62
   255
  6
CONTINUOUS
  0
LAYER
  2
COTATION1
 70
     0
 62
     2
  6
CONTINUOUS
  0
LAYER
  2
AXE
 70
     0
 62
    80
  6
AXES2
  0
LAYER
  2
DEFPOINTS
 70
     0
 62
     7
  6
CONTINUOUS
  0
LAYER
  2
ALPHA
 70
     0
 62
   254
  6
CONTINUOUS
  0
ENDTAB
  0
TABLE
  2
STYLE
 70
     2
  0
STYLE
  2
ROMANS
 70
     0
 40
0.0
 41
1.0
 50
0.0
 71
     0
 42
6.0
  3
romans
  4

  0
STYLE
  2
STANDARD
 70
     0
 40
0.0
 41
1.0
 50
0.0
 71
     0
 42
0.2
  3
txt
  4

  0
ENDTAB
  0
TABLE
  2
VIEW
 70
     0
  0
ENDTAB
  0
TABLE
  2
UCS
 70
     0
  0
ENDTAB
  0
TABLE
  2
APPID
 70
     1
  0
APPID
  2
ACAD
 70
     0
  0
ENDTAB
  0
TABLE
  2
DIMSTYLE
 70
     1
  0
DIMSTYLE
  2
SC_DEFAUT
 70
     0
  3

  4

  5
OPEN30
  6

  7

 40
1.0
 41
5.0
 42
2.0
 43
0.38
 44
2.5
 45
0.0
 46
0.0
 47
0.0
 48
0.0
140
2.5
141
0.0
142
0.0
143
25.4
144
1.0
145
0.0
146
1.0
147
2.0
 71
     0
 72
     0
 73
     1
 74
     1
 75
     0
 76
     0
 77
     1
 78
    12
170
     0
171
     2
172
     0
173
     0
174
     0
175
     0
176
     0
177
     0
178
     0
  0
ENDTAB
  0
ENDSEC
  0
SECTION
  2
BLOCKS
  0
BLOCK
  8
0
  2
$MODEL_SPACE
 70
     0
 10
0.0
 20
0.0
 30
0.0
  3
$MODEL_SPACE
  1

  0
ENDBLK
  5
9AB3
  8
0
  0
BLOCK
 67
     1
  8
0
  2
$PAPER_SPACE
 70
     0
 10
0.0
 20
0.0
 30
0.0
  3
$PAPER_SPACE
  1

  0
ENDBLK
  5
9AB1
 67
     1
  8
0
  0
BLOCK
  8
0
  2
COTE
 70
     0
 10
0.0
 20
0.0
 30
0.0
  3
COTE
  1

  0
ENDBLK
  5
F
  8
0
  0
BLOCK
  8
0
  2
FOND
 70
     0
 10
0.0
 20
0.0
 30
0.0
  3
FOND
  1

  0
ENDBLK
  5
75
  8
0
  0
BLOCK
  8
0
  2
_OPEN30
 70
     0
 10
0.0
 20
0.0
 30
0.0
  3
_OPEN30
  1

  0
LINE
  5
4B05
  8
COTATION1
 62
     0
 10
-1.0
 20
0.267949
 30
0.0
 11
0.0
 21
0.0
 31
0.0
1001
ACAD
1000
RTLwPs
1070
   158
  0
LINE
  5
4B06
  8
COTATION1
 62
     0
 10
0.0
 20
0.0
 30
0.0
 11
-1.0
 21
-0.267949
 31
0.0
1001
ACAD
1000
RTLwPs
1070
   158
  0
LINE
  5
4B07
  8
COTATION1
 62
     0
 10
0.0
 20
0.0
 30
0.0
 11
-1.0
 21
0.0
 31
0.0
1001
ACAD
1000
RTLwPs
1070
   158
  0
ENDBLK
  5
4B09
  8
0
  0
BLOCK
  8
0
  2
*D3
 70
     1
 10
0.0
 20
0.0
 30
0.0
  3
*D3
  1

  0
LINE
  5
997D
  8
COTATION1
 62
     0
 10
36.423757
 20
37.23723
 30
0.0
 11
36.423757
 21
56.93723
 31
0.0
1001
ACAD
1000
RTLwPs
1070
   158
  0
LINE
  5
997E
  8
COTATION1
 62
     0
 10
52.423757
 20
37.23723
 30
0.0
 11
52.423757
 21
56.93723
 31
0.0
1001
ACAD
1000
RTLwPs
1070
   158
  0
LINE
  5
997F
  8
COTATION1
 62
     0
 10
41.423757
 20
54.43723
 30
0.0
 11
47.423757
 21
54.43723
 31
0.0
1001
ACAD
1000
RTLwPs
1070
   158
  0
INSERT
  5
9980
  8
COTATION1
 62
     0
  2
_OPEN30
 10
36.423757
 20
54.43723
 30
0.0
 41
5.0
 42
5.0
 43
5.0
 50
180.0
1001
ACAD
1000
RTLwPs
1070
   158
  0
INSERT
  5
9981
  8
COTATION1
 62
     0
  2
_OPEN30
 10
52.423757
 20
54.43723
 30
0.0
 41
5.0
 42
5.0
 43
5.0
1001
ACAD
1000
RTLwPs
1070
   158
  0
TEXT
  5
9982
  8
COTATION1
 62
     0
 10
41.864234
 20
56.43723
 30
0.0
 40
2.5
  1
16
1001
ACAD
1000
MTEXTBEGIN
1070
    73
1070
     1
1070
    44
1040
1.0
1070
    74
1070
     0
1000
MTEXTEND
  0
POINT
  5
9983
  8
DEFPOINTS
 62
     0
 10
36.423757
 20
35.23723
 30
0.0
  0
POINT
  5
9984
  8
DEFPOINTS
 62
     0
 10
52.423757
 20
35.23723
 30
0.0
  0
POINT
  5
9985
  8
DEFPOINTS
 62
     0
 10
52.423757
 20
54.43723
 30
0.0
  0
ENDBLK
  5
7F3E
  8
0
  0
BLOCK
  8
0
  2
*D4
 70
     1
 10
0.0
 20
0.0
 30
0.0
  3
*D4
  1

  0
LINE
  5
99DF
  8
COTATION1
 62
     0
 10
42.423757
 20
39.43723
 30
0.0
 11
20.781942
 21
39.43723
 31
0.0
1001
ACAD
1000
RTLwPs
1070
   158
  0
LINE
  5
99E0
  8
COTATION1
 62
     0
 10
34.423757
 20
20.93723
 30
0.0
 11
20.781942
 21
20.93723
 31
0.0
1001
ACAD
1000
RTLwPs
1070
   158
  0
LINE
  5
99E1
  8
COTATION1
 62
     0
 10
23.281942
 20
34.43723
 30
0.0
 11
23.281942
 21
33.43723
 31
0.0
1001
ACAD
1000
RTLwPs
1070
   158
  0
LINE
  5
99E2
  8
COTATION1
 62
     0
 10
23.281942
 20
25.93723
 30
0.0
 11
23.281942
 21
26.93723
 31
0.0
1001
ACAD
1000
RTLwPs
1070
   158
  0
TEXT
  5
99E3
  8
COTATION1
 62
     0
 10
18.936704
 20
28.93723
 30
0.0
 40
2.5
  1
18.5
1001
ACAD
1000
MTEXTBEGIN
1070
    73
1070
     1
1070
    44
1040
1.0
1070
    74
1070
     0
1000
MTEXTEND
  0
INSERT
  5
99E4
  8
COTATION1
 62
     0
  2
_OPEN30
 10
23.281942
 20
39.43723
 30
0.0
 41
5.0
 42
5.0
 43
5.0
 50
90.0
1001
ACAD
1000
RTLwPs
1070
   158
  0
INSERT
  5
99E5
  8
COTATION1
 62
     0
  2
_OPEN30
 10
23.281942
 20
20.93723
 30
0.0
 41
5.0
 42
5.0
 43
5.0
 50
270.0
1001
ACAD
1000
RTLwPs
1070
   158
  0
POINT
  5
99E6
  8
DEFPOINTS
 62
     0
 10
44.423757
 20
39.43723
 30
0.0
  0
POINT
  5
99E7
  8
DEFPOINTS
 62
     0
 10
36.423757
 20
20.93723
 30
0.0
  0
POINT
  5
99E8
  8
DEFPOINTS
 62
     0
 10
23.281942
 20
20.93723
 30
0.0
  0
ENDBLK
  5
7F4B
  8
0
  0
BLOCK
  8
0
  2
*D5
 70
     1
 10
0.0
 20
0.0
 30
0.0
  3
*D5
  1

  0
LINE
  5
9986
  8
COTATION1
 62
     0
 10
46.423757
 20
39.43723
 30
0.0
 11
79.223815
 21
39.43723
 31
0.0
1001
ACAD
1000
RTLwPs
1070
   158
  0
LINE
  5
9987
  8
COTATION1
 62
     0
 10
51.923757
 20
10.93723
 30
0.0
 11
79.223815
 21
10.93723
 31
0.0
1001
ACAD
1000
RTLwPs
1070
   158
  0
LINE
  5
9988
  8
COTATION1
 62
     0
 10
76.723815
 20
34.43723
 30
0.0
 11
76.723815
 21
28.43723
 31
0.0
1001
ACAD
1000
RTLwPs
1070
   158
  0
LINE
  5
9989
  8
COTATION1
 62
     0
 10
76.723815
 20
15.93723
 30
0.0
 11
76.723815
 21
21.93723
 31
0.0
1001
ACAD
1000
RTLwPs
1070
   158
  0
TEXT
  5
998A
  8
COTATION1
 62
     0
 10
72.557148
 20
23.93723
 30
0.0
 40
2.5
  1
28.5
1001
ACAD
1000
MTEXTBEGIN
1070
    73
1070
     1
1070
    44
1040
1.0
1070
    74
1070
     0
1000
MTEXTEND
  0
INSERT
  5
998B
  8
COTATION1
 62
     0
  2
_OPEN30
 10
76.723815
 20
39.43723
 30
0.0
 41
5.0
 42
5.0
 43
5.0
 50
90.0
1001
ACAD
1000
RTLwPs
1070
   158
  0
INSERT
  5
998C
  8
COTATION1
 62
     0
  2
_OPEN30
 10
76.723815
 20
10.93723
 30
0.0
 41
5.0
 42
5.0
 43
5.0
 50
270.0
1001
ACAD
1000
RTLwPs
1070
   158
  0
POINT
  5
998D
  8
DEFPOINTS
 62
     0
 10
44.423757
 20
39.43723
 30
0.0
  0
POINT
  5
998E
  8
DEFPOINTS
 62
     0
 10
49.923757
 20
10.93723
 30
0.0
  0
POINT
  5
998F
  8
DEFPOINTS
 62
     0
 10
76.723815
 20
10.93723
 30
0.0
  0
ENDBLK
  5
8EB4
  8
0
  0
ENDSEC
  0
SECTION
  2
ENTITIES
  0
INSERT
  5
A
  8
0
  2
COTE
 10
0.0
 20
0.0
 30
0.0
  0
INSERT
  5
17
  8
0
  2
COTE
 10
284.010391
 20
6.373258
 30
0.0
  0
INSERT
  5
72
  8
0
  2
FOND
 10
0.0
 20
0.0
 30
0.0
  0
DIMENSION
  5
7F30
  8
COTATION1
  2
*D3
 10
52.423757
 20
54.43723
 30
0.0
 11
44.423757
 21
57.68723
 31
0.0
 13
36.423757
 23
35.23723
 33
0.0
 14
52.423757
 24
35.23723
 34
0.0
  0
DIMENSION
  5
7F31
  8
COTATION1
  2
*D4
 10
23.281942
 20
20.93723
 30
0.0
 11
23.281942
 21
30.18723
 31
0.0
 70
   128
 13
44.423757
 23
39.43723
 33
0.0
 14
36.423757
 24
20.93723
 34
0.0
 50
90.0
  0
LINE
  5
8AD3
  8
AXE
 10
44.423757
 20
0.93723
 30
0.0
 11
44.423757
 21
44.43723
 31
0.0
  0
TEXT
  5
8AD4
  8
AXE
 10
39.376138
 20
0.93723
 30
0.0
 40
5.0
  1
Y
 72
     2
 11
43.423757
 21
0.93723
 31
0.0
  0
LINE
  5
8AD5
  8
AXE
 10
31.423757
 20
18.18223
 30
0.0
 11
62.423757
 21
18.18223
 31
0.0
  0
TEXT
  5
8AD6
  8
AXE
 10
58.376138
 20
19.18223
 30
0.0
 40
5.0
  1
X
 72
     2
 11
62.423757
 21
19.18223
 31
0.0
  0
LINE
  5
8B73
  8
COTATION1
 10
10.62119
 20
23.43723
 30
0.0
 11
10.62119
 21
48.396152
 31
0.0
  0
LINE
  5
8B74
  8
COTATION1
 10
2.520838
 20
20.93723
 30
0.0
 11
35.423757
 21
20.93723
 31
0.0
  0
SOLID
  5
8B75
  8
COTATION1
 10
12.064566
 20
20.93723
 30
0.0
 11
9.177814
 21
20.93723
 31
0.0
 12
10.62119
 22
23.43723
 32
0.0
 13
10.62119
 23
23.43723
 33
0.0
  0
LINE
  5
8B76
  8
COTATION1
 10
-2.62881
 20
53.396152
 30
0.0
 11
23.87119
 21
53.396152
 31
0.0
  0
LINE
  5
8B77
  8
COTATION1
 10
23.87119
 20
48.396152
 30
0.0
 11
-2.62881
 21
48.396152
 31
0.0
  0
TEXT
  5
8B78
  8
COTATION1
 10
-1.37881
 20
49.646152
 30
0.0
 40
2.5
  1
PLANE_TO_LINE_UP
 41
0.626087
  7
STANDARD
 72
     5
 11
22.62119
 21
49.646152
 31
0.0
  0
LINE
  5
8B79
  8
COTATION1
 10
23.87119
 20
53.396152
 30
0.0
 11
23.87119
 21
48.396152
 31
0.0
  0
LINE
  5
8B7A
  8
COTATION1
 10
-2.62881
 20
48.396152
 30
0.0
 11
-2.62881
 21
53.396152
 31
0.0
  0
DIMENSION
  5
8EA7
  8
COTATION1
  2
*D5
 10
76.723815
 20
10.93723
 30
0.0
 11
76.723815
 21
25.18723
 31
0.0
 70
   128
 13
44.423757
 23
39.43723
 33
0.0
 14
49.923757
 24
10.93723
 34
0.0
 50
90.0
  0
POLYLINE
  5
9772
  8
ALPHA
 66
     1
 10
0.0
 20
0.0
 30
0.0
 70
   128
210
0.0
220
0.0
230
-1.0
  0
VERTEX
  5
9AB9
  8
ALPHA
 10
-44.423757
 20
21.18723
 30
0.0
  0
VERTEX
  5
9ABA
  8
ALPHA
 10
-43.262481
 20
21.263749
 30
0.0
  0
VERTEX
  5
9ABB
  8
ALPHA
 10
-42.121805
 20
21.497465
 30
0.0
  0
VERTEX
  5
9ABC
  8
ALPHA
 10
-41.021914
 20
21.878177
 30
0.0
  0
VERTEX
  5
9ABD
  8
ALPHA
 10
-39.981797
 20
22.401191
 30
0.0
  0
VERTEX
  5
9ABE
  8
ALPHA
 10
-39.0186
 20
23.055223
 30
0.0
  0
VERTEX
  5
9ABF
  8
ALPHA
 10
-38.148372
 20
23.828468
 30
0.0
  0
VERTEX
  5
9AC0
  8
ALPHA
 10
-37.382312
 20
24.705377
 30
0.0
  0
VERTEX
  5
9AC1
  8
ALPHA
 10
-36.735446
 20
25.672751
 30
0.0
  0
SEQEND
  5
9AC2
  8
ALPHA
  0
CIRCLE
  5
9773
  8
ALPHA
 10
44.423757
 20
30.43723
 30
0.0
 40
7.013423
  0
ARC
  5
9774
  8
ALPHA
 10
44.423757
 20
30.43723
 30
0.0
 40
7.715154
 50
60.586349
 51
119.413651
  0
ARC
  5
9775
  8
ALPHA
 10
44.423757
 20
30.43723
 30
0.0
 40
7.715154
 50
240.586349
 51
299.413651
  0
CIRCLE
  5
9776
  8
ALPHA
 10
44.423757
 20
30.43723
 30
0.0
 40
7.85
  0
ARC
  5
9777
  8
ALPHA
 10
44.423757
 20
30.43723
 30
0.0
 40
9.0
 50
211.002719
 51
328.997281
  0
CIRCLE
  5
9778
  8
ALPHA
 10
44.423757
 20
30.43723
 30
0.0
 40
6.814256
  0
ARC
  5
9779
  8
ALPHA
 10
44.423757
 20
7.73723
 30
0.0
 40
31.7
 50
78.34488
 51
101.65512
  0
CIRCLE
  5
977A
  8
ALPHA
 10
44.423757
 20
30.43723
 30
0.0
 40
4.25
  0
CIRCLE
  5
977B
  8
ALPHA
 10
44.423757
 20
30.43723
 30
0.0
 40
5.0
  0
CIRCLE
  5
977C
  8
ALPHA
 10
44.423757
 20
30.43723
 30
0.0
 40
4.05
  0
CIRCLE
  5
977D
  8
ALPHA
 10
44.423757
 20
30.43723
 30
0.0
 40
5.5
  0
CIRCLE
  5
977E
  8
ALPHA
 10
44.423757
 20
30.43723
 30
0.0
 40
3.814433
  0
CIRCLE
  5
977F
  8
ALPHA
 10
44.423757
 20
30.43723
 30
0.0
 40
4.0
  0
LINE
  5
9780
  8
ALPHA
 10
46.060064
 20
21.58723
 30
0.0
 11
42.787451
 21
21.58723
 31
0.0
  0
LINE
  5
9781
  8
ALPHA
 10
36.423757
 20
20.93723
 30
0.0
 11
52.423757
 21
20.93723
 31
0.0
  0
LINE
  5
9782
  8
ALPHA
 10
37.723875
 20
18.78723
 30
0.0
 11
51.12364
 21
18.78723
 31
0.0
  0
LINE
  5
9783
  8
ALPHA
 10
38.073868
 20
17.48723
 30
0.0
 11
50.773647
 21
17.48723
 31
0.0
  0
LINE
  5
9784
  8
ALPHA
 10
38.073868
 20
16.33723
 30
0.0
 11
50.773647
 21
16.33723
 31
0.0
  0
LINE
  5
9785
  8
ALPHA
 10
38.423757
 20
16.23723
 30
0.0
 11
50.423757
 21
16.23723
 31
0.0
  0
LINE
  5
9786
  8
ALPHA
 10
38.423757
 20
15.23723
 30
0.0
 11
50.423757
 21
15.23723
 31
0.0
  0
LINE
  5
9787
  8
ALPHA
 10
38.073868
 20
15.13723
 30
0.0
 11
50.773647
 21
15.13723
 31
0.0
  0
LINE
  5
9788
  8
ALPHA
 10
38.073868
 20
14.53723
 30
0.0
 11
50.773647
 21
14.53723
 31
0.0
  0
LINE
  5
9789
  8
ALPHA
 10
46.923757
 20
14.33723
 30
0.0
 11
41.923757
 21
14.33723
 31
0.0
  0
LINE
  5
978A
  8
ALPHA
 10
41.923757
 20
13.33723
 30
0.0
 11
46.923757
 21
13.33723
 31
0.0
  0
LINE
  5
978B
  8
ALPHA
 10
41.673757
 20
12.83723
 30
0.0
 11
47.173757
 21
12.83723
 31
0.0
  0
LINE
  5
978C
  8
ALPHA
 10
41.548757
 20
12.58723
 30
0.0
 11
47.298757
 21
12.58723
 31
0.0
  0
LINE
  5
978D
  8
ALPHA
 10
50.073757
 20
11.18723
 30
0.0
 11
38.773757
 21
11.18723
 31
0.0
  0
LINE
  5
978E
  8
ALPHA
 10
49.923757
 20
10.93723
 30
0.0
 11
38.923758
 21
10.93723
 31
0.0
  0
LINE
  5
978F
  8
ALPHA
 10
38.073757
 20
16.33723
 30
0.0
 11
38.073757
 21
17.48723
 31
0.0
  0
LINE
  5
9790
  8
ALPHA
 10
38.773757
 20
10.98723
 30
0.0
 11
38.773757
 21
14.53723
 31
0.0
  0
ARC
  5
9791
  8
ALPHA
 10
38.923757
 20
11.18723
 30
0.0
 40
0.25
 50
233.121893
 51
270.0
  0
ARC
  5
9792
  8
ALPHA
 10
38.423757
 20
15.73723
 30
0.0
 40
0.5
 50
90.0
 51
270.0
  0
LINE
  5
9793
  8
ALPHA
 10
38.073757
 20
14.53723
 30
0.0
 11
38.073757
 21
15.13723
 31
0.0
  0
ARC
  5
9794
  8
ALPHA
 10
38.573757
 20
15.38723
 30
0.0
 40
0.25
 50
270.000011
 51
323.006207
  0
ARC
  5
9795
  8
ALPHA
 10
38.573757
 20
16.08723
 30
0.0
 40
0.25
 50
36.993798
 51
89.999999
  0
POLYLINE
  5
9796
  8
ALPHA
 66
     1
 10
0.0
 20
0.0
 30
0.0
 70
   128
  0
VERTEX
  5
9AC3
  8
ALPHA
 10
41.673757
 20
12.83723
 30
0.0
  0
VERTEX
  5
9AC4
  8
ALPHA
 10
41.572936
 20
12.73479
 30
0.0
  0
VERTEX
  5
9AC5
  8
ALPHA
 10
41.548757
 20
12.58723
 30
0.0
  0
SEQEND
  5
9AC6
  8
ALPHA
  0
POLYLINE
  5
9797
  8
ALPHA
 66
     1
 10
0.0
 20
0.0
 30
0.0
 70
   128
  0
VERTEX
  5
9AC7
  8
ALPHA
 10
41.02603
 20
13.08723
 30
0.0
  0
VERTEX
  5
9AC8
  8
ALPHA
 10
41.067194
 20
12.892296
 30
0.0
  0
VERTEX
  5
9AC9
  8
ALPHA
 10
41.183125
 20
12.729949
 30
0.0
  0
VERTEX
  5
9ACA
  8
ALPHA
 10
41.352338
 20
12.62336
 30
0.0
  0
VERTEX
  5
9ACB
  8
ALPHA
 10
41.548757
 20
12.58723
 30
0.0
  0
SEQEND
  5
9ACC
  8
ALPHA
  0
LINE
  5
9798
  8
ALPHA
 10
41.096159
 20
14.53723
 30
0.0
 11
41.02603
 21
14.28723
 31
0.0
  0
LINE
  5
9799
  8
ALPHA
 10
41.919545
 20
14.537432
 30
0.0
 11
41.923757
 21
14.48723
 31
0.0
  0
LINE
  5
979A
  8
ALPHA
 10
41.772437
 20
14.537349
 30
0.0
 11
41.758137
 21
14.48723
 31
0.0
  0
ARC
  5
979B
  8
ALPHA
 10
41.673757
 20
13.08723
 30
0.0
 40
0.25
 50
180.0
 51
270.0
  0
ARC
  5
979C
  8
ALPHA
 10
41.673757
 20
14.28723
 30
0.0
 40
0.25
 50
90.0
 51
180.0
  0
LINE
  5
979D
  8
ALPHA
 10
41.758137
 20
14.48723
 30
0.0
 11
41.436218
 21
13.017715
 31
0.0
  0
LINE
  5
979E
  8
ALPHA
 10
41.923757
 20
12.83723
 30
0.0
 11
41.923757
 21
14.48723
 31
0.0
  0
LINE
  5
979F
  8
ALPHA
 10
41.423757
 20
14.28723
 30
0.0
 11
41.423757
 21
13.08723
 31
0.0
  0
LINE
  5
97A0
  8
ALPHA
 10
41.02603
 20
14.28723
 30
0.0
 11
41.02603
 21
13.08723
 31
0.0
  0
LINE
  5
97A1
  8
ALPHA
 10
41.526574
 20
14.48723
 30
0.0
 11
41.758137
 21
14.48723
 31
0.0
  0
LINE
  5
97A2
  8
ALPHA
 10
41.423757
 20
14.28723
 30
0.0
 11
41.02603
 21
14.28723
 31
0.0
  0
LINE
  5
97A3
  8
ALPHA
 10
41.423757
 20
13.08723
 30
0.0
 11
41.02603
 21
13.08723
 31
0.0
  0
ARC
  5
97A4
  8
ALPHA
 10
44.423757
 20
30.43723
 30
0.0
 40
7.715154
 50
120.586349
 51
179.413651
  0
ARC
  5
97A5
  8
ALPHA
 10
44.423757
 20
30.43723
 30
0.0
 40
7.715154
 50
180.586349
 51
239.413651
  0
LINE
  5
97A6
  8
ALPHA
 10
36.423757
 20
20.93723
 30
0.0
 11
36.423757
 21
36.824856
 31
0.0
  0
LINE
  5
97A7
  8
ALPHA
 10
37.250208
 20
18.93723
 30
0.0
 11
38.47245
 21
18.93723
 31
0.0
  0
POLYLINE
  5
97A8
  8
ALPHA
 66
     1
 10
0.0
 20
0.0
 30
0.0
 70
   128
  0
VERTEX
  5
9ACD
  8
ALPHA
 10
37.678369
 20
19.13723
 30
0.0
  0
VERTEX
  5
9ACE
  8
ALPHA
 10
37.748846
 20
18.991726
 30
0.0
  0
VERTEX
  5
9ACF
  8
ALPHA
 10
37.902984
 20
18.93723
 30
0.0
  0
SEQEND
  5
9AD0
  8
ALPHA
  0
POLYLINE
  5
97A9
  8
ALPHA
 66
     1
 10
0.0
 20
0.0
 30
0.0
 70
   128
  0
VERTEX
  5
9AD1
  8
ALPHA
 10
37.120631
 20
19.13723
 30
0.0
  0
VERTEX
  5
9AD2
  8
ALPHA
 10
37.1861
 20
18.993344
 30
0.0
  0
VERTEX
  5
9AD3
  8
ALPHA
 10
37.335054
 20
18.93723
 30
0.0
  0
SEQEND
  5
9AD4
  8
ALPHA
  0
POLYLINE
  5
97AA
  8
ALPHA
 66
     1
 10
0.0
 20
0.0
 30
0.0
 70
   128
210
0.0
220
0.0
230
-1.0
  0
VERTEX
  5
9AD5
  8
ALPHA
 10
-37.250208
 20
18.93723
 30
0.0
  0
VERTEX
  5
9AD6
  8
ALPHA
 10
-37.114296
 20
18.997755
 30
0.0
  0
VERTEX
  5
9AD7
  8
ALPHA
 10
-37.060589
 20
19.13723
 30
0.0
  0
SEQEND
  5
9AD8
  8
ALPHA
  0
POLYLINE
  5
97AB
  8
ALPHA
 66
     1
 10
0.0
 20
0.0
 30
0.0
 70
   128
210
0.0
220
0.0
230
-1.0
  0
VERTEX
  5
9AD9
  8
ALPHA
 10
-37.654227
 20
18.93723
 30
0.0
  0
VERTEX
  5
9ADA
  8
ALPHA
 10
-37.539742
 20
19.005764
 30
0.0
  0
VERTEX
  5
9ADB
  8
ALPHA
 10
-37.502335
 20
19.13723
 30
0.0
  0
SEQEND
  5
9ADC
  8
ALPHA
  0
LINE
  5
97AC
  8
ALPHA
 10
37.120631
 20
19.13723
 30
0.0
 11
37.060589
 21
19.13723
 31
0.0
  0
LINE
  5
97AD
  8
ALPHA
 10
37.678369
 20
19.13723
 30
0.0
 11
37.502335
 21
19.13723
 31
0.0
  0
LINE
  5
97AE
  8
ALPHA
 10
37.723757
 20
18.78723
 30
0.0
 11
37.723757
 21
18.93723
 31
0.0
  0
LINE
  5
97AF
  8
ALPHA
 10
37.678369
 20
20.93723
 30
0.0
 11
37.678369
 21
19.13723
 31
0.0
  0
LINE
  5
97B0
  8
ALPHA
 10
37.502335
 20
20.93723
 30
0.0
 11
37.502335
 21
19.13723
 31
0.0
  0
LINE
  5
97B1
  8
ALPHA
 10
37.120631
 20
20.93723
 30
0.0
 11
37.120631
 21
19.13723
 31
0.0
  0
LINE
  5
97B2
  8
ALPHA
 10
37.060589
 20
20.93723
 30
0.0
 11
37.060589
 21
19.13723
 31
0.0
  0
LINE
  5
97B3
  8
ALPHA
 10
38.923757
 20
17.48723
 30
0.0
 11
38.923757
 21
18.78723
 31
0.0
  0
LINE
  5
97B4
  8
ALPHA
 10
38.47245
 20
18.93723
 30
0.0
 11
38.47245
 21
20.93723
 31
0.0
  0
LINE
  5
97B5
  8
ALPHA
 10
36.709471
 20
25.801521
 30
0.0
 11
36.735446
 21
25.672751
 31
0.0
  0
POLYLINE
  5
97B6
  8
ALPHA
 66
     1
 10
0.0
 20
0.0
 30
0.0
 70
   128
210
0.0
220
0.0
230
-1.0
  0
VERTEX
  5
9ADD
  8
ALPHA
 10
-36.674363
 20
25.784712
 30
0.0
  0
VERTEX
  5
9ADE
  8
ALPHA
 10
-36.485794
 20
26.293007
 30
0.0
  0
VERTEX
  5
9ADF
  8
ALPHA
 10
-36.423757
 20
26.831678
 30
0.0
  0
SEQEND
  5
9AE0
  8
ALPHA
  0
LINE
  5
97B7
  8
ALPHA
 10
36.735446
 20
25.672751
 30
0.0
 11
36.674363
 21
25.784712
 31
0.0
  0
ARC
  5
97B8
  8
ALPHA
 10
38.423757
 20
26.831678
 30
0.0
 40
2.0
 50
180.0
 51
211.002719
  0
LINE
  5
97B9
  8
ALPHA
 10
42.391776
 20
18.93723
 30
0.0
 11
41.346106
 21
18.93723
 31
0.0
  0
POLYLINE
  5
97BA
  8
ALPHA
 66
     1
 10
0.0
 20
0.0
 30
0.0
 70
   128
  0
VERTEX
  5
9AE1
  8
ALPHA
 10
41.805761
 20
19.13723
 30
0.0
  0
VERTEX
  5
9AE2
  8
ALPHA
 10
41.848894
 20
19.002643
 30
0.0
  0
VERTEX
  5
9AE3
  8
ALPHA
 10
41.971522
 20
18.93723
 30
0.0
  0
SEQEND
  5
9AE4
  8
ALPHA
  0
LINE
  5
97BB
  8
ALPHA
 10
41.370969
 20
18.93723
 30
0.0
 11
41.380776
 21
19.13723
 31
0.0
  0
LINE
  5
97BC
  8
ALPHA
 10
41.805761
 20
20.93723
 30
0.0
 11
41.805761
 21
19.13723
 31
0.0
  0
LINE
  5
97BD
  8
ALPHA
 10
41.380776
 20
20.93723
 30
0.0
 11
41.380776
 21
19.13723
 31
0.0
  0
LINE
  5
97BE
  8
ALPHA
 10
41.346106
 20
18.93723
 30
0.0
 11
41.346106
 21
20.93723
 31
0.0
  0
LINE
  5
97BF
  8
ALPHA
 10
41.805761
 20
19.13723
 30
0.0
 11
41.380776
 21
19.13723
 31
0.0
  0
POLYLINE
  5
97C0
  8
ALPHA
 66
     1
 10
0.0
 20
0.0
 30
0.0
 70
   128
  0
VERTEX
  5
9AE5
  8
ALPHA
 10
43.686363
 20
19.13723
 30
0.0
  0
VERTEX
  5
9AE6
  8
ALPHA
 10
43.712295
 20
19.01335
 30
0.0
  0
VERTEX
  5
9AE7
  8
ALPHA
 10
43.807163
 20
18.93723
 30
0.0
  0
SEQEND
  5
9AE8
  8
ALPHA
  0
LINE
  5
97C1
  8
ALPHA
 10
43.162691
 20
18.93723
 30
0.0
 11
43.230298
 21
19.13723
 31
0.0
  0
LINE
  5
97C2
  8
ALPHA
 10
44.113429
 20
18.93723
 30
0.0
 11
44.113429
 21
20.93723
 31
0.0
  0
LINE
  5
97C3
  8
ALPHA
 10
43.686363
 20
20.93723
 30
0.0
 11
43.686363
 21
19.13723
 31
0.0
  0
LINE
  5
97C4
  8
ALPHA
 10
43.230298
 20
20.93723
 30
0.0
 11
43.230298
 21
19.13723
 31
0.0
  0
LINE
  5
97C5
  8
ALPHA
 10
42.991286
 20
18.93723
 30
0.0
 11
42.991286
 21
20.93723
 31
0.0
  0
LINE
  5
97C6
  8
ALPHA
 10
42.391776
 20
18.93723
 30
0.0
 11
42.391776
 21
20.93723
 31
0.0
  0
LINE
  5
97C7
  8
ALPHA
 10
43.686363
 20
19.13723
 30
0.0
 11
43.230298
 21
19.13723
 31
0.0
  0
LINE
  5
97C8
  8
ALPHA
 10
44.113429
 20
18.93723
 30
0.0
 11
42.991286
 21
18.93723
 31
0.0
  0
LINE
  5
97C9
  8
ALPHA
 10
40.811093
 20
23.979911
 30
0.0
 11
40.634758
 21
23.716584
 31
0.0
  0
LINE
  5
97CA
  8
ALPHA
 10
40.498007
 20
23.795537
 30
0.0
 11
40.637888
 21
24.079911
 31
0.0
  0
LINE
  5
97CB
  8
ALPHA
 10
40.634758
 20
23.716584
 30
0.0
 11
40.498757
 21
23.63893
 31
0.0
  0
LINE
  5
97CC
  8
ALPHA
 10
40.498757
 20
23.63893
 30
0.0
 11
40.498007
 21
23.795537
 31
0.0
  0
LINE
  5
97CD
  8
ALPHA
 10
41.0921
 20
24.471484
 30
0.0
 11
41.098386
 21
24.477517
 31
0.0
  0
LINE
  5
97CE
  8
ALPHA
 10
40.925181
 20
24.577517
 30
0.0
 11
40.923099
 21
24.569057
 31
0.0
  0
ARC
  5
97CF
  8
ALPHA
 10
44.423757
 20
30.43723
 30
0.0
 40
7.399211
 50
239.225627
 51
240.774373
  0
LINE
  5
97D0
  8
ALPHA
 10
40.72449
 20
24.029911
 30
0.0
 11
40.498757
 21
23.63893
 31
0.0
  0
LINE
  5
97D1
  8
ALPHA
 10
36.709008
 20
30.358276
 30
0.0
 11
36.573757
 21
30.43723
 31
0.0
  0
LINE
  5
97D2
  8
ALPHA
 10
36.573757
 20
30.43723
 30
0.0
 11
36.709008
 21
30.516183
 31
0.0
  0
LINE
  5
97D3
  8
ALPHA
 10
37.025223
 20
30.33723
 30
0.0
 11
36.709008
 21
30.358276
 31
0.0
  0
LINE
  5
97D4
  8
ALPHA
 10
36.709008
 20
30.516183
 30
0.0
 11
37.025223
 21
30.53723
 31
0.0
  0
LINE
  5
97D5
  8
ALPHA
 10
37.599809
 20
30.53723
 30
0.0
 11
37.591441
 21
30.534803
 31
0.0
  0
LINE
  5
97D6
  8
ALPHA
 10
37.591441
 20
30.339656
 30
0.0
 11
37.599809
 21
30.33723
 31
0.0
  0
ARC
  5
97D7
  8
ALPHA
 10
44.423757
 20
30.43723
 30
0.0
 40
7.399211
 50
179.225627
 51
180.774373
  0
LINE
  5
97D8
  8
ALPHA
 10
37.024547
 20
30.43723
 30
0.0
 11
36.573757
 21
30.43723
 31
0.0
  0
ARC
  5
97D9
  8
ALPHA
 10
38.423757
 20
36.824856
 30
0.0
 40
2.0
 50
101.65512
 51
180.0
  0
LINE
  5
97DA
  8
ALPHA
 10
40.498007
 20
37.078922
 30
0.0
 11
40.498757
 21
37.235529
 31
0.0
  0
LINE
  5
97DB
  8
ALPHA
 10
40.634758
 20
37.157875
 30
0.0
 11
40.811093
 21
36.894549
 31
0.0
  0
LINE
  5
97DC
  8
ALPHA
 10
40.637888
 20
36.794549
 30
0.0
 11
40.498007
 21
37.078922
 31
0.0
  0
LINE
  5
97DD
  8
ALPHA
 10
40.498757
 20
37.235529
 30
0.0
 11
40.634758
 21
37.157875
 31
0.0
  0
LINE
  5
97DE
  8
ALPHA
 10
40.923099
 20
36.305402
 30
0.0
 11
40.925181
 21
36.296943
 31
0.0
  0
LINE
  5
97DF
  8
ALPHA
 10
41.098386
 20
36.396943
 30
0.0
 11
41.0921
 21
36.402976
 31
0.0
  0
ARC
  5
97E0
  8
ALPHA
 10
44.423757
 20
30.43723
 30
0.0
 40
7.399211
 50
119.225627
 51
120.774373
  0
LINE
  5
97E1
  8
ALPHA
 10
40.498757
 20
37.235529
 30
0.0
 11
40.72449
 21
36.844549
 31
0.0
  0
LINE
  5
97E2
  8
ALPHA
 10
50.773757
 20
16.33723
 30
0.0
 11
50.773757
 21
17.48723
 31
0.0
  0
LINE
  5
97E5
  8
ALPHA
 10
47.821485
 20
14.28723
 30
0.0
 11
47.751356
 21
14.53723
 31
0.0
  0
POLYLINE
  5
97E6
  8
ALPHA
 66
     1
 10
0.0
 20
0.0
 30
0.0
 70
   128
  0
VERTEX
  5
9AE9
  8
ALPHA
 10
47.298757
 20
12.58723
 30
0.0
  0
VERTEX
  5
9AEA
  8
ALPHA
 10
47.495177
 20
12.62336
 30
0.0
  0
VERTEX
  5
9AEB
  8
ALPHA
 10
47.66439
 20
12.729949
 30
0.0
  0
VERTEX
  5
9AEC
  8
ALPHA
 10
47.780321
 20
12.892296
 30
0.0
  0
VERTEX
  5
9AED
  8
ALPHA
 10
47.821485
 20
13.08723
 30
0.0
  0
SEQEND
  5
9AEE
  8
ALPHA
  0
POLYLINE
  5
97E7
  8
ALPHA
 66
     1
 10
0.0
 20
0.0
 30
0.0
 70
   128
210
0.0
220
0.0
230
-1.0
  0
VERTEX
  5
9AEF
  8
ALPHA
 10
-47.173757
 20
12.83723
 30
0.0
  0
VERTEX
  5
9AF0
  8
ALPHA
 10
-47.274579
 20
12.73479
 30
0.0
  0
VERTEX
  5
9AF1
  8
ALPHA
 10
-47.298757
 20
12.58723
 30
0.0
  0
SEQEND
  5
9AF2
  8
ALPHA
  0
ARC
  5
97E8
  8
ALPHA
 10
47.173757
 20
14.28723
 30
0.0
 40
0.25
 50
0.0
 51
90.0
  0
ARC
  5
97E9
  8
ALPHA
 10
47.173757
 20
13.08723
 30
0.0
 40
0.25
 50
270.0
 51
0.0
  0
LINE
  5
97EA
  8
ALPHA
 10
47.821485
 20
13.08723
 30
0.0
 11
47.821485
 21
14.28723
 31
0.0
  0
LINE
  5
97EB
  8
ALPHA
 10
47.423757
 20
13.08723
 30
0.0
 11
47.423757
 21
14.28723
 31
0.0
  0
LINE
  5
97EC
  8
ALPHA
 10
46.923757
 20
12.83723
 30
0.0
 11
46.923757
 21
14.53723
 31
0.0
  0
LINE
  5
97ED
  8
ALPHA
 10
47.423757
 20
14.28723
 30
0.0
 11
47.821485
 21
14.28723
 31
0.0
  0
LINE
  5
97EE
  8
ALPHA
 10
47.423757
 20
13.08723
 30
0.0
 11
47.821485
 21
13.08723
 31
0.0
  0
LINE
  5
97EF
  8
ALPHA
 10
50.073757
 20
10.98723
 30
0.0
 11
50.073757
 21
14.53723
 31
0.0
  0
ARC
  5
97F0
  8
ALPHA
 10
49.923757
 20
11.18723
 30
0.0
 40
0.25
 50
270.0
 51
306.878107
  0
ARC
  5
97F1
  8
ALPHA
 10
50.273757
 20
15.38723
 30
0.0
 40
0.25
 50
216.993793
 51
269.999989
  0
ARC
  5
97F2
  8
ALPHA
 10
50.273757
 20
16.08723
 30
0.0
 40
0.25
 50
90.000001
 51
143.006202
  0
ARC
  5
97F3
  8
ALPHA
 10
50.423757
 20
15.73723
 30
0.0
 40
0.5
 50
270.0
 51
90.0
  0
LINE
  5
97F4
  8
ALPHA
 10
50.773757
 20
14.53723
 30
0.0
 11
50.773757
 21
15.13723
 31
0.0
  0
ARC
  5
983A
  8
ALPHA
 10
44.423757
 20
30.43723
 30
0.0
 40
7.715154
 50
0.586349
 51
59.413651
  0
ARC
  5
983B
  8
ALPHA
 10
44.423757
 20
30.43723
 30
0.0
 40
7.715154
 50
300.586349
 51
359.413651
  0
ARC
  5
983C
  8
ALPHA
 10
50.423757
 20
26.831678
 30
0.0
 40
2.0
 50
328.997281
 51
0.0
  0
ARC
  5
983D
  8
ALPHA
 10
50.423757
 20
36.824856
 30
0.0
 40
2.0
 50
0.0
 51
78.34488
  0
LINE
  5
983E
  8
ALPHA
 10
52.423757
 20
20.93723
 30
0.0
 11
52.423757
 21
36.824856
 31
0.0
  0
POLYLINE
  5
983F
  8
ALPHA
 66
     1
 10
0.0
 20
0.0
 30
0.0
 70
   128
210
0.0
220
0.0
230
-1.0
  0
VERTEX
  5
9AF3
  8
ALPHA
 10
-52.112069
 20
25.672751
 30
0.0
  0
VERTEX
  5
9AF4
  8
ALPHA
 10
-51.46522
 20
24.705365
 30
0.0
  0
VERTEX
  5
9AF5
  8
ALPHA
 10
-50.699129
 20
23.828469
 30
0.0
  0
VERTEX
  5
9AF6
  8
ALPHA
 10
-49.828906
 20
23.055213
 30
0.0
  0
VERTEX
  5
9AF7
  8
ALPHA
 10
-48.865699
 20
22.40118
 30
0.0
  0
VERTEX
  5
9AF8
  8
ALPHA
 10
-47.825573
 20
21.878169
 30
0.0
  0
VERTEX
  5
9AF9
  8
ALPHA
 10
-46.725678
 20
21.497449
 30
0.0
  0
VERTEX
  5
9AFA
  8
ALPHA
 10
-45.585014
 20
21.26374
 30
0.0
  0
VERTEX
  5
9AFB
  8
ALPHA
 10
-44.423757
 20
21.18723
 30
0.0
  0
SEQEND
  5
9AFC
  8
ALPHA
  0
LINE
  5
9840
  8
ALPHA
 10
45.617217
 20
19.13723
 30
0.0
 11
45.684824
 21
18.93723
 31
0.0
  0
POLYLINE
  5
9841
  8
ALPHA
 66
     1
 10
0.0
 20
0.0
 30
0.0
 70
   128
  0
VERTEX
  5
9AFD
  8
ALPHA
 10
45.040352
 20
18.93723
 30
0.0
  0
VERTEX
  5
9AFE
  8
ALPHA
 10
45.13522
 20
19.01335
 30
0.0
  0
VERTEX
  5
9AFF
  8
ALPHA
 10
45.161152
 20
19.13723
 30
0.0
  0
SEQEND
  5
9B00
  8
ALPHA
  0
LINE
  5
9842
  8
ALPHA
 10
45.856229
 20
18.93723
 30
0.0
 11
45.856229
 21
20.93723
 31
0.0
  0
LINE
  5
9843
  8
ALPHA
 10
45.617217
 20
20.93723
 30
0.0
 11
45.617217
 21
19.13723
 31
0.0
  0
LINE
  5
9844
  8
ALPHA
 10
45.161152
 20
20.93723
 30
0.0
 11
45.161152
 21
19.13723
 31
0.0
  0
LINE
  5
9845
  8
ALPHA
 10
44.734086
 20
18.93723
 30
0.0
 11
44.734086
 21
20.93723
 31
0.0
  0
LINE
  5
9846
  8
ALPHA
 10
45.617217
 20
19.13723
 30
0.0
 11
45.161152
 21
19.13723
 31
0.0
  0
LINE
  5
9847
  8
ALPHA
 10
45.856229
 20
18.93723
 30
0.0
 11
44.734086
 21
18.93723
 31
0.0
  0
LINE
  5
9848
  8
ALPHA
 10
47.466739
 20
19.13723
 30
0.0
 11
47.476546
 21
18.93723
 31
0.0
  0
POLYLINE
  5
9849
  8
ALPHA
 66
     1
 10
0.0
 20
0.0
 30
0.0
 70
   128
  0
VERTEX
  5
9B01
  8
ALPHA
 10
46.875993
 20
18.93723
 30
0.0
  0
VERTEX
  5
9B02
  8
ALPHA
 10
46.998621
 20
19.002643
 30
0.0
  0
VERTEX
  5
9B03
  8
ALPHA
 10
47.041754
 20
19.13723
 30
0.0
  0
SEQEND
  5
9B04
  8
ALPHA
  0
LINE
  5
984A
  8
ALPHA
 10
47.501409
 20
18.93723
 30
0.0
 11
47.501409
 21
20.93723
 31
0.0
  0
LINE
  5
984B
  8
ALPHA
 10
47.466739
 20
20.93723
 30
0.0
 11
47.466739
 21
19.13723
 31
0.0
  0
LINE
  5
984C
  8
ALPHA
 10
47.041754
 20
20.93723
 30
0.0
 11
47.041754
 21
19.13723
 31
0.0
  0
LINE
  5
984D
  8
ALPHA
 10
46.455739
 20
18.93723
 30
0.0
 11
46.455739
 21
20.93723
 31
0.0
  0
LINE
  5
984E
  8
ALPHA
 10
47.466739
 20
19.13723
 30
0.0
 11
47.041754
 21
19.13723
 31
0.0
  0
LINE
  5
984F
  8
ALPHA
 10
47.501409
 20
18.93723
 30
0.0
 11
46.455739
 21
18.93723
 31
0.0
  0
LINE
  5
9850
  8
ALPHA
 10
48.209627
 20
24.079911
 30
0.0
 11
48.349508
 21
23.795537
 31
0.0
  0
LINE
  5
9851
  8
ALPHA
 10
48.212757
 20
23.716584
 30
0.0
 11
48.036422
 21
23.979911
 31
0.0
  0
LINE
  5
9852
  8
ALPHA
 10
48.349508
 20
23.795537
 30
0.0
 11
48.348757
 21
23.63893
 31
0.0
  0
LINE
  5
9853
  8
ALPHA
 10
48.348757
 20
23.63893
 30
0.0
 11
48.212757
 21
23.716584
 31
0.0
  0
LINE
  5
9854
  8
ALPHA
 10
47.924416
 20
24.569057
 30
0.0
 11
47.922334
 21
24.577517
 31
0.0
  0
LINE
  5
9855
  8
ALPHA
 10
47.749129
 20
24.477517
 30
0.0
 11
47.755415
 21
24.471484
 31
0.0
  0
ARC
  5
9856
  8
ALPHA
 10
44.423757
 20
30.43723
 30
0.0
 40
7.399211
 50
299.225627
 51
300.774373
  0
LINE
  5
9857
  8
ALPHA
 10
48.123025
 20
24.029911
 30
0.0
 11
48.348757
 21
23.63893
 31
0.0
  0
LINE
  5
9858
  8
ALPHA
 10
51.597307
 20
18.93723
 30
0.0
 11
50.375065
 21
18.93723
 31
0.0
  0
LINE
  5
9859
  8
ALPHA
 10
50.375065
 20
18.93723
 30
0.0
 11
50.375065
 21
20.93723
 31
0.0
  0
LINE
  5
985A
  8
ALPHA
 10
49.923757
 20
17.48723
 30
0.0
 11
49.923757
 21
18.78723
 31
0.0
  0
POLYLINE
  5
985B
  8
ALPHA
 66
     1
 10
0.0
 20
0.0
 30
0.0
 70
   128
  0
VERTEX
  5
9B05
  8
ALPHA
 10
51.51246
 20
18.93723
 30
0.0
  0
VERTEX
  5
9B06
  8
ALPHA
 10
51.661414
 20
18.993344
 30
0.0
  0
VERTEX
  5
9B07
  8
ALPHA
 10
51.726884
 20
19.13723
 30
0.0
  0
SEQEND
  5
9B08
  8
ALPHA
  0
POLYLINE
  5
985C
  8
ALPHA
 66
     1
 10
0.0
 20
0.0
 30
0.0
 70
   128
  0
VERTEX
  5
9B09
  8
ALPHA
 10
50.944531
 20
18.93723
 30
0.0
  0
VERTEX
  5
9B0A
  8
ALPHA
 10
51.098668
 20
18.991726
 30
0.0
  0
VERTEX
  5
9B0B
  8
ALPHA
 10
51.169146
 20
19.13723
 30
0.0
  0
SEQEND
  5
9B0C
  8
ALPHA
  0
POLYLINE
  5
985D
  8
ALPHA
 66
     1
 10
0.0
 20
0.0
 30
0.0
 70
   128
210
0.0
220
0.0
230
-1.0
  0
VERTEX
  5
9B0D
  8
ALPHA
 10
-51.786926
 20
19.13723
 30
0.0
  0
VERTEX
  5
9B0E
  8
ALPHA
 10
-51.733218
 20
18.997754
 30
0.0
  0
VERTEX
  5
9B0F
  8
ALPHA
 10
-51.597307
 20
18.93723
 30
0.0
  0
SEQEND
  5
9B10
  8
ALPHA
  0
POLYLINE
  5
985E
  8
ALPHA
 66
     1
 10
0.0
 20
0.0
 30
0.0
 70
   128
210
0.0
220
0.0
230
-1.0
  0
VERTEX
  5
9B11
  8
ALPHA
 10
-51.34518
 20
19.13723
 30
0.0
  0
VERTEX
  5
9B12
  8
ALPHA
 10
-51.307773
 20
19.005764
 30
0.0
  0
VERTEX
  5
9B13
  8
ALPHA
 10
-51.193288
 20
18.93723
 30
0.0
  0
SEQEND
  5
9B14
  8
ALPHA
  0
LINE
  5
985F
  8
ALPHA
 10
51.786926
 20
20.93723
 30
0.0
 11
51.786926
 21
19.13723
 31
0.0
  0
LINE
  5
9860
  8
ALPHA
 10
51.726884
 20
20.93723
 30
0.0
 11
51.726884
 21
19.13723
 31
0.0
  0
LINE
  5
9861
  8
ALPHA
 10
51.34518
 20
20.93723
 30
0.0
 11
51.34518
 21
19.13723
 31
0.0
  0
LINE
  5
9862
  8
ALPHA
 10
51.169146
 20
20.93723
 30
0.0
 11
51.169146
 21
19.13723
 31
0.0
  0
LINE
  5
9863
  8
ALPHA
 10
51.123757
 20
18.78723
 30
0.0
 11
51.123757
 21
18.93723
 31
0.0
  0
LINE
  5
9864
  8
ALPHA
 10
51.34518
 20
19.13723
 30
0.0
 11
51.169146
 21
19.13723
 31
0.0
  0
LINE
  5
9865
  8
ALPHA
 10
51.786926
 20
19.13723
 30
0.0
 11
51.726884
 21
19.13723
 31
0.0
  0
LINE
  5
9866
  8
ALPHA
 10
52.173152
 20
25.784712
 30
0.0
 11
52.112069
 21
25.672751
 31
0.0
  0
POLYLINE
  5
9867
  8
ALPHA
 66
     1
 10
0.0
 20
0.0
 30
0.0
 70
   128
210
0.0
220
0.0
230
-1.0
  0
VERTEX
  5
9B15
  8
ALPHA
 10
-52.423757
 20
26.831678
 30
0.0
  0
VERTEX
  5
9B16
  8
ALPHA
 10
-52.361721
 20
26.293007
 30
0.0
  0
VERTEX
  5
9B17
  8
ALPHA
 10
-52.173152
 20
25.784712
 30
0.0
  0
SEQEND
  5
9B18
  8
ALPHA
  0
LINE
  5
9868
  8
ALPHA
 10
52.138035
 20
25.801526
 30
0.0
 11
52.112073
 21
25.672751
 31
0.0
  0
LINE
  5
9869
  8
ALPHA
 10
48.349508
 20
37.078922
 30
0.0
 11
48.209627
 21
36.794549
 31
0.0
  0
LINE
  5
986A
  8
ALPHA
 10
48.036422
 20
36.894549
 30
0.0
 11
48.212757
 21
37.157875
 31
0.0
  0
LINE
  5
986B
  8
ALPHA
 10
48.348757
 20
37.235529
 30
0.0
 11
48.349508
 21
37.078922
 31
0.0
  0
LINE
  5
986C
  8
ALPHA
 10
48.212757
 20
37.157875
 30
0.0
 11
48.348757
 21
37.235529
 31
0.0
  0
LINE
  5
986D
  8
ALPHA
 10
47.755415
 20
36.402976
 30
0.0
 11
47.749129
 21
36.396943
 31
0.0
  0
LINE
  5
986E
  8
ALPHA
 10
47.922334
 20
36.296943
 30
0.0
 11
47.924416
 21
36.305402
 31
0.0
  0
ARC
  5
986F
  8
ALPHA
 10
44.423757
 20
30.43723
 30
0.0
 40
7.399211
 50
59.225627
 51
60.774373
  0
LINE
  5
9870
  8
ALPHA
 10
48.348757
 20
37.235529
 30
0.0
 11
48.123025
 21
36.844549
 31
0.0
  0
LINE
  5
9871
  8
ALPHA
 10
52.138507
 20
30.358276
 30
0.0
 11
51.822292
 21
30.33723
 31
0.0
  0
LINE
  5
9872
  8
ALPHA
 10
51.822292
 20
30.53723
 30
0.0
 11
52.138507
 21
30.516183
 31
0.0
  0
LINE
  5
9873
  8
ALPHA
 10
52.273757
 20
30.43723
 30
0.0
 11
52.138507
 21
30.358276
 31
0.0
  0
LINE
  5
9874
  8
ALPHA
 10
52.138507
 20
30.516183
 30
0.0
 11
52.273757
 21
30.43723
 31
0.0
  0
LINE
  5
9875
  8
ALPHA
 10
51.256074
 20
30.534803
 30
0.0
 11
51.247706
 21
30.53723
 31
0.0
  0
LINE
  5
9876
  8
ALPHA
 10
51.247706
 20
30.33723
 30
0.0
 11
51.256074
 21
30.339656
 31
0.0
  0
ARC
  5
9877
  8
ALPHA
 10
44.423757
 20
30.43723
 30
0.0
 40
7.399211
 50
359.225627
 51
0.774373
  0
LINE
  5
9878
  8
ALPHA
 10
52.273757
 20
30.43723
 30
0.0
 11
51.822968
 21
30.43723
 31
0.0
  0
VIEWPORT
  5
494D
 67
     1
  8
0
 10
4.995325
 20
6.556512
 30
0.0
 40
22.70986
 41
13.988421
 68
    -1
 69
     1
1001
ACAD
1000
MVIEW
1002
{
1070
    16
1010
0.0
1020
0.0
1030
0.0
1010
0.0
1020
0.0
1030
1.0
1040
0.0
1040
13.988421
1040
4.995325
1040
6.556512
1040
50.0
1040
0.0
1040
0.0
1070
     0
1070
   100
1070
     1
1070
     1
1070
     0
1070
     0
1070
     0
1070
     0
1040
0.0
1040
0.0
1040
0.0
1040
10.0
1040
10.0
1040
10.0
1040
10.0
1070
     0
1002
{
1002
}
1002
}
  0
ENDSEC
  0
EOF
