  0
SECTION
  2
HEADER
  9
$ACADVER
  1
AC1009
  9
$INSBASE
 10
-146.27124
 20
-153.796096
 30
0.0
  9
$EXTMIN
 10
901.277294
 20
-6.697716
 30
0.0
  9
$EXTMAX
 10
996.877288
 20
63.933441
 30
0.0
  9
$LIMMIN
 10
-407.970438
 20
-367.832444
  9
$LIMMAX
 10
429.804077
 20
234.370848
  9
$ORTHOMODE
 70
     0
  9
$REGENMODE
 70
     1
  9
$FILLMODE
 70
     1
  9
$QTEXTMODE
 70
     0
  9
$MIRRTEXT
 70
     1
  9
$DRAGMODE
 70
     2
  9
$LTSCALE
 40
10.0
  9
$OSMODE
 70
    37
  9
$ATTMODE
 70
     1
  9
$TEXTSIZE
 40
6.0
  9
$TRACEWID
 40
1.0
  9
$TEXTSTYLE
  7
ROMANS
  9
$CLAYER
  8
COTATION1
  9
$CELTYPE
  6
BYLAYER
  9
$CECOLOR
 62
   256
  9
$DIMSCALE
 40
1.0
  9
$DIMASZ
 40
2.0
  9
$DIMEXO
 40
0.5
  9
$DIMDLI
 40
0.38
  9
$DIMRND
 40
0.0
  9
$DIMDLE
 40
0.0
  9
$DIMEXE
 40
0.18
  9
$DIMTP
 40
0.0
  9
$DIMTM
 40
0.0
  9
$DIMTXT
 40
2.0
  9
$DIMCEN
 40
0.09
  9
$DIMTSZ
 40
0.0
  9
$DIMTOL
 70
     0
  9
$DIMLIM
 70
     0
  9
$DIMTIH
 70
     0
  9
$DIMTOH
 70
     1
  9
$DIMSE1
 70
     0
  9
$DIMSE2
 70
     0
  9
$DIMTAD
 70
     1
  9
$DIMZIN
 70
    12
  9
$DIMBLK
  1
OPEN30
  9
$DIMASO
 70
     1
  9
$DIMSHO
 70
     1
  9
$DIMPOST
  1

  9
$DIMAPOST
  1

  9
$DIMALT
 70
     0
  9
$DIMALTD
 70
     2
  9
$DIMALTF
 40
25.4
  9
$DIMLFAC
 40
1.0
  9
$DIMTOFL
 70
     0
  9
$DIMTVP
 40
0.0
  9
$DIMTIX
 70
     0
  9
$DIMSOXD
 70
     0
  9
$DIMSAH
 70
     0
  9
$DIMBLK1
  1

  9
$DIMBLK2
  1

  9
$DIMSTYLE
  2
ROMANS
  9
$DIMCLRD
 70
     0
  9
$DIMCLRE
 70
     0
  9
$DIMCLRT
 70
     0
  9
$DIMTFAC
 40
1.0
  9
$DIMGAP
 40
0.5
  9
$LUNITS
 70
     2
  9
$LUPREC
 70
     1
  9
$SKETCHINC
 40
0.1
  9
$FILLETRAD
 40
0.0
  9
$AUNITS
 70
     0
  9
$AUPREC
 70
     0
  9
$MENU
  1
acad
  9
$ELEVATION
 40
0.0
  9
$PELEVATION
 40
0.0
  9
$THICKNESS
 40
0.0
  9
$LIMCHECK
 70
     0
  9
$BLIPMODE
 70
     0
  9
$CHAMFERA
 40
0.0
  9
$CHAMFERB
 40
0.0
  9
$SKPOLY
 70
     0
  9
$TDCREATE
 40
2450365.355314
  9
$TDUPDATE
 40
2452608.417024
  9
$TDINDWG
 40
0.561925
  9
$TDUSRTIMER
 40
0.561925
  9
$USRTIMER
 70
     1
  9
$ANGBASE
 50
0.0
  9
$ANGDIR
 70
     0
  9
$PDMODE
 70
    32
  9
$PDSIZE
 40
0.0
  9
$PLINEWID
 40
0.0
  9
$COORDS
 70
     2
  9
$SPLFRAME
 70
     0
  9
$SPLINETYPE
 70
     6
  9
$SPLINESEGS
 70
     8
  9
$ATTDIA
 70
     0
  9
$ATTREQ
 70
     1
  9
$HANDLING
 70
     1
  9
$HANDSEED
  5
4185
  9
$SURFTAB1
 70
     6
  9
$SURFTAB2
 70
     6
  9
$SURFTYPE
 70
     6
  9
$SURFU
 70
     6
  9
$SURFV
 70
     6
  9
$UCSNAME
  2

  9
$UCSORG
 10
0.0
 20
0.0
 30
0.0
  9
$UCSXDIR
 10
1.0
 20
0.0
 30
0.0
  9
$UCSYDIR
 10
0.0
 20
1.0
 30
0.0
  9
$PUCSNAME
  2

  9
$PUCSORG
 10
0.0
 20
0.0
 30
0.0
  9
$PUCSXDIR
 10
1.0
 20
0.0
 30
0.0
  9
$PUCSYDIR
 10
0.0
 20
1.0
 30
0.0
  9
$USERI1
 70
     0
  9
$USERI2
 70
     0
  9
$USERI3
 70
     0
  9
$USERI4
 70
     0
  9
$USERI5
 70
     0
  9
$USERR1
 40
0.0
  9
$USERR2
 40
0.0
  9
$USERR3
 40
0.0
  9
$USERR4
 40
0.0
  9
$USERR5
 40
0.0
  9
$WORLDVIEW
 70
     1
  9
$SHADEDGE
 70
     3
  9
$SHADEDIF
 70
    70
  9
$TILEMODE
 70
     1
  9
$MAXACTVP
 70
    16
  9
$PLIMCHECK
 70
     0
  9
$PEXTMIN
 10
1.000000E+020
 20
1.000000E+020
 30
1.000000E+020
  9
$PEXTMAX
 10
-1.000000E+020
 20
-1.000000E+020
 30
-1.000000E+020
  9
$PLIMMIN
 10
0.0
 20
0.0
  9
$PLIMMAX
 10
12.0
 20
9.0
  9
$UNITMODE
 70
     0
  9
$VISRETAIN
 70
     0
  9
$PLINEGEN
 70
     0
  9
$PSLTSCALE
 70
     0
  0
ENDSEC
  0
SECTION
  2
TABLES
  0
TABLE
  2
VPORT
 70
     2
  0
VPORT
  2
*ACTIVE
 70
     0
 10
0.0
 20
0.0
 11
1.0
 21
1.0
 12
949.031856
 22
28.603968
 13
0.0
 23
0.0
 14
1.0
 24
1.0
 15
10.0
 25
10.0
 16
0.0
 26
0.0
 36
1.0
 17
0.0
 27
0.0
 37
0.0
 40
71.302067
 41
1.63142
 42
50.0
 43
0.0
 44
0.0
 50
0.0
 51
0.0
 71
     0
 72
   100
 73
     1
 74
     0
 75
     0
 76
     0
 77
     0
 78
     0
  0
ENDTAB
  0
TABLE
  2
LTYPE
 70
    26
  0
LTYPE
  2
CONTINUOUS
 70
     0
  3
Solid line
 72
    65
 73
     0
 40
0.0
  0
LTYPE
  2
AXES2
 70
     0
  3
___ _ ___ _ ___ _ ___ _ ___ _ ___ _ ___ _ ___ _
 72
    65
 73
     4
 40
1.125
 49
0.75
 49
-0.125
 49
0.125
 49
-0.125
  0
LTYPE
  2
ACAD_ISO04W100
 70
     0
  3
ISO Lang gestrichelt punktiert ____ . ____ . __
 72
    65
 73
     4
 40
30.5
 49
24.0
 49
-3.0
 49
0.5
 49
-3.0
  0
LTYPE
  2
AXES
 70
     0
  3
____ _ ____ _ ____ _ ____ _ ____ _ ____ _ ____ 
 72
    65
 73
     4
 40
2.0
 49
1.25
 49
-0.25
 49
0.25
 49
-0.25
  0
LTYPE
  2
AXESX2
 70
     0
  3
________  __  ________  __  ________  __  _____
 72
    65
 73
     4
 40
4.0
 49
2.5
 49
-0.5
 49
0.5
 49
-0.5
  0
LTYPE
  2
TIRETPT
 70
     0
  3
__ . __ . __ . __ . __ . __ . __ . __ . __ . __
 72
    65
 73
     4
 40
1.0
 49
0.5
 49
-0.25
 49
0.0
 49
-0.25
  0
LTYPE
  2
TIRETPT2
 70
     0
  3
_._._._._._._._._._._._._._._._._._._._._._._._
 72
    65
 73
     4
 40
0.5
 49
0.25
 49
-0.125
 49
0.0
 49
-0.125
  0
LTYPE
  2
TIRETPTX2
 70
     0
  3
____  .  ____  .  ____  .  ____  .  ____  .  __
 72
    65
 73
     4
 40
2.0
 49
1.0
 49
-0.5
 49
0.0
 49
-0.5
  0
LTYPE
  2
DISCONTINU
 70
     0
  3
__ __ __ __ __ __ __ __ __ __ __ __ __ __ __ __
 72
    65
 73
     2
 40
0.75
 49
0.5
 49
-0.25
  0
LTYPE
  2
DISCONTINU2
 70
     0
  3
_ _ _ _ _ _ _ _ _ _ _ _ _ _ _ _ _ _ _ _ _ _ _ _
 72
    65
 73
     2
 40
0.375
 49
0.25
 49
-0.125
  0
LTYPE
  2
DISCONTINUX2
 70
     0
  3
____  ____  ____  ____  ____  ____  ____  ____ 
 72
    65
 73
     2
 40
1.5
 49
1.0
 49
-0.5
  0
LTYPE
  2
DIVISE
 70
     0
  3
____ . . ____ . . ____ . . ____ . . ____ . . __
 72
    65
 73
     6
 40
1.25
 49
0.5
 49
-0.25
 49
0.0
 49
-0.25
 49
0.0
 49
-0.25
  0
LTYPE
  2
DIVISE2
 70
     0
  3
__..__..__..__..__..__..__..__..__..__..__..__.
 72
    65
 73
     6
 40
0.625
 49
0.25
 49
-0.125
 49
0.0
 49
-0.125
 49
0.0
 49
-0.125
  0
LTYPE
  2
DIVISEX2
 70
     0
  3
________  .  .  ________  .  .  ________  .  . 
 72
    65
 73
     6
 40
2.5
 49
1.0
 49
-0.5
 49
0.0
 49
-0.5
 49
0.0
 49
-0.5
  0
LTYPE
  2
POINTILLE
 70
     0
  3
. . . . . . . . . . . . . . . . . . . . . . . .
 72
    65
 73
     2
 40
0.25
 49
0.0
 49
-0.25
  0
LTYPE
  2
POINTILLE2
 70
     0
  3
...............................................
 72
    65
 73
     2
 40
0.125
 49
0.0
 49
-0.125
  0
LTYPE
  2
POINTILLEX2
 70
     0
  3
.  .  .  .  .  .  .  .  .  .  .  .  .  .  .  . 
 72
    65
 73
     2
 40
0.5
 49
0.0
 49
-0.5
  0
LTYPE
  2
CACHE
 70
     0
  3
__ __ __ __ __ __ __ __ __ __ __ __ __ __ __ __
 72
    65
 73
     2
 40
0.375
 49
0.25
 49
-0.125
  0
LTYPE
  2
CACHE2
 70
     0
  3
_ _ _ _ _ _ _ _ _ _ _ _ _ _ _ _ _ _ _ _ _ _ _ _
 72
    65
 73
     2
 40
0.1875
 49
0.125
 49
-0.0625
  0
LTYPE
  2
CACHEX2
 70
     0
  3
____ ____ ____ ____ ____ ____ ____ ____ ____ __
 72
    65
 73
     2
 40
0.75
 49
0.5
 49
-0.25
  0
LTYPE
  2
FANTOME
 70
     0
  3
______  __  __  ______  __  __  ______  __  __ 
 72
    65
 73
     6
 40
2.5
 49
1.25
 49
-0.25
 49
0.25
 49
-0.25
 49
0.25
 49
-0.25
  0
LTYPE
  2
FANTOME2
 70
     0
  3
___ _ _ ___ _ _ ___ _ _ ___ _ _ ___ _ _ ___ _ _
 72
    65
 73
     6
 40
1.25
 49
0.625
 49
-0.125
 49
0.125
 49
-0.125
 49
0.125
 49
-0.125
  0
LTYPE
  2
FANTOMEX2
 70
     0
  3
____________    ____    ____    ____________   
 72
    65
 73
     6
 40
5.0
 49
2.5
 49
-0.5
 49
0.5
 49
-0.5
 49
0.5
 49
-0.5
  0
LTYPE
  2
0
 70
     0
  3
MEDUSA PEN 0
 72
    65
 73
     0
 40
0.0
  0
LTYPE
  2
AI9-LTYPE1
 70
     0
  3
Illustrator Dash Style No.1
 72
    65
 73
     4
 40
5.64621
 49
4.106333
 49
-0.307975
 49
0.923926
 49
-0.307975
  0
LTYPE
  2
AI9-LTYPE2
 70
     0
  3
Illustrator Dash Style No.2
 72
    65
 73
     2
 40
1.33456
 49
1.026585
 49
-0.307975
  0
ENDTAB
  0
TABLE
  2
LAYER
 70
    17
  0
LAYER
  2
0
 70
     0
 62
     7
  6
CONTINUOUS
  0
LAYER
  2
TEXTE_MOYEN
 70
     0
 62
   131
  6
CONTINUOUS
  0
LAYER
  2
ALPHA
 70
     0
 62
   254
  6
CONTINUOUS
  0
LAYER
  2
COTATION1
 70
     0
 62
    50
  6
CONTINUOUS
  0
LAYER
  2
AXE
 70
     0
 62
    80
  6
AXES2
  0
LAYER
  2
DEFPOINTS
 70
     0
 62
     7
  6
CONTINUOUS
  0
LAYER
  2
HACHURES1
 70
     0
 62
   130
  6
CONTINUOUS
  0
LAYER
  2
FMULT
 70
     0
 62
   210
  6
CONTINUOUS
  0
LAYER
  2
FDP_CARTOUCHE
 70
     0
 62
   136
  6
CONTINUOUS
  0
LAYER
  2
FDP_TEXTES
 70
     0
 62
   171
  6
CONTINUOUS
  0
LAYER
  2
FDP_LOGO_MG
 70
     0
 62
    30
  6
CONTINUOUS
  0
LAYER
  2
FDP_LOGO_SCH
 70
     0
 62
    90
  6
CONTINUOUS
  0
LAYER
  2
FDP_FDP
 70
     0
 62
   170
  6
CONTINUOUS
  0
LAYER
  2
POINTILLE_COURT2
 70
     0
 62
    41
  6
CACHE2
  0
LAYER
  2
POINTILLE_MOYEN2
 70
     0
 62
   141
  6
CACHE
  0
LAYER
  2
POINTILLE_LONG2
 70
     0
 62
   241
  6
CACHEX2
  0
LAYER
  2
ALPHA_FIN
 70
     0
 62
   255
  6
CONTINUOUS
  0
ENDTAB
  0
TABLE
  2
STYLE
 70
     5
  0
STYLE
  2
ROMANS
 70
     0
 40
0.0
 41
1.0
 50
0.0
 71
     0
 42
6.0
  3
romans
  4

  0
STYLE
  2
STANDARD
 70
     0
 40
0.2
 41
1.0
 50
0.0
 71
     0
 42
0.2
  3
txt
  4

  0
STYLE
  2
STD
 70
     0
 40
0.0
 41
1.0
 50
0.0
 71
     0
 42
0.0
  3
txt
  4

  0
STYLE
  2
INFOCAR
 70
     0
 40
0.0
 41
1.34
 50
0.0
 71
     0
 42
2.0
  3
ROMANS.SHX
  4

  0
STYLE
  2
CARTOUCHE
 70
     0
 40
0.0
 41
1.0
 50
0.0
 71
     0
 42
0.2
  3
ROMANS.SHX
  4

  0
ENDTAB
  0
TABLE
  2
VIEW
 70
     0
  0
ENDTAB
  0
TABLE
  2
UCS
 70
     0
  0
ENDTAB
  0
TABLE
  2
APPID
 70
     3
  0
APPID
  2
ACAD
 70
     0
  0
APPID
  2
AVE_RENDER
 70
     0
  0
APPID
  2
AVE_MATERIAL
 70
     0
  0
ENDTAB
  0
TABLE
  2
DIMSTYLE
 70
     3
  0
DIMSTYLE
  2
SC_DEFAUT
 70
     0
  3

  4

  5
OPEN30
  6

  7

 40
1.0
 41
2.0
 42
0.3
 43
0.1
 44
0.5
 45
0.0
 46
0.0
 47
0.0
 48
0.0
140
2.0
141
1.0
142
0.0
143
25.4
144
1.0
145
0.0
146
1.0
147
0.6
 71
     0
 72
     0
 73
     0
 74
     0
 75
     0
 76
     0
 77
     1
 78
    12
170
     0
171
     2
172
     0
173
     0
174
     0
175
     0
176
     0
177
     0
178
     0
  0
DIMSTYLE
  2
ROMANS
 70
     0
  3

  4

  5
OPEN30
  6

  7

 40
1.0
 41
2.0
 42
0.5
 43
0.38
 44
0.18
 45
0.0
 46
0.0
 47
0.0
 48
0.0
140
2.0
141
0.09
142
0.0
143
25.4
144
1.0
145
0.0
146
1.0
147
0.5
 71
     0
 72
     0
 73
     0
 74
     1
 75
     0
 76
     0
 77
     1
 78
    12
170
     0
171
     2
172
     0
173
     0
174
     0
175
     0
176
     0
177
     0
178
     0
  0
DIMSTYLE
  2
SC_DEFAUT-2
 70
     0
  3

  4

  5
OPEN30
  6

  7

 40
1.0
 41
2.0
 42
0.3
 43
0.1
 44
0.5
 45
0.0
 46
0.0
 47
0.0
 48
0.0
140
2.0
141
0.0
142
0.0
143
25.4
144
1.0
145
0.0
146
1.0
147
0.6
 71
     0
 72
     0
 73
     0
 74
     1
 75
     0
 76
     0
 77
     1
 78
    12
170
     0
171
     2
172
     0
173
     0
174
     0
175
     0
176
     0
177
     0
178
     0
  0
ENDTAB
  0
ENDSEC
  0
SECTION
  2
BLOCKS
  0
BLOCK
  8
0
  2
$MODEL_SPACE
 70
     0
 10
0.0
 20
0.0
 30
0.0
  3
$MODEL_SPACE
  1

  0
ENDBLK
  5
408E
  8
0
  0
BLOCK
 67
     1
  8
0
  2
$PAPER_SPACE
 70
     0
 10
0.0
 20
0.0
 30
0.0
  3
$PAPER_SPACE
  1

  0
ENDBLK
  5
408C
 67
     1
  8
0
  0
BLOCK
  8
0
  2
COTE
 70
     0
 10
0.0
 20
0.0
 30
0.0
  3
COTE
  1

  0
ENDBLK
  5
35
  8
0
  0
BLOCK
  8
0
  2
FOND
 70
     0
 10
0.0
 20
0.0
 30
0.0
  3
FOND
  1

  0
ENDBLK
  5
39
  8
0
  0
BLOCK
  8
0
  2
SCH_ISO
 70
     0
 10
0.0
 20
0.0
 30
0.0
  3
SCH_ISO
  1

  0
ENDBLK
  5
24AD
  8
0
  0
BLOCK
  8
0
  2
_OPEN30
 70
     0
 10
0.0
 20
0.0
 30
0.0
  3
_OPEN30
  1

  0
LINE
  5
27E1
  8
COTATION1
 62
     0
 10
-1.0
 20
0.267949
 30
0.0
 11
0.0
 21
0.0
 31
0.0
1001
ACAD
1000
RTLwPs
1070
   158
  0
LINE
  5
27E2
  8
COTATION1
 62
     0
 10
0.0
 20
0.0
 30
0.0
 11
-1.0
 21
-0.267949
 31
0.0
1001
ACAD
1000
RTLwPs
1070
   158
  0
LINE
  5
27E3
  8
COTATION1
 62
     0
 10
0.0
 20
0.0
 30
0.0
 11
-1.0
 21
0.0
 31
0.0
1001
ACAD
1000
RTLwPs
1070
   158
  0
ENDBLK
  5
27E5
  8
0
  0
BLOCK
  8
0
  2
*D4
 70
     1
 10
0.0
 20
0.0
 30
0.0
  3
*D4
  1

  0
LINE
  5
3BD9
  8
COTATION1
 62
     0
 10
993.11616
 20
39.150568
 30
0.0
 11
986.51616
 21
39.150568
 31
0.0
1001
ACAD
1000
RTLwPs
1070
   158
  0
LINE
  5
3BDA
  8
COTATION1
 62
     0
 10
986.51616
 20
39.150568
 30
0.0
 11
978.701621
 21
28.556194
 31
0.0
1001
ACAD
1000
RTLwPs
1070
   158
  0
TEXT
  5
3BDB
  8
COTATION1
 62
     0
 10
986.925684
 20
39.750568
 30
0.0
 40
2.0
  1
%%c6.5
1001
ACAD
1000
MTEXTBEGIN
1070
    73
1070
     1
1070
    44
1040
1.0
1070
    74
1070
     0
1000
MTEXTEND
1000
MTEXTBEGIN
1070
    73
1070
     1
1070
    44
1040
1.0
1070
    74
1070
     0
1000
MTEXTEND
  0
INSERT
  5
3BDC
  8
COTATION1
 62
     0
  2
_OPEN30
 10
977.51442
 20
26.946674
 30
0.0
 41
2.0
 42
2.0
 43
2.0
 50
233.587061
1001
ACAD
1000
RTLwPs
1070
   158
  0
POINT
  5
3BDD
  8
DEFPOINTS
 62
     0
 10
977.51442
 20
26.946674
 30
0.0
  0
POINT
  5
3BDE
  8
DEFPOINTS
 62
     0
 10
973.656016
 20
21.715736
 30
0.0
  0
ENDBLK
  5
3B3C
  8
0
  0
BLOCK
  8
0
  2
*D5
 70
     1
 10
0.0
 20
0.0
 30
0.0
  3
*D5
  1

  0
LINE
  5
3DDA
  8
COTATION1
 62
     0
 10
923.577294
 20
22.431247
 30
0.0
 11
913.377294
 21
22.431247
 31
0.0
1001
ACAD
1000
RTLwPs
1070
   158
  0
LINE
  5
3DDB
  8
COTATION1
 62
     0
 10
934.285205
 20
24.331205
 30
0.0
 11
913.377294
 21
24.331205
 31
0.0
1001
ACAD
1000
RTLwPs
1070
   158
  0
LINE
  5
3DDC
  8
COTATION1
 62
     0
 10
913.877294
 20
20.431247
 30
0.0
 11
913.877294
 21
18.431247
 31
0.0
1001
ACAD
1000
RTLwPs
1070
   158
  0
LINE
  5
3DDD
  8
COTATION1
 62
     0
 10
913.877294
 20
26.331205
 30
0.0
 11
913.877294
 21
33.340729
 31
0.0
1001
ACAD
1000
RTLwPs
1070
   158
  0
INSERT
  5
3DDE
  8
COTATION1
 62
     0
  2
_OPEN30
 10
913.877294
 20
22.431247
 30
0.0
 41
2.0
 42
2.0
 43
2.0
 50
90.0
1001
ACAD
1000
RTLwPs
1070
   158
  0
INSERT
  5
3DDF
  8
COTATION1
 62
     0
  2
_OPEN30
 10
913.877294
 20
24.331205
 30
0.0
 41
2.0
 42
2.0
 43
2.0
 50
270.0
1001
ACAD
1000
RTLwPs
1070
   158
  0
TEXT
  5
3DE0
  8
COTATION1
 62
     0
 10
913.277294
 20
28.359776
 30
0.0
 40
2.0
  1
1.9
 50
90.0
1001
ACAD
1000
MTEXTBEGIN
1070
    73
1070
     1
1070
    44
1040
1.0
1070
    74
1070
     0
1000
MTEXTEND
  0
POINT
  5
3DE1
  8
DEFPOINTS
 62
     0
 10
923.877294
 20
22.431247
 30
0.0
  0
POINT
  5
3DE2
  8
DEFPOINTS
 62
     0
 10
934.585205
 20
24.331205
 30
0.0
  0
POINT
  5
3DE3
  8
DEFPOINTS
 62
     0
 10
913.877294
 20
24.331205
 30
0.0
  0
ENDBLK
  5
3B93
  8
0
  0
BLOCK
  8
0
  2
*D6
 70
     1
 10
0.0
 20
0.0
 30
0.0
  3
*D6
  1

  0
LINE
  5
3D8A
  8
COTATION1
 62
     0
 10
935.585205
 20
23.631205
 30
0.0
 11
935.585205
 21
51.833441
 31
0.0
1001
ACAD
1000
RTLwPs
1070
   158
  0
LINE
  5
3D8B
  8
COTATION1
 62
     0
 10
975.585218
 20
23.631205
 30
0.0
 11
975.585218
 21
51.833441
 31
0.0
1001
ACAD
1000
RTLwPs
1070
   158
  0
LINE
  5
3D8C
  8
COTATION1
 62
     0
 10
937.585205
 20
51.333441
 30
0.0
 11
973.585218
 21
51.333441
 31
0.0
1001
ACAD
1000
RTLwPs
1070
   158
  0
INSERT
  5
3D8D
  8
COTATION1
 62
     0
  2
_OPEN30
 10
935.585205
 20
51.333441
 30
0.0
 41
2.0
 42
2.0
 43
2.0
 50
180.0
1001
ACAD
1000
RTLwPs
1070
   158
  0
INSERT
  5
3D8E
  8
COTATION1
 62
     0
  2
_OPEN30
 10
975.585218
 20
51.333441
 30
0.0
 41
2.0
 42
2.0
 43
2.0
1001
ACAD
1000
RTLwPs
1070
   158
  0
TEXT
  5
3D8F
  8
COTATION1
 62
     0
 10
953.680449
 20
51.933441
 30
0.0
 40
2.0
  1
40
1001
ACAD
1000
MTEXTBEGIN
1070
    73
1070
     1
1070
    44
1040
1.0
1070
    74
1070
     0
1000
MTEXTEND
  0
POINT
  5
3D90
  8
DEFPOINTS
 62
     0
 10
935.585205
 20
23.331205
 30
0.0
  0
POINT
  5
3D91
  8
DEFPOINTS
 62
     0
 10
975.585218
 20
23.331205
 30
0.0
  0
POINT
  5
3D92
  8
DEFPOINTS
 62
     0
 10
975.585218
 20
51.333441
 30
0.0
  0
ENDBLK
  5
3BAA
  8
0
  0
BLOCK
  8
0
  2
*D7
 70
     1
 10
0.0
 20
0.0
 30
0.0
  3
*D7
  1

  0
LINE
  5
3DBB
  8
COTATION1
 62
     0
 10
930.656496
 20
36.331184
 30
0.0
 11
903.377294
 21
36.331184
 31
0.0
1001
ACAD
1000
RTLwPs
1070
   158
  0
LINE
  5
3DBC
  8
COTATION1
 62
     0
 10
934.285205
 20
24.331205
 30
0.0
 11
903.377294
 21
24.331205
 31
0.0
1001
ACAD
1000
RTLwPs
1070
   158
  0
LINE
  5
3DBD
  8
COTATION1
 62
     0
 10
903.877294
 20
34.331184
 30
0.0
 11
903.877294
 21
26.331205
 31
0.0
1001
ACAD
1000
RTLwPs
1070
   158
  0
INSERT
  5
3DBE
  8
COTATION1
 62
     0
  2
_OPEN30
 10
903.877294
 20
36.331184
 30
0.0
 41
2.0
 42
2.0
 43
2.0
 50
90.0
1001
ACAD
1000
RTLwPs
1070
   158
  0
INSERT
  5
3DBF
  8
COTATION1
 62
     0
  2
_OPEN30
 10
903.877294
 20
24.331205
 30
0.0
 41
2.0
 42
2.0
 43
2.0
 50
270.0
1001
ACAD
1000
RTLwPs
1070
   158
  0
TEXT
  5
3DC0
  8
COTATION1
 62
     0
 10
903.277294
 20
28.283575
 30
0.0
 40
2.0
  1
12
 50
90.0
1001
ACAD
1000
MTEXTBEGIN
1070
    73
1070
     1
1070
    44
1040
1.0
1070
    74
1070
     0
1000
MTEXTEND
  0
POINT
  5
3DC1
  8
DEFPOINTS
 62
     0
 10
930.956496
 20
36.331184
 30
0.0
  0
POINT
  5
3DC2
  8
DEFPOINTS
 62
     0
 10
934.585205
 20
24.331205
 30
0.0
  0
POINT
  5
3DC3
  8
DEFPOINTS
 62
     0
 10
903.877294
 20
24.331205
 30
0.0
  0
ENDBLK
  5
3D1D
  8
0
  0
BLOCK
  8
0
  2
*D8
 70
     1
 10
0.0
 20
0.0
 30
0.0
  3
*D8
  1

  0
LINE
  5
3DA5
  8
COTATION1
 62
     0
 10
928.877294
 20
34.683274
 30
0.0
 11
928.877294
 21
61.833441
 31
0.0
1001
ACAD
1000
RTLwPs
1070
   158
  0
LINE
  5
3DA6
  8
COTATION1
 62
     0
 10
981.877288
 20
35.432739
 30
0.0
 11
981.877288
 21
61.833441
 31
0.0
1001
ACAD
1000
RTLwPs
1070
   158
  0
LINE
  5
3DA7
  8
COTATION1
 62
     0
 10
930.877294
 20
61.333441
 30
0.0
 11
979.877288
 21
61.333441
 31
0.0
1001
ACAD
1000
RTLwPs
1070
   158
  0
INSERT
  5
3DA8
  8
COTATION1
 62
     0
  2
_OPEN30
 10
928.877294
 20
61.333441
 30
0.0
 41
2.0
 42
2.0
 43
2.0
 50
180.0
1001
ACAD
1000
RTLwPs
1070
   158
  0
INSERT
  5
3DA9
  8
COTATION1
 62
     0
  2
_OPEN30
 10
981.877288
 20
61.333441
 30
0.0
 41
2.0
 42
2.0
 43
2.0
1001
ACAD
1000
RTLwPs
1070
   158
  0
TEXT
  5
3DAA
  8
COTATION1
 62
     0
 10
953.472529
 20
61.933441
 30
0.0
 40
2.0
  1
53
1001
ACAD
1000
MTEXTBEGIN
1070
    73
1070
     1
1070
    44
1040
1.0
1070
    74
1070
     0
1000
MTEXTEND
  0
POINT
  5
3DAB
  8
DEFPOINTS
 62
     0
 10
928.877294
 20
34.383274
 30
0.0
  0
POINT
  5
3DAC
  8
DEFPOINTS
 62
     0
 10
981.877288
 20
35.132739
 30
0.0
  0
POINT
  5
3DAD
  8
DEFPOINTS
 62
     0
 10
981.877288
 20
61.333441
 30
0.0
  0
ENDBLK
  5
3D3D
  8
0
  0
ENDSEC
  0
SECTION
  2
ENTITIES
  0
INSERT
  5
32
  8
0
  2
COTE
 10
0.0
 20
0.0
 30
0.0
  0
INSERT
  5
36
  8
0
  2
FOND
 10
0.0
 20
0.0
 30
0.0
  0
INSERT
  5
24AE
  8
ALPHA
  2
SCH_ISO
 10
-66.27012
 20
-238.940658
 30
0.0
  0
POLYLINE
  5
397D
  8
ALPHA
 66
     1
 10
0.0
 20
0.0
 30
0.0
 70
   128
  0
VERTEX
  5
4094
  8
ALPHA
 10
928.877294
 20
8.302284
 30
0.0
  0
VERTEX
  5
4095
  8
ALPHA
 10
928.877294
 20
8.420481
 30
0.0
  0
VERTEX
  5
4096
  8
ALPHA
 10
928.877294
 20
8.762428
 30
0.0
  0
VERTEX
  5
4097
  8
ALPHA
 10
928.877294
 20
9.309166
 30
0.0
  0
VERTEX
  5
4098
  8
ALPHA
 10
928.877294
 20
10.04173
 30
0.0
  0
VERTEX
  5
4099
  8
ALPHA
 10
928.877294
 20
10.941161
 30
0.0
  0
VERTEX
  5
409A
  8
ALPHA
 10
928.877294
 20
11.988494
 30
0.0
  0
VERTEX
  5
409B
  8
ALPHA
 10
928.877294
 20
13.164769
 30
0.0
  0
VERTEX
  5
409C
  8
ALPHA
 10
928.877294
 20
14.451024
 30
0.0
  0
VERTEX
  5
409D
  8
ALPHA
 10
928.877294
 20
17.277624
 30
0.0
  0
VERTEX
  5
409E
  8
ALPHA
 10
928.877294
 20
20.316598
 30
0.0
  0
VERTEX
  5
409F
  8
ALPHA
 10
928.877294
 20
26.424886
 30
0.0
  0
VERTEX
  5
40A0
  8
ALPHA
 10
928.877294
 20
29.190808
 30
0.0
  0
VERTEX
  5
40A1
  8
ALPHA
 10
928.877294
 20
30.435346
 30
0.0
  0
VERTEX
  5
40A2
  8
ALPHA
 10
928.877294
 20
31.56232
 30
0.0
  0
VERTEX
  5
40A3
  8
ALPHA
 10
928.877294
 20
32.552768
 30
0.0
  0
VERTEX
  5
40A4
  8
ALPHA
 10
928.877294
 20
33.387727
 30
0.0
  0
VERTEX
  5
40A5
  8
ALPHA
 10
928.877294
 20
34.048236
 30
0.0
  0
VERTEX
  5
40A6
  8
ALPHA
 10
928.877294
 20
34.515333
 30
0.0
  0
VERTEX
  5
40A7
  8
ALPHA
 10
928.877294
 20
34.770056
 30
0.0
  0
VERTEX
  5
40A8
  8
ALPHA
 10
928.877957
 20
34.846041
 30
0.0
  0
VERTEX
  5
40A9
  8
ALPHA
 10
928.900798
 20
35.012753
 30
0.0
  0
VERTEX
  5
40AA
  8
ALPHA
 10
929.039284
 20
35.346695
 30
0.0
  0
VERTEX
  5
40AB
  8
ALPHA
 10
929.291439
 20
35.663489
 30
0.0
  0
VERTEX
  5
40AC
  8
ALPHA
 10
929.645181
 20
35.941726
 30
0.0
  0
VERTEX
  5
40AD
  8
ALPHA
 10
930.088428
 20
36.159999
 30
0.0
  0
VERTEX
  5
40AE
  8
ALPHA
 10
930.6091
 20
36.296897
 30
0.0
  0
VERTEX
  5
40AF
  8
ALPHA
 10
930.894695
 20
36.328142
 30
0.0
  0
VERTEX
  5
40B0
  8
ALPHA
 10
931.043146
 20
36.333292
 30
0.0
  0
VERTEX
  5
40B1
  8
ALPHA
 10
931.327783
 20
36.333441
 30
0.0
  0
VERTEX
  5
40B2
  8
ALPHA
 10
932.00418
 20
36.333441
 30
0.0
  0
VERTEX
  5
40B3
  8
ALPHA
 10
933.047038
 20
36.333441
 30
0.0
  0
VERTEX
  5
40B4
  8
ALPHA
 10
934.422507
 20
36.333441
 30
0.0
  0
VERTEX
  5
40B5
  8
ALPHA
 10
936.096737
 20
36.333441
 30
0.0
  0
VERTEX
  5
40B6
  8
ALPHA
 10
938.035878
 20
36.333441
 30
0.0
  0
VERTEX
  5
40B7
  8
ALPHA
 10
940.20608
 20
36.333441
 30
0.0
  0
VERTEX
  5
40B8
  8
ALPHA
 10
942.573492
 20
36.333441
 30
0.0
  0
VERTEX
  5
40B9
  8
ALPHA
 10
945.104264
 20
36.333441
 30
0.0
  0
VERTEX
  5
40BA
  8
ALPHA
 10
950.520487
 20
36.333441
 30
0.0
  0
VERTEX
  5
40BB
  8
ALPHA
 10
956.18395
 20
36.333441
 30
0.0
  0
VERTEX
  5
40BC
  8
ALPHA
 10
961.82385
 20
36.333441
 30
0.0
  0
VERTEX
  5
40BD
  8
ALPHA
 10
967.169385
 20
36.333441
 30
0.0
  0
VERTEX
  5
40BE
  8
ALPHA
 10
969.647141
 20
36.333441
 30
0.0
  0
VERTEX
  5
40BF
  8
ALPHA
 10
971.949755
 20
36.333441
 30
0.0
  0
VERTEX
  5
40C0
  8
ALPHA
 10
974.043377
 20
36.333441
 30
0.0
  0
VERTEX
  5
40C1
  8
ALPHA
 10
975.894158
 20
36.333441
 30
0.0
  0
VERTEX
  5
40C2
  8
ALPHA
 10
977.468246
 20
36.333441
 30
0.0
  0
VERTEX
  5
40C3
  8
ALPHA
 10
978.731792
 20
36.333441
 30
0.0
  0
VERTEX
  5
40C4
  8
ALPHA
 10
979.650946
 20
36.333441
 30
0.0
  0
VERTEX
  5
40C5
  8
ALPHA
 10
980.191857
 20
36.333441
 30
0.0
  0
VERTEX
  5
40C6
  8
ALPHA
 10
980.704532
 20
36.305815
 30
0.0
  0
VERTEX
  5
40C7
  8
ALPHA
 10
981.112453
 20
36.192126
 30
0.0
  0
VERTEX
  5
40C8
  8
ALPHA
 10
981.444574
 20
35.987966
 30
0.0
  0
VERTEX
  5
40C9
  8
ALPHA
 10
981.692141
 20
35.690635
 30
0.0
  0
VERTEX
  5
40CA
  8
ALPHA
 10
981.846402
 20
35.297433
 30
0.0
  0
VERTEX
  5
40CB
  8
ALPHA
 10
981.8986
 20
34.80566
 30
0.0
  0
VERTEX
  5
40CC
  8
ALPHA
 10
981.883691
 20
34.521966
 30
0.0
  0
VERTEX
  5
40CD
  8
ALPHA
 10
981.877288
 20
34.336625
 30
0.0
  0
VERTEX
  5
40CE
  8
ALPHA
 10
981.877288
 20
33.964152
 30
0.0
  0
VERTEX
  5
40CF
  8
ALPHA
 10
981.877288
 20
33.402678
 30
0.0
  0
VERTEX
  5
40D0
  8
ALPHA
 10
981.877288
 20
32.669587
 30
0.0
  0
VERTEX
  5
40D1
  8
ALPHA
 10
981.877288
 20
31.78226
 30
0.0
  0
VERTEX
  5
40D2
  8
ALPHA
 10
981.877288
 20
30.758077
 30
0.0
  0
VERTEX
  5
40D3
  8
ALPHA
 10
981.877288
 20
28.368672
 30
0.0
  0
VERTEX
  5
40D4
  8
ALPHA
 10
981.877288
 20
25.640425
 30
0.0
  0
VERTEX
  5
40D5
  8
ALPHA
 10
981.877288
 20
19.723607
 30
0.0
  0
VERTEX
  5
40D6
  8
ALPHA
 10
981.877288
 20
16.81314
 30
0.0
  0
VERTEX
  5
40D7
  8
ALPHA
 10
981.877288
 20
14.120036
 30
0.0
  0
VERTEX
  5
40D8
  8
ALPHA
 10
981.877288
 20
11.783347
 30
0.0
  0
VERTEX
  5
40D9
  8
ALPHA
 10
981.877288
 20
10.792111
 30
0.0
  0
VERTEX
  5
40DA
  8
ALPHA
 10
981.877288
 20
9.942124
 30
0.0
  0
VERTEX
  5
40DB
  8
ALPHA
 10
981.877288
 20
9.250766
 30
0.0
  0
VERTEX
  5
40DC
  8
ALPHA
 10
981.877288
 20
8.735419
 30
0.0
  0
VERTEX
  5
40DD
  8
ALPHA
 10
981.877288
 20
8.413465
 30
0.0
  0
VERTEX
  5
40DE
  8
ALPHA
 10
981.877288
 20
8.302284
 30
0.0
  0
SEQEND
  5
40DF
  8
ALPHA
  0
POLYLINE
  5
397E
  8
ALPHA
 66
     1
 10
0.0
 20
0.0
 30
0.0
 70
   128
  0
VERTEX
  5
40E0
  8
ALPHA
 10
981.877288
 20
8.302284
 30
0.0
  0
VERTEX
  5
40E1
  8
ALPHA
 10
981.72525
 20
8.302284
 30
0.0
  0
VERTEX
  5
40E2
  8
ALPHA
 10
981.282073
 20
8.302284
 30
0.0
  0
VERTEX
  5
40E3
  8
ALPHA
 10
980.567169
 20
8.302284
 30
0.0
  0
VERTEX
  5
40E4
  8
ALPHA
 10
979.599945
 20
8.302284
 30
0.0
  0
VERTEX
  5
40E5
  8
ALPHA
 10
978.399811
 20
8.302284
 30
0.0
  0
VERTEX
  5
40E6
  8
ALPHA
 10
976.986175
 20
8.302284
 30
0.0
  0
VERTEX
  5
40E7
  8
ALPHA
 10
975.378449
 20
8.302284
 30
0.0
  0
VERTEX
  5
40E8
  8
ALPHA
 10
973.596039
 20
8.302284
 30
0.0
  0
VERTEX
  5
40E9
  8
ALPHA
 10
971.658356
 20
8.302284
 30
0.0
  0
VERTEX
  5
40EA
  8
ALPHA
 10
969.584809
 20
8.302284
 30
0.0
  0
VERTEX
  5
40EB
  8
ALPHA
 10
965.107759
 20
8.302284
 30
0.0
  0
VERTEX
  5
40EC
  8
ALPHA
 10
960.320162
 20
8.302284
 30
0.0
  0
VERTEX
  5
40ED
  8
ALPHA
 10
955.377291
 20
8.302284
 30
0.0
  0
VERTEX
  5
40EE
  8
ALPHA
 10
950.43442
 20
8.302284
 30
0.0
  0
VERTEX
  5
40EF
  8
ALPHA
 10
945.646823
 20
8.302284
 30
0.0
  0
VERTEX
  5
40F0
  8
ALPHA
 10
941.169773
 20
8.302284
 30
0.0
  0
VERTEX
  5
40F1
  8
ALPHA
 10
939.096226
 20
8.302284
 30
0.0
  0
VERTEX
  5
40F2
  8
ALPHA
 10
937.158543
 20
8.302284
 30
0.0
  0
VERTEX
  5
40F3
  8
ALPHA
 10
935.376133
 20
8.302284
 30
0.0
  0
VERTEX
  5
40F4
  8
ALPHA
 10
933.768406
 20
8.302284
 30
0.0
  0
VERTEX
  5
40F5
  8
ALPHA
 10
932.354771
 20
8.302284
 30
0.0
  0
VERTEX
  5
40F6
  8
ALPHA
 10
931.154637
 20
8.302284
 30
0.0
  0
VERTEX
  5
40F7
  8
ALPHA
 10
930.187413
 20
8.302284
 30
0.0
  0
VERTEX
  5
40F8
  8
ALPHA
 10
929.472508
 20
8.302284
 30
0.0
  0
VERTEX
  5
40F9
  8
ALPHA
 10
929.029332
 20
8.302284
 30
0.0
  0
VERTEX
  5
40FA
  8
ALPHA
 10
928.877294
 20
8.302284
 30
0.0
  0
SEQEND
  5
40FB
  8
ALPHA
  0
LINE
  5
3983
  8
ALPHA
 10
964.009257
 20
33.281306
 30
0.0
 11
946.809667
 21
33.281306
 31
0.0
  0
CIRCLE
  5
3985
  8
ALPHA
 10
955.439846
 20
22.431247
 30
0.0
 40
6.137221
  0
POLYLINE
  5
399D
  8
ALPHA
 66
     1
 10
0.0
 20
0.0
 30
0.0
 70
   128
  0
VERTEX
  5
40FC
  8
ALPHA
 10
942.20206
 20
24.112561
 30
0.0
  0
VERTEX
  5
40FD
  8
ALPHA
 10
942.20206
 20
24.331801
 30
0.0
  0
VERTEX
  5
40FE
  8
ALPHA
 10
942.119753
 20
25.114055
 30
0.0
  0
VERTEX
  5
40FF
  8
ALPHA
 10
941.880838
 20
25.848656
 30
0.0
  0
VERTEX
  5
4100
  8
ALPHA
 10
941.497329
 20
26.535214
 30
0.0
  0
VERTEX
  5
4101
  8
ALPHA
 10
940.981236
 20
27.173343
 30
0.0
  0
VERTEX
  5
4102
  8
ALPHA
 10
940.344572
 20
27.762653
 30
0.0
  0
VERTEX
  5
4103
  8
ALPHA
 10
939.599348
 20
28.302756
 30
0.0
  0
VERTEX
  5
4104
  8
ALPHA
 10
937.831267
 20
29.233788
 30
0.0
  0
VERTEX
  5
4105
  8
ALPHA
 10
935.773089
 20
29.963332
 30
0.0
  0
VERTEX
  5
4106
  8
ALPHA
 10
933.520907
 20
30.488282
 30
0.0
  0
VERTEX
  5
4107
  8
ALPHA
 10
931.170816
 20
30.80553
 30
0.0
  0
VERTEX
  5
4108
  8
ALPHA
 10
928.818909
 20
30.911969
 30
0.0
  0
SEQEND
  5
4109
  8
ALPHA
  0
POLYLINE
  5
399E
  8
ALPHA
 66
     1
 10
0.0
 20
0.0
 30
0.0
 70
   128
  0
VERTEX
  5
410A
  8
ALPHA
 10
928.818909
 20
17.531201
 30
0.0
  0
VERTEX
  5
410B
  8
ALPHA
 10
931.170816
 20
17.637619
 30
0.0
  0
VERTEX
  5
410C
  8
ALPHA
 10
933.520907
 20
17.954824
 30
0.0
  0
VERTEX
  5
410D
  8
ALPHA
 10
935.773089
 20
18.479744
 30
0.0
  0
VERTEX
  5
410E
  8
ALPHA
 10
937.831267
 20
19.209308
 30
0.0
  0
VERTEX
  5
410F
  8
ALPHA
 10
939.599348
 20
20.140444
 30
0.0
  0
VERTEX
  5
4110
  8
ALPHA
 10
940.344572
 20
20.680641
 30
0.0
  0
VERTEX
  5
4111
  8
ALPHA
 10
940.981236
 20
21.270079
 30
0.0
  0
VERTEX
  5
4112
  8
ALPHA
 10
941.497329
 20
21.908374
 30
0.0
  0
VERTEX
  5
4113
  8
ALPHA
 10
941.880838
 20
22.595142
 30
0.0
  0
VERTEX
  5
4114
  8
ALPHA
 10
942.119753
 20
23.329999
 30
0.0
  0
VERTEX
  5
4115
  8
ALPHA
 10
942.20206
 20
24.112561
 30
0.0
  0
SEQEND
  5
4116
  8
ALPHA
  0
LINE
  5
399F
  8
ALPHA
 10
941.954224
 20
35.16456
 30
0.0
 11
932.068184
 21
35.16456
 31
0.0
  0
POLYLINE
  5
39A0
  8
ALPHA
 66
     1
 10
0.0
 20
0.0
 30
0.0
 70
   128
210
0.0
220
0.0
230
-1.0
  0
VERTEX
  5
4117
  8
ALPHA
 10
-942.53926
 20
9.88224
 30
0.0
  0
VERTEX
  5
4118
  8
ALPHA
 10
-939.45987
 20
11.871817
 30
0.0
  0
VERTEX
  5
4119
  8
ALPHA
 10
-936.682195
 20
13.779403
 30
0.0
  0
VERTEX
  5
411A
  8
ALPHA
 10
-935.47328
 20
14.731562
 30
0.0
  0
VERTEX
  5
411B
  8
ALPHA
 10
-934.419927
 20
15.69816
 30
0.0
  0
VERTEX
  5
411C
  8
ALPHA
 10
-933.54885
 20
16.69084
 30
0.0
  0
VERTEX
  5
411D
  8
ALPHA
 10
-932.886758
 20
17.721249
 30
0.0
  0
SEQEND
  5
411E
  8
ALPHA
  0
POLYLINE
  5
39A1
  8
ALPHA
 66
     1
 10
0.0
 20
0.0
 30
0.0
 70
   128
  0
VERTEX
  5
411F
  8
ALPHA
 10
942.53926
 20
34.696293
 30
0.0
  0
VERTEX
  5
4120
  8
ALPHA
 10
940.449763
 20
33.426668
 30
0.0
  0
VERTEX
  5
4121
  8
ALPHA
 10
938.2833
 20
32.039377
 30
0.0
  0
VERTEX
  5
4122
  8
ALPHA
 10
937.325465
 20
31.400762
 30
0.0
  0
VERTEX
  5
4123
  8
ALPHA
 10
936.533498
 20
30.851715
 30
0.0
  0
VERTEX
  5
4124
  8
ALPHA
 10
935.969101
 20
30.431897
 30
0.0
  0
VERTEX
  5
4125
  8
ALPHA
 10
935.693979
 20
30.180972
 30
0.0
  0
SEQEND
  5
4126
  8
ALPHA
  0
CIRCLE
  5
39A2
  8
ALPHA
 10
935.585205
 20
24.331205
 30
0.0
 40
3.25
  0
LINE
  5
39A4
  8
ALPHA
 10
930.956496
 20
9.354992
 30
0.0
 11
930.956496
 21
16.608369
 31
0.0
  0
LINE
  5
39A6
  8
ALPHA
 10
930.956496
 20
31.468409
 30
0.0
 11
930.956496
 21
34.696293
 31
0.0
  0
LINE
  5
39A7
  8
ALPHA
 10
945.756364
 20
9.764875
 30
0.0
 11
945.756364
 21
31.8771
 31
0.0
  0
POLYLINE
  5
39A8
  8
ALPHA
 66
     1
 10
0.0
 20
0.0
 30
0.0
 70
   128
  0
VERTEX
  5
4127
  8
ALPHA
 10
942.598836
 20
8.360669
 30
0.0
  0
VERTEX
  5
4128
  8
ALPHA
 10
942.598836
 20
8.434536
 30
0.0
  0
VERTEX
  5
4129
  8
ALPHA
 10
942.598836
 20
8.649853
 30
0.0
  0
VERTEX
  5
412A
  8
ALPHA
 10
942.598836
 20
8.997189
 30
0.0
  0
VERTEX
  5
412B
  8
ALPHA
 10
942.598836
 20
9.467114
 30
0.0
  0
VERTEX
  5
412C
  8
ALPHA
 10
942.598836
 20
10.737011
 30
0.0
  0
VERTEX
  5
412D
  8
ALPHA
 10
942.598836
 20
12.384105
 30
0.0
  0
VERTEX
  5
412E
  8
ALPHA
 10
942.598836
 20
14.332957
 30
0.0
  0
VERTEX
  5
412F
  8
ALPHA
 10
942.598836
 20
16.508127
 30
0.0
  0
VERTEX
  5
4130
  8
ALPHA
 10
942.598836
 20
21.235665
 30
0.0
  0
VERTEX
  5
4131
  8
ALPHA
 10
942.598836
 20
25.963202
 30
0.0
  0
VERTEX
  5
4132
  8
ALPHA
 10
942.598836
 20
28.138373
 30
0.0
  0
VERTEX
  5
4133
  8
ALPHA
 10
942.598836
 20
30.087225
 30
0.0
  0
VERTEX
  5
4134
  8
ALPHA
 10
942.598836
 20
31.734319
 30
0.0
  0
VERTEX
  5
4135
  8
ALPHA
 10
942.598836
 20
33.004216
 30
0.0
  0
VERTEX
  5
4136
  8
ALPHA
 10
942.598836
 20
33.474141
 30
0.0
  0
VERTEX
  5
4137
  8
ALPHA
 10
942.598836
 20
33.821476
 30
0.0
  0
VERTEX
  5
4138
  8
ALPHA
 10
942.598836
 20
34.036793
 30
0.0
  0
VERTEX
  5
4139
  8
ALPHA
 10
942.598836
 20
34.110661
 30
0.0
  0
VERTEX
  5
413A
  8
ALPHA
 10
942.70032
 20
34.910794
 30
0.0
  0
VERTEX
  5
413B
  8
ALPHA
 10
943.015719
 20
35.639157
 30
0.0
  0
VERTEX
  5
413C
  8
ALPHA
 10
943.561454
 20
36.158967
 30
0.0
  0
VERTEX
  5
413D
  8
ALPHA
 10
943.925829
 20
36.29792
 30
0.0
  0
VERTEX
  5
413E
  8
ALPHA
 10
944.353945
 20
36.333441
 30
0.0
  0
SEQEND
  5
413F
  8
ALPHA
  0
LINE
  5
39A9
  8
ALPHA
 10
945.230904
 20
33.457056
 30
0.0
 11
943.650948
 21
34.988811
 31
0.0
  0
POLYLINE
  5
39C4
  8
ALPHA
 66
     1
 10
0.0
 20
0.0
 30
0.0
 70
   128
210
0.0
220
0.0
230
-1.0
  0
VERTEX
  5
4140
  8
ALPHA
 10
-968.967171
 20
24.112561
 30
0.0
  0
VERTEX
  5
4141
  8
ALPHA
 10
-968.967171
 20
24.331801
 30
0.0
  0
VERTEX
  5
4142
  8
ALPHA
 10
-969.04937
 20
25.114055
 30
0.0
  0
VERTEX
  5
4143
  8
ALPHA
 10
-969.287529
 20
25.848656
 30
0.0
  0
VERTEX
  5
4144
  8
ALPHA
 10
-969.668988
 20
26.535214
 30
0.0
  0
VERTEX
  5
4145
  8
ALPHA
 10
-970.181087
 20
27.173343
 30
0.0
  0
VERTEX
  5
4146
  8
ALPHA
 10
-970.811168
 20
27.762653
 30
0.0
  0
VERTEX
  5
4147
  8
ALPHA
 10
-971.546571
 20
28.302756
 30
0.0
  0
VERTEX
  5
4148
  8
ALPHA
 10
-973.282707
 20
29.233788
 30
0.0
  0
VERTEX
  5
4149
  8
ALPHA
 10
-975.288218
 20
29.963332
 30
0.0
  0
VERTEX
  5
414A
  8
ALPHA
 10
-977.461832
 20
30.488282
 30
0.0
  0
VERTEX
  5
414B
  8
ALPHA
 10
-979.702273
 20
30.80553
 30
0.0
  0
VERTEX
  5
414C
  8
ALPHA
 10
-981.908268
 20
30.911969
 30
0.0
  0
SEQEND
  5
414D
  8
ALPHA
  0
POLYLINE
  5
39C5
  8
ALPHA
 66
     1
 10
0.0
 20
0.0
 30
0.0
 70
   128
210
0.0
220
0.0
230
-1.0
  0
VERTEX
  5
414E
  8
ALPHA
 10
-981.908268
 20
17.531201
 30
0.0
  0
VERTEX
  5
414F
  8
ALPHA
 10
-979.702273
 20
17.637619
 30
0.0
  0
VERTEX
  5
4150
  8
ALPHA
 10
-977.461832
 20
17.954824
 30
0.0
  0
VERTEX
  5
4151
  8
ALPHA
 10
-975.288218
 20
18.479744
 30
0.0
  0
VERTEX
  5
4152
  8
ALPHA
 10
-973.282707
 20
19.209308
 30
0.0
  0
VERTEX
  5
4153
  8
ALPHA
 10
-971.546571
 20
20.140444
 30
0.0
  0
VERTEX
  5
4154
  8
ALPHA
 10
-970.811168
 20
20.680641
 30
0.0
  0
VERTEX
  5
4155
  8
ALPHA
 10
-970.181087
 20
21.270079
 30
0.0
  0
VERTEX
  5
4156
  8
ALPHA
 10
-969.668988
 20
21.908374
 30
0.0
  0
VERTEX
  5
4157
  8
ALPHA
 10
-969.287529
 20
22.595142
 30
0.0
  0
VERTEX
  5
4158
  8
ALPHA
 10
-969.04937
 20
23.329999
 30
0.0
  0
VERTEX
  5
4159
  8
ALPHA
 10
-968.967171
 20
24.112561
 30
0.0
  0
SEQEND
  5
415A
  8
ALPHA
  0
LINE
  5
39C6
  8
ALPHA
 10
969.215007
 20
35.16456
 30
0.0
 11
979.277392
 21
35.16456
 31
0.0
  0
POLYLINE
  5
39C7
  8
ALPHA
 66
     1
 10
0.0
 20
0.0
 30
0.0
 70
   128
  0
VERTEX
  5
415B
  8
ALPHA
 10
968.62997
 20
9.88224
 30
0.0
  0
VERTEX
  5
415C
  8
ALPHA
 10
971.709528
 20
11.871817
 30
0.0
  0
VERTEX
  5
415D
  8
ALPHA
 10
974.487482
 20
13.779403
 30
0.0
  0
VERTEX
  5
415E
  8
ALPHA
 10
975.696474
 20
14.731562
 30
0.0
  0
VERTEX
  5
415F
  8
ALPHA
 10
976.749806
 20
15.69816
 30
0.0
  0
VERTEX
  5
4160
  8
ALPHA
 10
977.620723
 20
16.69084
 30
0.0
  0
VERTEX
  5
4161
  8
ALPHA
 10
978.282473
 20
17.721249
 30
0.0
  0
SEQEND
  5
4162
  8
ALPHA
  0
POLYLINE
  5
39C8
  8
ALPHA
 66
     1
 10
0.0
 20
0.0
 30
0.0
 70
   128
210
0.0
220
0.0
230
-1.0
  0
VERTEX
  5
4163
  8
ALPHA
 10
-968.62997
 20
34.696293
 30
0.0
  0
VERTEX
  5
4164
  8
ALPHA
 10
-970.719971
 20
33.426668
 30
0.0
  0
VERTEX
  5
4165
  8
ALPHA
 10
-972.886377
 20
32.039377
 30
0.0
  0
VERTEX
  5
4166
  8
ALPHA
 10
-973.84408
 20
31.400762
 30
0.0
  0
VERTEX
  5
4167
  8
ALPHA
 10
-974.635901
 20
30.851715
 30
0.0
  0
VERTEX
  5
4168
  8
ALPHA
 10
-975.200179
 20
30.431897
 30
0.0
  0
VERTEX
  5
4169
  8
ALPHA
 10
-975.475252
 20
30.180972
 30
0.0
  0
SEQEND
  5
416A
  8
ALPHA
  0
CIRCLE
  5
39C9
  8
ALPHA
 10
975.585218
 20
24.331205
 30
0.0
 40
3.25
  0
LINE
  5
39CC
  8
ALPHA
 10
965.412867
 20
9.764875
 30
0.0
 11
965.412867
 21
31.8771
 31
0.0
  0
POLYLINE
  5
39CD
  8
ALPHA
 66
     1
 10
0.0
 20
0.0
 30
0.0
 70
   128
  0
VERTEX
  5
416B
  8
ALPHA
 10
968.571586
 20
8.360669
 30
0.0
  0
VERTEX
  5
416C
  8
ALPHA
 10
968.571586
 20
8.434536
 30
0.0
  0
VERTEX
  5
416D
  8
ALPHA
 10
968.571586
 20
8.649853
 30
0.0
  0
VERTEX
  5
416E
  8
ALPHA
 10
968.571586
 20
8.997189
 30
0.0
  0
VERTEX
  5
416F
  8
ALPHA
 10
968.571586
 20
9.467114
 30
0.0
  0
VERTEX
  5
4170
  8
ALPHA
 10
968.571586
 20
10.737011
 30
0.0
  0
VERTEX
  5
4171
  8
ALPHA
 10
968.571586
 20
12.384105
 30
0.0
  0
VERTEX
  5
4172
  8
ALPHA
 10
968.571586
 20
14.332957
 30
0.0
  0
VERTEX
  5
4173
  8
ALPHA
 10
968.571586
 20
16.508127
 30
0.0
  0
VERTEX
  5
4174
  8
ALPHA
 10
968.571586
 20
21.235665
 30
0.0
  0
VERTEX
  5
4175
  8
ALPHA
 10
968.571586
 20
25.963202
 30
0.0
  0
VERTEX
  5
4176
  8
ALPHA
 10
968.571586
 20
28.138373
 30
0.0
  0
VERTEX
  5
4177
  8
ALPHA
 10
968.571586
 20
30.087225
 30
0.0
  0
VERTEX
  5
4178
  8
ALPHA
 10
968.571586
 20
31.734319
 30
0.0
  0
VERTEX
  5
4179
  8
ALPHA
 10
968.571586
 20
33.004216
 30
0.0
  0
VERTEX
  5
417A
  8
ALPHA
 10
968.571586
 20
33.474141
 30
0.0
  0
VERTEX
  5
417B
  8
ALPHA
 10
968.571586
 20
33.821476
 30
0.0
  0
VERTEX
  5
417C
  8
ALPHA
 10
968.571586
 20
34.036793
 30
0.0
  0
VERTEX
  5
417D
  8
ALPHA
 10
968.571586
 20
34.110661
 30
0.0
  0
VERTEX
  5
417E
  8
ALPHA
 10
968.470121
 20
34.902212
 30
0.0
  0
VERTEX
  5
417F
  8
ALPHA
 10
968.154852
 20
35.616072
 30
0.0
  0
VERTEX
  5
4180
  8
ALPHA
 10
967.609471
 20
36.132326
 30
0.0
  0
VERTEX
  5
4181
  8
ALPHA
 10
967.245392
 20
36.278877
 30
0.0
  0
VERTEX
  5
4182
  8
ALPHA
 10
966.817669
 20
36.331058
 30
0.0
  0
SEQEND
  5
4183
  8
ALPHA
  0
LINE
  5
39CE
  8
ALPHA
 10
966.114672
 20
33.584605
 30
0.0
 11
967.518282
 21
34.988811
 31
0.0
  0
LINE
  5
39DB
  8
ALPHA
 10
976.893506
 20
21.635391
 30
0.0
 11
976.893506
 21
21.635391
 31
0.0
  0
LINE
  5
39DC
  8
ALPHA
 10
980.213927
 20
9.354992
 30
0.0
 11
980.213927
 21
16.608369
 31
0.0
  0
LINE
  5
39DD
  8
ALPHA
 10
980.213927
 20
31.468409
 30
0.0
 11
980.213927
 21
34.696293
 31
0.0
  0
DIMENSION
  5
3B33
  8
COTATION1
  2
*D4
 10
973.656016
 20
21.715736
 30
0.0
 11
990.11616
 21
39.150568
 31
0.0
 70
   131
 15
977.51442
 25
26.946674
 35
0.0
 40
0.0
1001
ACAD
1000
DSTYLE
1002
{
1070
   288
1070
     1
1002
}
  0
LINE
  5
3B3D
  8
AXE
 10
934.585205
 20
24.331205
 30
0.0
 11
936.585205
 21
24.331205
 31
0.0
  0
LINE
  5
3B3E
  8
AXE
 10
935.585205
 20
23.331205
 30
0.0
 11
935.585205
 21
25.331205
 31
0.0
  0
LINE
  5
3B3F
  8
AXE
 10
974.585218
 20
24.331205
 30
0.0
 11
976.585218
 21
24.331205
 31
0.0
  0
LINE
  5
3B40
  8
AXE
 10
975.585218
 20
23.331205
 30
0.0
 11
975.585218
 21
25.331205
 31
0.0
  0
LINE
  5
3B42
  8
AXE
 10
954.439846
 20
22.431247
 30
0.0
 11
956.439846
 21
22.431247
 31
0.0
  0
LINE
  5
3B43
  8
AXE
 10
955.439846
 20
21.431247
 30
0.0
 11
955.439846
 21
23.431247
 31
0.0
  0
DIMENSION
  5
3B86
  8
COTATION1
  2
*D5
 10
913.877294
 20
24.331205
 30
0.0
 11
913.877294
 21
30.835967
 31
0.0
 70
   128
 13
923.877294
 23
22.431247
 33
0.0
 14
934.585205
 24
24.331205
 34
0.0
 50
90.0
  0
DIMENSION
  5
3B9E
  8
COTATION1
  2
*D6
 10
975.585218
 20
51.333441
 30
0.0
 11
955.585211
 21
51.333441
 31
0.0
 70
   128
 13
935.585205
 23
23.331205
 33
0.0
 14
975.585218
 24
23.331205
 34
0.0
  0
LINE
  5
3BDF
  8
AXE
 10
923.877294
 20
22.431247
 30
0.0
 11
996.877288
 21
22.431247
 31
0.0
  0
LINE
  5
3BE0
  8
AXE
 10
955.439846
 20
41.221422
 30
0.0
 11
955.439846
 21
-6.697716
 31
0.0
  0
TEXT
  5
3BE1
  8
AXE
 10
990.314171
 20
23.782653
 30
0.0
 40
8.0
  1
X
 72
     2
 11
996.790361
 21
23.782653
 31
0.0
  0
TEXT
  5
3BE2
  8
AXE
 10
947.442561
 20
-6.663701
 30
0.0
 40
8.0
  1
Z
 72
     2
 11
953.918752
 21
-6.663701
 31
0.0
  0
DIMENSION
  5
3D10
  8
COTATION1
  2
*D7
 10
903.877294
 20
24.331205
 30
0.0
 11
902.277294
 21
30.331194
 31
0.0
 13
930.956496
 23
36.331184
 33
0.0
 14
934.585205
 24
24.331205
 34
0.0
 50
90.0
  0
DIMENSION
  5
3D31
  8
COTATION1
  2
*D8
 10
981.877288
 20
61.333441
 30
0.0
 11
955.377291
 21
62.933441
 31
0.0
 13
928.877294
 23
34.383274
 33
0.0
 14
981.877288
 24
35.132739
 34
0.0
  0
ENDSEC
  0
EOF
