  0
SECTION
  2
HEADER
  9
$ACADVER
  1
AC1009
  9
$INSBASE
 10
402.590624
 20
-1.041018
 30
0.0
  9
$EXTMIN
 10
4.827094
 20
0.700935
 30
0.0
  9
$EXTMAX
 10
82.989242
 20
58.700935
 30
0.0
  9
$LIMMIN
 10
-407.970438
 20
-367.832444
  9
$LIMMAX
 10
429.804077
 20
234.370848
  9
$ORTHOMODE
 70
     1
  9
$REGENMODE
 70
     1
  9
$FILLMODE
 70
     1
  9
$QTEXTMODE
 70
     0
  9
$MIRRTEXT
 70
     1
  9
$DRAGMODE
 70
     2
  9
$LTSCALE
 40
10.0
  9
$OSMODE
 70
    39
  9
$ATTMODE
 70
     1
  9
$TEXTSIZE
 40
6.0
  9
$TRACEWID
 40
1.0
  9
$TEXTSTYLE
  7
ROMANS
  9
$CLAYER
  8
ALPHA
  9
$CELTYPE
  6
BYLAYER
  9
$CECOLOR
 62
   256
  9
$DIMSCALE
 40
1.0
  9
$DIMASZ
 40
5.0
  9
$DIMEXO
 40
2.0
  9
$DIMDLI
 40
0.38
  9
$DIMRND
 40
0.0
  9
$DIMDLE
 40
0.0
  9
$DIMEXE
 40
2.5
  9
$DIMTP
 40
0.0
  9
$DIMTM
 40
0.0
  9
$DIMTXT
 40
2.5
  9
$DIMCEN
 40
0.0
  9
$DIMTSZ
 40
0.0
  9
$DIMTOL
 70
     0
  9
$DIMLIM
 70
     0
  9
$DIMTIH
 70
     1
  9
$DIMTOH
 70
     1
  9
$DIMSE1
 70
     0
  9
$DIMSE2
 70
     0
  9
$DIMTAD
 70
     1
  9
$DIMZIN
 70
    12
  9
$DIMBLK
  1
OPEN30
  9
$DIMASO
 70
     1
  9
$DIMSHO
 70
     1
  9
$DIMPOST
  1

  9
$DIMAPOST
  1

  9
$DIMALT
 70
     0
  9
$DIMALTD
 70
     2
  9
$DIMALTF
 40
25.4
  9
$DIMLFAC
 40
1.0
  9
$DIMTOFL
 70
     0
  9
$DIMTVP
 40
0.0
  9
$DIMTIX
 70
     0
  9
$DIMSOXD
 70
     0
  9
$DIMSAH
 70
     0
  9
$DIMBLK1
  1

  9
$DIMBLK2
  1

  9
$DIMSTYLE
  2
SC_DEFAUT
  9
$DIMCLRD
 70
     0
  9
$DIMCLRE
 70
     0
  9
$DIMCLRT
 70
     0
  9
$DIMTFAC
 40
1.0
  9
$DIMGAP
 40
2.0
  9
$LUNITS
 70
     2
  9
$LUPREC
 70
     1
  9
$SKETCHINC
 40
0.1
  9
$FILLETRAD
 40
0.0
  9
$AUNITS
 70
     0
  9
$AUPREC
 70
     0
  9
$MENU
  1
acad
  9
$ELEVATION
 40
0.0
  9
$PELEVATION
 40
0.0
  9
$THICKNESS
 40
0.0
  9
$LIMCHECK
 70
     0
  9
$BLIPMODE
 70
     0
  9
$CHAMFERA
 40
0.0
  9
$CHAMFERB
 40
0.0
  9
$SKPOLY
 70
     0
  9
$TDCREATE
 40
2450373.687919
  9
$TDUPDATE
 40
2452996.482605
  9
$TDINDWG
 40
0.880923
  9
$TDUSRTIMER
 40
0.880923
  9
$USRTIMER
 70
     1
  9
$ANGBASE
 50
0.0
  9
$ANGDIR
 70
     0
  9
$PDMODE
 70
    32
  9
$PDSIZE
 40
0.0
  9
$PLINEWID
 40
0.0
  9
$COORDS
 70
     1
  9
$SPLFRAME
 70
     0
  9
$SPLINETYPE
 70
     6
  9
$SPLINESEGS
 70
     8
  9
$ATTDIA
 70
     0
  9
$ATTREQ
 70
     1
  9
$HANDLING
 70
     1
  9
$HANDSEED
  5
9F49
  9
$SURFTAB1
 70
     6
  9
$SURFTAB2
 70
     6
  9
$SURFTYPE
 70
     6
  9
$SURFU
 70
     6
  9
$SURFV
 70
     6
  9
$UCSNAME
  2

  9
$UCSORG
 10
0.0
 20
0.0
 30
0.0
  9
$UCSXDIR
 10
1.0
 20
0.0
 30
0.0
  9
$UCSYDIR
 10
0.0
 20
1.0
 30
0.0
  9
$PUCSNAME
  2

  9
$PUCSORG
 10
0.0
 20
0.0
 30
0.0
  9
$PUCSXDIR
 10
1.0
 20
0.0
 30
0.0
  9
$PUCSYDIR
 10
0.0
 20
1.0
 30
0.0
  9
$USERI1
 70
     0
  9
$USERI2
 70
     0
  9
$USERI3
 70
     0
  9
$USERI4
 70
     0
  9
$USERI5
 70
     0
  9
$USERR1
 40
0.0
  9
$USERR2
 40
0.0
  9
$USERR3
 40
0.0
  9
$USERR4
 40
0.0
  9
$USERR5
 40
0.0
  9
$WORLDVIEW
 70
     1
  9
$SHADEDGE
 70
     3
  9
$SHADEDIF
 70
    70
  9
$TILEMODE
 70
     1
  9
$MAXACTVP
 70
    16
  9
$PLIMCHECK
 70
     0
  9
$PEXTMIN
 10
-1.452248
 20
-0.437698
 30
0.0
  9
$PEXTMAX
 10
12.749749
 20
8.310198
 30
0.0
  9
$PLIMMIN
 10
0.0
 20
0.0
  9
$PLIMMAX
 10
12.0
 20
9.0
  9
$UNITMODE
 70
     0
  9
$VISRETAIN
 70
     0
  9
$PLINEGEN
 70
     0
  9
$PSLTSCALE
 70
     0
  0
ENDSEC
  0
SECTION
  2
TABLES
  0
TABLE
  2
VPORT
 70
     2
  0
VPORT
  2
*ACTIVE
 70
     0
 10
0.0
 20
0.0
 11
1.0
 21
1.0
 12
43.898057
 22
29.706636
 13
0.0
 23
0.0
 14
1.0
 24
1.0
 15
10.0
 25
10.0
 16
0.0
 26
0.0
 36
1.0
 17
0.0
 27
0.0
 37
0.0
 40
58.492102
 41
1.466346
 42
50.0
 43
0.0
 44
0.0
 50
0.0
 51
0.0
 71
     0
 72
   100
 73
     1
 74
     0
 75
     0
 76
     0
 77
     0
 78
     0
  0
ENDTAB
  0
TABLE
  2
LTYPE
 70
     2
  0
LTYPE
  2
CONTINUOUS
 70
     0
  3
Solid line
 72
    65
 73
     0
 40
0.0
  0
LTYPE
  2
AXES2
 70
     0
  3
___ _ ___ _ ___ _ ___ _ ___ _ ___ _ ___ _ ___ _
 72
    65
 73
     4
 40
1.125
 49
0.75
 49
-0.125
 49
0.125
 49
-0.125
  0
ENDTAB
  0
TABLE
  2
LAYER
 70
     5
  0
LAYER
  2
0
 70
     0
 62
   255
  6
CONTINUOUS
  0
LAYER
  2
COTATION1
 70
     0
 62
     2
  6
CONTINUOUS
  0
LAYER
  2
AXE
 70
     0
 62
    80
  6
AXES2
  0
LAYER
  2
DEFPOINTS
 70
     0
 62
     7
  6
CONTINUOUS
  0
LAYER
  2
ALPHA
 70
     0
 62
   254
  6
CONTINUOUS
  0
ENDTAB
  0
TABLE
  2
STYLE
 70
     2
  0
STYLE
  2
ROMANS
 70
     0
 40
0.0
 41
1.0
 50
0.0
 71
     0
 42
6.0
  3
romans
  4

  0
STYLE
  2
STANDARD
 70
     0
 40
0.0
 41
1.0
 50
0.0
 71
     0
 42
0.2
  3
txt
  4

  0
ENDTAB
  0
TABLE
  2
VIEW
 70
     0
  0
ENDTAB
  0
TABLE
  2
UCS
 70
     0
  0
ENDTAB
  0
TABLE
  2
APPID
 70
     1
  0
APPID
  2
ACAD
 70
     0
  0
ENDTAB
  0
TABLE
  2
DIMSTYLE
 70
     1
  0
DIMSTYLE
  2
SC_DEFAUT
 70
     0
  3

  4

  5
OPEN30
  6

  7

 40
1.0
 41
5.0
 42
2.0
 43
0.38
 44
2.5
 45
0.0
 46
0.0
 47
0.0
 48
0.0
140
2.5
141
0.0
142
0.0
143
25.4
144
1.0
145
0.0
146
1.0
147
2.0
 71
     0
 72
     0
 73
     1
 74
     1
 75
     0
 76
     0
 77
     1
 78
    12
170
     0
171
     2
172
     0
173
     0
174
     0
175
     0
176
     0
177
     0
178
     0
  0
ENDTAB
  0
ENDSEC
  0
SECTION
  2
BLOCKS
  0
BLOCK
  8
0
  2
$MODEL_SPACE
 70
     0
 10
0.0
 20
0.0
 30
0.0
  3
$MODEL_SPACE
  1

  0
ENDBLK
  5
9EE2
  8
0
  0
BLOCK
 67
     1
  8
0
  2
$PAPER_SPACE
 70
     0
 10
0.0
 20
0.0
 30
0.0
  3
$PAPER_SPACE
  1

  0
ENDBLK
  5
9EE0
 67
     1
  8
0
  0
BLOCK
  8
0
  2
COTE
 70
     0
 10
0.0
 20
0.0
 30
0.0
  3
COTE
  1

  0
ENDBLK
  5
F
  8
0
  0
BLOCK
  8
0
  2
FOND
 70
     0
 10
0.0
 20
0.0
 30
0.0
  3
FOND
  1

  0
ENDBLK
  5
75
  8
0
  0
BLOCK
  8
0
  2
_OPEN30
 70
     0
 10
0.0
 20
0.0
 30
0.0
  3
_OPEN30
  1

  0
LINE
  5
4B05
  8
COTATION1
 62
     0
 10
-1.0
 20
0.267949
 30
0.0
 11
0.0
 21
0.0
 31
0.0
1001
ACAD
1000
RTLwPs
1070
   158
  0
LINE
  5
4B06
  8
COTATION1
 62
     0
 10
0.0
 20
0.0
 30
0.0
 11
-1.0
 21
-0.267949
 31
0.0
1001
ACAD
1000
RTLwPs
1070
   158
  0
LINE
  5
4B07
  8
COTATION1
 62
     0
 10
0.0
 20
0.0
 30
0.0
 11
-1.0
 21
0.0
 31
0.0
1001
ACAD
1000
RTLwPs
1070
   158
  0
ENDBLK
  5
4B09
  8
0
  0
BLOCK
  8
0
  2
*D3
 70
     1
 10
0.0
 20
0.0
 30
0.0
  3
*D3
  1

  0
LINE
  5
9986
  8
COTATION1
 62
     0
 10
43.879661
 20
37.000935
 30
0.0
 11
43.879661
 21
56.700935
 31
0.0
1001
ACAD
1000
RTLwPs
1070
   158
  0
LINE
  5
9987
  8
COTATION1
 62
     0
 10
59.879661
 20
37.000935
 30
0.0
 11
59.879661
 21
56.700935
 31
0.0
1001
ACAD
1000
RTLwPs
1070
   158
  0
LINE
  5
9988
  8
COTATION1
 62
     0
 10
48.879661
 20
54.200935
 30
0.0
 11
54.879661
 21
54.200935
 31
0.0
1001
ACAD
1000
RTLwPs
1070
   158
  0
INSERT
  5
9989
  8
COTATION1
 62
     0
  2
_OPEN30
 10
43.879661
 20
54.200935
 30
0.0
 41
5.0
 42
5.0
 43
5.0
 50
180.0
1001
ACAD
1000
RTLwPs
1070
   158
  0
INSERT
  5
998A
  8
COTATION1
 62
     0
  2
_OPEN30
 10
59.879661
 20
54.200935
 30
0.0
 41
5.0
 42
5.0
 43
5.0
1001
ACAD
1000
RTLwPs
1070
   158
  0
TEXT
  5
998B
  8
COTATION1
 62
     0
 10
49.320137
 20
56.200935
 30
0.0
 40
2.5
  1
16
1001
ACAD
1000
MTEXTBEGIN
1070
    73
1070
     1
1070
    44
1040
1.0
1070
    74
1070
     0
1000
MTEXTEND
  0
POINT
  5
998C
  8
DEFPOINTS
 62
     0
 10
43.879661
 20
35.000935
 30
0.0
  0
POINT
  5
998D
  8
DEFPOINTS
 62
     0
 10
59.879661
 20
35.000935
 30
0.0
  0
POINT
  5
998E
  8
DEFPOINTS
 62
     0
 10
59.879661
 20
54.200935
 30
0.0
  0
ENDBLK
  5
7F3E
  8
0
  0
BLOCK
  8
0
  2
*D4
 70
     1
 10
0.0
 20
0.0
 30
0.0
  3
*D4
  1

  0
LINE
  5
9E0E
  8
COTATION1
 62
     0
 10
49.879661
 20
39.200935
 30
0.0
 11
28.237846
 21
39.200935
 31
0.0
1001
ACAD
1000
RTLwPs
1070
   158
  0
LINE
  5
9E0F
  8
COTATION1
 62
     0
 10
41.879661
 20
20.700935
 30
0.0
 11
28.237846
 21
20.700935
 31
0.0
1001
ACAD
1000
RTLwPs
1070
   158
  0
LINE
  5
9E10
  8
COTATION1
 62
     0
 10
30.737846
 20
34.200935
 30
0.0
 11
30.737846
 21
33.200935
 31
0.0
1001
ACAD
1000
RTLwPs
1070
   158
  0
LINE
  5
9E11
  8
COTATION1
 62
     0
 10
30.737846
 20
25.700935
 30
0.0
 11
30.737846
 21
26.700935
 31
0.0
1001
ACAD
1000
RTLwPs
1070
   158
  0
TEXT
  5
9E12
  8
COTATION1
 62
     0
 10
26.392608
 20
28.700935
 30
0.0
 40
2.5
  1
18.5
1001
ACAD
1000
MTEXTBEGIN
1070
    73
1070
     1
1070
    44
1040
1.0
1070
    74
1070
     0
1000
MTEXTEND
  0
INSERT
  5
9E13
  8
COTATION1
 62
     0
  2
_OPEN30
 10
30.737846
 20
39.200935
 30
0.0
 41
5.0
 42
5.0
 43
5.0
 50
90.0
1001
ACAD
1000
RTLwPs
1070
   158
  0
INSERT
  5
9E14
  8
COTATION1
 62
     0
  2
_OPEN30
 10
30.737846
 20
20.700935
 30
0.0
 41
5.0
 42
5.0
 43
5.0
 50
270.0
1001
ACAD
1000
RTLwPs
1070
   158
  0
POINT
  5
9E15
  8
DEFPOINTS
 62
     0
 10
51.879661
 20
39.200935
 30
0.0
  0
POINT
  5
9E16
  8
DEFPOINTS
 62
     0
 10
43.879661
 20
20.700935
 30
0.0
  0
POINT
  5
9E17
  8
DEFPOINTS
 62
     0
 10
30.737846
 20
20.700935
 30
0.0
  0
ENDBLK
  5
7F4B
  8
0
  0
BLOCK
  8
0
  2
*D5
 70
     1
 10
0.0
 20
0.0
 30
0.0
  3
*D5
  1

  0
LINE
  5
9D71
  8
COTATION1
 62
     0
 10
53.879661
 20
39.200935
 30
0.0
 11
81.679718
 21
39.200935
 31
0.0
1001
ACAD
1000
RTLwPs
1070
   158
  0
LINE
  5
9D72
  8
COTATION1
 62
     0
 10
59.379661
 20
10.700935
 30
0.0
 11
81.679718
 21
10.700935
 31
0.0
1001
ACAD
1000
RTLwPs
1070
   158
  0
LINE
  5
9D73
  8
COTATION1
 62
     0
 10
79.179718
 20
34.200935
 30
0.0
 11
79.179718
 21
28.200935
 31
0.0
1001
ACAD
1000
RTLwPs
1070
   158
  0
LINE
  5
9D74
  8
COTATION1
 62
     0
 10
79.179718
 20
15.700935
 30
0.0
 11
79.179718
 21
21.700935
 31
0.0
1001
ACAD
1000
RTLwPs
1070
   158
  0
TEXT
  5
9D75
  8
COTATION1
 62
     0
 10
75.013051
 20
23.700935
 30
0.0
 40
2.5
  1
28.5
1001
ACAD
1000
MTEXTBEGIN
1070
    73
1070
     1
1070
    44
1040
1.0
1070
    74
1070
     0
1000
MTEXTEND
  0
INSERT
  5
9D76
  8
COTATION1
 62
     0
  2
_OPEN30
 10
79.179718
 20
39.200935
 30
0.0
 41
5.0
 42
5.0
 43
5.0
 50
90.0
1001
ACAD
1000
RTLwPs
1070
   158
  0
INSERT
  5
9D77
  8
COTATION1
 62
     0
  2
_OPEN30
 10
79.179718
 20
10.700935
 30
0.0
 41
5.0
 42
5.0
 43
5.0
 50
270.0
1001
ACAD
1000
RTLwPs
1070
   158
  0
POINT
  5
9D78
  8
DEFPOINTS
 62
     0
 10
51.879661
 20
39.200935
 30
0.0
  0
POINT
  5
9D79
  8
DEFPOINTS
 62
     0
 10
57.379661
 20
10.700935
 30
0.0
  0
POINT
  5
9D7A
  8
DEFPOINTS
 62
     0
 10
79.179718
 20
10.700935
 30
0.0
  0
ENDBLK
  5
8EB4
  8
0
  0
ENDSEC
  0
SECTION
  2
ENTITIES
  0
INSERT
  5
A
  8
0
  2
COTE
 10
0.0
 20
0.0
 30
0.0
  0
INSERT
  5
17
  8
0
  2
COTE
 10
284.010391
 20
6.373258
 30
0.0
  0
INSERT
  5
72
  8
0
  2
FOND
 10
0.0
 20
0.0
 30
0.0
  0
DIMENSION
  5
7F30
  8
COTATION1
  2
*D3
 10
59.879661
 20
54.200935
 30
0.0
 11
51.879661
 21
57.450935
 31
0.0
 13
43.879661
 23
35.000935
 33
0.0
 14
59.879661
 24
35.000935
 34
0.0
  0
DIMENSION
  5
7F31
  8
COTATION1
  2
*D4
 10
30.737846
 20
20.700935
 30
0.0
 11
30.737846
 21
29.950935
 31
0.0
 70
   128
 13
51.879661
 23
39.200935
 33
0.0
 14
43.879661
 24
20.700935
 34
0.0
 50
90.0
  0
LINE
  5
8AD3
  8
AXE
 10
51.879661
 20
0.700935
 30
0.0
 11
51.879661
 21
44.200935
 31
0.0
  0
TEXT
  5
8AD4
  8
AXE
 10
46.832042
 20
0.700935
 30
0.0
 40
5.0
  1
Y
 72
     2
 11
50.879661
 21
0.700935
 31
0.0
  0
LINE
  5
8AD5
  8
AXE
 10
38.879661
 20
17.945935
 30
0.0
 11
69.879661
 21
17.945935
 31
0.0
  0
TEXT
  5
8AD6
  8
AXE
 10
65.832042
 20
18.945935
 30
0.0
 40
5.0
  1
X
 72
     2
 11
69.879661
 21
18.945935
 31
0.0
  0
LINE
  5
8B73
  8
COTATION1
 10
18.077094
 20
23.200935
 30
0.0
 11
18.077094
 21
48.159858
 31
0.0
  0
LINE
  5
8B74
  8
COTATION1
 10
9.976741
 20
20.700935
 30
0.0
 11
42.879661
 21
20.700935
 31
0.0
  0
SOLID
  5
8B75
  8
COTATION1
 10
19.520469
 20
20.700935
 30
0.0
 11
16.633718
 21
20.700935
 31
0.0
 12
18.077094
 22
23.200935
 32
0.0
 13
18.077094
 23
23.200935
 33
0.0
  0
LINE
  5
8B76
  8
COTATION1
 10
4.827094
 20
53.159858
 30
0.0
 11
31.327094
 21
53.159858
 31
0.0
  0
LINE
  5
8B77
  8
COTATION1
 10
31.327094
 20
48.159858
 30
0.0
 11
4.827094
 21
48.159858
 31
0.0
  0
TEXT
  5
8B78
  8
COTATION1
 10
6.077094
 20
49.409858
 30
0.0
 40
2.5
  1
PLANE_TO_LINE_UP
 41
0.626087
  7
STANDARD
 72
     5
 11
30.077094
 21
49.409858
 31
0.0
  0
LINE
  5
8B79
  8
COTATION1
 10
31.327094
 20
53.159858
 30
0.0
 11
31.327094
 21
48.159858
 31
0.0
  0
LINE
  5
8B7A
  8
COTATION1
 10
4.827094
 20
48.159858
 30
0.0
 11
4.827094
 21
53.159858
 31
0.0
  0
DIMENSION
  5
8EA7
  8
COTATION1
  2
*D5
 10
79.179718
 20
10.700935
 30
0.0
 11
79.179718
 21
24.950935
 31
0.0
 70
   128
 13
51.879661
 23
39.200935
 33
0.0
 14
57.379661
 24
10.700935
 34
0.0
 50
90.0
  0
POLYLINE
  5
9B89
  8
ALPHA
 66
     1
 10
0.0
 20
0.0
 30
0.0
 70
   128
210
0.0
220
0.0
230
-1.0
  0
VERTEX
  5
9EE8
  8
ALPHA
 10
-51.879661
 20
20.950935
 30
0.0
  0
VERTEX
  5
9EE9
  8
ALPHA
 10
-50.718384
 20
21.027455
 30
0.0
  0
VERTEX
  5
9EEA
  8
ALPHA
 10
-49.577708
 20
21.261171
 30
0.0
  0
VERTEX
  5
9EEB
  8
ALPHA
 10
-48.477818
 20
21.641882
 30
0.0
  0
VERTEX
  5
9EEC
  8
ALPHA
 10
-47.4377
 20
22.164896
 30
0.0
  0
VERTEX
  5
9EED
  8
ALPHA
 10
-46.474504
 20
22.818929
 30
0.0
  0
VERTEX
  5
9EEE
  8
ALPHA
 10
-45.604275
 20
23.592174
 30
0.0
  0
VERTEX
  5
9EEF
  8
ALPHA
 10
-44.838216
 20
24.469082
 30
0.0
  0
VERTEX
  5
9EF0
  8
ALPHA
 10
-44.191349
 20
25.436457
 30
0.0
  0
SEQEND
  5
9EF1
  8
ALPHA
  0
CIRCLE
  5
9B8A
  8
ALPHA
 10
51.879661
 20
30.200935
 30
0.0
 40
7.013423
  0
ARC
  5
9B8B
  8
ALPHA
 10
51.879661
 20
30.200935
 30
0.0
 40
7.715154
 50
60.586349
 51
119.413651
  0
ARC
  5
9B8C
  8
ALPHA
 10
51.879661
 20
30.200935
 30
0.0
 40
7.715154
 50
240.586349
 51
299.413651
  0
CIRCLE
  5
9B8D
  8
ALPHA
 10
51.879661
 20
30.200935
 30
0.0
 40
7.85
  0
ARC
  5
9B8E
  8
ALPHA
 10
51.879661
 20
30.200935
 30
0.0
 40
9.0
 50
211.002719
 51
328.997281
  0
CIRCLE
  5
9B8F
  8
ALPHA
 10
51.879661
 20
30.200935
 30
0.0
 40
6.814256
  0
ARC
  5
9B90
  8
ALPHA
 10
51.879661
 20
7.500935
 30
0.0
 40
31.7
 50
78.34488
 51
101.65512
  0
CIRCLE
  5
9B91
  8
ALPHA
 10
51.879661
 20
30.200935
 30
0.0
 40
4.25
  0
CIRCLE
  5
9B92
  8
ALPHA
 10
51.879661
 20
30.200935
 30
0.0
 40
5.0
  0
CIRCLE
  5
9B93
  8
ALPHA
 10
51.879661
 20
30.200935
 30
0.0
 40
4.05
  0
CIRCLE
  5
9B94
  8
ALPHA
 10
51.879661
 20
30.200935
 30
0.0
 40
5.5
  0
CIRCLE
  5
9B95
  8
ALPHA
 10
51.879661
 20
30.200935
 30
0.0
 40
3.699999
  0
CIRCLE
  5
9B96
  8
ALPHA
 10
51.879661
 20
30.200935
 30
0.0
 40
3.199999
  0
CIRCLE
  5
9B97
  8
ALPHA
 10
51.879661
 20
30.200935
 30
0.0
 40
3.5
  0
CIRCLE
  5
9B98
  8
ALPHA
 10
51.879661
 20
30.200935
 30
0.0
 40
4.0
  0
CIRCLE
  5
9B99
  8
ALPHA
 10
51.879661
 20
30.200935
 30
0.0
 40
3.1
  0
CIRCLE
  5
9B9A
  8
ALPHA
 10
51.879661
 20
30.200935
 30
0.0
 40
3.0
  0
LINE
  5
9B9B
  8
ALPHA
 10
43.879661
 20
20.700935
 30
0.0
 11
59.879661
 21
20.700935
 31
0.0
  0
LINE
  5
9B9C
  8
ALPHA
 10
45.179778
 20
18.550935
 30
0.0
 11
58.579544
 21
18.550935
 31
0.0
  0
LINE
  5
9B9D
  8
ALPHA
 10
45.529772
 20
17.250935
 30
0.0
 11
58.22955
 21
17.250935
 31
0.0
  0
LINE
  5
9B9E
  8
ALPHA
 10
45.529772
 20
16.100935
 30
0.0
 11
58.22955
 21
16.100935
 31
0.0
  0
LINE
  5
9B9F
  8
ALPHA
 10
45.879661
 20
16.000935
 30
0.0
 11
57.879661
 21
16.000935
 31
0.0
  0
LINE
  5
9BA0
  8
ALPHA
 10
45.879661
 20
15.000935
 30
0.0
 11
57.879661
 21
15.000935
 31
0.0
  0
LINE
  5
9BA1
  8
ALPHA
 10
45.529772
 20
14.900935
 30
0.0
 11
58.22955
 21
14.900935
 31
0.0
  0
LINE
  5
9BA2
  8
ALPHA
 10
45.529772
 20
14.300935
 30
0.0
 11
58.22955
 21
14.300935
 31
0.0
  0
LINE
  5
9BA3
  8
ALPHA
 10
54.379661
 20
14.100935
 30
0.0
 11
49.379661
 21
14.100935
 31
0.0
  0
LINE
  5
9BA4
  8
ALPHA
 10
49.379661
 20
13.100935
 30
0.0
 11
54.379661
 21
13.100935
 31
0.0
  0
LINE
  5
9BA5
  8
ALPHA
 10
49.129661
 20
12.600935
 30
0.0
 11
54.629661
 21
12.600935
 31
0.0
  0
LINE
  5
9BA6
  8
ALPHA
 10
49.004661
 20
12.350935
 30
0.0
 11
54.754661
 21
12.350935
 31
0.0
  0
LINE
  5
9BA7
  8
ALPHA
 10
57.529661
 20
10.950935
 30
0.0
 11
46.229661
 21
10.950935
 31
0.0
  0
LINE
  5
9BA8
  8
ALPHA
 10
57.379661
 20
10.700935
 30
0.0
 11
46.379661
 21
10.700935
 31
0.0
  0
ARC
  5
9BA9
  8
ALPHA
 10
51.879661
 20
30.200935
 30
0.0
 40
7.715154
 50
120.586349
 51
179.413651
  0
LINE
  5
9BAA
  8
ALPHA
 10
43.879661
 20
20.700935
 30
0.0
 11
43.879661
 21
36.588562
 31
0.0
  0
ARC
  5
9BAB
  8
ALPHA
 10
46.029661
 20
15.150935
 30
0.0
 40
0.25
 50
270.000011
 51
323.006207
  0
ARC
  5
9BAC
  8
ALPHA
 10
46.029661
 20
15.850935
 30
0.0
 40
0.25
 50
36.993798
 51
89.999999
  0
LINE
  5
9BAD
  8
ALPHA
 10
45.529661
 20
16.100935
 30
0.0
 11
45.529661
 21
17.250935
 31
0.0
  0
ARC
  5
9BAE
  8
ALPHA
 10
45.879661
 20
15.500935
 30
0.0
 40
0.5
 50
90.0
 51
270.0
  0
LINE
  5
9BAF
  8
ALPHA
 10
45.529661
 20
14.300935
 30
0.0
 11
45.529661
 21
14.900935
 31
0.0
  0
POLYLINE
  5
9BB0
  8
ALPHA
 66
     1
 10
0.0
 20
0.0
 30
0.0
 70
   128
  0
VERTEX
  5
9EF2
  8
ALPHA
 10
45.134273
 20
18.900935
 30
0.0
  0
VERTEX
  5
9EF3
  8
ALPHA
 10
45.20475
 20
18.755432
 30
0.0
  0
VERTEX
  5
9EF4
  8
ALPHA
 10
45.358888
 20
18.700935
 30
0.0
  0
SEQEND
  5
9EF5
  8
ALPHA
  0
POLYLINE
  5
9BB1
  8
ALPHA
 66
     1
 10
0.0
 20
0.0
 30
0.0
 70
   128
  0
VERTEX
  5
9EF6
  8
ALPHA
 10
44.576535
 20
18.900935
 30
0.0
  0
VERTEX
  5
9EF7
  8
ALPHA
 10
44.642004
 20
18.75705
 30
0.0
  0
VERTEX
  5
9EF8
  8
ALPHA
 10
44.790958
 20
18.700935
 30
0.0
  0
SEQEND
  5
9EF9
  8
ALPHA
  0
POLYLINE
  5
9BB2
  8
ALPHA
 66
     1
 10
0.0
 20
0.0
 30
0.0
 70
   128
210
0.0
220
0.0
230
-1.0
  0
VERTEX
  5
9EFA
  8
ALPHA
 10
-44.706112
 20
18.700935
 30
0.0
  0
VERTEX
  5
9EFB
  8
ALPHA
 10
-44.5702
 20
18.76146
 30
0.0
  0
VERTEX
  5
9EFC
  8
ALPHA
 10
-44.516493
 20
18.900935
 30
0.0
  0
SEQEND
  5
9EFD
  8
ALPHA
  0
POLYLINE
  5
9BB3
  8
ALPHA
 66
     1
 10
0.0
 20
0.0
 30
0.0
 70
   128
210
0.0
220
0.0
230
-1.0
  0
VERTEX
  5
9EFE
  8
ALPHA
 10
-45.110131
 20
18.700935
 30
0.0
  0
VERTEX
  5
9EFF
  8
ALPHA
 10
-44.995645
 20
18.76947
 30
0.0
  0
VERTEX
  5
9F00
  8
ALPHA
 10
-44.958238
 20
18.900935
 30
0.0
  0
SEQEND
  5
9F01
  8
ALPHA
  0
LINE
  5
9BB4
  8
ALPHA
 10
44.576535
 20
18.900935
 30
0.0
 11
44.516493
 21
18.900935
 31
0.0
  0
LINE
  5
9BB5
  8
ALPHA
 10
45.134273
 20
18.900935
 30
0.0
 11
44.958238
 21
18.900935
 31
0.0
  0
LINE
  5
9BB6
  8
ALPHA
 10
44.706111
 20
18.700935
 30
0.0
 11
45.928354
 21
18.700935
 31
0.0
  0
LINE
  5
9BB7
  8
ALPHA
 10
45.928354
 20
18.700935
 30
0.0
 11
45.928354
 21
20.700935
 31
0.0
  0
LINE
  5
9BB8
  8
ALPHA
 10
45.179661
 20
18.550935
 30
0.0
 11
45.179661
 21
18.700935
 31
0.0
  0
LINE
  5
9BB9
  8
ALPHA
 10
45.134273
 20
20.700935
 30
0.0
 11
45.134273
 21
18.900935
 31
0.0
  0
LINE
  5
9BBA
  8
ALPHA
 10
44.958238
 20
20.700935
 30
0.0
 11
44.958238
 21
18.900935
 31
0.0
  0
LINE
  5
9BBB
  8
ALPHA
 10
44.576535
 20
20.700935
 30
0.0
 11
44.576535
 21
18.900935
 31
0.0
  0
LINE
  5
9BBC
  8
ALPHA
 10
44.516493
 20
20.700935
 30
0.0
 11
44.516493
 21
18.900935
 31
0.0
  0
ARC
  5
9BBD
  8
ALPHA
 10
46.379661
 20
10.950935
 30
0.0
 40
0.25
 50
233.121893
 51
270.0
  0
LINE
  5
9BBE
  8
ALPHA
 10
46.229661
 20
10.750935
 30
0.0
 11
46.229661
 21
14.300935
 31
0.0
  0
POLYLINE
  5
9BBF
  8
ALPHA
 66
     1
 10
0.0
 20
0.0
 30
0.0
 70
   128
  0
VERTEX
  5
9F02
  8
ALPHA
 10
49.129661
 20
12.600935
 30
0.0
  0
VERTEX
  5
9F03
  8
ALPHA
 10
49.02884
 20
12.498496
 30
0.0
  0
VERTEX
  5
9F04
  8
ALPHA
 10
49.004661
 20
12.350935
 30
0.0
  0
SEQEND
  5
9F05
  8
ALPHA
  0
POLYLINE
  5
9BC0
  8
ALPHA
 66
     1
 10
0.0
 20
0.0
 30
0.0
 70
   128
  0
VERTEX
  5
9F06
  8
ALPHA
 10
48.481934
 20
12.850935
 30
0.0
  0
VERTEX
  5
9F07
  8
ALPHA
 10
48.523097
 20
12.656002
 30
0.0
  0
VERTEX
  5
9F08
  8
ALPHA
 10
48.639028
 20
12.493655
 30
0.0
  0
VERTEX
  5
9F09
  8
ALPHA
 10
48.808242
 20
12.387065
 30
0.0
  0
VERTEX
  5
9F0A
  8
ALPHA
 10
49.004661
 20
12.350935
 30
0.0
  0
SEQEND
  5
9F0B
  8
ALPHA
  0
LINE
  5
9BC1
  8
ALPHA
 10
48.552062
 20
14.300935
 30
0.0
 11
48.481934
 21
14.050935
 31
0.0
  0
LINE
  5
9BC2
  8
ALPHA
 10
49.375449
 20
14.301137
 30
0.0
 11
49.379661
 21
14.250935
 31
0.0
  0
LINE
  5
9BC3
  8
ALPHA
 10
49.22834
 20
14.301055
 30
0.0
 11
49.214041
 21
14.250935
 31
0.0
  0
ARC
  5
9BC4
  8
ALPHA
 10
49.129661
 20
12.850935
 30
0.0
 40
0.25
 50
180.0
 51
270.0
  0
ARC
  5
9BC5
  8
ALPHA
 10
49.129661
 20
14.050935
 30
0.0
 40
0.25
 50
90.0
 51
180.0
  0
LINE
  5
9BC6
  8
ALPHA
 10
49.214041
 20
14.250935
 30
0.0
 11
48.892122
 21
12.781421
 31
0.0
  0
LINE
  5
9BC7
  8
ALPHA
 10
49.379661
 20
12.600935
 30
0.0
 11
49.379661
 21
14.250935
 31
0.0
  0
LINE
  5
9BC8
  8
ALPHA
 10
48.879661
 20
14.050935
 30
0.0
 11
48.879661
 21
12.850935
 31
0.0
  0
LINE
  5
9BC9
  8
ALPHA
 10
48.481934
 20
14.050935
 30
0.0
 11
48.481934
 21
12.850935
 31
0.0
  0
LINE
  5
9BCA
  8
ALPHA
 10
48.982478
 20
14.250935
 30
0.0
 11
49.214041
 21
14.250935
 31
0.0
  0
LINE
  5
9BCB
  8
ALPHA
 10
48.879661
 20
14.050935
 30
0.0
 11
48.481934
 21
14.050935
 31
0.0
  0
LINE
  5
9BCC
  8
ALPHA
 10
48.879661
 20
12.850935
 30
0.0
 11
48.481934
 21
12.850935
 31
0.0
  0
LINE
  5
9BCD
  8
ALPHA
 10
46.379661
 20
17.250935
 30
0.0
 11
46.379661
 21
18.550935
 31
0.0
  0
POLYLINE
  5
9BCE
  8
ALPHA
 66
     1
 10
0.0
 20
0.0
 30
0.0
 70
   128
  0
VERTEX
  5
9F0C
  8
ALPHA
 10
49.261664
 20
18.900935
 30
0.0
  0
VERTEX
  5
9F0D
  8
ALPHA
 10
49.304798
 20
18.766349
 30
0.0
  0
VERTEX
  5
9F0E
  8
ALPHA
 10
49.427426
 20
18.700935
 30
0.0
  0
SEQEND
  5
9F0F
  8
ALPHA
  0
LINE
  5
9BCF
  8
ALPHA
 10
48.826873
 20
18.700935
 30
0.0
 11
48.83668
 21
18.900935
 31
0.0
  0
LINE
  5
9BD0
  8
ALPHA
 10
49.84768
 20
18.700935
 30
0.0
 11
49.84768
 21
20.700935
 31
0.0
  0
LINE
  5
9BD1
  8
ALPHA
 10
49.261664
 20
20.700935
 30
0.0
 11
49.261664
 21
18.900935
 31
0.0
  0
LINE
  5
9BD2
  8
ALPHA
 10
48.83668
 20
20.700935
 30
0.0
 11
48.83668
 21
18.900935
 31
0.0
  0
LINE
  5
9BD3
  8
ALPHA
 10
48.802009
 20
18.700935
 30
0.0
 11
48.802009
 21
20.700935
 31
0.0
  0
LINE
  5
9BD4
  8
ALPHA
 10
49.261664
 20
18.900935
 30
0.0
 11
48.83668
 21
18.900935
 31
0.0
  0
LINE
  5
9BD5
  8
ALPHA
 10
49.84768
 20
18.700935
 30
0.0
 11
48.802009
 21
18.700935
 31
0.0
  0
ARC
  5
9BD6
  8
ALPHA
 10
51.879661
 20
30.200935
 30
0.0
 40
7.715154
 50
180.586349
 51
239.413651
  0
POLYLINE
  5
9BD7
  8
ALPHA
 66
     1
 10
0.0
 20
0.0
 30
0.0
 70
   128
210
0.0
220
0.0
230
-1.0
  0
VERTEX
  5
9F10
  8
ALPHA
 10
-44.130266
 20
25.548418
 30
0.0
  0
VERTEX
  5
9F11
  8
ALPHA
 10
-43.941697
 20
26.056712
 30
0.0
  0
VERTEX
  5
9F12
  8
ALPHA
 10
-43.879661
 20
26.595384
 30
0.0
  0
SEQEND
  5
9F13
  8
ALPHA
  0
ARC
  5
9BD8
  8
ALPHA
 10
45.879661
 20
26.595384
 30
0.0
 40
2.0
 50
180.0
 51
211.002719
  0
LINE
  5
9BD9
  8
ALPHA
 10
44.165375
 20
25.565226
 30
0.0
 11
44.19135
 21
25.436457
 31
0.0
  0
LINE
  5
9BDA
  8
ALPHA
 10
44.191349
 20
25.436457
 30
0.0
 11
44.130266
 21
25.548418
 31
0.0
  0
LINE
  5
9BDB
  8
ALPHA
 10
44.164912
 20
30.121982
 30
0.0
 11
44.029661
 21
30.200935
 31
0.0
  0
LINE
  5
9BDC
  8
ALPHA
 10
44.029661
 20
30.200935
 30
0.0
 11
44.164912
 21
30.279889
 31
0.0
  0
LINE
  5
9BDD
  8
ALPHA
 10
44.480451
 20
30.200935
 30
0.0
 11
44.029661
 21
30.200935
 31
0.0
  0
LINE
  5
9BDE
  8
ALPHA
 10
44.481126
 20
30.100935
 30
0.0
 11
44.164912
 21
30.121982
 31
0.0
  0
LINE
  5
9BDF
  8
ALPHA
 10
44.164912
 20
30.279889
 30
0.0
 11
44.481126
 21
30.300935
 31
0.0
  0
LINE
  5
9BE0
  8
ALPHA
 10
45.055712
 20
30.300935
 30
0.0
 11
45.047345
 21
30.298509
 31
0.0
  0
LINE
  5
9BE1
  8
ALPHA
 10
45.047345
 20
30.103362
 30
0.0
 11
45.055712
 21
30.100935
 31
0.0
  0
ARC
  5
9BE2
  8
ALPHA
 10
51.879661
 20
30.200935
 30
0.0
 40
7.399211
 50
179.225627
 51
180.774373
  0
LINE
  5
9BE3
  8
ALPHA
 10
48.266996
 20
23.743616
 30
0.0
 11
48.090662
 21
23.48029
 31
0.0
  0
ARC
  5
9BE4
  8
ALPHA
 10
51.879661
 20
30.200935
 30
0.0
 40
7.399211
 50
239.225627
 51
240.774373
  0
LINE
  5
9BE5
  8
ALPHA
 10
48.180394
 20
23.793616
 30
0.0
 11
47.954661
 21
23.402636
 31
0.0
  0
LINE
  5
9BE6
  8
ALPHA
 10
47.953911
 20
23.559243
 30
0.0
 11
48.093791
 21
23.843616
 31
0.0
  0
LINE
  5
9BE7
  8
ALPHA
 10
48.090662
 20
23.48029
 30
0.0
 11
47.954661
 21
23.402636
 31
0.0
  0
LINE
  5
9BE8
  8
ALPHA
 10
47.954661
 20
23.402636
 30
0.0
 11
47.953911
 21
23.559243
 31
0.0
  0
LINE
  5
9BE9
  8
ALPHA
 10
48.548004
 20
24.235189
 30
0.0
 11
48.554289
 21
24.241222
 31
0.0
  0
LINE
  5
9BEA
  8
ALPHA
 10
48.381084
 20
24.341222
 30
0.0
 11
48.379002
 21
24.332763
 31
0.0
  0
ARC
  5
9BEB
  8
ALPHA
 10
50.061008
 20
31.250935
 30
0.0
 40
1.0
 50
156.606567
 51
182.346476
  0
ARC
  5
9BEC
  8
ALPHA
 10
50.061008
 20
31.250935
 30
0.0
 40
1.0
 50
118.463756
 51
139.943317
  0
ARC
  5
9BED
  8
ALPHA
 10
50.061008
 20
29.150935
 30
0.0
 40
1.0
 50
210.0
 51
241.536244
  0
ARC
  5
9BEE
  8
ALPHA
 10
50.061008
 20
29.150935
 30
0.0
 40
1.0
 50
177.653524
 51
203.393433
  0
ARC
  5
9BEF
  8
ALPHA
 10
45.879661
 20
36.588562
 30
0.0
 40
2.0
 50
101.65512
 51
180.0
  0
LINE
  5
9BF0
  8
ALPHA
 10
48.090662
 20
36.921581
 30
0.0
 11
48.266996
 21
36.658254
 31
0.0
  0
ARC
  5
9BF1
  8
ALPHA
 10
51.879661
 20
30.200935
 30
0.0
 40
7.399211
 50
119.225627
 51
120.774373
  0
LINE
  5
9BF2
  8
ALPHA
 10
47.954661
 20
36.999235
 30
0.0
 11
48.180394
 21
36.608254
 31
0.0
  0
LINE
  5
9BF3
  8
ALPHA
 10
47.953911
 20
36.842628
 30
0.0
 11
47.954661
 21
36.999235
 31
0.0
  0
LINE
  5
9BF4
  8
ALPHA
 10
48.093791
 20
36.558254
 30
0.0
 11
47.953911
 21
36.842628
 31
0.0
  0
LINE
  5
9BF5
  8
ALPHA
 10
47.954661
 20
36.999235
 30
0.0
 11
48.090662
 21
36.921581
 31
0.0
  0
LINE
  5
9BF6
  8
ALPHA
 10
48.379002
 20
36.069108
 30
0.0
 11
48.381084
 21
36.060648
 31
0.0
  0
LINE
  5
9BF7
  8
ALPHA
 10
48.554289
 20
36.160648
 30
0.0
 11
48.548004
 21
36.166681
 31
0.0
  0
ARC
  5
9BFD
  8
ALPHA
 10
51.879661
 20
30.200935
 30
0.0
 40
7.715154
 50
0.586349
 51
59.413651
  0
LINE
  5
9BFE
  8
ALPHA
 10
59.879661
 20
20.700935
 30
0.0
 11
59.879661
 21
36.588562
 31
0.0
  0
POLYLINE
  5
9BFF
  8
ALPHA
 66
     1
 10
0.0
 20
0.0
 30
0.0
 70
   128
  0
VERTEX
  5
9F14
  8
ALPHA
 10
58.400434
 20
18.700935
 30
0.0
  0
VERTEX
  5
9F15
  8
ALPHA
 10
58.554572
 20
18.755432
 30
0.0
  0
VERTEX
  5
9F16
  8
ALPHA
 10
58.625049
 20
18.900935
 30
0.0
  0
SEQEND
  5
9F17
  8
ALPHA
  0
POLYLINE
  5
9C00
  8
ALPHA
 66
     1
 10
0.0
 20
0.0
 30
0.0
 70
   128
210
0.0
220
0.0
230
-1.0
  0
VERTEX
  5
9F18
  8
ALPHA
 10
-59.567973
 20
25.436457
 30
0.0
  0
VERTEX
  5
9F19
  8
ALPHA
 10
-58.921123
 20
24.469071
 30
0.0
  0
VERTEX
  5
9F1A
  8
ALPHA
 10
-58.155033
 20
23.592175
 30
0.0
  0
VERTEX
  5
9F1B
  8
ALPHA
 10
-57.28481
 20
22.818919
 30
0.0
  0
VERTEX
  5
9F1C
  8
ALPHA
 10
-56.321603
 20
22.164885
 30
0.0
  0
VERTEX
  5
9F1D
  8
ALPHA
 10
-55.281477
 20
21.641874
 30
0.0
  0
VERTEX
  5
9F1E
  8
ALPHA
 10
-54.181582
 20
21.261155
 30
0.0
  0
VERTEX
  5
9F1F
  8
ALPHA
 10
-53.040917
 20
21.027446
 30
0.0
  0
VERTEX
  5
9F20
  8
ALPHA
 10
-51.879661
 20
20.950935
 30
0.0
  0
SEQEND
  5
9F21
  8
ALPHA
  0
ARC
  5
9C01
  8
ALPHA
 10
51.879661
 20
30.200935
 30
0.0
 40
7.715154
 50
300.586349
 51
359.413651
  0
LINE
  5
9C02
  8
ALPHA
 10
59.053211
 20
18.700935
 30
0.0
 11
57.830968
 21
18.700935
 31
0.0
  0
LINE
  5
9C03
  8
ALPHA
 10
54.957313
 20
18.700935
 30
0.0
 11
53.911642
 21
18.700935
 31
0.0
  0
LINE
  5
9C04
  8
ALPHA
 10
53.515968
 20
21.350935
 30
0.0
 11
50.243354
 21
21.350935
 31
0.0
  0
LINE
  5
9C05
  8
ALPHA
 10
53.312133
 20
18.700935
 30
0.0
 11
52.18999
 21
18.700935
 31
0.0
  0
POLYLINE
  5
9C06
  8
ALPHA
 66
     1
 10
0.0
 20
0.0
 30
0.0
 70
   128
  0
VERTEX
  5
9F22
  8
ALPHA
 10
51.142266
 20
18.900935
 30
0.0
  0
VERTEX
  5
9F23
  8
ALPHA
 10
51.168198
 20
18.777056
 30
0.0
  0
VERTEX
  5
9F24
  8
ALPHA
 10
51.263067
 20
18.700935
 30
0.0
  0
SEQEND
  5
9F25
  8
ALPHA
  0
LINE
  5
9C07
  8
ALPHA
 10
50.618594
 20
18.700935
 30
0.0
 11
50.686202
 21
18.900935
 31
0.0
  0
LINE
  5
9C08
  8
ALPHA
 10
52.18999
 20
18.700935
 30
0.0
 11
52.18999
 21
20.700935
 31
0.0
  0
LINE
  5
9C09
  8
ALPHA
 10
51.569332
 20
18.700935
 30
0.0
 11
51.569332
 21
20.700935
 31
0.0
  0
LINE
  5
9C0A
  8
ALPHA
 10
51.142266
 20
20.700935
 30
0.0
 11
51.142266
 21
18.900935
 31
0.0
  0
LINE
  5
9C0B
  8
ALPHA
 10
50.686202
 20
20.700935
 30
0.0
 11
50.686202
 21
18.900935
 31
0.0
  0
LINE
  5
9C0C
  8
ALPHA
 10
50.447189
 20
18.700935
 30
0.0
 11
50.447189
 21
20.700935
 31
0.0
  0
LINE
  5
9C0D
  8
ALPHA
 10
51.142266
 20
18.900935
 30
0.0
 11
50.686202
 21
18.900935
 31
0.0
  0
LINE
  5
9C0E
  8
ALPHA
 10
51.569332
 20
18.700935
 30
0.0
 11
50.447189
 21
18.700935
 31
0.0
  0
LINE
  5
9C0F
  8
ALPHA
 10
53.073121
 20
18.900935
 30
0.0
 11
53.140728
 21
18.700935
 31
0.0
  0
POLYLINE
  5
9C10
  8
ALPHA
 66
     1
 10
0.0
 20
0.0
 30
0.0
 70
   128
  0
VERTEX
  5
9F26
  8
ALPHA
 10
52.496255
 20
18.700935
 30
0.0
  0
VERTEX
  5
9F27
  8
ALPHA
 10
52.591124
 20
18.777056
 30
0.0
  0
VERTEX
  5
9F28
  8
ALPHA
 10
52.617056
 20
18.900935
 30
0.0
  0
SEQEND
  5
9F29
  8
ALPHA
  0
LINE
  5
9C11
  8
ALPHA
 10
53.911642
 20
18.700935
 30
0.0
 11
53.911642
 21
20.700935
 31
0.0
  0
LINE
  5
9C12
  8
ALPHA
 10
53.312133
 20
18.700935
 30
0.0
 11
53.312133
 21
20.700935
 31
0.0
  0
LINE
  5
9C13
  8
ALPHA
 10
53.073121
 20
20.700935
 30
0.0
 11
53.073121
 21
18.900935
 31
0.0
  0
LINE
  5
9C14
  8
ALPHA
 10
52.617056
 20
20.700935
 30
0.0
 11
52.617056
 21
18.900935
 31
0.0
  0
LINE
  5
9C15
  8
ALPHA
 10
53.073121
 20
18.900935
 30
0.0
 11
52.617056
 21
18.900935
 31
0.0
  0
LINE
  5
9C16
  8
ALPHA
 10
58.229661
 20
16.100935
 30
0.0
 11
58.229661
 21
17.250935
 31
0.0
  0
LINE
  5
9C17
  8
ALPHA
 10
55.277388
 20
14.050935
 30
0.0
 11
55.20726
 21
14.300935
 31
0.0
  0
POLYLINE
  5
9C18
  8
ALPHA
 66
     1
 10
0.0
 20
0.0
 30
0.0
 70
   128
  0
VERTEX
  5
9F2A
  8
ALPHA
 10
54.754661
 20
12.350935
 30
0.0
  0
VERTEX
  5
9F2B
  8
ALPHA
 10
54.95108
 20
12.387065
 30
0.0
  0
VERTEX
  5
9F2C
  8
ALPHA
 10
55.120294
 20
12.493655
 30
0.0
  0
VERTEX
  5
9F2D
  8
ALPHA
 10
55.236225
 20
12.656002
 30
0.0
  0
VERTEX
  5
9F2E
  8
ALPHA
 10
55.277388
 20
12.850935
 30
0.0
  0
SEQEND
  5
9F2F
  8
ALPHA
  0
POLYLINE
  5
9C19
  8
ALPHA
 66
     1
 10
0.0
 20
0.0
 30
0.0
 70
   128
210
0.0
220
0.0
230
-1.0
  0
VERTEX
  5
9F30
  8
ALPHA
 10
-54.629661
 20
12.600935
 30
0.0
  0
VERTEX
  5
9F31
  8
ALPHA
 10
-54.730482
 20
12.498496
 30
0.0
  0
VERTEX
  5
9F32
  8
ALPHA
 10
-54.754661
 20
12.350935
 30
0.0
  0
SEQEND
  5
9F33
  8
ALPHA
  0
ARC
  5
9C1A
  8
ALPHA
 10
54.629661
 20
14.050935
 30
0.0
 40
0.25
 50
0.0
 51
90.0
  0
ARC
  5
9C1B
  8
ALPHA
 10
54.629661
 20
12.850935
 30
0.0
 40
0.25
 50
270.0
 51
0.0
  0
LINE
  5
9C1C
  8
ALPHA
 10
55.277388
 20
12.850935
 30
0.0
 11
55.277388
 21
14.050935
 31
0.0
  0
LINE
  5
9C1D
  8
ALPHA
 10
54.879661
 20
12.850935
 30
0.0
 11
54.879661
 21
14.050935
 31
0.0
  0
LINE
  5
9C1E
  8
ALPHA
 10
54.379661
 20
12.600935
 30
0.0
 11
54.379661
 21
14.300935
 31
0.0
  0
LINE
  5
9C1F
  8
ALPHA
 10
54.879661
 20
14.050935
 30
0.0
 11
55.277388
 21
14.050935
 31
0.0
  0
LINE
  5
9C20
  8
ALPHA
 10
54.879661
 20
12.850935
 30
0.0
 11
55.277388
 21
12.850935
 31
0.0
  0
ARC
  5
9C21
  8
ALPHA
 10
57.729661
 20
15.150935
 30
0.0
 40
0.25
 50
216.993793
 51
269.999989
  0
ARC
  5
9C22
  8
ALPHA
 10
57.729661
 20
15.850935
 30
0.0
 40
0.25
 50
90.000001
 51
143.006202
  0
ARC
  5
9C23
  8
ALPHA
 10
57.379661
 20
10.950935
 30
0.0
 40
0.25
 50
270.0
 51
306.878107
  0
ARC
  5
9C24
  8
ALPHA
 10
57.879661
 20
15.500935
 30
0.0
 40
0.5
 50
270.0
 51
90.0
  0
LINE
  5
9C25
  8
ALPHA
 10
58.229661
 20
14.300935
 30
0.0
 11
58.229661
 21
14.900935
 31
0.0
  0
LINE
  5
9C26
  8
ALPHA
 10
57.529661
 20
10.750935
 30
0.0
 11
57.529661
 21
14.300935
 31
0.0
  0
LINE
  5
9C27
  8
ALPHA
 10
54.922643
 20
18.900935
 30
0.0
 11
54.93245
 21
18.700935
 31
0.0
  0
POLYLINE
  5
9C28
  8
ALPHA
 66
     1
 10
0.0
 20
0.0
 30
0.0
 70
   128
  0
VERTEX
  5
9F34
  8
ALPHA
 10
54.331897
 20
18.700935
 30
0.0
  0
VERTEX
  5
9F35
  8
ALPHA
 10
54.454524
 20
18.766349
 30
0.0
  0
VERTEX
  5
9F36
  8
ALPHA
 10
54.497658
 20
18.900935
 30
0.0
  0
SEQEND
  5
9F37
  8
ALPHA
  0
LINE
  5
9C29
  8
ALPHA
 10
54.957313
 20
18.700935
 30
0.0
 11
54.957313
 21
20.700935
 31
0.0
  0
LINE
  5
9C2A
  8
ALPHA
 10
54.922643
 20
20.700935
 30
0.0
 11
54.922643
 21
18.900935
 31
0.0
  0
LINE
  5
9C2B
  8
ALPHA
 10
54.497658
 20
20.700935
 30
0.0
 11
54.497658
 21
18.900935
 31
0.0
  0
LINE
  5
9C2C
  8
ALPHA
 10
54.922643
 20
18.900935
 30
0.0
 11
54.497658
 21
18.900935
 31
0.0
  0
LINE
  5
9C2D
  8
ALPHA
 10
57.830968
 20
18.700935
 30
0.0
 11
57.830968
 21
20.700935
 31
0.0
  0
LINE
  5
9C2E
  8
ALPHA
 10
57.379661
 20
17.250935
 30
0.0
 11
57.379661
 21
18.550935
 31
0.0
  0
ARC
  5
9C2F
  8
ALPHA
 10
53.698314
 20
29.150935
 30
0.0
 40
1.0
 50
298.463756
 51
319.943317
  0
ARC
  5
9C30
  8
ALPHA
 10
53.698314
 20
31.250935
 30
0.0
 40
1.0
 50
30.0
 51
61.536244
  0
ARC
  5
9C31
  8
ALPHA
 10
51.879661
 20
28.100935
 30
0.0
 40
1.0
 50
270.0
 51
302.035595
  0
ARC
  5
9C32
  8
ALPHA
 10
51.879661
 20
28.100935
 30
0.0
 40
1.0
 50
237.964405
 51
260.404134
  0
ARC
  5
9C33
  8
ALPHA
 10
51.879661
 20
32.300935
 30
0.0
 40
1.0
 50
57.964405
 51
80.404134
  0
ARC
  5
9C34
  8
ALPHA
 10
51.879661
 20
32.300935
 30
0.0
 40
1.0
 50
90.0
 51
122.035595
  0
LINE
  5
9C35
  8
ALPHA
 10
55.665531
 20
23.843616
 30
0.0
 11
55.805411
 21
23.559243
 31
0.0
  0
LINE
  5
9C36
  8
ALPHA
 10
55.66866
 20
23.48029
 30
0.0
 11
55.492326
 21
23.743616
 31
0.0
  0
LINE
  5
9C37
  8
ALPHA
 10
55.805411
 20
23.559243
 30
0.0
 11
55.804661
 21
23.402636
 31
0.0
  0
LINE
  5
9C38
  8
ALPHA
 10
55.804661
 20
23.402636
 30
0.0
 11
55.66866
 21
23.48029
 31
0.0
  0
LINE
  5
9C39
  8
ALPHA
 10
55.38032
 20
24.332763
 30
0.0
 11
55.378238
 21
24.341222
 31
0.0
  0
LINE
  5
9C3A
  8
ALPHA
 10
55.205033
 20
24.241222
 30
0.0
 11
55.211318
 21
24.235189
 31
0.0
  0
ARC
  5
9C3B
  8
ALPHA
 10
51.879661
 20
30.200935
 30
0.0
 40
7.399211
 50
299.225627
 51
300.774373
  0
LINE
  5
9C3C
  8
ALPHA
 10
55.578929
 20
23.793616
 30
0.0
 11
55.804661
 21
23.402636
 31
0.0
  0
ARC
  5
9C3D
  8
ALPHA
 10
53.698314
 20
29.150935
 30
0.0
 40
1.0
 50
336.606567
 51
2.346476
  0
ARC
  5
9C3E
  8
ALPHA
 10
53.698314
 20
31.250935
 30
0.0
 40
1.0
 50
357.653524
 51
23.393433
  0
POLYLINE
  5
9C3F
  8
ALPHA
 66
     1
 10
0.0
 20
0.0
 30
0.0
 70
   128
  0
VERTEX
  5
9F38
  8
ALPHA
 10
58.968364
 20
18.700935
 30
0.0
  0
VERTEX
  5
9F39
  8
ALPHA
 10
59.117318
 20
18.75705
 30
0.0
  0
VERTEX
  5
9F3A
  8
ALPHA
 10
59.182787
 20
18.900935
 30
0.0
  0
SEQEND
  5
9F3B
  8
ALPHA
  0
POLYLINE
  5
9C40
  8
ALPHA
 66
     1
 10
0.0
 20
0.0
 30
0.0
 70
   128
210
0.0
220
0.0
230
-1.0
  0
VERTEX
  5
9F3C
  8
ALPHA
 10
-59.24283
 20
18.900935
 30
0.0
  0
VERTEX
  5
9F3D
  8
ALPHA
 10
-59.189122
 20
18.76146
 30
0.0
  0
VERTEX
  5
9F3E
  8
ALPHA
 10
-59.053211
 20
18.700935
 30
0.0
  0
SEQEND
  5
9F3F
  8
ALPHA
  0
POLYLINE
  5
9C41
  8
ALPHA
 66
     1
 10
0.0
 20
0.0
 30
0.0
 70
   128
210
0.0
220
0.0
230
-1.0
  0
VERTEX
  5
9F40
  8
ALPHA
 10
-58.801084
 20
18.900935
 30
0.0
  0
VERTEX
  5
9F41
  8
ALPHA
 10
-58.763677
 20
18.769469
 30
0.0
  0
VERTEX
  5
9F42
  8
ALPHA
 10
-58.649191
 20
18.700935
 30
0.0
  0
SEQEND
  5
9F43
  8
ALPHA
  0
LINE
  5
9C42
  8
ALPHA
 10
59.24283
 20
20.700935
 30
0.0
 11
59.24283
 21
18.900935
 31
0.0
  0
LINE
  5
9C43
  8
ALPHA
 10
59.182787
 20
20.700935
 30
0.0
 11
59.182787
 21
18.900935
 31
0.0
  0
LINE
  5
9C44
  8
ALPHA
 10
58.801084
 20
20.700935
 30
0.0
 11
58.801084
 21
18.900935
 31
0.0
  0
LINE
  5
9C45
  8
ALPHA
 10
58.625049
 20
20.700935
 30
0.0
 11
58.625049
 21
18.900935
 31
0.0
  0
LINE
  5
9C46
  8
ALPHA
 10
58.579661
 20
18.550935
 30
0.0
 11
58.579661
 21
18.700935
 31
0.0
  0
LINE
  5
9C47
  8
ALPHA
 10
58.801084
 20
18.900935
 30
0.0
 11
58.625049
 21
18.900935
 31
0.0
  0
LINE
  5
9C48
  8
ALPHA
 10
59.24283
 20
18.900935
 30
0.0
 11
59.182787
 21
18.900935
 31
0.0
  0
LINE
  5
9C49
  8
ALPHA
 10
59.629056
 20
25.548418
 30
0.0
 11
59.567973
 21
25.436457
 31
0.0
  0
POLYLINE
  5
9C4A
  8
ALPHA
 66
     1
 10
0.0
 20
0.0
 30
0.0
 70
   128
210
0.0
220
0.0
230
-1.0
  0
VERTEX
  5
9F44
  8
ALPHA
 10
-59.879661
 20
26.595384
 30
0.0
  0
VERTEX
  5
9F45
  8
ALPHA
 10
-59.817625
 20
26.056712
 30
0.0
  0
VERTEX
  5
9F46
  8
ALPHA
 10
-59.629056
 20
25.548418
 30
0.0
  0
SEQEND
  5
9F47
  8
ALPHA
  0
LINE
  5
9C4B
  8
ALPHA
 10
59.593939
 20
25.565231
 30
0.0
 11
59.567977
 21
25.436457
 31
0.0
  0
ARC
  5
9C4C
  8
ALPHA
 10
57.879661
 20
26.595384
 30
0.0
 40
2.0
 50
328.997281
 51
0.0
  0
LINE
  5
9C4D
  8
ALPHA
 10
59.594411
 20
30.121982
 30
0.0
 11
59.278196
 21
30.100935
 31
0.0
  0
LINE
  5
9C4E
  8
ALPHA
 10
59.278196
 20
30.300935
 30
0.0
 11
59.594411
 21
30.279889
 31
0.0
  0
LINE
  5
9C4F
  8
ALPHA
 10
59.729661
 20
30.200935
 30
0.0
 11
59.594411
 21
30.121982
 31
0.0
  0
LINE
  5
9C50
  8
ALPHA
 10
59.594411
 20
30.279889
 30
0.0
 11
59.729661
 21
30.200935
 31
0.0
  0
LINE
  5
9C51
  8
ALPHA
 10
58.711977
 20
30.298509
 30
0.0
 11
58.70361
 21
30.300935
 31
0.0
  0
LINE
  5
9C52
  8
ALPHA
 10
58.70361
 20
30.100935
 30
0.0
 11
58.711977
 21
30.103362
 31
0.0
  0
ARC
  5
9C53
  8
ALPHA
 10
51.879661
 20
30.200935
 30
0.0
 40
7.399211
 50
359.225627
 51
0.774373
  0
LINE
  5
9C54
  8
ALPHA
 10
59.729661
 20
30.200935
 30
0.0
 11
59.278872
 21
30.200935
 31
0.0
  0
ARC
  5
9C55
  8
ALPHA
 10
57.879661
 20
36.588562
 30
0.0
 40
2.0
 50
0.0
 51
78.34488
  0
LINE
  5
9C56
  8
ALPHA
 10
55.805411
 20
36.842628
 30
0.0
 11
55.665531
 21
36.558254
 31
0.0
  0
LINE
  5
9C57
  8
ALPHA
 10
55.492326
 20
36.658254
 30
0.0
 11
55.66866
 21
36.921581
 31
0.0
  0
LINE
  5
9C58
  8
ALPHA
 10
55.804661
 20
36.999235
 30
0.0
 11
55.805411
 21
36.842628
 31
0.0
  0
LINE
  5
9C59
  8
ALPHA
 10
55.66866
 20
36.921581
 30
0.0
 11
55.804661
 21
36.999235
 31
0.0
  0
LINE
  5
9C5A
  8
ALPHA
 10
55.211318
 20
36.166681
 30
0.0
 11
55.205033
 21
36.160648
 31
0.0
  0
LINE
  5
9C5B
  8
ALPHA
 10
55.378238
 20
36.060648
 30
0.0
 11
55.38032
 21
36.069108
 31
0.0
  0
ARC
  5
9C5C
  8
ALPHA
 10
51.879661
 20
30.200935
 30
0.0
 40
7.399211
 50
59.225627
 51
60.774373
  0
LINE
  5
9C5D
  8
ALPHA
 10
55.804661
 20
36.999235
 30
0.0
 11
55.578929
 21
36.608254
 31
0.0
  0
VIEWPORT
  5
494D
 67
     1
  8
0
 10
4.995325
 20
6.556512
 30
0.0
 40
22.70986
 41
13.988421
 68
    -1
 69
     1
1001
ACAD
1000
MVIEW
1002
{
1070
    16
1010
0.0
1020
0.0
1030
0.0
1010
0.0
1020
0.0
1030
1.0
1040
0.0
1040
13.988421
1040
4.995325
1040
6.556512
1040
50.0
1040
0.0
1040
0.0
1070
     0
1070
   100
1070
     1
1070
     1
1070
     0
1070
     0
1070
     0
1070
     0
1040
0.0
1040
0.0
1040
0.0
1040
10.0
1040
10.0
1040
10.0
1040
10.0
1070
     0
1002
{
1002
}
1002
}
  0
ENDSEC
  0
EOF
