  0
SECTION
  2
HEADER
  9
$ACADVER
  1
AC1009
  9
$INSBASE
 10
402.590624
 20
-1.041018
 30
0.0
  9
$EXTMIN
 10
4.827094
 20
1.771401
 30
0.0
  9
$EXTMAX
 10
87.989242
 20
59.771401
 30
0.0
  9
$LIMMIN
 10
-407.970438
 20
-367.832444
  9
$LIMMAX
 10
429.804077
 20
234.370848
  9
$ORTHOMODE
 70
     1
  9
$REGENMODE
 70
     1
  9
$FILLMODE
 70
     1
  9
$QTEXTMODE
 70
     0
  9
$MIRRTEXT
 70
     1
  9
$DRAGMODE
 70
     2
  9
$LTSCALE
 40
10.0
  9
$OSMODE
 70
    39
  9
$ATTMODE
 70
     1
  9
$TEXTSIZE
 40
6.0
  9
$TRACEWID
 40
1.0
  9
$TEXTSTYLE
  7
ROMANS
  9
$CLAYER
  8
ALPHA
  9
$CELTYPE
  6
BYLAYER
  9
$CECOLOR
 62
   256
  9
$DIMSCALE
 40
1.0
  9
$DIMASZ
 40
5.0
  9
$DIMEXO
 40
2.0
  9
$DIMDLI
 40
0.38
  9
$DIMRND
 40
0.0
  9
$DIMDLE
 40
0.0
  9
$DIMEXE
 40
2.5
  9
$DIMTP
 40
0.0
  9
$DIMTM
 40
0.0
  9
$DIMTXT
 40
2.5
  9
$DIMCEN
 40
0.0
  9
$DIMTSZ
 40
0.0
  9
$DIMTOL
 70
     0
  9
$DIMLIM
 70
     0
  9
$DIMTIH
 70
     1
  9
$DIMTOH
 70
     1
  9
$DIMSE1
 70
     0
  9
$DIMSE2
 70
     0
  9
$DIMTAD
 70
     1
  9
$DIMZIN
 70
    12
  9
$DIMBLK
  1
OPEN30
  9
$DIMASO
 70
     1
  9
$DIMSHO
 70
     1
  9
$DIMPOST
  1

  9
$DIMAPOST
  1

  9
$DIMALT
 70
     0
  9
$DIMALTD
 70
     2
  9
$DIMALTF
 40
25.4
  9
$DIMLFAC
 40
1.0
  9
$DIMTOFL
 70
     0
  9
$DIMTVP
 40
0.0
  9
$DIMTIX
 70
     0
  9
$DIMSOXD
 70
     0
  9
$DIMSAH
 70
     0
  9
$DIMBLK1
  1

  9
$DIMBLK2
  1

  9
$DIMSTYLE
  2
SC_DEFAUT
  9
$DIMCLRD
 70
     0
  9
$DIMCLRE
 70
     0
  9
$DIMCLRT
 70
     0
  9
$DIMTFAC
 40
1.0
  9
$DIMGAP
 40
2.0
  9
$LUNITS
 70
     2
  9
$LUPREC
 70
     1
  9
$SKETCHINC
 40
0.1
  9
$FILLETRAD
 40
0.0
  9
$AUNITS
 70
     0
  9
$AUPREC
 70
     0
  9
$MENU
  1
acad
  9
$ELEVATION
 40
0.0
  9
$PELEVATION
 40
0.0
  9
$THICKNESS
 40
0.0
  9
$LIMCHECK
 70
     0
  9
$BLIPMODE
 70
     0
  9
$CHAMFERA
 40
0.0
  9
$CHAMFERB
 40
0.0
  9
$SKPOLY
 70
     0
  9
$TDCREATE
 40
2450373.687919
  9
$TDUPDATE
 40
2452996.373821
  9
$TDINDWG
 40
0.87144
  9
$TDUSRTIMER
 40
0.87144
  9
$USRTIMER
 70
     1
  9
$ANGBASE
 50
0.0
  9
$ANGDIR
 70
     0
  9
$PDMODE
 70
    32
  9
$PDSIZE
 40
0.0
  9
$PLINEWID
 40
0.0
  9
$COORDS
 70
     1
  9
$SPLFRAME
 70
     0
  9
$SPLINETYPE
 70
     6
  9
$SPLINESEGS
 70
     8
  9
$ATTDIA
 70
     0
  9
$ATTREQ
 70
     1
  9
$HANDLING
 70
     1
  9
$HANDSEED
  5
9726
  9
$SURFTAB1
 70
     6
  9
$SURFTAB2
 70
     6
  9
$SURFTYPE
 70
     6
  9
$SURFU
 70
     6
  9
$SURFV
 70
     6
  9
$UCSNAME
  2

  9
$UCSORG
 10
0.0
 20
0.0
 30
0.0
  9
$UCSXDIR
 10
1.0
 20
0.0
 30
0.0
  9
$UCSYDIR
 10
0.0
 20
1.0
 30
0.0
  9
$PUCSNAME
  2

  9
$PUCSORG
 10
0.0
 20
0.0
 30
0.0
  9
$PUCSXDIR
 10
1.0
 20
0.0
 30
0.0
  9
$PUCSYDIR
 10
0.0
 20
1.0
 30
0.0
  9
$USERI1
 70
     0
  9
$USERI2
 70
     0
  9
$USERI3
 70
     0
  9
$USERI4
 70
     0
  9
$USERI5
 70
     0
  9
$USERR1
 40
0.0
  9
$USERR2
 40
0.0
  9
$USERR3
 40
0.0
  9
$USERR4
 40
0.0
  9
$USERR5
 40
0.0
  9
$WORLDVIEW
 70
     1
  9
$SHADEDGE
 70
     3
  9
$SHADEDIF
 70
    70
  9
$TILEMODE
 70
     1
  9
$MAXACTVP
 70
    16
  9
$PLIMCHECK
 70
     0
  9
$PEXTMIN
 10
-1.452248
 20
-0.437698
 30
0.0
  9
$PEXTMAX
 10
12.749749
 20
8.310198
 30
0.0
  9
$PLIMMIN
 10
0.0
 20
0.0
  9
$PLIMMAX
 10
12.0
 20
9.0
  9
$UNITMODE
 70
     0
  9
$VISRETAIN
 70
     0
  9
$PLINEGEN
 70
     0
  9
$PSLTSCALE
 70
     0
  0
ENDSEC
  0
SECTION
  2
TABLES
  0
TABLE
  2
VPORT
 70
     2
  0
VPORT
  2
*ACTIVE
 70
     0
 10
0.0
 20
0.0
 11
1.0
 21
1.0
 12
46.390825
 22
30.763358
 13
0.0
 23
0.0
 14
1.0
 24
1.0
 15
10.0
 25
10.0
 16
0.0
 26
0.0
 36
1.0
 17
0.0
 27
0.0
 37
0.0
 40
58.492102
 41
1.466346
 42
50.0
 43
0.0
 44
0.0
 50
0.0
 51
0.0
 71
     0
 72
   100
 73
     1
 74
     0
 75
     0
 76
     0
 77
     0
 78
     0
  0
ENDTAB
  0
TABLE
  2
LTYPE
 70
     2
  0
LTYPE
  2
CONTINUOUS
 70
     0
  3
Solid line
 72
    65
 73
     0
 40
0.0
  0
LTYPE
  2
AXES2
 70
     0
  3
___ _ ___ _ ___ _ ___ _ ___ _ ___ _ ___ _ ___ _
 72
    65
 73
     4
 40
1.125
 49
0.75
 49
-0.125
 49
0.125
 49
-0.125
  0
ENDTAB
  0
TABLE
  2
LAYER
 70
     5
  0
LAYER
  2
0
 70
     0
 62
   255
  6
CONTINUOUS
  0
LAYER
  2
COTATION1
 70
     0
 62
     2
  6
CONTINUOUS
  0
LAYER
  2
AXE
 70
     0
 62
    80
  6
AXES2
  0
LAYER
  2
DEFPOINTS
 70
     0
 62
     7
  6
CONTINUOUS
  0
LAYER
  2
ALPHA
 70
     0
 62
   254
  6
CONTINUOUS
  0
ENDTAB
  0
TABLE
  2
STYLE
 70
     2
  0
STYLE
  2
ROMANS
 70
     0
 40
0.0
 41
1.0
 50
0.0
 71
     0
 42
6.0
  3
romans
  4

  0
STYLE
  2
STANDARD
 70
     0
 40
0.0
 41
1.0
 50
0.0
 71
     0
 42
0.2
  3
txt
  4

  0
ENDTAB
  0
TABLE
  2
VIEW
 70
     0
  0
ENDTAB
  0
TABLE
  2
UCS
 70
     0
  0
ENDTAB
  0
TABLE
  2
APPID
 70
     1
  0
APPID
  2
ACAD
 70
     0
  0
ENDTAB
  0
TABLE
  2
DIMSTYLE
 70
     1
  0
DIMSTYLE
  2
SC_DEFAUT
 70
     0
  3

  4

  5
OPEN30
  6

  7

 40
1.0
 41
5.0
 42
2.0
 43
0.38
 44
2.5
 45
0.0
 46
0.0
 47
0.0
 48
0.0
140
2.5
141
0.0
142
0.0
143
25.4
144
1.0
145
0.0
146
1.0
147
2.0
 71
     0
 72
     0
 73
     1
 74
     1
 75
     0
 76
     0
 77
     1
 78
    12
170
     0
171
     2
172
     0
173
     0
174
     0
175
     0
176
     0
177
     0
178
     0
  0
ENDTAB
  0
ENDSEC
  0
SECTION
  2
BLOCKS
  0
BLOCK
  8
0
  2
$MODEL_SPACE
 70
     0
 10
0.0
 20
0.0
 30
0.0
  3
$MODEL_SPACE
  1

  0
ENDBLK
  5
96BF
  8
0
  0
BLOCK
 67
     1
  8
0
  2
$PAPER_SPACE
 70
     0
 10
0.0
 20
0.0
 30
0.0
  3
$PAPER_SPACE
  1

  0
ENDBLK
  5
96BD
 67
     1
  8
0
  0
BLOCK
  8
0
  2
COTE
 70
     0
 10
0.0
 20
0.0
 30
0.0
  3
COTE
  1

  0
ENDBLK
  5
F
  8
0
  0
BLOCK
  8
0
  2
FOND
 70
     0
 10
0.0
 20
0.0
 30
0.0
  3
FOND
  1

  0
ENDBLK
  5
75
  8
0
  0
BLOCK
  8
0
  2
_OPEN30
 70
     0
 10
0.0
 20
0.0
 30
0.0
  3
_OPEN30
  1

  0
LINE
  5
4B05
  8
COTATION1
 62
     0
 10
-1.0
 20
0.267949
 30
0.0
 11
0.0
 21
0.0
 31
0.0
1001
ACAD
1000
RTLwPs
1070
   158
  0
LINE
  5
4B06
  8
COTATION1
 62
     0
 10
0.0
 20
0.0
 30
0.0
 11
-1.0
 21
-0.267949
 31
0.0
1001
ACAD
1000
RTLwPs
1070
   158
  0
LINE
  5
4B07
  8
COTATION1
 62
     0
 10
0.0
 20
0.0
 30
0.0
 11
-1.0
 21
0.0
 31
0.0
1001
ACAD
1000
RTLwPs
1070
   158
  0
ENDBLK
  5
4B09
  8
0
  0
BLOCK
  8
0
  2
*D3
 70
     1
 10
0.0
 20
0.0
 30
0.0
  3
*D3
  1

  0
LINE
  5
95D8
  8
COTATION1
 62
     0
 10
43.879661
 20
38.071401
 30
0.0
 11
43.879661
 21
57.771401
 31
0.0
1001
ACAD
1000
RTLwPs
1070
   158
  0
LINE
  5
95D9
  8
COTATION1
 62
     0
 10
59.879661
 20
38.071401
 30
0.0
 11
59.879661
 21
57.771401
 31
0.0
1001
ACAD
1000
RTLwPs
1070
   158
  0
LINE
  5
95DA
  8
COTATION1
 62
     0
 10
48.879661
 20
55.271401
 30
0.0
 11
54.879661
 21
55.271401
 31
0.0
1001
ACAD
1000
RTLwPs
1070
   158
  0
INSERT
  5
95DB
  8
COTATION1
 62
     0
  2
_OPEN30
 10
43.879661
 20
55.271401
 30
0.0
 41
5.0
 42
5.0
 43
5.0
 50
180.0
1001
ACAD
1000
RTLwPs
1070
   158
  0
INSERT
  5
95DC
  8
COTATION1
 62
     0
  2
_OPEN30
 10
59.879661
 20
55.271401
 30
0.0
 41
5.0
 42
5.0
 43
5.0
1001
ACAD
1000
RTLwPs
1070
   158
  0
TEXT
  5
95DD
  8
COTATION1
 62
     0
 10
49.320137
 20
57.271401
 30
0.0
 40
2.5
  1
16
1001
ACAD
1000
MTEXTBEGIN
1070
    73
1070
     1
1070
    44
1040
1.0
1070
    74
1070
     0
1000
MTEXTEND
  0
POINT
  5
95DE
  8
DEFPOINTS
 62
     0
 10
43.879661
 20
36.071401
 30
0.0
  0
POINT
  5
95DF
  8
DEFPOINTS
 62
     0
 10
59.879661
 20
36.071401
 30
0.0
  0
POINT
  5
95E0
  8
DEFPOINTS
 62
     0
 10
59.879661
 20
55.271401
 30
0.0
  0
ENDBLK
  5
7F3E
  8
0
  0
BLOCK
  8
0
  2
*D4
 70
     1
 10
0.0
 20
0.0
 30
0.0
  3
*D4
  1

  0
LINE
  5
95EB
  8
COTATION1
 62
     0
 10
49.879661
 20
40.271401
 30
0.0
 11
28.237846
 21
40.271401
 31
0.0
1001
ACAD
1000
RTLwPs
1070
   158
  0
LINE
  5
95EC
  8
COTATION1
 62
     0
 10
41.879661
 20
21.771401
 30
0.0
 11
28.237846
 21
21.771401
 31
0.0
1001
ACAD
1000
RTLwPs
1070
   158
  0
LINE
  5
95ED
  8
COTATION1
 62
     0
 10
30.737846
 20
35.271401
 30
0.0
 11
30.737846
 21
35.121401
 31
0.0
1001
ACAD
1000
RTLwPs
1070
   158
  0
LINE
  5
95EE
  8
COTATION1
 62
     0
 10
30.737846
 20
26.771401
 30
0.0
 11
30.737846
 21
28.621401
 31
0.0
1001
ACAD
1000
RTLwPs
1070
   158
  0
TEXT
  5
95EF
  8
COTATION1
 62
     0
 10
26.392608
 20
30.621401
 30
0.0
 40
2.5
  1
18.5
1001
ACAD
1000
MTEXTBEGIN
1070
    73
1070
     1
1070
    44
1040
1.0
1070
    74
1070
     0
1000
MTEXTEND
  0
INSERT
  5
95F0
  8
COTATION1
 62
     0
  2
_OPEN30
 10
30.737846
 20
40.271401
 30
0.0
 41
5.0
 42
5.0
 43
5.0
 50
90.0
1001
ACAD
1000
RTLwPs
1070
   158
  0
INSERT
  5
95F1
  8
COTATION1
 62
     0
  2
_OPEN30
 10
30.737846
 20
21.771401
 30
0.0
 41
5.0
 42
5.0
 43
5.0
 50
270.0
1001
ACAD
1000
RTLwPs
1070
   158
  0
POINT
  5
95F2
  8
DEFPOINTS
 62
     0
 10
51.879661
 20
40.271401
 30
0.0
  0
POINT
  5
95F3
  8
DEFPOINTS
 62
     0
 10
43.879661
 20
21.771401
 30
0.0
  0
POINT
  5
95F4
  8
DEFPOINTS
 62
     0
 10
30.737846
 20
21.771401
 30
0.0
  0
ENDBLK
  5
7F4B
  8
0
  0
BLOCK
  8
0
  2
*D5
 70
     1
 10
0.0
 20
0.0
 30
0.0
  3
*D5
  1

  0
LINE
  5
95E1
  8
COTATION1
 62
     0
 10
53.879661
 20
40.271401
 30
0.0
 11
86.679718
 21
40.271401
 31
0.0
1001
ACAD
1000
RTLwPs
1070
   158
  0
LINE
  5
95E2
  8
COTATION1
 62
     0
 10
59.379661
 20
11.771401
 30
0.0
 11
86.679718
 21
11.771401
 31
0.0
1001
ACAD
1000
RTLwPs
1070
   158
  0
LINE
  5
95E3
  8
COTATION1
 62
     0
 10
84.179718
 20
35.271401
 30
0.0
 11
84.179718
 21
29.271401
 31
0.0
1001
ACAD
1000
RTLwPs
1070
   158
  0
LINE
  5
95E4
  8
COTATION1
 62
     0
 10
84.179718
 20
16.771401
 30
0.0
 11
84.179718
 21
22.771401
 31
0.0
1001
ACAD
1000
RTLwPs
1070
   158
  0
TEXT
  5
95E5
  8
COTATION1
 62
     0
 10
80.013051
 20
24.771401
 30
0.0
 40
2.5
  1
28.5
1001
ACAD
1000
MTEXTBEGIN
1070
    73
1070
     1
1070
    44
1040
1.0
1070
    74
1070
     0
1000
MTEXTEND
  0
INSERT
  5
95E6
  8
COTATION1
 62
     0
  2
_OPEN30
 10
84.179718
 20
40.271401
 30
0.0
 41
5.0
 42
5.0
 43
5.0
 50
90.0
1001
ACAD
1000
RTLwPs
1070
   158
  0
INSERT
  5
95E7
  8
COTATION1
 62
     0
  2
_OPEN30
 10
84.179718
 20
11.771401
 30
0.0
 41
5.0
 42
5.0
 43
5.0
 50
270.0
1001
ACAD
1000
RTLwPs
1070
   158
  0
POINT
  5
95E8
  8
DEFPOINTS
 62
     0
 10
51.879661
 20
40.271401
 30
0.0
  0
POINT
  5
95E9
  8
DEFPOINTS
 62
     0
 10
57.379661
 20
11.771401
 30
0.0
  0
POINT
  5
95EA
  8
DEFPOINTS
 62
     0
 10
84.179718
 20
11.771401
 30
0.0
  0
ENDBLK
  5
8EB4
  8
0
  0
ENDSEC
  0
SECTION
  2
ENTITIES
  0
INSERT
  5
A
  8
0
  2
COTE
 10
0.0
 20
0.0
 30
0.0
  0
INSERT
  5
17
  8
0
  2
COTE
 10
284.010391
 20
6.373258
 30
0.0
  0
INSERT
  5
72
  8
0
  2
FOND
 10
0.0
 20
0.0
 30
0.0
  0
DIMENSION
  5
7F30
  8
COTATION1
  2
*D3
 10
59.879661
 20
55.271401
 30
0.0
 11
51.879661
 21
58.521401
 31
0.0
 13
43.879661
 23
36.071401
 33
0.0
 14
59.879661
 24
36.071401
 34
0.0
  0
DIMENSION
  5
7F31
  8
COTATION1
  2
*D4
 10
30.737846
 20
21.771401
 30
0.0
 11
30.737846
 21
31.871401
 31
0.0
 70
   128
 13
51.879661
 23
40.271401
 33
0.0
 14
43.879661
 24
21.771401
 34
0.0
 50
90.0
  0
LINE
  5
8AD3
  8
AXE
 10
51.879661
 20
1.771401
 30
0.0
 11
51.879661
 21
45.271401
 31
0.0
  0
TEXT
  5
8AD4
  8
AXE
 10
46.832042
 20
1.771401
 30
0.0
 40
5.0
  1
Y
 72
     2
 11
50.879661
 21
1.771401
 31
0.0
  0
LINE
  5
8AD5
  8
AXE
 10
38.879661
 20
19.016401
 30
0.0
 11
69.879661
 21
19.016401
 31
0.0
  0
TEXT
  5
8AD6
  8
AXE
 10
65.832042
 20
20.016401
 30
0.0
 40
5.0
  1
X
 72
     2
 11
69.879661
 21
20.016401
 31
0.0
  0
LINE
  5
8B73
  8
COTATION1
 10
18.077094
 20
24.271401
 30
0.0
 11
18.077094
 21
49.230324
 31
0.0
  0
LINE
  5
8B74
  8
COTATION1
 10
9.976741
 20
21.771401
 30
0.0
 11
42.879661
 21
21.771401
 31
0.0
  0
SOLID
  5
8B75
  8
COTATION1
 10
19.520469
 20
21.771401
 30
0.0
 11
16.633718
 21
21.771401
 31
0.0
 12
18.077094
 22
24.271401
 32
0.0
 13
18.077094
 23
24.271401
 33
0.0
  0
LINE
  5
8B76
  8
COTATION1
 10
4.827094
 20
54.230324
 30
0.0
 11
31.327094
 21
54.230324
 31
0.0
  0
LINE
  5
8B77
  8
COTATION1
 10
31.327094
 20
49.230324
 30
0.0
 11
4.827094
 21
49.230324
 31
0.0
  0
TEXT
  5
8B78
  8
COTATION1
 10
6.077094
 20
50.480324
 30
0.0
 40
2.5
  1
PLANE_TO_LINE_UP
 41
0.626087
  7
STANDARD
 72
     5
 11
30.077094
 21
50.480324
 31
0.0
  0
LINE
  5
8B79
  8
COTATION1
 10
31.327094
 20
54.230324
 30
0.0
 11
31.327094
 21
49.230324
 31
0.0
  0
LINE
  5
8B7A
  8
COTATION1
 10
4.827094
 20
49.230324
 30
0.0
 11
4.827094
 21
54.230324
 31
0.0
  0
DIMENSION
  5
8EA7
  8
COTATION1
  2
*D5
 10
84.179718
 20
11.771401
 30
0.0
 11
84.179718
 21
26.021401
 31
0.0
 70
   128
 13
51.879661
 23
40.271401
 33
0.0
 14
57.379661
 24
11.771401
 34
0.0
 50
90.0
  0
POLYLINE
  5
920A
  8
ALPHA
 66
     1
 10
0.0
 20
0.0
 30
0.0
 70
   128
210
0.0
220
0.0
230
-1.0
  0
VERTEX
  5
96C5
  8
ALPHA
 10
-51.879661
 20
22.021401
 30
0.0
  0
VERTEX
  5
96C6
  8
ALPHA
 10
-50.718384
 20
22.097921
 30
0.0
  0
VERTEX
  5
96C7
  8
ALPHA
 10
-49.577708
 20
22.331637
 30
0.0
  0
VERTEX
  5
96C8
  8
ALPHA
 10
-48.477818
 20
22.712348
 30
0.0
  0
VERTEX
  5
96C9
  8
ALPHA
 10
-47.4377
 20
23.235362
 30
0.0
  0
VERTEX
  5
96CA
  8
ALPHA
 10
-46.474504
 20
23.889395
 30
0.0
  0
VERTEX
  5
96CB
  8
ALPHA
 10
-45.604275
 20
24.66264
 30
0.0
  0
VERTEX
  5
96CC
  8
ALPHA
 10
-44.838216
 20
25.539548
 30
0.0
  0
VERTEX
  5
96CD
  8
ALPHA
 10
-44.191349
 20
26.506923
 30
0.0
  0
SEQEND
  5
96CE
  8
ALPHA
  0
CIRCLE
  5
920B
  8
ALPHA
 10
51.879661
 20
31.271401
 30
0.0
 40
7.013423
  0
ARC
  5
920C
  8
ALPHA
 10
51.879661
 20
31.271401
 30
0.0
 40
7.715154
 50
60.586349
 51
119.413651
  0
ARC
  5
920D
  8
ALPHA
 10
51.879661
 20
31.271401
 30
0.0
 40
7.715154
 50
240.586349
 51
299.413651
  0
CIRCLE
  5
920E
  8
ALPHA
 10
51.879661
 20
31.271401
 30
0.0
 40
7.85
  0
ARC
  5
920F
  8
ALPHA
 10
51.879661
 20
31.271401
 30
0.0
 40
9.0
 50
211.002719
 51
328.997281
  0
CIRCLE
  5
9210
  8
ALPHA
 10
51.879661
 20
31.271401
 30
0.0
 40
6.814256
  0
ARC
  5
9211
  8
ALPHA
 10
51.879661
 20
8.571401
 30
0.0
 40
31.7
 50
78.34488
 51
101.65512
  0
CIRCLE
  5
9212
  8
ALPHA
 10
51.879661
 20
31.271401
 30
0.0
 40
5.0
  0
CIRCLE
  5
9213
  8
ALPHA
 10
51.879661
 20
31.271401
 30
0.0
 40
5.5
  0
CIRCLE
  5
9214
  8
ALPHA
 10
51.879661
 20
31.271401
 30
0.0
 40
4.0
  0
LINE
  5
9215
  8
ALPHA
 10
54.189062
 20
35.271401
 30
0.0
 11
49.57026
 21
35.271401
 31
0.0
  0
LINE
  5
9216
  8
ALPHA
 10
49.57026
 20
27.271401
 30
0.0
 11
54.189062
 21
27.271401
 31
0.0
  0
LINE
  5
9217
  8
ALPHA
 10
43.879661
 20
21.771401
 30
0.0
 11
59.879661
 21
21.771401
 31
0.0
  0
LINE
  5
9218
  8
ALPHA
 10
49.84768
 20
19.771401
 30
0.0
 11
48.802009
 21
19.771401
 31
0.0
  0
LINE
  5
9219
  8
ALPHA
 10
45.179778
 20
19.621401
 30
0.0
 11
58.579544
 21
19.621401
 31
0.0
  0
LINE
  5
921A
  8
ALPHA
 10
45.529772
 20
18.321401
 30
0.0
 11
58.22955
 21
18.321401
 31
0.0
  0
LINE
  5
921B
  8
ALPHA
 10
45.529772
 20
17.171401
 30
0.0
 11
58.22955
 21
17.171401
 31
0.0
  0
LINE
  5
921C
  8
ALPHA
 10
45.879661
 20
17.071401
 30
0.0
 11
57.879661
 21
17.071401
 31
0.0
  0
LINE
  5
921D
  8
ALPHA
 10
45.879661
 20
16.071401
 30
0.0
 11
57.879661
 21
16.071401
 31
0.0
  0
LINE
  5
921E
  8
ALPHA
 10
45.529772
 20
15.971401
 30
0.0
 11
58.22955
 21
15.971401
 31
0.0
  0
LINE
  5
921F
  8
ALPHA
 10
45.529772
 20
15.371401
 30
0.0
 11
58.22955
 21
15.371401
 31
0.0
  0
LINE
  5
9220
  8
ALPHA
 10
54.379661
 20
15.171401
 30
0.0
 11
49.379661
 21
15.171401
 31
0.0
  0
LINE
  5
9221
  8
ALPHA
 10
49.379661
 20
14.171401
 30
0.0
 11
54.379661
 21
14.171401
 31
0.0
  0
LINE
  5
9222
  8
ALPHA
 10
49.129661
 20
13.671401
 30
0.0
 11
54.629661
 21
13.671401
 31
0.0
  0
LINE
  5
9223
  8
ALPHA
 10
49.004661
 20
13.421401
 30
0.0
 11
54.754661
 21
13.421401
 31
0.0
  0
LINE
  5
9224
  8
ALPHA
 10
57.529661
 20
12.021401
 30
0.0
 11
46.229661
 21
12.021401
 31
0.0
  0
LINE
  5
9225
  8
ALPHA
 10
57.379661
 20
11.771401
 30
0.0
 11
46.379661
 21
11.771401
 31
0.0
  0
LINE
  5
9226
  8
ALPHA
 10
49.261664
 20
21.771401
 30
0.0
 11
49.261664
 21
19.971401
 31
0.0
  0
LINE
  5
9227
  8
ALPHA
 10
48.83668
 20
21.771401
 30
0.0
 11
48.83668
 21
19.971401
 31
0.0
  0
LINE
  5
9228
  8
ALPHA
 10
48.802009
 20
19.771401
 30
0.0
 11
48.802009
 21
21.771401
 31
0.0
  0
LINE
  5
9229
  8
ALPHA
 10
45.928354
 20
19.771401
 30
0.0
 11
45.928354
 21
21.771401
 31
0.0
  0
LINE
  5
922A
  8
ALPHA
 10
45.134273
 20
21.771401
 30
0.0
 11
45.134273
 21
19.971401
 31
0.0
  0
LINE
  5
922B
  8
ALPHA
 10
44.958238
 20
21.771401
 30
0.0
 11
44.958238
 21
19.971401
 31
0.0
  0
LINE
  5
922C
  8
ALPHA
 10
44.576535
 20
21.771401
 30
0.0
 11
44.576535
 21
19.971401
 31
0.0
  0
LINE
  5
922D
  8
ALPHA
 10
44.516493
 20
21.771401
 30
0.0
 11
44.516493
 21
19.971401
 31
0.0
  0
ARC
  5
922E
  8
ALPHA
 10
45.879661
 20
16.571401
 30
0.0
 40
0.5
 50
90.0
 51
270.0
  0
LINE
  5
922F
  8
ALPHA
 10
44.706111
 20
19.771401
 30
0.0
 11
45.928354
 21
19.771401
 31
0.0
  0
POLYLINE
  5
9230
  8
ALPHA
 66
     1
 10
0.0
 20
0.0
 30
0.0
 70
   128
  0
VERTEX
  5
96CF
  8
ALPHA
 10
45.134273
 20
19.971401
 30
0.0
  0
VERTEX
  5
96D0
  8
ALPHA
 10
45.20475
 20
19.825898
 30
0.0
  0
VERTEX
  5
96D1
  8
ALPHA
 10
45.358888
 20
19.771401
 30
0.0
  0
SEQEND
  5
96D2
  8
ALPHA
  0
POLYLINE
  5
9231
  8
ALPHA
 66
     1
 10
0.0
 20
0.0
 30
0.0
 70
   128
  0
VERTEX
  5
96D3
  8
ALPHA
 10
44.576535
 20
19.971401
 30
0.0
  0
VERTEX
  5
96D4
  8
ALPHA
 10
44.642004
 20
19.827516
 30
0.0
  0
VERTEX
  5
96D5
  8
ALPHA
 10
44.790958
 20
19.771401
 30
0.0
  0
SEQEND
  5
96D6
  8
ALPHA
  0
POLYLINE
  5
9232
  8
ALPHA
 66
     1
 10
0.0
 20
0.0
 30
0.0
 70
   128
210
0.0
220
0.0
230
-1.0
  0
VERTEX
  5
96D7
  8
ALPHA
 10
-44.706112
 20
19.771401
 30
0.0
  0
VERTEX
  5
96D8
  8
ALPHA
 10
-44.5702
 20
19.831927
 30
0.0
  0
VERTEX
  5
96D9
  8
ALPHA
 10
-44.516493
 20
19.971401
 30
0.0
  0
SEQEND
  5
96DA
  8
ALPHA
  0
POLYLINE
  5
9233
  8
ALPHA
 66
     1
 10
0.0
 20
0.0
 30
0.0
 70
   128
210
0.0
220
0.0
230
-1.0
  0
VERTEX
  5
96DB
  8
ALPHA
 10
-45.110131
 20
19.771401
 30
0.0
  0
VERTEX
  5
96DC
  8
ALPHA
 10
-44.995645
 20
19.839936
 30
0.0
  0
VERTEX
  5
96DD
  8
ALPHA
 10
-44.958238
 20
19.971401
 30
0.0
  0
SEQEND
  5
96DE
  8
ALPHA
  0
LINE
  5
9234
  8
ALPHA
 10
44.576535
 20
19.971401
 30
0.0
 11
44.516493
 21
19.971401
 31
0.0
  0
LINE
  5
9235
  8
ALPHA
 10
45.134273
 20
19.971401
 30
0.0
 11
44.958238
 21
19.971401
 31
0.0
  0
LINE
  5
9236
  8
ALPHA
 10
45.529661
 20
17.171401
 30
0.0
 11
45.529661
 21
18.321401
 31
0.0
  0
LINE
  5
9237
  8
ALPHA
 10
45.529661
 20
15.371401
 30
0.0
 11
45.529661
 21
15.971401
 31
0.0
  0
LINE
  5
9238
  8
ALPHA
 10
45.179661
 20
19.621401
 30
0.0
 11
45.179661
 21
19.771401
 31
0.0
  0
LINE
  5
9239
  8
ALPHA
 10
49.214041
 20
15.321401
 30
0.0
 11
48.892122
 21
13.851887
 31
0.0
  0
LINE
  5
923A
  8
ALPHA
 10
49.379661
 20
13.671401
 30
0.0
 11
49.379661
 21
15.321401
 31
0.0
  0
LINE
  5
923B
  8
ALPHA
 10
48.879661
 20
15.121401
 30
0.0
 11
48.879661
 21
13.921401
 31
0.0
  0
LINE
  5
923C
  8
ALPHA
 10
48.481934
 20
15.121401
 30
0.0
 11
48.481934
 21
13.921401
 31
0.0
  0
LINE
  5
923D
  8
ALPHA
 10
46.229661
 20
11.821402
 30
0.0
 11
46.229661
 21
15.371401
 31
0.0
  0
ARC
  5
923E
  8
ALPHA
 10
46.379661
 20
12.021401
 30
0.0
 40
0.25
 50
233.121893
 51
270.0
  0
POLYLINE
  5
923F
  8
ALPHA
 66
     1
 10
0.0
 20
0.0
 30
0.0
 70
   128
  0
VERTEX
  5
96DF
  8
ALPHA
 10
49.129661
 20
13.671401
 30
0.0
  0
VERTEX
  5
96E0
  8
ALPHA
 10
49.02884
 20
13.568962
 30
0.0
  0
VERTEX
  5
96E1
  8
ALPHA
 10
49.004661
 20
13.421401
 30
0.0
  0
SEQEND
  5
96E2
  8
ALPHA
  0
POLYLINE
  5
9240
  8
ALPHA
 66
     1
 10
0.0
 20
0.0
 30
0.0
 70
   128
  0
VERTEX
  5
96E3
  8
ALPHA
 10
48.481934
 20
13.921401
 30
0.0
  0
VERTEX
  5
96E4
  8
ALPHA
 10
48.523097
 20
13.726468
 30
0.0
  0
VERTEX
  5
96E5
  8
ALPHA
 10
48.639028
 20
13.564121
 30
0.0
  0
VERTEX
  5
96E6
  8
ALPHA
 10
48.808242
 20
13.457531
 30
0.0
  0
VERTEX
  5
96E7
  8
ALPHA
 10
49.004661
 20
13.421401
 30
0.0
  0
SEQEND
  5
96E8
  8
ALPHA
  0
ARC
  5
9241
  8
ALPHA
 10
49.129661
 20
13.921401
 30
0.0
 40
0.25
 50
180.0
 51
270.0
  0
LINE
  5
9242
  8
ALPHA
 10
48.879661
 20
13.921401
 30
0.0
 11
48.481934
 21
13.921401
 31
0.0
  0
ARC
  5
9243
  8
ALPHA
 10
46.029661
 20
16.221401
 30
0.0
 40
0.25
 50
270.000011
 51
323.006207
  0
ARC
  5
9244
  8
ALPHA
 10
46.029661
 20
16.921401
 30
0.0
 40
0.25
 50
36.993798
 51
89.999999
  0
LINE
  5
9245
  8
ALPHA
 10
46.379661
 20
18.321401
 30
0.0
 11
46.379661
 21
19.621401
 31
0.0
  0
POLYLINE
  5
9246
  8
ALPHA
 66
     1
 10
0.0
 20
0.0
 30
0.0
 70
   128
  0
VERTEX
  5
96E9
  8
ALPHA
 10
49.261664
 20
19.971401
 30
0.0
  0
VERTEX
  5
96EA
  8
ALPHA
 10
49.304798
 20
19.836815
 30
0.0
  0
VERTEX
  5
96EB
  8
ALPHA
 10
49.427426
 20
19.771401
 30
0.0
  0
SEQEND
  5
96EC
  8
ALPHA
  0
LINE
  5
9247
  8
ALPHA
 10
48.826873
 20
19.771401
 30
0.0
 11
48.83668
 21
19.971401
 31
0.0
  0
LINE
  5
9248
  8
ALPHA
 10
48.552062
 20
15.371401
 30
0.0
 11
48.481934
 21
15.121401
 31
0.0
  0
LINE
  5
9249
  8
ALPHA
 10
49.375449
 20
15.371603
 30
0.0
 11
49.379661
 21
15.321401
 31
0.0
  0
LINE
  5
924A
  8
ALPHA
 10
49.22834
 20
15.371521
 30
0.0
 11
49.214041
 21
15.321401
 31
0.0
  0
ARC
  5
924B
  8
ALPHA
 10
49.129661
 20
15.121401
 30
0.0
 40
0.25
 50
90.0
 51
180.0
  0
LINE
  5
924C
  8
ALPHA
 10
49.261664
 20
19.971401
 30
0.0
 11
48.83668
 21
19.971401
 31
0.0
  0
LINE
  5
924D
  8
ALPHA
 10
48.982478
 20
15.321401
 30
0.0
 11
49.214041
 21
15.321401
 31
0.0
  0
LINE
  5
924E
  8
ALPHA
 10
48.879661
 20
15.121401
 30
0.0
 11
48.481934
 21
15.121401
 31
0.0
  0
ARC
  5
924F
  8
ALPHA
 10
51.879661
 20
31.271401
 30
0.0
 40
7.715154
 50
120.586349
 51
179.413651
  0
LINE
  5
9250
  8
ALPHA
 10
49.57026
 20
35.271401
 30
0.0
 11
47.260859
 21
31.271401
 31
0.0
  0
LINE
  5
9251
  8
ALPHA
 10
43.879661
 20
21.771401
 30
0.0
 11
43.879661
 21
37.659028
 31
0.0
  0
ARC
  5
9252
  8
ALPHA
 10
51.879661
 20
31.271401
 30
0.0
 40
7.715154
 50
180.586349
 51
239.413651
  0
LINE
  5
9253
  8
ALPHA
 10
44.164912
 20
31.192448
 30
0.0
 11
44.029661
 21
31.271401
 31
0.0
  0
LINE
  5
9254
  8
ALPHA
 10
44.029661
 20
31.271401
 30
0.0
 11
44.164912
 21
31.350355
 31
0.0
  0
LINE
  5
9255
  8
ALPHA
 10
44.165375
 20
26.635692
 30
0.0
 11
44.19135
 21
26.506923
 31
0.0
  0
LINE
  5
9256
  8
ALPHA
 10
44.481126
 20
31.171401
 30
0.0
 11
44.164912
 21
31.192448
 31
0.0
  0
POLYLINE
  5
9257
  8
ALPHA
 66
     1
 10
0.0
 20
0.0
 30
0.0
 70
   128
210
0.0
220
0.0
230
-1.0
  0
VERTEX
  5
96ED
  8
ALPHA
 10
-44.130266
 20
26.618884
 30
0.0
  0
VERTEX
  5
96EE
  8
ALPHA
 10
-43.941697
 20
27.127178
 30
0.0
  0
VERTEX
  5
96EF
  8
ALPHA
 10
-43.879661
 20
27.66585
 30
0.0
  0
SEQEND
  5
96F0
  8
ALPHA
  0
LINE
  5
9258
  8
ALPHA
 10
44.191349
 20
26.506923
 30
0.0
 11
44.130266
 21
26.618884
 31
0.0
  0
LINE
  5
9259
  8
ALPHA
 10
44.164912
 20
31.350355
 30
0.0
 11
44.481126
 21
31.371401
 31
0.0
  0
LINE
  5
925A
  8
ALPHA
 10
45.055712
 20
31.371401
 30
0.0
 11
45.047345
 21
31.368975
 31
0.0
  0
LINE
  5
925B
  8
ALPHA
 10
45.047345
 20
31.173828
 30
0.0
 11
45.055712
 21
31.171401
 31
0.0
  0
ARC
  5
925C
  8
ALPHA
 10
51.879661
 20
31.271401
 30
0.0
 40
7.399211
 50
179.225627
 51
180.774373
  0
ARC
  5
925D
  8
ALPHA
 10
45.879661
 20
27.66585
 30
0.0
 40
2.0
 50
180.0
 51
211.002719
  0
LINE
  5
925E
  8
ALPHA
 10
44.480451
 20
31.271401
 30
0.0
 11
44.029661
 21
31.271401
 31
0.0
  0
LINE
  5
925F
  8
ALPHA
 10
48.266996
 20
24.814082
 30
0.0
 11
48.090662
 21
24.550756
 31
0.0
  0
LINE
  5
9260
  8
ALPHA
 10
47.953911
 20
24.629709
 30
0.0
 11
48.093791
 21
24.914082
 31
0.0
  0
LINE
  5
9261
  8
ALPHA
 10
48.090662
 20
24.550756
 30
0.0
 11
47.954661
 21
24.473102
 31
0.0
  0
LINE
  5
9262
  8
ALPHA
 10
47.954661
 20
24.473102
 30
0.0
 11
47.953911
 21
24.629709
 31
0.0
  0
LINE
  5
9263
  8
ALPHA
 10
48.548004
 20
25.305656
 30
0.0
 11
48.554289
 21
25.311689
 31
0.0
  0
LINE
  5
9264
  8
ALPHA
 10
48.381084
 20
25.411689
 30
0.0
 11
48.379002
 21
25.403229
 31
0.0
  0
ARC
  5
9265
  8
ALPHA
 10
51.879661
 20
31.271401
 30
0.0
 40
7.399211
 50
239.225627
 51
240.774373
  0
LINE
  5
9266
  8
ALPHA
 10
48.180394
 20
24.864082
 30
0.0
 11
47.954661
 21
24.473102
 31
0.0
  0
ARC
  5
9267
  8
ALPHA
 10
51.879661
 20
31.271401
 30
0.0
 40
4.25
 50
190.327396
 51
229.672604
  0
LINE
  5
9268
  8
ALPHA
 10
47.260859
 20
31.271401
 30
0.0
 11
49.57026
 21
27.271401
 31
0.0
  0
ARC
  5
9269
  8
ALPHA
 10
51.879661
 20
31.271401
 30
0.0
 40
4.05
 50
201.873698
 51
218.126302
  0
ARC
  5
926A
  8
ALPHA
 10
45.879661
 20
37.659028
 30
0.0
 40
2.0
 50
101.65512
 51
180.0
  0
LINE
  5
926B
  8
ALPHA
 10
48.090662
 20
37.992047
 30
0.0
 11
48.266996
 21
37.728721
 31
0.0
  0
LINE
  5
926C
  8
ALPHA
 10
48.093791
 20
37.628721
 30
0.0
 11
47.953911
 21
37.913094
 31
0.0
  0
LINE
  5
926D
  8
ALPHA
 10
47.954661
 20
38.069701
 30
0.0
 11
48.180394
 21
37.678721
 31
0.0
  0
ARC
  5
926E
  8
ALPHA
 10
51.879661
 20
31.271401
 30
0.0
 40
4.25
 50
130.327396
 51
169.672604
  0
LINE
  5
926F
  8
ALPHA
 10
48.379002
 20
37.139574
 30
0.0
 11
48.381084
 21
37.131114
 31
0.0
  0
LINE
  5
9270
  8
ALPHA
 10
48.554289
 20
37.231114
 30
0.0
 11
48.548004
 21
37.237147
 31
0.0
  0
ARC
  5
9271
  8
ALPHA
 10
51.879661
 20
31.271401
 30
0.0
 40
7.399211
 50
119.225627
 51
120.774373
  0
ARC
  5
9272
  8
ALPHA
 10
51.879661
 20
31.271401
 30
0.0
 40
4.05
 50
141.873698
 51
158.126302
  0
LINE
  5
9273
  8
ALPHA
 10
47.953911
 20
37.913094
 30
0.0
 11
47.954661
 21
38.069701
 31
0.0
  0
LINE
  5
9274
  8
ALPHA
 10
47.954661
 20
38.069701
 30
0.0
 11
48.090662
 21
37.992047
 31
0.0
  0
LINE
  5
9286
  8
ALPHA
 10
59.24283
 20
21.771401
 30
0.0
 11
59.24283
 21
19.971401
 31
0.0
  0
LINE
  5
9287
  8
ALPHA
 10
59.182787
 20
21.771401
 30
0.0
 11
59.182787
 21
19.971401
 31
0.0
  0
LINE
  5
9288
  8
ALPHA
 10
58.801084
 20
21.771401
 30
0.0
 11
58.801084
 21
19.971401
 31
0.0
  0
LINE
  5
9289
  8
ALPHA
 10
58.625049
 20
21.771401
 30
0.0
 11
58.625049
 21
19.971401
 31
0.0
  0
LINE
  5
928A
  8
ALPHA
 10
57.830968
 20
19.771401
 30
0.0
 11
57.830968
 21
21.771401
 31
0.0
  0
LINE
  5
928B
  8
ALPHA
 10
54.957313
 20
19.771401
 30
0.0
 11
54.957313
 21
21.771401
 31
0.0
  0
LINE
  5
928C
  8
ALPHA
 10
54.922643
 20
21.771401
 30
0.0
 11
54.922643
 21
19.971401
 31
0.0
  0
LINE
  5
928D
  8
ALPHA
 10
54.497658
 20
21.771401
 30
0.0
 11
54.497658
 21
19.971401
 31
0.0
  0
LINE
  5
928E
  8
ALPHA
 10
53.911642
 20
19.771401
 30
0.0
 11
53.911642
 21
21.771401
 31
0.0
  0
LINE
  5
928F
  8
ALPHA
 10
53.312133
 20
19.771401
 30
0.0
 11
53.312133
 21
21.771401
 31
0.0
  0
LINE
  5
9290
  8
ALPHA
 10
53.073121
 20
21.771401
 30
0.0
 11
53.073121
 21
19.971401
 31
0.0
  0
LINE
  5
9291
  8
ALPHA
 10
52.617056
 20
21.771401
 30
0.0
 11
52.617056
 21
19.971401
 31
0.0
  0
LINE
  5
9292
  8
ALPHA
 10
52.18999
 20
19.771401
 30
0.0
 11
52.18999
 21
21.771401
 31
0.0
  0
LINE
  5
9293
  8
ALPHA
 10
51.569332
 20
19.771401
 30
0.0
 11
51.569332
 21
21.771401
 31
0.0
  0
LINE
  5
9294
  8
ALPHA
 10
51.142266
 20
21.771401
 30
0.0
 11
51.142266
 21
19.971401
 31
0.0
  0
LINE
  5
9295
  8
ALPHA
 10
50.686202
 20
21.771401
 30
0.0
 11
50.686202
 21
19.971401
 31
0.0
  0
LINE
  5
9296
  8
ALPHA
 10
50.447189
 20
19.771401
 30
0.0
 11
50.447189
 21
21.771401
 31
0.0
  0
LINE
  5
9297
  8
ALPHA
 10
49.84768
 20
19.771401
 30
0.0
 11
49.84768
 21
21.771401
 31
0.0
  0
ARC
  5
9298
  8
ALPHA
 10
57.879661
 20
16.571401
 30
0.0
 40
0.5
 50
270.0
 51
90.0
  0
LINE
  5
9299
  8
ALPHA
 10
59.053211
 20
19.771401
 30
0.0
 11
57.830968
 21
19.771401
 31
0.0
  0
LINE
  5
929A
  8
ALPHA
 10
54.957313
 20
19.771401
 30
0.0
 11
53.911642
 21
19.771401
 31
0.0
  0
POLYLINE
  5
929B
  8
ALPHA
 66
     1
 10
0.0
 20
0.0
 30
0.0
 70
   128
  0
VERTEX
  5
96F1
  8
ALPHA
 10
51.142266
 20
19.971401
 30
0.0
  0
VERTEX
  5
96F2
  8
ALPHA
 10
51.168198
 20
19.847522
 30
0.0
  0
VERTEX
  5
96F3
  8
ALPHA
 10
51.263067
 20
19.771401
 30
0.0
  0
SEQEND
  5
96F4
  8
ALPHA
  0
LINE
  5
929C
  8
ALPHA
 10
50.618594
 20
19.771401
 30
0.0
 11
50.686202
 21
19.971401
 31
0.0
  0
LINE
  5
929D
  8
ALPHA
 10
51.142266
 20
19.971401
 30
0.0
 11
50.686202
 21
19.971401
 31
0.0
  0
LINE
  5
929E
  8
ALPHA
 10
51.569332
 20
19.771401
 30
0.0
 11
50.447189
 21
19.771401
 31
0.0
  0
LINE
  5
929F
  8
ALPHA
 10
53.073121
 20
19.971401
 30
0.0
 11
53.140728
 21
19.771401
 31
0.0
  0
POLYLINE
  5
92A0
  8
ALPHA
 66
     1
 10
0.0
 20
0.0
 30
0.0
 70
   128
  0
VERTEX
  5
96F5
  8
ALPHA
 10
52.496255
 20
19.771401
 30
0.0
  0
VERTEX
  5
96F6
  8
ALPHA
 10
52.591124
 20
19.847522
 30
0.0
  0
VERTEX
  5
96F7
  8
ALPHA
 10
52.617056
 20
19.971401
 30
0.0
  0
SEQEND
  5
96F8
  8
ALPHA
  0
LINE
  5
92A1
  8
ALPHA
 10
53.073121
 20
19.971401
 30
0.0
 11
52.617056
 21
19.971401
 31
0.0
  0
LINE
  5
92A2
  8
ALPHA
 10
53.312133
 20
19.771401
 30
0.0
 11
52.18999
 21
19.771401
 31
0.0
  0
LINE
  5
92A3
  8
ALPHA
 10
57.529661
 20
11.821402
 30
0.0
 11
57.529661
 21
15.371401
 31
0.0
  0
LINE
  5
92A4
  8
ALPHA
 10
55.277388
 20
13.921401
 30
0.0
 11
55.277388
 21
15.121401
 31
0.0
  0
LINE
  5
92A5
  8
ALPHA
 10
54.879661
 20
13.921401
 30
0.0
 11
54.879661
 21
15.121401
 31
0.0
  0
LINE
  5
92A6
  8
ALPHA
 10
54.379661
 20
13.671401
 30
0.0
 11
54.379661
 21
15.371401
 31
0.0
  0
POLYLINE
  5
92A7
  8
ALPHA
 66
     1
 10
0.0
 20
0.0
 30
0.0
 70
   128
  0
VERTEX
  5
96F9
  8
ALPHA
 10
54.754661
 20
13.421401
 30
0.0
  0
VERTEX
  5
96FA
  8
ALPHA
 10
54.95108
 20
13.457531
 30
0.0
  0
VERTEX
  5
96FB
  8
ALPHA
 10
55.120294
 20
13.564121
 30
0.0
  0
VERTEX
  5
96FC
  8
ALPHA
 10
55.236225
 20
13.726468
 30
0.0
  0
VERTEX
  5
96FD
  8
ALPHA
 10
55.277388
 20
13.921401
 30
0.0
  0
SEQEND
  5
96FE
  8
ALPHA
  0
POLYLINE
  5
92A8
  8
ALPHA
 66
     1
 10
0.0
 20
0.0
 30
0.0
 70
   128
210
0.0
220
0.0
230
-1.0
  0
VERTEX
  5
96FF
  8
ALPHA
 10
-54.629661
 20
13.671401
 30
0.0
  0
VERTEX
  5
9700
  8
ALPHA
 10
-54.730482
 20
13.568962
 30
0.0
  0
VERTEX
  5
9701
  8
ALPHA
 10
-54.754661
 20
13.421401
 30
0.0
  0
SEQEND
  5
9702
  8
ALPHA
  0
ARC
  5
92A9
  8
ALPHA
 10
54.629661
 20
13.921401
 30
0.0
 40
0.25
 50
270.0
 51
0.0
  0
LINE
  5
92AA
  8
ALPHA
 10
54.879661
 20
13.921401
 30
0.0
 11
55.277388
 21
13.921401
 31
0.0
  0
ARC
  5
92AB
  8
ALPHA
 10
57.379661
 20
12.021401
 30
0.0
 40
0.25
 50
270.0
 51
306.878107
  0
LINE
  5
92AC
  8
ALPHA
 10
54.922643
 20
19.971401
 30
0.0
 11
54.93245
 21
19.771401
 31
0.0
  0
POLYLINE
  5
92AD
  8
ALPHA
 66
     1
 10
0.0
 20
0.0
 30
0.0
 70
   128
  0
VERTEX
  5
9703
  8
ALPHA
 10
54.331897
 20
19.771401
 30
0.0
  0
VERTEX
  5
9704
  8
ALPHA
 10
54.454524
 20
19.836815
 30
0.0
  0
VERTEX
  5
9705
  8
ALPHA
 10
54.497658
 20
19.971401
 30
0.0
  0
SEQEND
  5
9706
  8
ALPHA
  0
LINE
  5
92AE
  8
ALPHA
 10
55.277388
 20
15.121401
 30
0.0
 11
55.20726
 21
15.371401
 31
0.0
  0
ARC
  5
92AF
  8
ALPHA
 10
54.629661
 20
15.121401
 30
0.0
 40
0.25
 50
0.0
 51
90.0
  0
LINE
  5
92B0
  8
ALPHA
 10
54.922643
 20
19.971401
 30
0.0
 11
54.497658
 21
19.971401
 31
0.0
  0
LINE
  5
92B1
  8
ALPHA
 10
54.879661
 20
15.121401
 30
0.0
 11
55.277388
 21
15.121401
 31
0.0
  0
ARC
  5
92B2
  8
ALPHA
 10
57.729661
 20
16.221401
 30
0.0
 40
0.25
 50
216.993793
 51
269.999989
  0
ARC
  5
92B3
  8
ALPHA
 10
57.729661
 20
16.921401
 30
0.0
 40
0.25
 50
90.000001
 51
143.006202
  0
LINE
  5
92B4
  8
ALPHA
 10
57.379661
 20
18.321401
 30
0.0
 11
57.379661
 21
19.621401
 31
0.0
  0
POLYLINE
  5
92B5
  8
ALPHA
 66
     1
 10
0.0
 20
0.0
 30
0.0
 70
   128
  0
VERTEX
  5
9707
  8
ALPHA
 10
58.968364
 20
19.771401
 30
0.0
  0
VERTEX
  5
9708
  8
ALPHA
 10
59.117318
 20
19.827516
 30
0.0
  0
VERTEX
  5
9709
  8
ALPHA
 10
59.182787
 20
19.971401
 30
0.0
  0
SEQEND
  5
970A
  8
ALPHA
  0
POLYLINE
  5
92B6
  8
ALPHA
 66
     1
 10
0.0
 20
0.0
 30
0.0
 70
   128
  0
VERTEX
  5
970B
  8
ALPHA
 10
58.400434
 20
19.771401
 30
0.0
  0
VERTEX
  5
970C
  8
ALPHA
 10
58.554572
 20
19.825898
 30
0.0
  0
VERTEX
  5
970D
  8
ALPHA
 10
58.625049
 20
19.971401
 30
0.0
  0
SEQEND
  5
970E
  8
ALPHA
  0
POLYLINE
  5
92B7
  8
ALPHA
 66
     1
 10
0.0
 20
0.0
 30
0.0
 70
   128
210
0.0
220
0.0
230
-1.0
  0
VERTEX
  5
970F
  8
ALPHA
 10
-59.24283
 20
19.971401
 30
0.0
  0
VERTEX
  5
9710
  8
ALPHA
 10
-59.189122
 20
19.831926
 30
0.0
  0
VERTEX
  5
9711
  8
ALPHA
 10
-59.053211
 20
19.771401
 30
0.0
  0
SEQEND
  5
9712
  8
ALPHA
  0
POLYLINE
  5
92B8
  8
ALPHA
 66
     1
 10
0.0
 20
0.0
 30
0.0
 70
   128
210
0.0
220
0.0
230
-1.0
  0
VERTEX
  5
9713
  8
ALPHA
 10
-58.801084
 20
19.971401
 30
0.0
  0
VERTEX
  5
9714
  8
ALPHA
 10
-58.763677
 20
19.839936
 30
0.0
  0
VERTEX
  5
9715
  8
ALPHA
 10
-58.649191
 20
19.771401
 30
0.0
  0
SEQEND
  5
9716
  8
ALPHA
  0
LINE
  5
92B9
  8
ALPHA
 10
58.579661
 20
19.621401
 30
0.0
 11
58.579661
 21
19.771401
 31
0.0
  0
LINE
  5
92BA
  8
ALPHA
 10
58.229661
 20
17.171401
 30
0.0
 11
58.229661
 21
18.321401
 31
0.0
  0
LINE
  5
92BB
  8
ALPHA
 10
58.229661
 20
15.371401
 30
0.0
 11
58.229661
 21
15.971401
 31
0.0
  0
LINE
  5
92BC
  8
ALPHA
 10
58.801084
 20
19.971401
 30
0.0
 11
58.625049
 21
19.971401
 31
0.0
  0
LINE
  5
92BD
  8
ALPHA
 10
59.24283
 20
19.971401
 30
0.0
 11
59.182787
 21
19.971401
 31
0.0
  0
POLYLINE
  5
92BE
  8
ALPHA
 66
     1
 10
0.0
 20
0.0
 30
0.0
 70
   128
210
0.0
220
0.0
230
-1.0
  0
VERTEX
  5
9717
  8
ALPHA
 10
-59.567973
 20
26.506923
 30
0.0
  0
VERTEX
  5
9718
  8
ALPHA
 10
-58.921123
 20
25.539537
 30
0.0
  0
VERTEX
  5
9719
  8
ALPHA
 10
-58.155033
 20
24.662641
 30
0.0
  0
VERTEX
  5
971A
  8
ALPHA
 10
-57.28481
 20
23.889385
 30
0.0
  0
VERTEX
  5
971B
  8
ALPHA
 10
-56.321603
 20
23.235351
 30
0.0
  0
VERTEX
  5
971C
  8
ALPHA
 10
-55.281477
 20
22.712341
 30
0.0
  0
VERTEX
  5
971D
  8
ALPHA
 10
-54.181582
 20
22.331621
 30
0.0
  0
VERTEX
  5
971E
  8
ALPHA
 10
-53.040917
 20
22.097912
 30
0.0
  0
VERTEX
  5
971F
  8
ALPHA
 10
-51.879661
 20
22.021401
 30
0.0
  0
SEQEND
  5
9720
  8
ALPHA
  0
ARC
  5
92BF
  8
ALPHA
 10
51.879661
 20
31.271401
 30
0.0
 40
7.715154
 50
0.586349
 51
59.413651
  0
ARC
  5
92C0
  8
ALPHA
 10
51.879661
 20
31.271401
 30
0.0
 40
7.715154
 50
300.586349
 51
359.413651
  0
LINE
  5
92C1
  8
ALPHA
 10
56.498463
 20
31.271401
 30
0.0
 11
54.189062
 21
35.271401
 31
0.0
  0
LINE
  5
92C2
  8
ALPHA
 10
53.515968
 20
22.421401
 30
0.0
 11
50.243354
 21
22.421401
 31
0.0
  0
ARC
  5
92C3
  8
ALPHA
 10
51.879661
 20
31.271401
 30
0.0
 40
4.25
 50
250.327396
 51
289.672604
  0
ARC
  5
92C4
  8
ALPHA
 10
51.879661
 20
31.271401
 30
0.0
 40
4.05
 50
261.873698
 51
278.126302
  0
LINE
  5
92C5
  8
ALPHA
 10
55.665531
 20
24.914082
 30
0.0
 11
55.805411
 21
24.629709
 31
0.0
  0
LINE
  5
92C6
  8
ALPHA
 10
55.66866
 20
24.550756
 30
0.0
 11
55.492326
 21
24.814082
 31
0.0
  0
LINE
  5
92C7
  8
ALPHA
 10
55.805411
 20
24.629709
 30
0.0
 11
55.804661
 21
24.473102
 31
0.0
  0
LINE
  5
92C8
  8
ALPHA
 10
55.804661
 20
24.473102
 30
0.0
 11
55.66866
 21
24.550756
 31
0.0
  0
LINE
  5
92C9
  8
ALPHA
 10
55.38032
 20
25.403229
 30
0.0
 11
55.378238
 21
25.411689
 31
0.0
  0
LINE
  5
92CA
  8
ALPHA
 10
55.205033
 20
25.311689
 30
0.0
 11
55.211318
 21
25.305656
 31
0.0
  0
ARC
  5
92CB
  8
ALPHA
 10
51.879661
 20
31.271401
 30
0.0
 40
7.399211
 50
299.225627
 51
300.774373
  0
LINE
  5
92CC
  8
ALPHA
 10
55.578929
 20
24.864082
 30
0.0
 11
55.804661
 21
24.473102
 31
0.0
  0
ARC
  5
92CD
  8
ALPHA
 10
51.879661
 20
31.271401
 30
0.0
 40
4.25
 50
310.327396
 51
349.672604
  0
LINE
  5
92CE
  8
ALPHA
 10
54.189062
 20
27.271401
 30
0.0
 11
56.498463
 21
31.271401
 31
0.0
  0
ARC
  5
92CF
  8
ALPHA
 10
51.879661
 20
31.271401
 30
0.0
 40
4.05
 50
321.873698
 51
338.126302
  0
ARC
  5
92D0
  8
ALPHA
 10
51.879661
 20
31.271401
 30
0.0
 40
4.25
 50
70.327396
 51
109.672604
  0
ARC
  5
92D1
  8
ALPHA
 10
51.879661
 20
31.271401
 30
0.0
 40
4.05
 50
81.873698
 51
98.126302
  0
LINE
  5
92D2
  8
ALPHA
 10
55.805411
 20
37.913094
 30
0.0
 11
55.665531
 21
37.628721
 31
0.0
  0
LINE
  5
92D3
  8
ALPHA
 10
55.492326
 20
37.728721
 30
0.0
 11
55.66866
 21
37.992047
 31
0.0
  0
LINE
  5
92D4
  8
ALPHA
 10
55.804661
 20
38.069701
 30
0.0
 11
55.578929
 21
37.678721
 31
0.0
  0
ARC
  5
92D5
  8
ALPHA
 10
51.879661
 20
31.271401
 30
0.0
 40
4.25
 50
10.327396
 51
49.672604
  0
LINE
  5
92D6
  8
ALPHA
 10
55.211318
 20
37.237147
 30
0.0
 11
55.205033
 21
37.231114
 31
0.0
  0
LINE
  5
92D7
  8
ALPHA
 10
55.378238
 20
37.131114
 30
0.0
 11
55.38032
 21
37.139574
 31
0.0
  0
ARC
  5
92D8
  8
ALPHA
 10
51.879661
 20
31.271401
 30
0.0
 40
7.399211
 50
59.225627
 51
60.774373
  0
ARC
  5
92D9
  8
ALPHA
 10
51.879661
 20
31.271401
 30
0.0
 40
4.05
 50
21.873698
 51
38.126302
  0
LINE
  5
92DA
  8
ALPHA
 10
55.804661
 20
38.069701
 30
0.0
 11
55.805411
 21
37.913094
 31
0.0
  0
LINE
  5
92DB
  8
ALPHA
 10
55.66866
 20
37.992047
 30
0.0
 11
55.804661
 21
38.069701
 31
0.0
  0
LINE
  5
92DC
  8
ALPHA
 10
59.879661
 20
21.771401
 30
0.0
 11
59.879661
 21
37.659028
 31
0.0
  0
LINE
  5
92DD
  8
ALPHA
 10
59.594411
 20
31.192448
 30
0.0
 11
59.278196
 21
31.171401
 31
0.0
  0
LINE
  5
92DE
  8
ALPHA
 10
59.629056
 20
26.618884
 30
0.0
 11
59.567973
 21
26.506923
 31
0.0
  0
POLYLINE
  5
92DF
  8
ALPHA
 66
     1
 10
0.0
 20
0.0
 30
0.0
 70
   128
210
0.0
220
0.0
230
-1.0
  0
VERTEX
  5
9721
  8
ALPHA
 10
-59.879661
 20
27.66585
 30
0.0
  0
VERTEX
  5
9722
  8
ALPHA
 10
-59.817625
 20
27.127178
 30
0.0
  0
VERTEX
  5
9723
  8
ALPHA
 10
-59.629056
 20
26.618884
 30
0.0
  0
SEQEND
  5
9724
  8
ALPHA
  0
LINE
  5
92E0
  8
ALPHA
 10
59.278196
 20
31.371401
 30
0.0
 11
59.594411
 21
31.350355
 31
0.0
  0
LINE
  5
92E1
  8
ALPHA
 10
59.593939
 20
26.635697
 30
0.0
 11
59.567977
 21
26.506923
 31
0.0
  0
LINE
  5
92E2
  8
ALPHA
 10
59.729661
 20
31.271401
 30
0.0
 11
59.594411
 21
31.192448
 31
0.0
  0
LINE
  5
92E3
  8
ALPHA
 10
59.594411
 20
31.350355
 30
0.0
 11
59.729661
 21
31.271401
 31
0.0
  0
LINE
  5
92E4
  8
ALPHA
 10
58.711977
 20
31.368975
 30
0.0
 11
58.70361
 21
31.371401
 31
0.0
  0
LINE
  5
92E5
  8
ALPHA
 10
58.70361
 20
31.171401
 30
0.0
 11
58.711977
 21
31.173828
 31
0.0
  0
ARC
  5
92E6
  8
ALPHA
 10
51.879661
 20
31.271401
 30
0.0
 40
7.399211
 50
359.225627
 51
0.774373
  0
ARC
  5
92E7
  8
ALPHA
 10
57.879661
 20
27.66585
 30
0.0
 40
2.0
 50
328.997281
 51
0.0
  0
LINE
  5
92E8
  8
ALPHA
 10
59.729661
 20
31.271401
 30
0.0
 11
59.278872
 21
31.271401
 31
0.0
  0
ARC
  5
92E9
  8
ALPHA
 10
57.879661
 20
37.659028
 30
0.0
 40
2.0
 50
0.0
 51
78.34488
  0
VIEWPORT
  5
494D
 67
     1
  8
0
 10
4.995325
 20
6.556512
 30
0.0
 40
22.70986
 41
13.988421
 68
    -1
 69
     1
1001
ACAD
1000
MVIEW
1002
{
1070
    16
1010
0.0
1020
0.0
1030
0.0
1010
0.0
1020
0.0
1030
1.0
1040
0.0
1040
13.988421
1040
4.995325
1040
6.556512
1040
50.0
1040
0.0
1040
0.0
1070
     0
1070
   100
1070
     1
1070
     1
1070
     0
1070
     0
1070
     0
1070
     0
1040
0.0
1040
0.0
1040
0.0
1040
10.0
1040
10.0
1040
10.0
1040
10.0
1070
     0
1002
{
1002
}
1002
}
  0
ENDSEC
  0
EOF
