  0
SECTION
  2
HEADER
  9
$ACADVER
  1
AC1009
  9
$INSBASE
 10
402.590624
 20
-1.041018
 30
0.0
  9
$EXTMIN
 10
0.253456
 20
1.114171
 30
0.0
  9
$EXTMAX
 10
78.846256
 20
59.114171
 30
0.0
  9
$LIMMIN
 10
-407.970438
 20
-367.832444
  9
$LIMMAX
 10
429.804077
 20
234.370848
  9
$ORTHOMODE
 70
     0
  9
$REGENMODE
 70
     1
  9
$FILLMODE
 70
     1
  9
$QTEXTMODE
 70
     0
  9
$MIRRTEXT
 70
     1
  9
$DRAGMODE
 70
     2
  9
$LTSCALE
 40
10.0
  9
$OSMODE
 70
    39
  9
$ATTMODE
 70
     1
  9
$TEXTSIZE
 40
6.0
  9
$TRACEWID
 40
1.0
  9
$TEXTSTYLE
  7
ROMANS
  9
$CLAYER
  8
ALPHA
  9
$CELTYPE
  6
BYLAYER
  9
$CECOLOR
 62
   256
  9
$DIMSCALE
 40
1.0
  9
$DIMASZ
 40
5.0
  9
$DIMEXO
 40
2.0
  9
$DIMDLI
 40
0.38
  9
$DIMRND
 40
0.0
  9
$DIMDLE
 40
0.0
  9
$DIMEXE
 40
2.5
  9
$DIMTP
 40
0.0
  9
$DIMTM
 40
0.0
  9
$DIMTXT
 40
2.5
  9
$DIMCEN
 40
0.0
  9
$DIMTSZ
 40
0.0
  9
$DIMTOL
 70
     0
  9
$DIMLIM
 70
     0
  9
$DIMTIH
 70
     1
  9
$DIMTOH
 70
     1
  9
$DIMSE1
 70
     0
  9
$DIMSE2
 70
     0
  9
$DIMTAD
 70
     1
  9
$DIMZIN
 70
    12
  9
$DIMBLK
  1
OPEN30
  9
$DIMASO
 70
     1
  9
$DIMSHO
 70
     1
  9
$DIMPOST
  1

  9
$DIMAPOST
  1

  9
$DIMALT
 70
     0
  9
$DIMALTD
 70
     2
  9
$DIMALTF
 40
25.4
  9
$DIMLFAC
 40
1.0
  9
$DIMTOFL
 70
     0
  9
$DIMTVP
 40
0.0
  9
$DIMTIX
 70
     0
  9
$DIMSOXD
 70
     0
  9
$DIMSAH
 70
     0
  9
$DIMBLK1
  1

  9
$DIMBLK2
  1

  9
$DIMSTYLE
  2
SC_DEFAUT
  9
$DIMCLRD
 70
     0
  9
$DIMCLRE
 70
     0
  9
$DIMCLRT
 70
     0
  9
$DIMTFAC
 40
1.0
  9
$DIMGAP
 40
2.0
  9
$LUNITS
 70
     2
  9
$LUPREC
 70
     1
  9
$SKETCHINC
 40
0.1
  9
$FILLETRAD
 40
0.0
  9
$AUNITS
 70
     0
  9
$AUPREC
 70
     0
  9
$MENU
  1
acad
  9
$ELEVATION
 40
0.0
  9
$PELEVATION
 40
0.0
  9
$THICKNESS
 40
0.0
  9
$LIMCHECK
 70
     0
  9
$BLIPMODE
 70
     0
  9
$CHAMFERA
 40
0.0
  9
$CHAMFERB
 40
0.0
  9
$SKPOLY
 70
     0
  9
$TDCREATE
 40
2450373.687919
  9
$TDUPDATE
 40
2452996.484286
  9
$TDINDWG
 40
0.882428
  9
$TDUSRTIMER
 40
0.882428
  9
$USRTIMER
 70
     1
  9
$ANGBASE
 50
0.0
  9
$ANGDIR
 70
     0
  9
$PDMODE
 70
    32
  9
$PDSIZE
 40
0.0
  9
$PLINEWID
 40
0.0
  9
$COORDS
 70
     1
  9
$SPLFRAME
 70
     0
  9
$SPLINETYPE
 70
     6
  9
$SPLINESEGS
 70
     8
  9
$ATTDIA
 70
     0
  9
$ATTREQ
 70
     1
  9
$HANDLING
 70
     1
  9
$HANDSEED
  5
9F3D
  9
$SURFTAB1
 70
     6
  9
$SURFTAB2
 70
     6
  9
$SURFTYPE
 70
     6
  9
$SURFU
 70
     6
  9
$SURFV
 70
     6
  9
$UCSNAME
  2

  9
$UCSORG
 10
0.0
 20
0.0
 30
0.0
  9
$UCSXDIR
 10
1.0
 20
0.0
 30
0.0
  9
$UCSYDIR
 10
0.0
 20
1.0
 30
0.0
  9
$PUCSNAME
  2

  9
$PUCSORG
 10
0.0
 20
0.0
 30
0.0
  9
$PUCSXDIR
 10
1.0
 20
0.0
 30
0.0
  9
$PUCSYDIR
 10
0.0
 20
1.0
 30
0.0
  9
$USERI1
 70
     0
  9
$USERI2
 70
     0
  9
$USERI3
 70
     0
  9
$USERI4
 70
     0
  9
$USERI5
 70
     0
  9
$USERR1
 40
0.0
  9
$USERR2
 40
0.0
  9
$USERR3
 40
0.0
  9
$USERR4
 40
0.0
  9
$USERR5
 40
0.0
  9
$WORLDVIEW
 70
     1
  9
$SHADEDGE
 70
     3
  9
$SHADEDIF
 70
    70
  9
$TILEMODE
 70
     1
  9
$MAXACTVP
 70
    16
  9
$PLIMCHECK
 70
     0
  9
$PEXTMIN
 10
-1.452248
 20
-0.437698
 30
0.0
  9
$PEXTMAX
 10
12.749749
 20
8.310198
 30
0.0
  9
$PLIMMIN
 10
0.0
 20
0.0
  9
$PLIMMAX
 10
12.0
 20
9.0
  9
$UNITMODE
 70
     0
  9
$VISRETAIN
 70
     0
  9
$PLINEGEN
 70
     0
  9
$PSLTSCALE
 70
     0
  0
ENDSEC
  0
SECTION
  2
TABLES
  0
TABLE
  2
VPORT
 70
     2
  0
VPORT
  2
*ACTIVE
 70
     0
 10
0.0
 20
0.0
 11
1.0
 21
1.0
 12
39.551693
 22
30.120136
 13
0.0
 23
0.0
 14
1.0
 24
1.0
 15
10.0
 25
10.0
 16
0.0
 26
0.0
 36
1.0
 17
0.0
 27
0.0
 37
0.0
 40
58.492102
 41
1.466346
 42
50.0
 43
0.0
 44
0.0
 50
0.0
 51
0.0
 71
     0
 72
   100
 73
     1
 74
     0
 75
     0
 76
     0
 77
     0
 78
     0
  0
ENDTAB
  0
TABLE
  2
LTYPE
 70
     2
  0
LTYPE
  2
CONTINUOUS
 70
     0
  3
Solid line
 72
    65
 73
     0
 40
0.0
  0
LTYPE
  2
AXES2
 70
     0
  3
___ _ ___ _ ___ _ ___ _ ___ _ ___ _ ___ _ ___ _
 72
    65
 73
     4
 40
1.125
 49
0.75
 49
-0.125
 49
0.125
 49
-0.125
  0
ENDTAB
  0
TABLE
  2
LAYER
 70
     5
  0
LAYER
  2
0
 70
     0
 62
   255
  6
CONTINUOUS
  0
LAYER
  2
COTATION1
 70
     0
 62
     2
  6
CONTINUOUS
  0
LAYER
  2
AXE
 70
     0
 62
    80
  6
AXES2
  0
LAYER
  2
DEFPOINTS
 70
     0
 62
     7
  6
CONTINUOUS
  0
LAYER
  2
ALPHA
 70
     0
 62
   254
  6
CONTINUOUS
  0
ENDTAB
  0
TABLE
  2
STYLE
 70
     2
  0
STYLE
  2
ROMANS
 70
     0
 40
0.0
 41
1.0
 50
0.0
 71
     0
 42
6.0
  3
romans
  4

  0
STYLE
  2
STANDARD
 70
     0
 40
0.0
 41
1.0
 50
0.0
 71
     0
 42
0.2
  3
txt
  4

  0
ENDTAB
  0
TABLE
  2
VIEW
 70
     0
  0
ENDTAB
  0
TABLE
  2
UCS
 70
     0
  0
ENDTAB
  0
TABLE
  2
APPID
 70
     1
  0
APPID
  2
ACAD
 70
     0
  0
ENDTAB
  0
TABLE
  2
DIMSTYLE
 70
     1
  0
DIMSTYLE
  2
SC_DEFAUT
 70
     0
  3

  4

  5
OPEN30
  6

  7

 40
1.0
 41
5.0
 42
2.0
 43
0.38
 44
2.5
 45
0.0
 46
0.0
 47
0.0
 48
0.0
140
2.5
141
0.0
142
0.0
143
25.4
144
1.0
145
0.0
146
1.0
147
2.0
 71
     0
 72
     0
 73
     1
 74
     1
 75
     0
 76
     0
 77
     1
 78
    12
170
     0
171
     2
172
     0
173
     0
174
     0
175
     0
176
     0
177
     0
178
     0
  0
ENDTAB
  0
ENDSEC
  0
SECTION
  2
BLOCKS
  0
BLOCK
  8
0
  2
$MODEL_SPACE
 70
     0
 10
0.0
 20
0.0
 30
0.0
  3
$MODEL_SPACE
  1

  0
ENDBLK
  5
9ED6
  8
0
  0
BLOCK
 67
     1
  8
0
  2
$PAPER_SPACE
 70
     0
 10
0.0
 20
0.0
 30
0.0
  3
$PAPER_SPACE
  1

  0
ENDBLK
  5
9ED4
 67
     1
  8
0
  0
BLOCK
  8
0
  2
COTE
 70
     0
 10
0.0
 20
0.0
 30
0.0
  3
COTE
  1

  0
ENDBLK
  5
F
  8
0
  0
BLOCK
  8
0
  2
FOND
 70
     0
 10
0.0
 20
0.0
 30
0.0
  3
FOND
  1

  0
ENDBLK
  5
75
  8
0
  0
BLOCK
  8
0
  2
_OPEN30
 70
     0
 10
0.0
 20
0.0
 30
0.0
  3
_OPEN30
  1

  0
LINE
  5
4B05
  8
COTATION1
 62
     0
 10
-1.0
 20
0.267949
 30
0.0
 11
0.0
 21
0.0
 31
0.0
1001
ACAD
1000
RTLwPs
1070
   158
  0
LINE
  5
4B06
  8
COTATION1
 62
     0
 10
0.0
 20
0.0
 30
0.0
 11
-1.0
 21
-0.267949
 31
0.0
1001
ACAD
1000
RTLwPs
1070
   158
  0
LINE
  5
4B07
  8
COTATION1
 62
     0
 10
0.0
 20
0.0
 30
0.0
 11
-1.0
 21
0.0
 31
0.0
1001
ACAD
1000
RTLwPs
1070
   158
  0
ENDBLK
  5
4B09
  8
0
  0
BLOCK
  8
0
  2
*D3
 70
     1
 10
0.0
 20
0.0
 30
0.0
  3
*D3
  1

  0
LINE
  5
9D79
  8
COTATION1
 62
     0
 10
39.306024
 20
37.414171
 30
0.0
 11
39.306024
 21
57.114171
 31
0.0
1001
ACAD
1000
RTLwPs
1070
   158
  0
LINE
  5
9D7A
  8
COTATION1
 62
     0
 10
55.306024
 20
37.414171
 30
0.0
 11
55.306024
 21
57.114171
 31
0.0
1001
ACAD
1000
RTLwPs
1070
   158
  0
LINE
  5
9D7B
  8
COTATION1
 62
     0
 10
44.306024
 20
54.614171
 30
0.0
 11
50.306024
 21
54.614171
 31
0.0
1001
ACAD
1000
RTLwPs
1070
   158
  0
INSERT
  5
9D7C
  8
COTATION1
 62
     0
  2
_OPEN30
 10
39.306024
 20
54.614171
 30
0.0
 41
5.0
 42
5.0
 43
5.0
 50
180.0
1001
ACAD
1000
RTLwPs
1070
   158
  0
INSERT
  5
9D7D
  8
COTATION1
 62
     0
  2
_OPEN30
 10
55.306024
 20
54.614171
 30
0.0
 41
5.0
 42
5.0
 43
5.0
1001
ACAD
1000
RTLwPs
1070
   158
  0
TEXT
  5
9D7E
  8
COTATION1
 62
     0
 10
44.7465
 20
56.614171
 30
0.0
 40
2.5
  1
16
1001
ACAD
1000
MTEXTBEGIN
1070
    73
1070
     1
1070
    44
1040
1.0
1070
    74
1070
     0
1000
MTEXTEND
  0
POINT
  5
9D7F
  8
DEFPOINTS
 62
     0
 10
39.306024
 20
35.414171
 30
0.0
  0
POINT
  5
9D80
  8
DEFPOINTS
 62
     0
 10
55.306024
 20
35.414171
 30
0.0
  0
POINT
  5
9D81
  8
DEFPOINTS
 62
     0
 10
55.306024
 20
54.614171
 30
0.0
  0
ENDBLK
  5
7F3E
  8
0
  0
BLOCK
  8
0
  2
*D4
 70
     1
 10
0.0
 20
0.0
 30
0.0
  3
*D4
  1

  0
LINE
  5
9D9F
  8
COTATION1
 62
     0
 10
45.306024
 20
39.614171
 30
0.0
 11
23.664208
 21
39.614171
 31
0.0
1001
ACAD
1000
RTLwPs
1070
   158
  0
LINE
  5
9DA0
  8
COTATION1
 62
     0
 10
37.306024
 20
21.114171
 30
0.0
 11
23.664208
 21
21.114171
 31
0.0
1001
ACAD
1000
RTLwPs
1070
   158
  0
LINE
  5
9DA1
  8
COTATION1
 62
     0
 10
26.164208
 20
34.614171
 30
0.0
 11
26.164208
 21
33.614171
 31
0.0
1001
ACAD
1000
RTLwPs
1070
   158
  0
LINE
  5
9DA2
  8
COTATION1
 62
     0
 10
26.164208
 20
26.114171
 30
0.0
 11
26.164208
 21
27.114171
 31
0.0
1001
ACAD
1000
RTLwPs
1070
   158
  0
TEXT
  5
9DA3
  8
COTATION1
 62
     0
 10
21.81897
 20
29.114171
 30
0.0
 40
2.5
  1
18.5
1001
ACAD
1000
MTEXTBEGIN
1070
    73
1070
     1
1070
    44
1040
1.0
1070
    74
1070
     0
1000
MTEXTEND
  0
INSERT
  5
9DA4
  8
COTATION1
 62
     0
  2
_OPEN30
 10
26.164208
 20
39.614171
 30
0.0
 41
5.0
 42
5.0
 43
5.0
 50
90.0
1001
ACAD
1000
RTLwPs
1070
   158
  0
INSERT
  5
9DA5
  8
COTATION1
 62
     0
  2
_OPEN30
 10
26.164208
 20
21.114171
 30
0.0
 41
5.0
 42
5.0
 43
5.0
 50
270.0
1001
ACAD
1000
RTLwPs
1070
   158
  0
POINT
  5
9DA6
  8
DEFPOINTS
 62
     0
 10
47.306024
 20
39.614171
 30
0.0
  0
POINT
  5
9DA7
  8
DEFPOINTS
 62
     0
 10
39.306024
 20
21.114171
 30
0.0
  0
POINT
  5
9DA8
  8
DEFPOINTS
 62
     0
 10
26.164208
 20
21.114171
 30
0.0
  0
ENDBLK
  5
7F4B
  8
0
  0
BLOCK
  8
0
  2
*D5
 70
     1
 10
0.0
 20
0.0
 30
0.0
  3
*D5
  1

  0
LINE
  5
9DC6
  8
COTATION1
 62
     0
 10
49.306024
 20
39.614171
 30
0.0
 11
77.536732
 21
39.614171
 31
0.0
1001
ACAD
1000
RTLwPs
1070
   158
  0
LINE
  5
9DC7
  8
COTATION1
 62
     0
 10
54.806024
 20
11.114171
 30
0.0
 11
77.536732
 21
11.114171
 31
0.0
1001
ACAD
1000
RTLwPs
1070
   158
  0
LINE
  5
9DC8
  8
COTATION1
 62
     0
 10
75.036732
 20
34.614171
 30
0.0
 11
75.036732
 21
28.614171
 31
0.0
1001
ACAD
1000
RTLwPs
1070
   158
  0
LINE
  5
9DC9
  8
COTATION1
 62
     0
 10
75.036732
 20
16.114171
 30
0.0
 11
75.036732
 21
22.114171
 31
0.0
1001
ACAD
1000
RTLwPs
1070
   158
  0
TEXT
  5
9DCA
  8
COTATION1
 62
     0
 10
70.870065
 20
24.114171
 30
0.0
 40
2.5
  1
28.5
1001
ACAD
1000
MTEXTBEGIN
1070
    73
1070
     1
1070
    44
1040
1.0
1070
    74
1070
     0
1000
MTEXTEND
  0
INSERT
  5
9DCB
  8
COTATION1
 62
     0
  2
_OPEN30
 10
75.036732
 20
39.614171
 30
0.0
 41
5.0
 42
5.0
 43
5.0
 50
90.0
1001
ACAD
1000
RTLwPs
1070
   158
  0
INSERT
  5
9DCC
  8
COTATION1
 62
     0
  2
_OPEN30
 10
75.036732
 20
11.114171
 30
0.0
 41
5.0
 42
5.0
 43
5.0
 50
270.0
1001
ACAD
1000
RTLwPs
1070
   158
  0
POINT
  5
9DCD
  8
DEFPOINTS
 62
     0
 10
47.306024
 20
39.614171
 30
0.0
  0
POINT
  5
9DCE
  8
DEFPOINTS
 62
     0
 10
52.806024
 20
11.114171
 30
0.0
  0
POINT
  5
9DCF
  8
DEFPOINTS
 62
     0
 10
75.036732
 20
11.114171
 30
0.0
  0
ENDBLK
  5
8EB4
  8
0
  0
ENDSEC
  0
SECTION
  2
ENTITIES
  0
INSERT
  5
A
  8
0
  2
COTE
 10
0.0
 20
0.0
 30
0.0
  0
INSERT
  5
17
  8
0
  2
COTE
 10
284.010391
 20
6.373258
 30
0.0
  0
INSERT
  5
72
  8
0
  2
FOND
 10
0.0
 20
0.0
 30
0.0
  0
DIMENSION
  5
7F30
  8
COTATION1
  2
*D3
 10
55.306024
 20
54.614171
 30
0.0
 11
47.306024
 21
57.864171
 31
0.0
 13
39.306024
 23
35.414171
 33
0.0
 14
55.306024
 24
35.414171
 34
0.0
  0
DIMENSION
  5
7F31
  8
COTATION1
  2
*D4
 10
26.164208
 20
21.114171
 30
0.0
 11
26.164208
 21
30.364171
 31
0.0
 70
   128
 13
47.306024
 23
39.614171
 33
0.0
 14
39.306024
 24
21.114171
 34
0.0
 50
90.0
  0
LINE
  5
8AD3
  8
AXE
 10
47.306024
 20
1.114171
 30
0.0
 11
47.306024
 21
44.614171
 31
0.0
  0
TEXT
  5
8AD4
  8
AXE
 10
42.258405
 20
1.114171
 30
0.0
 40
5.0
  1
Y
 72
     2
 11
46.306024
 21
1.114171
 31
0.0
  0
LINE
  5
8AD5
  8
AXE
 10
34.306024
 20
18.359171
 30
0.0
 11
65.306024
 21
18.359171
 31
0.0
  0
TEXT
  5
8AD6
  8
AXE
 10
61.258405
 20
19.359171
 30
0.0
 40
5.0
  1
X
 72
     2
 11
65.306024
 21
19.359171
 31
0.0
  0
LINE
  5
8B73
  8
COTATION1
 10
13.503456
 20
23.614171
 30
0.0
 11
13.503456
 21
48.573093
 31
0.0
  0
LINE
  5
8B74
  8
COTATION1
 10
5.403104
 20
21.114171
 30
0.0
 11
38.306024
 21
21.114171
 31
0.0
  0
SOLID
  5
8B75
  8
COTATION1
 10
14.946832
 20
21.114171
 30
0.0
 11
12.060081
 21
21.114171
 31
0.0
 12
13.503456
 22
23.614171
 32
0.0
 13
13.503456
 23
23.614171
 33
0.0
  0
LINE
  5
8B76
  8
COTATION1
 10
0.253456
 20
53.573093
 30
0.0
 11
26.753456
 21
53.573093
 31
0.0
  0
LINE
  5
8B77
  8
COTATION1
 10
26.753456
 20
48.573093
 30
0.0
 11
0.253456
 21
48.573093
 31
0.0
  0
TEXT
  5
8B78
  8
COTATION1
 10
1.503456
 20
49.823093
 30
0.0
 40
2.5
  1
PLANE_TO_LINE_UP
 41
0.626087
  7
STANDARD
 72
     5
 11
25.503456
 21
49.823093
 31
0.0
  0
LINE
  5
8B79
  8
COTATION1
 10
26.753456
 20
53.573093
 30
0.0
 11
26.753456
 21
48.573093
 31
0.0
  0
LINE
  5
8B7A
  8
COTATION1
 10
0.253456
 20
48.573093
 30
0.0
 11
0.253456
 21
53.573093
 31
0.0
  0
DIMENSION
  5
8EA7
  8
COTATION1
  2
*D5
 10
75.036732
 20
11.114171
 30
0.0
 11
75.036732
 21
25.364171
 31
0.0
 70
   128
 13
47.306024
 23
39.614171
 33
0.0
 14
52.806024
 24
11.114171
 34
0.0
 50
90.0
  0
POLYLINE
  5
9B47
  8
ALPHA
 66
     1
 10
0.0
 20
0.0
 30
0.0
 70
   128
210
0.0
220
0.0
230
-1.0
  0
VERTEX
  5
9EDC
  8
ALPHA
 10
-47.306024
 20
21.364171
 30
0.0
  0
VERTEX
  5
9EDD
  8
ALPHA
 10
-46.144747
 20
21.44069
 30
0.0
  0
VERTEX
  5
9EDE
  8
ALPHA
 10
-45.004071
 20
21.674406
 30
0.0
  0
VERTEX
  5
9EDF
  8
ALPHA
 10
-43.904181
 20
22.055117
 30
0.0
  0
VERTEX
  5
9EE0
  8
ALPHA
 10
-42.864063
 20
22.578131
 30
0.0
  0
VERTEX
  5
9EE1
  8
ALPHA
 10
-41.900866
 20
23.232164
 30
0.0
  0
VERTEX
  5
9EE2
  8
ALPHA
 10
-41.030638
 20
24.005409
 30
0.0
  0
VERTEX
  5
9EE3
  8
ALPHA
 10
-40.264578
 20
24.882317
 30
0.0
  0
VERTEX
  5
9EE4
  8
ALPHA
 10
-39.617712
 20
25.849692
 30
0.0
  0
SEQEND
  5
9EE5
  8
ALPHA
  0
POLYLINE
  5
9B48
  8
ALPHA
 66
     1
 10
0.0
 20
0.0
 30
0.0
 70
   128
210
0.0
220
0.0
230
-1.0
  0
VERTEX
  5
9EE6
  8
ALPHA
 10
-54.994335
 20
25.849692
 30
0.0
  0
VERTEX
  5
9EE7
  8
ALPHA
 10
-54.347486
 20
24.882306
 30
0.0
  0
VERTEX
  5
9EE8
  8
ALPHA
 10
-53.581395
 20
24.00541
 30
0.0
  0
VERTEX
  5
9EE9
  8
ALPHA
 10
-52.711172
 20
23.232154
 30
0.0
  0
VERTEX
  5
9EEA
  8
ALPHA
 10
-51.747965
 20
22.57812
 30
0.0
  0
VERTEX
  5
9EEB
  8
ALPHA
 10
-50.70784
 20
22.05511
 30
0.0
  0
VERTEX
  5
9EEC
  8
ALPHA
 10
-49.607944
 20
21.67439
 30
0.0
  0
VERTEX
  5
9EED
  8
ALPHA
 10
-48.46728
 20
21.440681
 30
0.0
  0
VERTEX
  5
9EEE
  8
ALPHA
 10
-47.306024
 20
21.364171
 30
0.0
  0
SEQEND
  5
9EEF
  8
ALPHA
  0
CIRCLE
  5
9B49
  8
ALPHA
 10
47.306024
 20
30.614171
 30
0.0
 40
7.013423
  0
ARC
  5
9B4A
  8
ALPHA
 10
47.306024
 20
30.614171
 30
0.0
 40
7.715154
 50
180.586349
 51
239.413651
  0
ARC
  5
9B4B
  8
ALPHA
 10
47.306024
 20
30.614171
 30
0.0
 40
7.715154
 50
300.586349
 51
359.413651
  0
CIRCLE
  5
9B4C
  8
ALPHA
 10
47.306024
 20
30.614171
 30
0.0
 40
7.85
  0
ARC
  5
9B4D
  8
ALPHA
 10
47.306024
 20
30.614171
 30
0.0
 40
9.0
 50
211.002719
 51
328.997281
  0
CIRCLE
  5
9B4E
  8
ALPHA
 10
47.306024
 20
30.614171
 30
0.0
 40
6.814256
  0
ARC
  5
9B4F
  8
ALPHA
 10
47.306024
 20
30.614171
 30
0.0
 40
5.5
 50
197.747793
 51
342.252207
  0
LINE
  5
9B51
  8
ALPHA
 10
55.306024
 20
21.114171
 30
0.0
 11
55.306024
 21
37.001797
 31
0.0
  0
LINE
  5
9B52
  8
ALPHA
 10
39.306024
 20
21.114171
 30
0.0
 11
39.306024
 21
37.001797
 31
0.0
  0
POLYLINE
  5
9B53
  8
ALPHA
 66
     1
 10
0.0
 20
0.0
 30
0.0
 70
   128
  0
VERTEX
  5
9EF0
  8
ALPHA
 10
43.908296
 20
13.264171
 30
0.0
  0
VERTEX
  5
9EF1
  8
ALPHA
 10
43.94946
 20
13.069237
 30
0.0
  0
VERTEX
  5
9EF2
  8
ALPHA
 10
44.065391
 20
12.90689
 30
0.0
  0
VERTEX
  5
9EF3
  8
ALPHA
 10
44.234604
 20
12.8003
 30
0.0
  0
VERTEX
  5
9EF4
  8
ALPHA
 10
44.431024
 20
12.764171
 30
0.0
  0
SEQEND
  5
9EF5
  8
ALPHA
  0
ARC
  5
9B54
  8
ALPHA
 10
47.306024
 20
30.614171
 30
0.0
 40
7.715154
 50
240.586349
 51
299.413651
  0
LINE
  5
9B55
  8
ALPHA
 10
39.306024
 20
21.114171
 30
0.0
 11
55.306024
 21
21.114171
 31
0.0
  0
LINE
  5
9B56
  8
ALPHA
 10
40.606141
 20
18.964171
 30
0.0
 11
54.005907
 21
18.964171
 31
0.0
  0
LINE
  5
9B57
  8
ALPHA
 10
40.956135
 20
17.664171
 30
0.0
 11
53.655913
 21
17.664171
 31
0.0
  0
LINE
  5
9B58
  8
ALPHA
 10
40.956135
 20
16.514171
 30
0.0
 11
53.655913
 21
16.514171
 31
0.0
  0
LINE
  5
9B59
  8
ALPHA
 10
41.306024
 20
16.414171
 30
0.0
 11
53.306024
 21
16.414171
 31
0.0
  0
LINE
  5
9B5A
  8
ALPHA
 10
41.306024
 20
15.414171
 30
0.0
 11
53.306024
 21
15.414171
 31
0.0
  0
LINE
  5
9B5B
  8
ALPHA
 10
40.956135
 20
15.314171
 30
0.0
 11
53.655913
 21
15.314171
 31
0.0
  0
LINE
  5
9B5C
  8
ALPHA
 10
40.956135
 20
14.714171
 30
0.0
 11
53.655913
 21
14.714171
 31
0.0
  0
LINE
  5
9B5D
  8
ALPHA
 10
44.306024
 20
14.464171
 30
0.0
 11
43.908296
 21
14.464171
 31
0.0
  0
LINE
  5
9B5E
  8
ALPHA
 10
44.306024
 20
13.264171
 30
0.0
 11
43.908296
 21
13.264171
 31
0.0
  0
LINE
  5
9B5F
  8
ALPHA
 10
52.956024
 20
11.364171
 30
0.0
 11
41.656024
 21
11.364171
 31
0.0
  0
LINE
  5
9B60
  8
ALPHA
 10
52.806024
 20
11.114171
 30
0.0
 11
41.806024
 21
11.114171
 31
0.0
  0
LINE
  5
9B61
  8
ALPHA
 10
43.908296
 20
14.464171
 30
0.0
 11
43.908296
 21
13.264171
 31
0.0
  0
LINE
  5
9B62
  8
ALPHA
 10
41.656024
 20
11.164171
 30
0.0
 11
41.656024
 21
14.714171
 31
0.0
  0
ARC
  5
9B63
  8
ALPHA
 10
41.806024
 20
11.364171
 30
0.0
 40
0.25
 50
233.121893
 51
270.0
  0
LINE
  5
9B64
  8
ALPHA
 10
41.354716
 20
19.114171
 30
0.0
 11
41.354716
 21
21.114171
 31
0.0
  0
LINE
  5
9B65
  8
ALPHA
 10
40.560635
 20
21.114171
 30
0.0
 11
40.560635
 21
19.314171
 31
0.0
  0
LINE
  5
9B66
  8
ALPHA
 10
40.384601
 20
21.114171
 30
0.0
 11
40.384601
 21
19.314171
 31
0.0
  0
LINE
  5
9B67
  8
ALPHA
 10
40.002897
 20
21.114171
 30
0.0
 11
40.002897
 21
19.314171
 31
0.0
  0
LINE
  5
9B68
  8
ALPHA
 10
39.942855
 20
21.114171
 30
0.0
 11
39.942855
 21
19.314171
 31
0.0
  0
POLYLINE
  5
9B69
  8
ALPHA
 66
     1
 10
0.0
 20
0.0
 30
0.0
 70
   128
  0
VERTEX
  5
9EF6
  8
ALPHA
 10
40.560635
 20
19.314171
 30
0.0
  0
VERTEX
  5
9EF7
  8
ALPHA
 10
40.631113
 20
19.168667
 30
0.0
  0
VERTEX
  5
9EF8
  8
ALPHA
 10
40.785251
 20
19.114171
 30
0.0
  0
SEQEND
  5
9EF9
  8
ALPHA
  0
POLYLINE
  5
9B6A
  8
ALPHA
 66
     1
 10
0.0
 20
0.0
 30
0.0
 70
   128
  0
VERTEX
  5
9EFA
  8
ALPHA
 10
40.002897
 20
19.314171
 30
0.0
  0
VERTEX
  5
9EFB
  8
ALPHA
 10
40.068367
 20
19.170285
 30
0.0
  0
VERTEX
  5
9EFC
  8
ALPHA
 10
40.217321
 20
19.114171
 30
0.0
  0
SEQEND
  5
9EFD
  8
ALPHA
  0
POLYLINE
  5
9B6B
  8
ALPHA
 66
     1
 10
0.0
 20
0.0
 30
0.0
 70
   128
210
0.0
220
0.0
230
-1.0
  0
VERTEX
  5
9EFE
  8
ALPHA
 10
-40.132474
 20
19.114171
 30
0.0
  0
VERTEX
  5
9EFF
  8
ALPHA
 10
-39.996563
 20
19.174696
 30
0.0
  0
VERTEX
  5
9F00
  8
ALPHA
 10
-39.942855
 20
19.314171
 30
0.0
  0
SEQEND
  5
9F01
  8
ALPHA
  0
POLYLINE
  5
9B6C
  8
ALPHA
 66
     1
 10
0.0
 20
0.0
 30
0.0
 70
   128
210
0.0
220
0.0
230
-1.0
  0
VERTEX
  5
9F02
  8
ALPHA
 10
-40.536493
 20
19.114171
 30
0.0
  0
VERTEX
  5
9F03
  8
ALPHA
 10
-40.422008
 20
19.182705
 30
0.0
  0
VERTEX
  5
9F04
  8
ALPHA
 10
-40.384601
 20
19.314171
 30
0.0
  0
SEQEND
  5
9F05
  8
ALPHA
  0
ARC
  5
9B6D
  8
ALPHA
 10
41.456024
 20
15.564171
 30
0.0
 40
0.25
 50
270.000011
 51
323.006207
  0
ARC
  5
9B6E
  8
ALPHA
 10
41.456024
 20
16.264171
 30
0.0
 40
0.25
 50
36.993798
 51
89.999999
  0
ARC
  5
9B6F
  8
ALPHA
 10
41.306024
 20
15.914171
 30
0.0
 40
0.5
 50
90.0
 51
270.0
  0
LINE
  5
9B70
  8
ALPHA
 10
40.002897
 20
19.314171
 30
0.0
 11
39.942855
 21
19.314171
 31
0.0
  0
LINE
  5
9B71
  8
ALPHA
 10
40.560635
 20
19.314171
 30
0.0
 11
40.384601
 21
19.314171
 31
0.0
  0
LINE
  5
9B72
  8
ALPHA
 10
40.132474
 20
19.114171
 30
0.0
 11
41.354716
 21
19.114171
 31
0.0
  0
LINE
  5
9B73
  8
ALPHA
 10
41.806024
 20
17.664171
 30
0.0
 11
41.806024
 21
18.964171
 31
0.0
  0
LINE
  5
9B74
  8
ALPHA
 10
40.956024
 20
16.514171
 30
0.0
 11
40.956024
 21
17.664171
 31
0.0
  0
LINE
  5
9B75
  8
ALPHA
 10
40.956024
 20
14.714171
 30
0.0
 11
40.956024
 21
15.314171
 31
0.0
  0
LINE
  5
9B76
  8
ALPHA
 10
40.606024
 20
18.964171
 30
0.0
 11
40.606024
 21
19.114171
 31
0.0
  0
LINE
  5
9B77
  8
ALPHA
 10
43.978425
 20
14.714171
 30
0.0
 11
43.908296
 21
14.464171
 31
0.0
  0
LINE
  5
9B78
  8
ALPHA
 10
43.693359
 20
24.156851
 30
0.0
 11
43.517024
 21
23.893525
 31
0.0
  0
LINE
  5
9B79
  8
ALPHA
 10
43.380273
 20
23.972478
 30
0.0
 11
43.520154
 21
24.256851
 31
0.0
  0
LINE
  5
9B7A
  8
ALPHA
 10
43.517024
 20
23.893525
 30
0.0
 11
43.381024
 21
23.815871
 31
0.0
  0
LINE
  5
9B7B
  8
ALPHA
 10
43.381024
 20
23.815871
 30
0.0
 11
43.380273
 21
23.972478
 31
0.0
  0
LINE
  5
9B7C
  8
ALPHA
 10
43.974367
 20
24.648425
 30
0.0
 11
43.980652
 21
24.654458
 31
0.0
  0
LINE
  5
9B7D
  8
ALPHA
 10
43.807447
 20
24.754458
 30
0.0
 11
43.805365
 21
24.745998
 31
0.0
  0
ARC
  5
9B7E
  8
ALPHA
 10
47.306024
 20
30.614171
 30
0.0
 40
7.399211
 50
239.225627
 51
240.774373
  0
LINE
  5
9B7F
  8
ALPHA
 10
43.606756
 20
24.206851
 30
0.0
 11
43.381024
 21
23.815871
 31
0.0
  0
LINE
  5
9B80
  8
ALPHA
 10
50.703751
 20
13.264171
 30
0.0
 11
50.703751
 21
14.46417
 31
0.0
  0
LINE
  5
9B81
  8
ALPHA
 10
50.306024
 20
13.264171
 30
0.0
 11
50.306024
 21
14.464171
 31
0.0
  0
LINE
  5
9B82
  8
ALPHA
 10
49.806024
 20
13.014171
 30
0.0
 11
49.806024
 21
14.714171
 31
0.0
  0
LINE
  5
9B83
  8
ALPHA
 10
44.640403
 20
14.664171
 30
0.0
 11
44.318484
 21
13.194656
 31
0.0
  0
LINE
  5
9B84
  8
ALPHA
 10
44.806024
 20
13.014171
 30
0.0
 11
44.806024
 21
14.664171
 31
0.0
  0
LINE
  5
9B85
  8
ALPHA
 10
44.306024
 20
14.464171
 30
0.0
 11
44.306024
 21
13.264171
 31
0.0
  0
LINE
  5
9B86
  8
ALPHA
 10
44.806024
 20
13.514171
 30
0.0
 11
49.806024
 21
13.514171
 31
0.0
  0
LINE
  5
9B87
  8
ALPHA
 10
44.556024
 20
13.014171
 30
0.0
 11
50.056024
 21
13.014171
 31
0.0
  0
LINE
  5
9B88
  8
ALPHA
 10
44.431024
 20
12.764171
 30
0.0
 11
50.181024
 21
12.764171
 31
0.0
  0
POLYLINE
  5
9B89
  8
ALPHA
 66
     1
 10
0.0
 20
0.0
 30
0.0
 70
   128
  0
VERTEX
  5
9F06
  8
ALPHA
 10
44.556024
 20
13.014171
 30
0.0
  0
VERTEX
  5
9F07
  8
ALPHA
 10
44.455202
 20
12.911731
 30
0.0
  0
VERTEX
  5
9F08
  8
ALPHA
 10
44.431024
 20
12.764171
 30
0.0
  0
SEQEND
  5
9F09
  8
ALPHA
  0
ARC
  5
9B8A
  8
ALPHA
 10
44.556024
 20
13.264171
 30
0.0
 40
0.25
 50
180.0
 51
270.0
  0
POLYLINE
  5
9B8B
  8
ALPHA
 66
     1
 10
0.0
 20
0.0
 30
0.0
 70
   128
210
0.0
220
0.0
230
-1.0
  0
VERTEX
  5
9F0A
  8
ALPHA
 10
-50.056024
 20
13.014171
 30
0.0
  0
VERTEX
  5
9F0B
  8
ALPHA
 10
-50.156845
 20
12.911731
 30
0.0
  0
VERTEX
  5
9F0C
  8
ALPHA
 10
-50.181024
 20
12.764171
 30
0.0
  0
SEQEND
  5
9F0D
  8
ALPHA
  0
ARC
  5
9B8C
  8
ALPHA
 10
50.056024
 20
13.264171
 30
0.0
 40
0.25
 50
270.0
 51
0.0
  0
POLYLINE
  5
9B8D
  8
ALPHA
 66
     1
 10
0.0
 20
0.0
 30
0.0
 70
   128
  0
VERTEX
  5
9F0E
  8
ALPHA
 10
50.181024
 20
12.764171
 30
0.0
  0
VERTEX
  5
9F0F
  8
ALPHA
 10
50.377443
 20
12.8003
 30
0.0
  0
VERTEX
  5
9F10
  8
ALPHA
 10
50.546656
 20
12.90689
 30
0.0
  0
VERTEX
  5
9F11
  8
ALPHA
 10
50.662588
 20
13.069237
 30
0.0
  0
VERTEX
  5
9F12
  8
ALPHA
 10
50.703751
 20
13.264171
 30
0.0
  0
SEQEND
  5
9F13
  8
ALPHA
  0
LINE
  5
9B8E
  8
ALPHA
 10
50.306024
 20
13.264171
 30
0.0
 11
50.703751
 21
13.264171
 31
0.0
  0
LINE
  5
9B8F
  8
ALPHA
 10
48.942331
 20
21.764171
 30
0.0
 11
45.669717
 21
21.764171
 31
0.0
  0
LINE
  5
9B90
  8
ALPHA
 10
48.499483
 20
19.314171
 30
0.0
 11
48.043419
 21
19.314171
 31
0.0
  0
LINE
  5
9B91
  8
ALPHA
 10
48.738495
 20
19.114171
 30
0.0
 11
47.616353
 21
19.114171
 31
0.0
  0
LINE
  5
9B92
  8
ALPHA
 10
49.806024
 20
14.514171
 30
0.0
 11
44.806024
 21
14.514171
 31
0.0
  0
LINE
  5
9B93
  8
ALPHA
 10
48.043419
 20
21.114171
 30
0.0
 11
48.043419
 21
19.314171
 31
0.0
  0
LINE
  5
9B94
  8
ALPHA
 10
47.616353
 20
19.114171
 30
0.0
 11
47.616353
 21
21.114171
 31
0.0
  0
LINE
  5
9B95
  8
ALPHA
 10
46.995695
 20
19.114171
 30
0.0
 11
46.995695
 21
21.114171
 31
0.0
  0
LINE
  5
9B96
  8
ALPHA
 10
46.568629
 20
21.114171
 30
0.0
 11
46.568629
 21
19.314171
 31
0.0
  0
LINE
  5
9B97
  8
ALPHA
 10
46.112564
 20
21.114171
 30
0.0
 11
46.112564
 21
19.314171
 31
0.0
  0
LINE
  5
9B98
  8
ALPHA
 10
45.873552
 20
19.114171
 30
0.0
 11
45.873552
 21
21.114171
 31
0.0
  0
LINE
  5
9B99
  8
ALPHA
 10
45.274042
 20
19.114171
 30
0.0
 11
45.274042
 21
21.114171
 31
0.0
  0
LINE
  5
9B9A
  8
ALPHA
 10
44.688027
 20
21.114171
 30
0.0
 11
44.688027
 21
19.314171
 31
0.0
  0
LINE
  5
9B9B
  8
ALPHA
 10
44.263042
 20
21.114171
 30
0.0
 11
44.263042
 21
19.314171
 31
0.0
  0
LINE
  5
9B9C
  8
ALPHA
 10
44.228372
 20
19.114171
 30
0.0
 11
44.228372
 21
21.114171
 31
0.0
  0
LINE
  5
9B9D
  8
ALPHA
 10
46.044957
 20
19.114171
 30
0.0
 11
46.112564
 21
19.314171
 31
0.0
  0
LINE
  5
9B9E
  8
ALPHA
 10
46.995695
 20
19.114171
 30
0.0
 11
45.873552
 21
19.114171
 31
0.0
  0
POLYLINE
  5
9B9F
  8
ALPHA
 66
     1
 10
0.0
 20
0.0
 30
0.0
 70
   128
  0
VERTEX
  5
9F14
  8
ALPHA
 10
44.688027
 20
19.314171
 30
0.0
  0
VERTEX
  5
9F15
  8
ALPHA
 10
44.731161
 20
19.179584
 30
0.0
  0
VERTEX
  5
9F16
  8
ALPHA
 10
44.853788
 20
19.114171
 30
0.0
  0
SEQEND
  5
9F17
  8
ALPHA
  0
LINE
  5
9BA0
  8
ALPHA
 10
44.253235
 20
19.114171
 30
0.0
 11
44.263042
 21
19.314171
 31
0.0
  0
LINE
  5
9BA1
  8
ALPHA
 10
44.801811
 20
14.714372
 30
0.0
 11
44.806024
 21
14.664171
 31
0.0
  0
LINE
  5
9BA2
  8
ALPHA
 10
44.654703
 20
14.71429
 30
0.0
 11
44.640403
 21
14.664171
 31
0.0
  0
ARC
  5
9BA3
  8
ALPHA
 10
44.556024
 20
14.464171
 30
0.0
 40
0.25
 50
90.0
 51
180.0
  0
LINE
  5
9BA4
  8
ALPHA
 10
44.688027
 20
19.314171
 30
0.0
 11
44.263042
 21
19.314171
 31
0.0
  0
LINE
  5
9BA5
  8
ALPHA
 10
45.274042
 20
19.114171
 30
0.0
 11
44.228372
 21
19.114171
 31
0.0
  0
LINE
  5
9BA6
  8
ALPHA
 10
44.40884
 20
14.664171
 30
0.0
 11
44.640403
 21
14.664171
 31
0.0
  0
POLYLINE
  5
9BA7
  8
ALPHA
 66
     1
 10
0.0
 20
0.0
 30
0.0
 70
   128
  0
VERTEX
  5
9F18
  8
ALPHA
 10
46.568629
 20
19.314171
 30
0.0
  0
VERTEX
  5
9F19
  8
ALPHA
 10
46.594561
 20
19.190291
 30
0.0
  0
VERTEX
  5
9F1A
  8
ALPHA
 10
46.689429
 20
19.114171
 30
0.0
  0
SEQEND
  5
9F1B
  8
ALPHA
  0
POLYLINE
  5
9BA8
  8
ALPHA
 66
     1
 10
0.0
 20
0.0
 30
0.0
 70
   128
  0
VERTEX
  5
9F1C
  8
ALPHA
 10
47.922618
 20
19.114171
 30
0.0
  0
VERTEX
  5
9F1D
  8
ALPHA
 10
48.017487
 20
19.190291
 30
0.0
  0
VERTEX
  5
9F1E
  8
ALPHA
 10
48.043419
 20
19.314171
 30
0.0
  0
SEQEND
  5
9F1F
  8
ALPHA
  0
LINE
  5
9BA9
  8
ALPHA
 10
46.568629
 20
19.314171
 30
0.0
 11
46.112564
 21
19.314171
 31
0.0
  0
LINE
  5
9BAA
  8
ALPHA
 10
50.383676
 20
19.114171
 30
0.0
 11
50.383676
 21
21.114171
 31
0.0
  0
LINE
  5
9BAB
  8
ALPHA
 10
50.349005
 20
21.114171
 30
0.0
 11
50.349005
 21
19.314171
 31
0.0
  0
LINE
  5
9BAC
  8
ALPHA
 10
49.924021
 20
21.114171
 30
0.0
 11
49.924021
 21
19.314171
 31
0.0
  0
LINE
  5
9BAD
  8
ALPHA
 10
49.338005
 20
19.114171
 30
0.0
 11
49.338005
 21
21.114171
 31
0.0
  0
LINE
  5
9BAE
  8
ALPHA
 10
48.738495
 20
19.114171
 30
0.0
 11
48.738495
 21
21.114171
 31
0.0
  0
LINE
  5
9BAF
  8
ALPHA
 10
48.499483
 20
21.114171
 30
0.0
 11
48.499483
 21
19.314171
 31
0.0
  0
ARC
  5
9BB0
  8
ALPHA
 10
50.056024
 20
14.464171
 30
0.0
 40
0.25
 50
0.0
 51
90.0
  0
LINE
  5
9BB1
  8
ALPHA
 10
50.349005
 20
19.314171
 30
0.0
 11
49.924021
 21
19.314171
 31
0.0
  0
LINE
  5
9BB2
  8
ALPHA
 10
50.383676
 20
19.114171
 30
0.0
 11
49.338005
 21
19.114171
 31
0.0
  0
POLYLINE
  5
9BB3
  8
ALPHA
 66
     1
 10
0.0
 20
0.0
 30
0.0
 70
   128
  0
VERTEX
  5
9F20
  8
ALPHA
 10
49.758259
 20
19.114171
 30
0.0
  0
VERTEX
  5
9F21
  8
ALPHA
 10
49.880887
 20
19.179584
 30
0.0
  0
VERTEX
  5
9F22
  8
ALPHA
 10
49.924021
 20
19.314171
 30
0.0
  0
SEQEND
  5
9F23
  8
ALPHA
  0
LINE
  5
9BB4
  8
ALPHA
 10
48.499483
 20
19.314171
 30
0.0
 11
48.567091
 21
19.114171
 31
0.0
  0
LINE
  5
9BB5
  8
ALPHA
 10
50.349005
 20
19.314171
 30
0.0
 11
50.358812
 21
19.114171
 31
0.0
  0
LINE
  5
9BB6
  8
ALPHA
 10
50.703751
 20
14.464171
 30
0.0
 11
50.633622
 21
14.714171
 31
0.0
  0
LINE
  5
9BB7
  8
ALPHA
 10
50.306024
 20
14.464171
 30
0.0
 11
50.703751
 21
14.46417
 31
0.0
  0
LINE
  5
9BB8
  8
ALPHA
 10
51.091894
 20
24.256851
 30
0.0
 11
51.231774
 21
23.972478
 31
0.0
  0
LINE
  5
9BB9
  8
ALPHA
 10
51.095023
 20
23.893525
 30
0.0
 11
50.918689
 21
24.156851
 31
0.0
  0
LINE
  5
9BBA
  8
ALPHA
 10
51.231774
 20
23.972478
 30
0.0
 11
51.231024
 21
23.815871
 31
0.0
  0
LINE
  5
9BBB
  8
ALPHA
 10
51.231024
 20
23.815871
 30
0.0
 11
51.095023
 21
23.893525
 31
0.0
  0
LINE
  5
9BBC
  8
ALPHA
 10
50.806683
 20
24.745998
 30
0.0
 11
50.804601
 21
24.754458
 31
0.0
  0
LINE
  5
9BBD
  8
ALPHA
 10
50.631395
 20
24.654458
 30
0.0
 11
50.637681
 21
24.648425
 31
0.0
  0
ARC
  5
9BBE
  8
ALPHA
 10
47.306024
 20
30.614171
 30
0.0
 40
7.399211
 50
299.225627
 51
300.774373
  0
LINE
  5
9BBF
  8
ALPHA
 10
51.005291
 20
24.206851
 30
0.0
 11
51.231024
 21
23.815871
 31
0.0
  0
LINE
  5
9BC0
  8
ALPHA
 10
52.956024
 20
11.164171
 30
0.0
 11
52.956024
 21
14.714171
 31
0.0
  0
ARC
  5
9BC1
  8
ALPHA
 10
52.806024
 20
11.364171
 30
0.0
 40
0.25
 50
270.0
 51
306.878107
  0
LINE
  5
9BC2
  8
ALPHA
 10
54.669192
 20
21.114171
 30
0.0
 11
54.669192
 21
19.314171
 31
0.0
  0
LINE
  5
9BC3
  8
ALPHA
 10
54.60915
 20
21.114171
 30
0.0
 11
54.60915
 21
19.314171
 31
0.0
  0
LINE
  5
9BC4
  8
ALPHA
 10
54.227446
 20
21.114171
 30
0.0
 11
54.227446
 21
19.314171
 31
0.0
  0
LINE
  5
9BC5
  8
ALPHA
 10
54.051412
 20
21.114171
 30
0.0
 11
54.051412
 21
19.314171
 31
0.0
  0
LINE
  5
9BC6
  8
ALPHA
 10
53.257331
 20
19.114171
 30
0.0
 11
53.257331
 21
21.114171
 31
0.0
  0
LINE
  5
9BC7
  8
ALPHA
 10
54.479573
 20
19.114171
 30
0.0
 11
53.257331
 21
19.114171
 31
0.0
  0
POLYLINE
  5
9BC8
  8
ALPHA
 66
     1
 10
0.0
 20
0.0
 30
0.0
 70
   128
  0
VERTEX
  5
9F24
  8
ALPHA
 10
53.826797
 20
19.114171
 30
0.0
  0
VERTEX
  5
9F25
  8
ALPHA
 10
53.980934
 20
19.168667
 30
0.0
  0
VERTEX
  5
9F26
  8
ALPHA
 10
54.051412
 20
19.314171
 30
0.0
  0
SEQEND
  5
9F27
  8
ALPHA
  0
POLYLINE
  5
9BC9
  8
ALPHA
 66
     1
 10
0.0
 20
0.0
 30
0.0
 70
   128
210
0.0
220
0.0
230
-1.0
  0
VERTEX
  5
9F28
  8
ALPHA
 10
-54.227446
 20
19.314171
 30
0.0
  0
VERTEX
  5
9F29
  8
ALPHA
 10
-54.190039
 20
19.182705
 30
0.0
  0
VERTEX
  5
9F2A
  8
ALPHA
 10
-54.075554
 20
19.114171
 30
0.0
  0
SEQEND
  5
9F2B
  8
ALPHA
  0
ARC
  5
9BCA
  8
ALPHA
 10
53.156024
 20
15.564171
 30
0.0
 40
0.25
 50
216.993793
 51
269.999989
  0
ARC
  5
9BCB
  8
ALPHA
 10
53.156024
 20
16.264171
 30
0.0
 40
0.25
 50
90.000001
 51
143.006202
  0
ARC
  5
9BCC
  8
ALPHA
 10
53.306024
 20
15.914171
 30
0.0
 40
0.5
 50
270.0
 51
90.0
  0
LINE
  5
9BCD
  8
ALPHA
 10
54.006024
 20
18.964171
 30
0.0
 11
54.006024
 21
19.114171
 31
0.0
  0
LINE
  5
9BCE
  8
ALPHA
 10
53.656024
 20
16.514171
 30
0.0
 11
53.656024
 21
17.664171
 31
0.0
  0
LINE
  5
9BCF
  8
ALPHA
 10
53.656024
 20
14.714171
 30
0.0
 11
53.656024
 21
15.314171
 31
0.0
  0
LINE
  5
9BD0
  8
ALPHA
 10
52.806024
 20
17.664171
 30
0.0
 11
52.806024
 21
18.964171
 31
0.0
  0
LINE
  5
9BD1
  8
ALPHA
 10
54.227446
 20
19.314171
 30
0.0
 11
54.051412
 21
19.314171
 31
0.0
  0
POLYLINE
  5
9BD2
  8
ALPHA
 66
     1
 10
0.0
 20
0.0
 30
0.0
 70
   128
  0
VERTEX
  5
9F2C
  8
ALPHA
 10
54.394727
 20
19.114171
 30
0.0
  0
VERTEX
  5
9F2D
  8
ALPHA
 10
54.54368
 20
19.170285
 30
0.0
  0
VERTEX
  5
9F2E
  8
ALPHA
 10
54.60915
 20
19.314171
 30
0.0
  0
SEQEND
  5
9F2F
  8
ALPHA
  0
POLYLINE
  5
9BD3
  8
ALPHA
 66
     1
 10
0.0
 20
0.0
 30
0.0
 70
   128
210
0.0
220
0.0
230
-1.0
  0
VERTEX
  5
9F30
  8
ALPHA
 10
-54.669192
 20
19.314171
 30
0.0
  0
VERTEX
  5
9F31
  8
ALPHA
 10
-54.615484
 20
19.174695
 30
0.0
  0
VERTEX
  5
9F32
  8
ALPHA
 10
-54.479573
 20
19.114171
 30
0.0
  0
SEQEND
  5
9F33
  8
ALPHA
  0
LINE
  5
9BD4
  8
ALPHA
 10
54.669192
 20
19.314171
 30
0.0
 11
54.60915
 21
19.314171
 31
0.0
  0
ARC
  5
9C5F
  8
ALPHA
 10
47.306024
 20
30.614171
 30
0.0
 40
7.715154
 50
60.586349
 51
119.413651
  0
ARC
  5
9C60
  8
ALPHA
 10
47.306024
 20
7.914171
 30
0.0
 40
31.7
 50
78.34488
 51
101.65512
  0
ARC
  5
9C61
  8
ALPHA
 10
47.306024
 20
30.614171
 30
0.0
 40
4.5
 50
23.578178
 51
156.421822
  0
ARC
  5
9C62
  8
ALPHA
 10
47.306024
 20
30.614171
 30
0.0
 40
4.5
 50
203.578178
 51
336.421822
  0
ARC
  5
9C63
  8
ALPHA
 10
47.306024
 20
30.614171
 30
0.0
 40
5.5
 50
17.747793
 51
162.252207
  0
ARC
  5
9C64
  8
ALPHA
 10
47.306024
 20
30.614171
 30
0.0
 40
4.05
 50
24.454091
 51
155.545909
  0
ARC
  5
9C65
  8
ALPHA
 10
47.306024
 20
30.614171
 30
0.0
 40
4.05
 50
204.454091
 51
335.545909
  0
ARC
  5
9C66
  8
ALPHA
 10
47.306024
 20
30.614171
 30
0.0
 40
4.0
 50
24.79321
 51
155.20679
  0
ARC
  5
9C67
  8
ALPHA
 10
47.306024
 20
30.614171
 30
0.0
 40
4.0
 50
204.79321
 51
335.20679
  0
LINE
  5
9C68
  8
ALPHA
 10
43.70915
 20
32.364171
 30
0.0
 11
50.902897
 21
32.364171
 31
0.0
  0
LINE
  5
9C69
  8
ALPHA
 10
41.706089
 20
32.289171
 30
0.0
 11
52.905958
 21
32.289171
 31
0.0
  0
LINE
  5
9C6A
  8
ALPHA
 10
41.506024
 20
32.089171
 30
0.0
 11
53.106024
 21
32.089171
 31
0.0
  0
LINE
  5
9C6B
  8
ALPHA
 10
41.506024
 20
29.139171
 30
0.0
 11
53.106024
 21
29.139171
 31
0.0
  0
LINE
  5
9C6C
  8
ALPHA
 10
41.706089
 20
28.939171
 30
0.0
 11
52.905958
 21
28.939171
 31
0.0
  0
LINE
  5
9C6D
  8
ALPHA
 10
43.70915
 20
28.864171
 30
0.0
 11
50.902897
 21
28.864171
 31
0.0
  0
LINE
  5
9C6E
  8
ALPHA
 10
43.520154
 20
36.97149
 30
0.0
 11
43.380273
 21
37.255863
 31
0.0
  0
ARC
  5
9C6F
  8
ALPHA
 10
47.306024
 20
30.614171
 30
0.0
 40
7.715154
 50
120.586349
 51
179.413651
  0
ARC
  5
9C70
  8
ALPHA
 10
47.306024
 20
30.614171
 30
0.0
 40
7.399211
 50
119.225627
 51
120.774373
  0
LINE
  5
9C71
  8
ALPHA
 10
39.907489
 20
30.514171
 30
0.0
 11
39.591274
 21
30.535217
 31
0.0
  0
LINE
  5
9C72
  8
ALPHA
 10
39.591274
 20
30.693124
 30
0.0
 11
39.907489
 21
30.714171
 31
0.0
  0
LINE
  5
9C73
  8
ALPHA
 10
39.906813
 20
30.614171
 30
0.0
 11
39.456024
 21
30.614171
 31
0.0
  0
LINE
  5
9C74
  8
ALPHA
 10
39.591274
 20
30.535217
 30
0.0
 11
39.456024
 21
30.614171
 31
0.0
  0
LINE
  5
9C75
  8
ALPHA
 10
39.456024
 20
30.614171
 30
0.0
 11
39.591274
 21
30.693124
 31
0.0
  0
LINE
  5
9C76
  8
ALPHA
 10
39.591737
 20
25.978461
 30
0.0
 11
39.617712
 21
25.849692
 31
0.0
  0
POLYLINE
  5
9C77
  8
ALPHA
 66
     1
 10
0.0
 20
0.0
 30
0.0
 70
   128
210
0.0
220
0.0
230
-1.0
  0
VERTEX
  5
9F34
  8
ALPHA
 10
-39.556629
 20
25.961653
 30
0.0
  0
VERTEX
  5
9F35
  8
ALPHA
 10
-39.36806
 20
26.469947
 30
0.0
  0
VERTEX
  5
9F36
  8
ALPHA
 10
-39.306024
 20
27.008619
 30
0.0
  0
SEQEND
  5
9F37
  8
ALPHA
  0
LINE
  5
9C78
  8
ALPHA
 10
39.617712
 20
25.849692
 30
0.0
 11
39.556629
 21
25.961653
 31
0.0
  0
ARC
  5
9C79
  8
ALPHA
 10
41.306024
 20
27.008619
 30
0.0
 40
2.0
 50
180.0
 51
211.002719
  0
LINE
  5
9C7A
  8
ALPHA
 10
41.506024
 20
32.089171
 30
0.0
 11
41.506024
 21
29.139171
 31
0.0
  0
LINE
  5
9C7B
  8
ALPHA
 10
40.482075
 20
30.714171
 30
0.0
 11
40.473708
 21
30.711744
 31
0.0
  0
LINE
  5
9C7C
  8
ALPHA
 10
40.473708
 20
30.516597
 30
0.0
 11
40.482075
 21
30.514171
 31
0.0
  0
ARC
  5
9C7D
  8
ALPHA
 10
47.306024
 20
30.614171
 30
0.0
 40
7.399211
 50
179.225627
 51
180.774373
  0
LINE
  5
9C7E
  8
ALPHA
 10
41.506024
 20
29.139171
 30
0.0
 11
41.706024
 21
28.939171
 31
0.0
  0
LINE
  5
9C7F
  8
ALPHA
 10
43.678008
 20
28.814171
 30
0.0
 11
42.108909
 21
28.814171
 31
0.0
  0
LINE
  5
9C80
  8
ALPHA
 10
41.706024
 20
32.289171
 30
0.0
 11
41.506024
 21
32.089171
 31
0.0
  0
LINE
  5
9C81
  8
ALPHA
 10
43.805365
 20
36.482343
 30
0.0
 11
43.807447
 21
36.473883
 31
0.0
  0
LINE
  5
9C82
  8
ALPHA
 10
43.980652
 20
36.573883
 30
0.0
 11
43.974367
 21
36.579916
 31
0.0
  0
LINE
  5
9C83
  8
ALPHA
 10
43.678008
 20
32.414171
 30
0.0
 11
42.108909
 21
32.414171
 31
0.0
  0
ARC
  5
9C84
  8
ALPHA
 10
41.306024
 20
37.001797
 30
0.0
 40
2.0
 50
101.65512
 51
180.0
  0
LINE
  5
9C85
  8
ALPHA
 10
43.380273
 20
37.255863
 30
0.0
 11
43.381024
 21
37.41247
 31
0.0
  0
LINE
  5
9C86
  8
ALPHA
 10
43.517024
 20
37.334816
 30
0.0
 11
43.693359
 21
37.07149
 31
0.0
  0
LINE
  5
9C87
  8
ALPHA
 10
43.381024
 20
37.41247
 30
0.0
 11
43.517024
 21
37.334816
 31
0.0
  0
LINE
  5
9C88
  8
ALPHA
 10
43.381024
 20
37.41247
 30
0.0
 11
43.606756
 21
37.02149
 31
0.0
  0
ARC
  5
9C89
  8
ALPHA
 10
47.306024
 20
30.614171
 30
0.0
 40
7.715154
 50
0.586349
 51
59.413651
  0
LINE
  5
9C8A
  8
ALPHA
 10
50.93404
 20
32.414171
 30
0.0
 11
52.503138
 21
32.414171
 31
0.0
  0
LINE
  5
9C8B
  8
ALPHA
 10
50.93404
 20
28.814171
 30
0.0
 11
52.503138
 21
28.814171
 31
0.0
  0
LINE
  5
9C8C
  8
ALPHA
 10
51.231774
 20
37.255863
 30
0.0
 11
51.091894
 21
36.97149
 31
0.0
  0
ARC
  5
9C8D
  8
ALPHA
 10
47.306024
 20
30.614171
 30
0.0
 40
7.399211
 50
59.225627
 51
60.774373
  0
ARC
  5
9C8E
  8
ALPHA
 10
47.306024
 20
30.614171
 30
0.0
 40
3.5
 50
30.0
 51
150.0
  0
ARC
  5
9C8F
  8
ALPHA
 10
47.306024
 20
30.614171
 30
0.0
 40
3.5
 50
210.0
 51
330.0
  0
LINE
  5
9C90
  8
ALPHA
 10
50.637681
 20
36.579916
 30
0.0
 11
50.631395
 21
36.573883
 31
0.0
  0
LINE
  5
9C91
  8
ALPHA
 10
50.804601
 20
36.473883
 30
0.0
 11
50.806683
 21
36.482343
 31
0.0
  0
LINE
  5
9C92
  8
ALPHA
 10
50.918689
 20
37.07149
 30
0.0
 11
51.095023
 21
37.334816
 31
0.0
  0
LINE
  5
9C93
  8
ALPHA
 10
51.231024
 20
37.41247
 30
0.0
 11
51.231774
 21
37.255863
 31
0.0
  0
LINE
  5
9C94
  8
ALPHA
 10
51.095023
 20
37.334816
 30
0.0
 11
51.231024
 21
37.41247
 31
0.0
  0
LINE
  5
9C95
  8
ALPHA
 10
51.231024
 20
37.41247
 30
0.0
 11
51.005291
 21
37.02149
 31
0.0
  0
LINE
  5
9C96
  8
ALPHA
 10
53.106024
 20
32.089171
 30
0.0
 11
53.106024
 21
29.139171
 31
0.0
  0
LINE
  5
9C97
  8
ALPHA
 10
54.13834
 20
30.711744
 30
0.0
 11
54.129972
 21
30.714171
 31
0.0
  0
LINE
  5
9C98
  8
ALPHA
 10
54.129972
 20
30.514171
 30
0.0
 11
54.13834
 21
30.516597
 31
0.0
  0
LINE
  5
9C99
  8
ALPHA
 10
53.106024
 20
29.139171
 30
0.0
 11
52.906024
 21
28.939171
 31
0.0
  0
LINE
  5
9C9A
  8
ALPHA
 10
55.020773
 20
30.535217
 30
0.0
 11
54.704559
 21
30.514171
 31
0.0
  0
LINE
  5
9C9B
  8
ALPHA
 10
55.055419
 20
25.961653
 30
0.0
 11
54.994335
 21
25.849692
 31
0.0
  0
POLYLINE
  5
9C9C
  8
ALPHA
 66
     1
 10
0.0
 20
0.0
 30
0.0
 70
   128
210
0.0
220
0.0
230
-1.0
  0
VERTEX
  5
9F38
  8
ALPHA
 10
-55.306024
 20
27.008619
 30
0.0
  0
VERTEX
  5
9F39
  8
ALPHA
 10
-55.243987
 20
26.469947
 30
0.0
  0
VERTEX
  5
9F3A
  8
ALPHA
 10
-55.055419
 20
25.961653
 30
0.0
  0
SEQEND
  5
9F3B
  8
ALPHA
  0
LINE
  5
9C9D
  8
ALPHA
 10
54.704559
 20
30.714171
 30
0.0
 11
55.020773
 21
30.693124
 31
0.0
  0
LINE
  5
9C9E
  8
ALPHA
 10
55.020302
 20
25.978466
 30
0.0
 11
54.994339
 21
25.849692
 31
0.0
  0
LINE
  5
9C9F
  8
ALPHA
 10
55.156024
 20
30.614171
 30
0.0
 11
55.020773
 21
30.535217
 31
0.0
  0
LINE
  5
9CA0
  8
ALPHA
 10
55.020773
 20
30.693124
 30
0.0
 11
55.156024
 21
30.614171
 31
0.0
  0
ARC
  5
9CA1
  8
ALPHA
 10
47.306024
 20
30.614171
 30
0.0
 40
7.399211
 50
359.225627
 51
0.774373
  0
ARC
  5
9CA2
  8
ALPHA
 10
53.306024
 20
27.008619
 30
0.0
 40
2.0
 50
328.997281
 51
0.0
  0
LINE
  5
9CA3
  8
ALPHA
 10
55.156024
 20
30.614171
 30
0.0
 11
54.705234
 21
30.614171
 31
0.0
  0
LINE
  5
9CA4
  8
ALPHA
 10
52.906024
 20
32.289171
 30
0.0
 11
53.106024
 21
32.089171
 31
0.0
  0
ARC
  5
9CA5
  8
ALPHA
 10
53.306024
 20
37.001797
 30
0.0
 40
2.0
 50
0.0
 51
78.34488
  0
VIEWPORT
  5
494D
 67
     1
  8
0
 10
4.995325
 20
6.556512
 30
0.0
 40
22.70986
 41
13.988421
 68
    -1
 69
     1
1001
ACAD
1000
MVIEW
1002
{
1070
    16
1010
0.0
1020
0.0
1030
0.0
1010
0.0
1020
0.0
1030
1.0
1040
0.0
1040
13.988421
1040
4.995325
1040
6.556512
1040
50.0
1040
0.0
1040
0.0
1070
     0
1070
   100
1070
     1
1070
     1
1070
     0
1070
     0
1070
     0
1070
     0
1040
0.0
1040
0.0
1040
0.0
1040
10.0
1040
10.0
1040
10.0
1040
10.0
1070
     0
1002
{
1002
}
1002
}
  0
ENDSEC
  0
EOF
