  0
SECTION
  2
HEADER
  9
$ACADVER
  1
AC1009
  9
$INSBASE
 10
402.590624
 20
-1.041018
 30
0.0
  9
$EXTMIN
 10
-2.318148
 20
1.639943
 30
0.0
  9
$EXTMAX
 10
75.903524
 20
60.489943
 30
0.0
  9
$LIMMIN
 10
-407.970438
 20
-367.832444
  9
$LIMMAX
 10
429.804077
 20
234.370848
  9
$ORTHOMODE
 70
     0
  9
$REGENMODE
 70
     1
  9
$FILLMODE
 70
     1
  9
$QTEXTMODE
 70
     0
  9
$MIRRTEXT
 70
     1
  9
$DRAGMODE
 70
     2
  9
$LTSCALE
 40
10.0
  9
$OSMODE
 70
    39
  9
$ATTMODE
 70
     1
  9
$TEXTSIZE
 40
6.0
  9
$TRACEWID
 40
1.0
  9
$TEXTSTYLE
  7
ROMANS
  9
$CLAYER
  8
ALPHA
  9
$CELTYPE
  6
BYLAYER
  9
$CECOLOR
 62
   256
  9
$DIMSCALE
 40
1.0
  9
$DIMASZ
 40
5.0
  9
$DIMEXO
 40
2.0
  9
$DIMDLI
 40
0.38
  9
$DIMRND
 40
0.0
  9
$DIMDLE
 40
0.0
  9
$DIMEXE
 40
2.5
  9
$DIMTP
 40
0.0
  9
$DIMTM
 40
0.0
  9
$DIMTXT
 40
2.5
  9
$DIMCEN
 40
0.0
  9
$DIMTSZ
 40
0.0
  9
$DIMTOL
 70
     0
  9
$DIMLIM
 70
     0
  9
$DIMTIH
 70
     1
  9
$DIMTOH
 70
     1
  9
$DIMSE1
 70
     0
  9
$DIMSE2
 70
     0
  9
$DIMTAD
 70
     1
  9
$DIMZIN
 70
    12
  9
$DIMBLK
  1
OPEN30
  9
$DIMASO
 70
     1
  9
$DIMSHO
 70
     1
  9
$DIMPOST
  1

  9
$DIMAPOST
  1

  9
$DIMALT
 70
     0
  9
$DIMALTD
 70
     2
  9
$DIMALTF
 40
25.4
  9
$DIMLFAC
 40
1.0
  9
$DIMTOFL
 70
     0
  9
$DIMTVP
 40
0.0
  9
$DIMTIX
 70
     0
  9
$DIMSOXD
 70
     0
  9
$DIMSAH
 70
     0
  9
$DIMBLK1
  1

  9
$DIMBLK2
  1

  9
$DIMSTYLE
  2
SC_DEFAUT
  9
$DIMCLRD
 70
     0
  9
$DIMCLRE
 70
     0
  9
$DIMCLRT
 70
     0
  9
$DIMTFAC
 40
1.0
  9
$DIMGAP
 40
2.0
  9
$LUNITS
 70
     2
  9
$LUPREC
 70
     1
  9
$SKETCHINC
 40
0.1
  9
$FILLETRAD
 40
0.0
  9
$AUNITS
 70
     0
  9
$AUPREC
 70
     0
  9
$MENU
  1
acad
  9
$ELEVATION
 40
0.0
  9
$PELEVATION
 40
0.0
  9
$THICKNESS
 40
0.0
  9
$LIMCHECK
 70
     0
  9
$BLIPMODE
 70
     0
  9
$CHAMFERA
 40
0.0
  9
$CHAMFERB
 40
0.0
  9
$SKPOLY
 70
     0
  9
$TDCREATE
 40
2450373.687919
  9
$TDUPDATE
 40
2452996.483174
  9
$TDINDWG
 40
0.886022
  9
$TDUSRTIMER
 40
0.886022
  9
$USRTIMER
 70
     1
  9
$ANGBASE
 50
0.0
  9
$ANGDIR
 70
     0
  9
$PDMODE
 70
    32
  9
$PDSIZE
 40
0.0
  9
$PLINEWID
 40
0.0
  9
$COORDS
 70
     1
  9
$SPLFRAME
 70
     0
  9
$SPLINETYPE
 70
     6
  9
$SPLINESEGS
 70
     8
  9
$ATTDIA
 70
     0
  9
$ATTREQ
 70
     1
  9
$HANDLING
 70
     1
  9
$HANDSEED
  5
9F32
  9
$SURFTAB1
 70
     6
  9
$SURFTAB2
 70
     6
  9
$SURFTYPE
 70
     6
  9
$SURFU
 70
     6
  9
$SURFV
 70
     6
  9
$UCSNAME
  2

  9
$UCSORG
 10
0.0
 20
0.0
 30
0.0
  9
$UCSXDIR
 10
1.0
 20
0.0
 30
0.0
  9
$UCSYDIR
 10
0.0
 20
1.0
 30
0.0
  9
$PUCSNAME
  2

  9
$PUCSORG
 10
0.0
 20
0.0
 30
0.0
  9
$PUCSXDIR
 10
1.0
 20
0.0
 30
0.0
  9
$PUCSYDIR
 10
0.0
 20
1.0
 30
0.0
  9
$USERI1
 70
     0
  9
$USERI2
 70
     0
  9
$USERI3
 70
     0
  9
$USERI4
 70
     0
  9
$USERI5
 70
     0
  9
$USERR1
 40
0.0
  9
$USERR2
 40
0.0
  9
$USERR3
 40
0.0
  9
$USERR4
 40
0.0
  9
$USERR5
 40
0.0
  9
$WORLDVIEW
 70
     1
  9
$SHADEDGE
 70
     3
  9
$SHADEDIF
 70
    70
  9
$TILEMODE
 70
     1
  9
$MAXACTVP
 70
    16
  9
$PLIMCHECK
 70
     0
  9
$PEXTMIN
 10
-1.452248
 20
-0.437698
 30
0.0
  9
$PEXTMAX
 10
12.749749
 20
8.310198
 30
0.0
  9
$PLIMMIN
 10
0.0
 20
0.0
  9
$PLIMMAX
 10
12.0
 20
9.0
  9
$UNITMODE
 70
     0
  9
$VISRETAIN
 70
     0
  9
$PLINEGEN
 70
     0
  9
$PSLTSCALE
 70
     0
  0
ENDSEC
  0
SECTION
  2
TABLES
  0
TABLE
  2
VPORT
 70
     2
  0
VPORT
  2
*ACTIVE
 70
     0
 10
0.0
 20
0.0
 11
1.0
 21
1.0
 12
36.771298
 22
31.08497
 13
0.0
 23
0.0
 14
1.0
 24
1.0
 15
10.0
 25
10.0
 16
0.0
 26
0.0
 36
1.0
 17
0.0
 27
0.0
 37
0.0
 40
59.325059
 41
1.466346
 42
50.0
 43
0.0
 44
0.0
 50
0.0
 51
0.0
 71
     0
 72
   100
 73
     1
 74
     0
 75
     0
 76
     0
 77
     0
 78
     0
  0
ENDTAB
  0
TABLE
  2
LTYPE
 70
     2
  0
LTYPE
  2
CONTINUOUS
 70
     0
  3
Solid line
 72
    65
 73
     0
 40
0.0
  0
LTYPE
  2
AXES2
 70
     0
  3
___ _ ___ _ ___ _ ___ _ ___ _ ___ _ ___ _ ___ _
 72
    65
 73
     4
 40
1.125
 49
0.75
 49
-0.125
 49
0.125
 49
-0.125
  0
ENDTAB
  0
TABLE
  2
LAYER
 70
     5
  0
LAYER
  2
0
 70
     0
 62
   255
  6
CONTINUOUS
  0
LAYER
  2
COTATION1
 70
     0
 62
     2
  6
CONTINUOUS
  0
LAYER
  2
AXE
 70
     0
 62
    80
  6
AXES2
  0
LAYER
  2
DEFPOINTS
 70
     0
 62
     7
  6
CONTINUOUS
  0
LAYER
  2
ALPHA
 70
     0
 62
   254
  6
CONTINUOUS
  0
ENDTAB
  0
TABLE
  2
STYLE
 70
     2
  0
STYLE
  2
ROMANS
 70
     0
 40
0.0
 41
1.0
 50
0.0
 71
     0
 42
6.0
  3
romans
  4

  0
STYLE
  2
STANDARD
 70
     0
 40
0.0
 41
1.0
 50
0.0
 71
     0
 42
0.2
  3
txt
  4

  0
ENDTAB
  0
TABLE
  2
VIEW
 70
     0
  0
ENDTAB
  0
TABLE
  2
UCS
 70
     0
  0
ENDTAB
  0
TABLE
  2
APPID
 70
     1
  0
APPID
  2
ACAD
 70
     0
  0
ENDTAB
  0
TABLE
  2
DIMSTYLE
 70
     1
  0
DIMSTYLE
  2
SC_DEFAUT
 70
     0
  3

  4

  5
OPEN30
  6

  7

 40
1.0
 41
5.0
 42
2.0
 43
0.38
 44
2.5
 45
0.0
 46
0.0
 47
0.0
 48
0.0
140
2.5
141
0.0
142
0.0
143
25.4
144
1.0
145
0.0
146
1.0
147
2.0
 71
     0
 72
     0
 73
     1
 74
     1
 75
     0
 76
     0
 77
     1
 78
    12
170
     0
171
     2
172
     0
173
     0
174
     0
175
     0
176
     0
177
     0
178
     0
  0
ENDTAB
  0
ENDSEC
  0
SECTION
  2
BLOCKS
  0
BLOCK
  8
0
  2
$MODEL_SPACE
 70
     0
 10
0.0
 20
0.0
 30
0.0
  3
$MODEL_SPACE
  1

  0
ENDBLK
  5
9ECB
  8
0
  0
BLOCK
 67
     1
  8
0
  2
$PAPER_SPACE
 70
     0
 10
0.0
 20
0.0
 30
0.0
  3
$PAPER_SPACE
  1

  0
ENDBLK
  5
9EC9
 67
     1
  8
0
  0
BLOCK
  8
0
  2
COTE
 70
     0
 10
0.0
 20
0.0
 30
0.0
  3
COTE
  1

  0
ENDBLK
  5
F
  8
0
  0
BLOCK
  8
0
  2
FOND
 70
     0
 10
0.0
 20
0.0
 30
0.0
  3
FOND
  1

  0
ENDBLK
  5
75
  8
0
  0
BLOCK
  8
0
  2
_OPEN30
 70
     0
 10
0.0
 20
0.0
 30
0.0
  3
_OPEN30
  1

  0
LINE
  5
4B05
  8
COTATION1
 62
     0
 10
-1.0
 20
0.267949
 30
0.0
 11
0.0
 21
0.0
 31
0.0
1001
ACAD
1000
RTLwPs
1070
   158
  0
LINE
  5
4B06
  8
COTATION1
 62
     0
 10
0.0
 20
0.0
 30
0.0
 11
-1.0
 21
-0.267949
 31
0.0
1001
ACAD
1000
RTLwPs
1070
   158
  0
LINE
  5
4B07
  8
COTATION1
 62
     0
 10
0.0
 20
0.0
 30
0.0
 11
-1.0
 21
0.0
 31
0.0
1001
ACAD
1000
RTLwPs
1070
   158
  0
ENDBLK
  5
4B09
  8
0
  0
BLOCK
  8
0
  2
*D3
 70
     1
 10
0.0
 20
0.0
 30
0.0
  3
*D3
  1

  0
LINE
  5
9D95
  8
COTATION1
 62
     0
 10
36.73442
 20
38.789943
 30
0.0
 11
36.73442
 21
58.489943
 31
0.0
1001
ACAD
1000
RTLwPs
1070
   158
  0
LINE
  5
9D96
  8
COTATION1
 62
     0
 10
52.73442
 20
38.789943
 30
0.0
 11
52.73442
 21
58.489943
 31
0.0
1001
ACAD
1000
RTLwPs
1070
   158
  0
LINE
  5
9D97
  8
COTATION1
 62
     0
 10
41.73442
 20
55.989943
 30
0.0
 11
47.73442
 21
55.989943
 31
0.0
1001
ACAD
1000
RTLwPs
1070
   158
  0
INSERT
  5
9D98
  8
COTATION1
 62
     0
  2
_OPEN30
 10
36.73442
 20
55.989943
 30
0.0
 41
5.0
 42
5.0
 43
5.0
 50
180.0
1001
ACAD
1000
RTLwPs
1070
   158
  0
INSERT
  5
9D99
  8
COTATION1
 62
     0
  2
_OPEN30
 10
52.73442
 20
55.989943
 30
0.0
 41
5.0
 42
5.0
 43
5.0
1001
ACAD
1000
RTLwPs
1070
   158
  0
TEXT
  5
9D9A
  8
COTATION1
 62
     0
 10
42.174896
 20
57.989943
 30
0.0
 40
2.5
  1
16
1001
ACAD
1000
MTEXTBEGIN
1070
    73
1070
     1
1070
    44
1040
1.0
1070
    74
1070
     0
1000
MTEXTEND
  0
POINT
  5
9D9B
  8
DEFPOINTS
 62
     0
 10
36.73442
 20
36.789943
 30
0.0
  0
POINT
  5
9D9C
  8
DEFPOINTS
 62
     0
 10
52.73442
 20
36.789943
 30
0.0
  0
POINT
  5
9D9D
  8
DEFPOINTS
 62
     0
 10
52.73442
 20
55.989943
 30
0.0
  0
ENDBLK
  5
7F3E
  8
0
  0
BLOCK
  8
0
  2
*D4
 70
     1
 10
0.0
 20
0.0
 30
0.0
  3
*D4
  1

  0
LINE
  5
9DF7
  8
COTATION1
 62
     0
 10
42.73442
 20
40.989943
 30
0.0
 11
21.092604
 21
40.989943
 31
0.0
1001
ACAD
1000
RTLwPs
1070
   158
  0
LINE
  5
9DF8
  8
COTATION1
 62
     0
 10
34.73442
 20
22.489943
 30
0.0
 11
21.092604
 21
22.489943
 31
0.0
1001
ACAD
1000
RTLwPs
1070
   158
  0
LINE
  5
9DF9
  8
COTATION1
 62
     0
 10
23.592604
 20
35.989943
 30
0.0
 11
23.592604
 21
34.989943
 31
0.0
1001
ACAD
1000
RTLwPs
1070
   158
  0
LINE
  5
9DFA
  8
COTATION1
 62
     0
 10
23.592604
 20
27.489943
 30
0.0
 11
23.592604
 21
28.489943
 31
0.0
1001
ACAD
1000
RTLwPs
1070
   158
  0
TEXT
  5
9DFB
  8
COTATION1
 62
     0
 10
19.247366
 20
30.489943
 30
0.0
 40
2.5
  1
18.5
1001
ACAD
1000
MTEXTBEGIN
1070
    73
1070
     1
1070
    44
1040
1.0
1070
    74
1070
     0
1000
MTEXTEND
  0
INSERT
  5
9DFC
  8
COTATION1
 62
     0
  2
_OPEN30
 10
23.592604
 20
40.989943
 30
0.0
 41
5.0
 42
5.0
 43
5.0
 50
90.0
1001
ACAD
1000
RTLwPs
1070
   158
  0
INSERT
  5
9DFD
  8
COTATION1
 62
     0
  2
_OPEN30
 10
23.592604
 20
22.489943
 30
0.0
 41
5.0
 42
5.0
 43
5.0
 50
270.0
1001
ACAD
1000
RTLwPs
1070
   158
  0
POINT
  5
9DFE
  8
DEFPOINTS
 62
     0
 10
44.73442
 20
40.989943
 30
0.0
  0
POINT
  5
9DFF
  8
DEFPOINTS
 62
     0
 10
36.73442
 20
22.489943
 30
0.0
  0
POINT
  5
9E00
  8
DEFPOINTS
 62
     0
 10
23.592604
 20
22.489943
 30
0.0
  0
ENDBLK
  5
7F4B
  8
0
  0
BLOCK
  8
0
  2
*D5
 70
     1
 10
0.0
 20
0.0
 30
0.0
  3
*D5
  1

  0
LINE
  5
9D9E
  8
COTATION1
 62
     0
 10
46.73442
 20
40.989943
 30
0.0
 11
74.534477
 21
40.989943
 31
0.0
1001
ACAD
1000
RTLwPs
1070
   158
  0
LINE
  5
9D9F
  8
COTATION1
 62
     0
 10
48.48442
 20
11.639943
 30
0.0
 11
74.534477
 21
11.639943
 31
0.0
1001
ACAD
1000
RTLwPs
1070
   158
  0
LINE
  5
9DA0
  8
COTATION1
 62
     0
 10
72.034477
 20
35.989943
 30
0.0
 11
72.034477
 21
29.564943
 31
0.0
1001
ACAD
1000
RTLwPs
1070
   158
  0
LINE
  5
9DA1
  8
COTATION1
 62
     0
 10
72.034477
 20
16.639943
 30
0.0
 11
72.034477
 21
23.064943
 31
0.0
1001
ACAD
1000
RTLwPs
1070
   158
  0
TEXT
  5
9DA2
  8
COTATION1
 62
     0
 10
67.808286
 20
25.064943
 30
0.0
 40
2.5
  1
29.4
1001
ACAD
1000
MTEXTBEGIN
1070
    73
1070
     1
1070
    44
1040
1.0
1070
    74
1070
     0
1000
MTEXTEND
  0
INSERT
  5
9DA3
  8
COTATION1
 62
     0
  2
_OPEN30
 10
72.034477
 20
40.989943
 30
0.0
 41
5.0
 42
5.0
 43
5.0
 50
90.0
1001
ACAD
1000
RTLwPs
1070
   158
  0
INSERT
  5
9DA4
  8
COTATION1
 62
     0
  2
_OPEN30
 10
72.034477
 20
11.639943
 30
0.0
 41
5.0
 42
5.0
 43
5.0
 50
270.0
1001
ACAD
1000
RTLwPs
1070
   158
  0
POINT
  5
9DA5
  8
DEFPOINTS
 62
     0
 10
44.73442
 20
40.989943
 30
0.0
  0
POINT
  5
9DA6
  8
DEFPOINTS
 62
     0
 10
46.48442
 20
11.639943
 30
0.0
  0
POINT
  5
9DA7
  8
DEFPOINTS
 62
     0
 10
72.034477
 20
11.639943
 30
0.0
  0
ENDBLK
  5
8EB4
  8
0
  0
ENDSEC
  0
SECTION
  2
ENTITIES
  0
INSERT
  5
A
  8
0
  2
COTE
 10
0.0
 20
0.0
 30
0.0
  0
INSERT
  5
17
  8
0
  2
COTE
 10
284.010391
 20
6.373258
 30
0.0
  0
INSERT
  5
72
  8
0
  2
FOND
 10
0.0
 20
0.0
 30
0.0
  0
DIMENSION
  5
7F30
  8
COTATION1
  2
*D3
 10
52.73442
 20
55.989943
 30
0.0
 11
44.73442
 21
59.239943
 31
0.0
 13
36.73442
 23
36.789943
 33
0.0
 14
52.73442
 24
36.789943
 34
0.0
  0
DIMENSION
  5
7F31
  8
COTATION1
  2
*D4
 10
23.592604
 20
22.489943
 30
0.0
 11
23.592604
 21
31.739943
 31
0.0
 70
   128
 13
44.73442
 23
40.989943
 33
0.0
 14
36.73442
 24
22.489943
 34
0.0
 50
90.0
  0
LINE
  5
8AD3
  8
AXE
 10
44.73442
 20
1.639943
 30
0.0
 11
44.73442
 21
45.139943
 31
0.0
  0
TEXT
  5
8AD4
  8
AXE
 10
39.686801
 20
1.639943
 30
0.0
 40
5.0
  1
Y
 72
     2
 11
43.73442
 21
1.639943
 31
0.0
  0
LINE
  5
8AD5
  8
AXE
 10
31.73442
 20
21.414943
 30
0.0
 11
62.73442
 21
21.414943
 31
0.0
  0
TEXT
  5
8AD6
  8
AXE
 10
58.686801
 20
22.414943
 30
0.0
 40
5.0
  1
X
 72
     2
 11
62.73442
 21
22.414943
 31
0.0
  0
LINE
  5
8B73
  8
COTATION1
 10
10.931852
 20
24.989943
 30
0.0
 11
10.931852
 21
49.948865
 31
0.0
  0
LINE
  5
8B74
  8
COTATION1
 10
2.8315
 20
22.489943
 30
0.0
 11
35.73442
 21
22.489943
 31
0.0
  0
SOLID
  5
8B75
  8
COTATION1
 10
12.375228
 20
22.489943
 30
0.0
 11
9.488477
 21
22.489943
 31
0.0
 12
10.931852
 22
24.989943
 32
0.0
 13
10.931852
 23
24.989943
 33
0.0
  0
LINE
  5
8B76
  8
COTATION1
 10
-2.318148
 20
54.948865
 30
0.0
 11
24.181852
 21
54.948865
 31
0.0
  0
LINE
  5
8B77
  8
COTATION1
 10
24.181852
 20
49.948865
 30
0.0
 11
-2.318148
 21
49.948865
 31
0.0
  0
TEXT
  5
8B78
  8
COTATION1
 10
-1.068148
 20
51.198865
 30
0.0
 40
2.5
  1
PLANE_TO_LINE_UP
 41
0.626087
  7
STANDARD
 72
     5
 11
22.931852
 21
51.198865
 31
0.0
  0
LINE
  5
8B79
  8
COTATION1
 10
24.181852
 20
54.948865
 30
0.0
 11
24.181852
 21
49.948865
 31
0.0
  0
LINE
  5
8B7A
  8
COTATION1
 10
-2.318148
 20
49.948865
 30
0.0
 11
-2.318148
 21
54.948865
 31
0.0
  0
DIMENSION
  5
8EA7
  8
COTATION1
  2
*D5
 10
72.034477
 20
11.639943
 30
0.0
 11
72.034477
 21
26.314943
 31
0.0
 70
   128
 13
44.73442
 23
40.989943
 33
0.0
 14
46.48442
 24
11.639943
 34
0.0
 50
90.0
  0
ARC
  5
9B3D
  8
ALPHA
 10
44.73442
 20
31.989943
 30
0.0
 40
7.523399
 50
121.90427
 51
178.09573
  0
ARC
  5
9B3E
  8
ALPHA
 10
44.73442
 20
31.989943
 30
0.0
 40
7.523399
 50
181.90427
 51
238.09573
  0
ARC
  5
9B3F
  8
ALPHA
 10
44.73442
 20
31.989943
 30
0.0
 40
7.614754
 50
121.721912
 51
178.278088
  0
ARC
  5
9B40
  8
ALPHA
 10
44.73442
 20
31.989943
 30
0.0
 40
7.614754
 50
181.721912
 51
238.278088
  0
ARC
  5
9B41
  8
ALPHA
 10
38.73442
 20
38.377569
 30
0.0
 40
2.0
 50
101.65512
 51
180.0
  0
LINE
  5
9B42
  8
ALPHA
 10
52.097588
 20
22.489943
 30
0.0
 11
52.097588
 21
20.689943
 31
0.0
  0
LINE
  5
9B43
  8
ALPHA
 10
52.037546
 20
22.489943
 30
0.0
 11
52.037546
 21
20.689943
 31
0.0
  0
LINE
  5
9B44
  8
ALPHA
 10
51.655842
 20
22.489943
 30
0.0
 11
51.655842
 21
20.689943
 31
0.0
  0
LINE
  5
9B45
  8
ALPHA
 10
51.479808
 20
22.489943
 30
0.0
 11
51.479808
 21
20.689943
 31
0.0
  0
LINE
  5
9B46
  8
ALPHA
 10
50.685727
 20
20.489943
 30
0.0
 11
50.685727
 21
22.489943
 31
0.0
  0
LINE
  5
9B47
  8
ALPHA
 10
47.812072
 20
20.489943
 30
0.0
 11
47.812072
 21
22.489943
 31
0.0
  0
LINE
  5
9B48
  8
ALPHA
 10
47.777401
 20
22.489943
 30
0.0
 11
47.777401
 21
20.689943
 31
0.0
  0
LINE
  5
9B49
  8
ALPHA
 10
47.352417
 20
22.489943
 30
0.0
 11
47.352417
 21
20.689943
 31
0.0
  0
LINE
  5
9B4A
  8
ALPHA
 10
46.766401
 20
20.489943
 30
0.0
 11
46.766401
 21
22.489943
 31
0.0
  0
LINE
  5
9B4B
  8
ALPHA
 10
46.166891
 20
20.489943
 30
0.0
 11
46.166891
 21
22.489943
 31
0.0
  0
LINE
  5
9B4C
  8
ALPHA
 10
45.927879
 20
22.489943
 30
0.0
 11
45.927879
 21
20.689943
 31
0.0
  0
LINE
  5
9B4D
  8
ALPHA
 10
45.471815
 20
22.489943
 30
0.0
 11
45.471815
 21
20.689943
 31
0.0
  0
LINE
  5
9B4E
  8
ALPHA
 10
45.044749
 20
20.489943
 30
0.0
 11
45.044749
 21
22.489943
 31
0.0
  0
LINE
  5
9B4F
  8
ALPHA
 10
44.424091
 20
20.489943
 30
0.0
 11
44.424091
 21
22.489943
 31
0.0
  0
LINE
  5
9B50
  8
ALPHA
 10
43.997025
 20
22.489943
 30
0.0
 11
43.997025
 21
20.689943
 31
0.0
  0
LINE
  5
9B51
  8
ALPHA
 10
43.54096
 20
22.489943
 30
0.0
 11
43.54096
 21
20.689943
 31
0.0
  0
LINE
  5
9B52
  8
ALPHA
 10
43.301948
 20
20.489943
 30
0.0
 11
43.301948
 21
22.489943
 31
0.0
  0
LINE
  5
9B53
  8
ALPHA
 10
42.702438
 20
20.489943
 30
0.0
 11
42.702438
 21
22.489943
 31
0.0
  0
LINE
  5
9B54
  8
ALPHA
 10
42.116423
 20
22.489943
 30
0.0
 11
42.116423
 21
20.689943
 31
0.0
  0
LINE
  5
9B55
  8
ALPHA
 10
41.691438
 20
22.489943
 30
0.0
 11
41.691438
 21
20.689943
 31
0.0
  0
LINE
  5
9B56
  8
ALPHA
 10
41.656768
 20
20.489943
 30
0.0
 11
41.656768
 21
22.489943
 31
0.0
  0
LINE
  5
9B57
  8
ALPHA
 10
38.783112
 20
20.489943
 30
0.0
 11
38.783112
 21
22.489943
 31
0.0
  0
LINE
  5
9B58
  8
ALPHA
 10
37.989031
 20
22.489943
 30
0.0
 11
37.989031
 21
20.689943
 31
0.0
  0
LINE
  5
9B59
  8
ALPHA
 10
37.812997
 20
22.489943
 30
0.0
 11
37.812997
 21
20.689943
 31
0.0
  0
LINE
  5
9B5A
  8
ALPHA
 10
37.431293
 20
22.489943
 30
0.0
 11
37.431293
 21
20.689943
 31
0.0
  0
LINE
  5
9B5B
  8
ALPHA
 10
37.371251
 20
22.489943
 30
0.0
 11
37.371251
 21
20.689943
 31
0.0
  0
LINE
  5
9B76
  8
ALPHA
 10
38.034537
 20
20.339943
 30
0.0
 11
51.434303
 21
20.339943
 31
0.0
  0
LINE
  5
9B77
  8
ALPHA
 10
38.384531
 20
19.039943
 30
0.0
 11
51.084309
 21
19.039943
 31
0.0
  0
LINE
  5
9B78
  8
ALPHA
 10
38.384531
 20
17.889943
 30
0.0
 11
51.084309
 21
17.889943
 31
0.0
  0
LINE
  5
9B79
  8
ALPHA
 10
50.73442
 20
17.789943
 30
0.0
 11
38.73442
 21
17.789943
 31
0.0
  0
LINE
  5
9B7A
  8
ALPHA
 10
50.73442
 20
16.789943
 30
0.0
 11
38.73442
 21
16.789943
 31
0.0
  0
LINE
  5
9B7B
  8
ALPHA
 10
38.384531
 20
16.689943
 30
0.0
 11
51.084309
 21
16.689943
 31
0.0
  0
LINE
  5
9B7C
  8
ALPHA
 10
38.384531
 20
16.089943
 30
0.0
 11
51.084309
 21
16.089943
 31
0.0
  0
LINE
  5
9B7D
  8
ALPHA
 10
47.23442
 20
15.889943
 30
0.0
 11
42.23442
 21
15.889943
 31
0.0
  0
LINE
  5
9B7E
  8
ALPHA
 10
42.23442
 20
14.889943
 30
0.0
 11
47.23442
 21
14.889943
 31
0.0
  0
LINE
  5
9B7F
  8
ALPHA
 10
41.98442
 20
14.389943
 30
0.0
 11
47.48442
 21
14.389943
 31
0.0
  0
LINE
  5
9B80
  8
ALPHA
 10
41.85942
 20
14.139943
 30
0.0
 11
47.60942
 21
14.139943
 31
0.0
  0
LINE
  5
9B81
  8
ALPHA
 10
50.38442
 20
12.739943
 30
0.0
 11
39.08442
 21
12.739943
 31
0.0
  0
LINE
  5
9B82
  8
ALPHA
 10
50.23442
 20
12.489943
 30
0.0
 11
39.23442
 21
12.489943
 31
0.0
  0
LINE
  5
9B83
  8
ALPHA
 10
42.98442
 20
11.639943
 30
0.0
 11
46.48442
 21
11.639943
 31
0.0
  0
LINE
  5
9B84
  8
ALPHA
 10
39.08442
 20
12.539943
 30
0.0
 11
39.08442
 21
16.089943
 31
0.0
  0
ARC
  5
9B85
  8
ALPHA
 10
39.23442
 20
12.739943
 30
0.0
 40
0.25
 50
233.122851
 51
270.0
  0
ARC
  5
9B86
  8
ALPHA
 10
38.73442
 20
17.289943
 30
0.0
 40
0.5
 50
90.0
 51
270.0
  0
LINE
  5
9B87
  8
ALPHA
 10
37.56087
 20
20.489943
 30
0.0
 11
38.783112
 21
20.489943
 31
0.0
  0
POLYLINE
  5
9B88
  8
ALPHA
 66
     1
 10
0.0
 20
0.0
 30
0.0
 70
   128
  0
VERTEX
  5
9ED1
  8
ALPHA
 10
37.431293
 20
20.689943
 30
0.0
  0
VERTEX
  5
9ED2
  8
ALPHA
 10
37.496763
 20
20.546058
 30
0.0
  0
VERTEX
  5
9ED3
  8
ALPHA
 10
37.645717
 20
20.489943
 30
0.0
  0
SEQEND
  5
9ED4
  8
ALPHA
  0
POLYLINE
  5
9B89
  8
ALPHA
 66
     1
 10
0.0
 20
0.0
 30
0.0
 70
   128
  0
VERTEX
  5
9ED5
  8
ALPHA
 10
37.989031
 20
20.689943
 30
0.0
  0
VERTEX
  5
9ED6
  8
ALPHA
 10
38.059509
 20
20.54444
 30
0.0
  0
VERTEX
  5
9ED7
  8
ALPHA
 10
38.213647
 20
20.489943
 30
0.0
  0
SEQEND
  5
9ED8
  8
ALPHA
  0
POLYLINE
  5
9B8A
  8
ALPHA
 66
     1
 10
0.0
 20
0.0
 30
0.0
 70
   128
210
0.0
220
0.0
230
-1.0
  0
VERTEX
  5
9ED9
  8
ALPHA
 10
-37.56087
 20
20.489943
 30
0.0
  0
VERTEX
  5
9EDA
  8
ALPHA
 10
-37.424959
 20
20.550468
 30
0.0
  0
VERTEX
  5
9EDB
  8
ALPHA
 10
-37.371251
 20
20.689943
 30
0.0
  0
SEQEND
  5
9EDC
  8
ALPHA
  0
POLYLINE
  5
9B8B
  8
ALPHA
 66
     1
 10
0.0
 20
0.0
 30
0.0
 70
   128
210
0.0
220
0.0
230
-1.0
  0
VERTEX
  5
9EDD
  8
ALPHA
 10
-37.964889
 20
20.489943
 30
0.0
  0
VERTEX
  5
9EDE
  8
ALPHA
 10
-37.850404
 20
20.558478
 30
0.0
  0
VERTEX
  5
9EDF
  8
ALPHA
 10
-37.812997
 20
20.689943
 30
0.0
  0
SEQEND
  5
9EE0
  8
ALPHA
  0
LINE
  5
9B8C
  8
ALPHA
 10
37.431293
 20
20.689943
 30
0.0
 11
37.371251
 21
20.689943
 31
0.0
  0
LINE
  5
9B8D
  8
ALPHA
 10
37.989031
 20
20.689943
 30
0.0
 11
37.812997
 21
20.689943
 31
0.0
  0
LINE
  5
9B8E
  8
ALPHA
 10
38.38442
 20
17.889943
 30
0.0
 11
38.38442
 21
19.039943
 31
0.0
  0
LINE
  5
9B8F
  8
ALPHA
 10
38.38442
 20
16.089943
 30
0.0
 11
38.38442
 21
16.689943
 31
0.0
  0
LINE
  5
9B90
  8
ALPHA
 10
38.03442
 20
20.339943
 30
0.0
 11
38.03442
 21
20.489943
 31
0.0
  0
ARC
  5
9B91
  8
ALPHA
 10
38.88442
 20
16.939943
 30
0.0
 40
0.25
 50
270.000011
 51
323.006207
  0
ARC
  5
9B92
  8
ALPHA
 10
38.88442
 20
17.639943
 30
0.0
 40
0.25
 50
36.993798
 51
89.999999
  0
LINE
  5
9B93
  8
ALPHA
 10
39.23442
 20
19.039943
 30
0.0
 11
39.23442
 21
20.339943
 31
0.0
  0
LINE
  5
9B94
  8
ALPHA
 10
42.068799
 20
16.039943
 30
0.0
 11
41.74688
 21
14.570429
 31
0.0
  0
LINE
  5
9B95
  8
ALPHA
 10
42.23442
 20
14.389943
 30
0.0
 11
42.23442
 21
16.039943
 31
0.0
  0
LINE
  5
9B96
  8
ALPHA
 10
41.73442
 20
15.839943
 30
0.0
 11
41.73442
 21
14.639943
 31
0.0
  0
LINE
  5
9B97
  8
ALPHA
 10
41.336692
 20
15.839943
 30
0.0
 11
41.336692
 21
14.639943
 31
0.0
  0
POLYLINE
  5
9B98
  8
ALPHA
 66
     1
 10
0.0
 20
0.0
 30
0.0
 70
   128
  0
VERTEX
  5
9EE1
  8
ALPHA
 10
41.98442
 20
14.389943
 30
0.0
  0
VERTEX
  5
9EE2
  8
ALPHA
 10
41.883598
 20
14.287504
 30
0.0
  0
VERTEX
  5
9EE3
  8
ALPHA
 10
41.85942
 20
14.139943
 30
0.0
  0
SEQEND
  5
9EE4
  8
ALPHA
  0
POLYLINE
  5
9B99
  8
ALPHA
 66
     1
 10
0.0
 20
0.0
 30
0.0
 70
   128
  0
VERTEX
  5
9EE5
  8
ALPHA
 10
41.336692
 20
14.639943
 30
0.0
  0
VERTEX
  5
9EE6
  8
ALPHA
 10
41.377856
 20
14.44501
 30
0.0
  0
VERTEX
  5
9EE7
  8
ALPHA
 10
41.493787
 20
14.282663
 30
0.0
  0
VERTEX
  5
9EE8
  8
ALPHA
 10
41.663
 20
14.176073
 30
0.0
  0
VERTEX
  5
9EE9
  8
ALPHA
 10
41.85942
 20
14.139943
 30
0.0
  0
SEQEND
  5
9EEA
  8
ALPHA
  0
ARC
  5
9B9A
  8
ALPHA
 10
41.98442
 20
14.639943
 30
0.0
 40
0.25
 50
180.0
 51
270.0
  0
LINE
  5
9B9B
  8
ALPHA
 10
41.73442
 20
14.639943
 30
0.0
 11
41.336692
 21
14.639943
 31
0.0
  0
LINE
  5
9B9C
  8
ALPHA
 10
42.98442
 20
12.489943
 30
0.0
 11
42.98442
 21
11.639943
 31
0.0
  0
LINE
  5
9B9D
  8
ALPHA
 10
42.702438
 20
20.489943
 30
0.0
 11
41.656768
 21
20.489943
 31
0.0
  0
POLYLINE
  5
9B9E
  8
ALPHA
 66
     1
 10
0.0
 20
0.0
 30
0.0
 70
   128
  0
VERTEX
  5
9EEB
  8
ALPHA
 10
42.116423
 20
20.689943
 30
0.0
  0
VERTEX
  5
9EEC
  8
ALPHA
 10
42.159557
 20
20.555357
 30
0.0
  0
VERTEX
  5
9EED
  8
ALPHA
 10
42.282184
 20
20.489943
 30
0.0
  0
SEQEND
  5
9EEE
  8
ALPHA
  0
LINE
  5
9B9F
  8
ALPHA
 10
41.681631
 20
20.489943
 30
0.0
 11
41.691438
 21
20.689943
 31
0.0
  0
LINE
  5
9BA0
  8
ALPHA
 10
41.406822
 20
16.089943
 30
0.0
 11
41.336692
 21
15.839943
 31
0.0
  0
LINE
  5
9BA1
  8
ALPHA
 10
42.230207
 20
16.090145
 30
0.0
 11
42.23442
 21
16.039943
 31
0.0
  0
LINE
  5
9BA2
  8
ALPHA
 10
42.083099
 20
16.090063
 30
0.0
 11
42.068799
 21
16.039943
 31
0.0
  0
ARC
  5
9BA3
  8
ALPHA
 10
41.98442
 20
15.839943
 30
0.0
 40
0.25
 50
90.0
 51
180.0
  0
LINE
  5
9BA4
  8
ALPHA
 10
42.116423
 20
20.689943
 30
0.0
 11
41.691438
 21
20.689943
 31
0.0
  0
LINE
  5
9BA5
  8
ALPHA
 10
41.837235
 20
16.039943
 30
0.0
 11
42.068799
 21
16.039943
 31
0.0
  0
LINE
  5
9BA6
  8
ALPHA
 10
41.73442
 20
15.839943
 30
0.0
 11
41.336692
 21
15.839943
 31
0.0
  0
POLYLINE
  5
9BA7
  8
ALPHA
 66
     1
 10
0.0
 20
0.0
 30
0.0
 70
   128
  0
VERTEX
  5
9EEF
  8
ALPHA
 10
43.997025
 20
20.689943
 30
0.0
  0
VERTEX
  5
9EF0
  8
ALPHA
 10
44.022957
 20
20.566064
 30
0.0
  0
VERTEX
  5
9EF1
  8
ALPHA
 10
44.117825
 20
20.489943
 30
0.0
  0
SEQEND
  5
9EF2
  8
ALPHA
  0
LINE
  5
9BA8
  8
ALPHA
 10
43.473353
 20
20.489943
 30
0.0
 11
43.54096
 21
20.689943
 31
0.0
  0
LINE
  5
9BA9
  8
ALPHA
 10
43.997025
 20
20.689943
 30
0.0
 11
43.54096
 21
20.689943
 31
0.0
  0
LINE
  5
9BAA
  8
ALPHA
 10
44.424091
 20
20.489943
 30
0.0
 11
43.301948
 21
20.489943
 31
0.0
  0
LINE
  5
9BAB
  8
ALPHA
 10
48.132147
 20
14.639943
 30
0.0
 11
48.132147
 21
15.839943
 31
0.0
  0
LINE
  5
9BAC
  8
ALPHA
 10
47.73442
 20
14.639943
 30
0.0
 11
47.73442
 21
15.839943
 31
0.0
  0
LINE
  5
9BAD
  8
ALPHA
 10
47.23442
 20
14.389943
 30
0.0
 11
47.23442
 21
16.089943
 31
0.0
  0
LINE
  5
9BAE
  8
ALPHA
 10
46.48442
 20
12.489943
 30
0.0
 11
46.48442
 21
11.639943
 31
0.0
  0
POLYLINE
  5
9BAF
  8
ALPHA
 66
     1
 10
0.0
 20
0.0
 30
0.0
 70
   128
  0
VERTEX
  5
9EF3
  8
ALPHA
 10
47.60942
 20
14.139943
 30
0.0
  0
VERTEX
  5
9EF4
  8
ALPHA
 10
47.805839
 20
14.176073
 30
0.0
  0
VERTEX
  5
9EF5
  8
ALPHA
 10
47.975052
 20
14.282663
 30
0.0
  0
VERTEX
  5
9EF6
  8
ALPHA
 10
48.090984
 20
14.44501
 30
0.0
  0
VERTEX
  5
9EF7
  8
ALPHA
 10
48.132147
 20
14.639943
 30
0.0
  0
SEQEND
  5
9EF8
  8
ALPHA
  0
POLYLINE
  5
9BB0
  8
ALPHA
 66
     1
 10
0.0
 20
0.0
 30
0.0
 70
   128
210
0.0
220
0.0
230
-1.0
  0
VERTEX
  5
9EF9
  8
ALPHA
 10
-47.48442
 20
14.389943
 30
0.0
  0
VERTEX
  5
9EFA
  8
ALPHA
 10
-47.585241
 20
14.287504
 30
0.0
  0
VERTEX
  5
9EFB
  8
ALPHA
 10
-47.60942
 20
14.139943
 30
0.0
  0
SEQEND
  5
9EFC
  8
ALPHA
  0
ARC
  5
9BB1
  8
ALPHA
 10
47.48442
 20
14.639943
 30
0.0
 40
0.25
 50
270.0
 51
0.0
  0
LINE
  5
9BB2
  8
ALPHA
 10
47.73442
 20
14.639943
 30
0.0
 11
48.132147
 21
14.639943
 31
0.0
  0
LINE
  5
9BB3
  8
ALPHA
 10
47.812072
 20
20.489943
 30
0.0
 11
46.766401
 21
20.489943
 31
0.0
  0
POLYLINE
  5
9BB4
  8
ALPHA
 66
     1
 10
0.0
 20
0.0
 30
0.0
 70
   128
  0
VERTEX
  5
9EFD
  8
ALPHA
 10
45.351014
 20
20.489943
 30
0.0
  0
VERTEX
  5
9EFE
  8
ALPHA
 10
45.445883
 20
20.566064
 30
0.0
  0
VERTEX
  5
9EFF
  8
ALPHA
 10
45.471815
 20
20.689943
 30
0.0
  0
SEQEND
  5
9F00
  8
ALPHA
  0
LINE
  5
9BB5
  8
ALPHA
 10
45.927879
 20
20.689943
 30
0.0
 11
45.995487
 21
20.489943
 31
0.0
  0
LINE
  5
9BB6
  8
ALPHA
 10
45.927879
 20
20.689943
 30
0.0
 11
45.471815
 21
20.689943
 31
0.0
  0
LINE
  5
9BB7
  8
ALPHA
 10
46.166891
 20
20.489943
 30
0.0
 11
45.044749
 21
20.489943
 31
0.0
  0
LINE
  5
9BB8
  8
ALPHA
 10
48.132147
 20
15.839943
 30
0.0
 11
48.062018
 21
16.089943
 31
0.0
  0
LINE
  5
9BB9
  8
ALPHA
 10
47.777401
 20
20.689943
 30
0.0
 11
47.787208
 21
20.489943
 31
0.0
  0
POLYLINE
  5
9BBA
  8
ALPHA
 66
     1
 10
0.0
 20
0.0
 30
0.0
 70
   128
  0
VERTEX
  5
9F01
  8
ALPHA
 10
47.186655
 20
20.489943
 30
0.0
  0
VERTEX
  5
9F02
  8
ALPHA
 10
47.309283
 20
20.555357
 30
0.0
  0
VERTEX
  5
9F03
  8
ALPHA
 10
47.352417
 20
20.689943
 30
0.0
  0
SEQEND
  5
9F04
  8
ALPHA
  0
ARC
  5
9BBB
  8
ALPHA
 10
47.48442
 20
15.839943
 30
0.0
 40
0.25
 50
0.0
 51
90.0
  0
LINE
  5
9BBC
  8
ALPHA
 10
47.777401
 20
20.689943
 30
0.0
 11
47.352417
 21
20.689943
 31
0.0
  0
LINE
  5
9BBD
  8
ALPHA
 10
47.73442
 20
15.839943
 30
0.0
 11
48.132147
 21
15.839943
 31
0.0
  0
LINE
  5
9BBE
  8
ALPHA
 10
50.38442
 20
12.539943
 30
0.0
 11
50.38442
 21
16.089943
 31
0.0
  0
ARC
  5
9BBF
  8
ALPHA
 10
50.23442
 20
12.739943
 30
0.0
 40
0.25
 50
270.0
 51
306.877149
  0
ARC
  5
9BC0
  8
ALPHA
 10
50.73442
 20
17.289943
 30
0.0
 40
0.5
 50
270.0
 51
90.0
  0
LINE
  5
9BC1
  8
ALPHA
 10
51.907969
 20
20.489943
 30
0.0
 11
50.685727
 21
20.489943
 31
0.0
  0
ARC
  5
9BC2
  8
ALPHA
 10
50.58442
 20
16.939943
 30
0.0
 40
0.25
 50
216.993793
 51
269.999989
  0
ARC
  5
9BC3
  8
ALPHA
 10
50.58442
 20
17.639943
 30
0.0
 40
0.25
 50
90.000001
 51
143.006202
  0
LINE
  5
9BC4
  8
ALPHA
 10
50.23442
 20
19.039943
 30
0.0
 11
50.23442
 21
20.339943
 31
0.0
  0
POLYLINE
  5
9BC5
  8
ALPHA
 66
     1
 10
0.0
 20
0.0
 30
0.0
 70
   128
  0
VERTEX
  5
9F05
  8
ALPHA
 10
51.255193
 20
20.489943
 30
0.0
  0
VERTEX
  5
9F06
  8
ALPHA
 10
51.40933
 20
20.54444
 30
0.0
  0
VERTEX
  5
9F07
  8
ALPHA
 10
51.479808
 20
20.689943
 30
0.0
  0
SEQEND
  5
9F08
  8
ALPHA
  0
POLYLINE
  5
9BC6
  8
ALPHA
 66
     1
 10
0.0
 20
0.0
 30
0.0
 70
   128
  0
VERTEX
  5
9F09
  8
ALPHA
 10
51.823123
 20
20.489943
 30
0.0
  0
VERTEX
  5
9F0A
  8
ALPHA
 10
51.972076
 20
20.546058
 30
0.0
  0
VERTEX
  5
9F0B
  8
ALPHA
 10
52.037546
 20
20.689943
 30
0.0
  0
SEQEND
  5
9F0C
  8
ALPHA
  0
POLYLINE
  5
9BC7
  8
ALPHA
 66
     1
 10
0.0
 20
0.0
 30
0.0
 70
   128
210
0.0
220
0.0
230
-1.0
  0
VERTEX
  5
9F0D
  8
ALPHA
 10
-52.097588
 20
20.689943
 30
0.0
  0
VERTEX
  5
9F0E
  8
ALPHA
 10
-52.04388
 20
20.550468
 30
0.0
  0
VERTEX
  5
9F0F
  8
ALPHA
 10
-51.907969
 20
20.489943
 30
0.0
  0
SEQEND
  5
9F10
  8
ALPHA
  0
POLYLINE
  5
9BC8
  8
ALPHA
 66
     1
 10
0.0
 20
0.0
 30
0.0
 70
   128
210
0.0
220
0.0
230
-1.0
  0
VERTEX
  5
9F11
  8
ALPHA
 10
-51.655842
 20
20.689943
 30
0.0
  0
VERTEX
  5
9F12
  8
ALPHA
 10
-51.618435
 20
20.558477
 30
0.0
  0
VERTEX
  5
9F13
  8
ALPHA
 10
-51.50395
 20
20.489943
 30
0.0
  0
SEQEND
  5
9F14
  8
ALPHA
  0
LINE
  5
9BC9
  8
ALPHA
 10
51.43442
 20
20.339943
 30
0.0
 11
51.43442
 21
20.489943
 31
0.0
  0
LINE
  5
9BCA
  8
ALPHA
 10
51.08442
 20
17.889943
 30
0.0
 11
51.08442
 21
19.039943
 31
0.0
  0
LINE
  5
9BCB
  8
ALPHA
 10
51.08442
 20
16.089943
 30
0.0
 11
51.08442
 21
16.689943
 31
0.0
  0
LINE
  5
9BCC
  8
ALPHA
 10
51.655842
 20
20.689943
 30
0.0
 11
51.479808
 21
20.689943
 31
0.0
  0
LINE
  5
9BCD
  8
ALPHA
 10
52.097588
 20
20.689943
 30
0.0
 11
52.037546
 21
20.689943
 31
0.0
  0
ARC
  5
9C3C
  8
ALPHA
 10
44.73442
 20
31.989943
 30
0.0
 40
7.523399
 50
1.90427
 51
58.09573
  0
ARC
  5
9C3D
  8
ALPHA
 10
44.73442
 20
31.989943
 30
0.0
 40
7.523399
 50
301.90427
 51
358.09573
  0
ARC
  5
9C3E
  8
ALPHA
 10
44.73442
 20
31.989943
 30
0.0
 40
7.614754
 50
1.721912
 51
58.278088
  0
ARC
  5
9C3F
  8
ALPHA
 10
44.73442
 20
31.989943
 30
0.0
 40
7.614754
 50
301.721912
 51
358.278088
  0
ARC
  5
9C40
  8
ALPHA
 10
50.73442
 20
38.377569
 30
0.0
 40
2.0
 50
0.0
 51
78.34488
  0
POLYLINE
  5
9C41
  8
ALPHA
 66
     1
 10
0.0
 20
0.0
 30
0.0
 70
   128
210
0.0
220
0.0
230
-1.0
  0
VERTEX
  5
9F15
  8
ALPHA
 10
-52.422731
 20
27.225465
 30
0.0
  0
VERTEX
  5
9F16
  8
ALPHA
 10
-51.775882
 20
26.258079
 30
0.0
  0
VERTEX
  5
9F17
  8
ALPHA
 10
-51.009792
 20
25.381183
 30
0.0
  0
VERTEX
  5
9F18
  8
ALPHA
 10
-50.139569
 20
24.607926
 30
0.0
  0
VERTEX
  5
9F19
  8
ALPHA
 10
-49.176361
 20
23.953893
 30
0.0
  0
VERTEX
  5
9F1A
  8
ALPHA
 10
-48.136234
 20
23.430882
 30
0.0
  0
VERTEX
  5
9F1B
  8
ALPHA
 10
-47.036339
 20
23.050162
 30
0.0
  0
VERTEX
  5
9F1C
  8
ALPHA
 10
-45.895675
 20
22.816454
 30
0.0
  0
VERTEX
  5
9F1D
  8
ALPHA
 10
-44.73442
 20
22.739943
 30
0.0
  0
SEQEND
  5
9F1E
  8
ALPHA
  0
ARC
  5
9C42
  8
ALPHA
 10
44.73442
 20
31.989943
 30
0.0
 40
7.523399
 50
61.90427
 51
118.09573
  0
ARC
  5
9C43
  8
ALPHA
 10
44.73442
 20
31.989943
 30
0.0
 40
7.614754
 50
241.721912
 51
298.278088
  0
ARC
  5
9C44
  8
ALPHA
 10
44.73442
 20
31.989943
 30
0.0
 40
7.523399
 50
241.90427
 51
298.09573
  0
CIRCLE
  5
9C45
  8
ALPHA
 10
44.73442
 20
31.989943
 30
0.0
 40
8.0
  0
ARC
  5
9C46
  8
ALPHA
 10
44.73442
 20
31.989943
 30
0.0
 40
7.614754
 50
61.721912
 51
118.278088
  0
CIRCLE
  5
9C47
  8
ALPHA
 10
44.73442
 20
31.989943
 30
0.0
 40
7.3
  0
CIRCLE
  5
9C48
  8
ALPHA
 10
44.73442
 20
31.989943
 30
0.0
 40
7.9
  0
ARC
  5
9C49
  8
ALPHA
 10
44.73442
 20
31.989943
 30
0.0
 40
9.0
 50
211.002719
 51
328.997281
  0
CIRCLE
  5
9C4A
  8
ALPHA
 10
44.73442
 20
31.989943
 30
0.0
 40
7.2
  0
ARC
  5
9C4B
  8
ALPHA
 10
44.73442
 20
9.289943
 30
0.0
 40
31.7
 50
78.34488
 51
101.65512
  0
CIRCLE
  5
9C4C
  8
ALPHA
 10
44.73442
 20
31.989943
 30
0.0
 40
7.03453
  0
CIRCLE
  5
9C4D
  8
ALPHA
 10
44.73442
 20
31.989943
 30
0.0
 40
7.15
  0
LINE
  5
9C4E
  8
ALPHA
 10
46.20942
 20
37.789943
 30
0.0
 11
43.25942
 21
37.789943
 31
0.0
  0
LINE
  5
9C4F
  8
ALPHA
 10
46.20942
 20
26.189943
 30
0.0
 11
43.25942
 21
26.189943
 31
0.0
  0
LINE
  5
9C50
  8
ALPHA
 10
46.370727
 20
23.139943
 30
0.0
 11
43.098113
 21
23.139943
 31
0.0
  0
LINE
  5
9C51
  8
ALPHA
 10
36.73442
 20
22.489943
 30
0.0
 11
52.73442
 21
22.489943
 31
0.0
  0
ARC
  5
9C52
  8
ALPHA
 10
44.73442
 20
31.989943
 30
0.0
 40
4.5
 50
113.578178
 51
246.421822
  0
ARC
  5
9C53
  8
ALPHA
 10
44.73442
 20
31.989943
 30
0.0
 40
5.5
 50
107.747793
 51
252.252207
  0
ARC
  5
9C54
  8
ALPHA
 10
44.73442
 20
31.989943
 30
0.0
 40
4.05
 50
114.454091
 51
245.545909
  0
ARC
  5
9C55
  8
ALPHA
 10
44.73442
 20
31.989943
 30
0.0
 40
3.5
 50
120.0
 51
240.0
  0
ARC
  5
9C56
  8
ALPHA
 10
44.73442
 20
31.989943
 30
0.0
 40
4.0
 50
114.79321
 51
245.20679
  0
LINE
  5
9C57
  8
ALPHA
 10
43.25942
 20
26.189943
 30
0.0
 11
43.25942
 21
37.789943
 31
0.0
  0
LINE
  5
9C58
  8
ALPHA
 10
43.05942
 20
26.390009
 30
0.0
 11
43.05942
 21
37.589877
 31
0.0
  0
LINE
  5
9C59
  8
ALPHA
 10
42.98442
 20
28.393069
 30
0.0
 11
42.98442
 21
35.586817
 31
0.0
  0
LINE
  5
9C5A
  8
ALPHA
 10
36.73442
 20
22.489943
 30
0.0
 11
36.73442
 21
38.377569
 31
0.0
  0
POLYLINE
  5
9C5B
  8
ALPHA
 66
     1
 10
0.0
 20
0.0
 30
0.0
 70
   128
210
0.0
220
0.0
230
-1.0
  0
VERTEX
  5
9F1F
  8
ALPHA
 10
-44.73442
 20
22.739943
 30
0.0
  0
VERTEX
  5
9F20
  8
ALPHA
 10
-43.573144
 20
22.816462
 30
0.0
  0
VERTEX
  5
9F21
  8
ALPHA
 10
-42.432468
 20
23.050178
 30
0.0
  0
VERTEX
  5
9F22
  8
ALPHA
 10
-41.332578
 20
23.43089
 30
0.0
  0
VERTEX
  5
9F23
  8
ALPHA
 10
-40.29246
 20
23.953903
 30
0.0
  0
VERTEX
  5
9F24
  8
ALPHA
 10
-39.329263
 20
24.607936
 30
0.0
  0
VERTEX
  5
9F25
  8
ALPHA
 10
-38.459034
 20
25.381182
 30
0.0
  0
VERTEX
  5
9F26
  8
ALPHA
 10
-37.692974
 20
26.25809
 30
0.0
  0
VERTEX
  5
9F27
  8
ALPHA
 10
-37.046108
 20
27.225465
 30
0.0
  0
SEQEND
  5
9F28
  8
ALPHA
  0
LINE
  5
9C5C
  8
ALPHA
 10
37.020133
 20
27.354234
 30
0.0
 11
37.046108
 21
27.225465
 31
0.0
  0
POLYLINE
  5
9C5D
  8
ALPHA
 66
     1
 10
0.0
 20
0.0
 30
0.0
 70
   128
210
0.0
220
0.0
230
-1.0
  0
VERTEX
  5
9F29
  8
ALPHA
 10
-36.985025
 20
27.337425
 30
0.0
  0
VERTEX
  5
9F2A
  8
ALPHA
 10
-36.796456
 20
27.84572
 30
0.0
  0
VERTEX
  5
9F2B
  8
ALPHA
 10
-36.73442
 20
28.384392
 30
0.0
  0
SEQEND
  5
9F2C
  8
ALPHA
  0
LINE
  5
9C5E
  8
ALPHA
 10
37.046108
 20
27.225465
 30
0.0
 11
36.985025
 21
27.337425
 31
0.0
  0
LINE
  5
9C5F
  8
ALPHA
 10
37.123104
 20
31.761131
 30
0.0
 11
36.83442
 21
31.989943
 31
0.0
  0
LINE
  5
9C60
  8
ALPHA
 10
36.83442
 20
31.989943
 30
0.0
 11
37.123104
 21
32.218755
 31
0.0
  0
LINE
  5
9C61
  8
ALPHA
 10
37.123104
 20
32.218755
 30
0.0
 11
37.215175
 21
32.239943
 31
0.0
  0
LINE
  5
9C62
  8
ALPHA
 10
37.215175
 20
31.739943
 30
0.0
 11
37.123104
 21
31.761131
 31
0.0
  0
ARC
  5
9C63
  8
ALPHA
 10
38.73442
 20
28.384392
 30
0.0
 40
2.0
 50
180.0
 51
211.002719
  0
LINE
  5
9C64
  8
ALPHA
 10
37.215175
 20
32.239943
 30
0.0
 11
37.438702
 21
32.239943
 31
0.0
  0
LINE
  5
9C65
  8
ALPHA
 10
37.43442
 20
31.989943
 30
0.0
 11
36.83442
 21
31.989943
 31
0.0
  0
LINE
  5
9C66
  8
ALPHA
 10
37.215175
 20
31.739943
 30
0.0
 11
37.438702
 21
31.739943
 31
0.0
  0
LINE
  5
9C67
  8
ALPHA
 10
41.126919
 20
25.283945
 30
0.0
 11
40.78442
 21
25.148342
 31
0.0
  0
LINE
  5
9C68
  8
ALPHA
 10
40.78442
 20
25.148342
 30
0.0
 11
40.730605
 21
25.512757
 31
0.0
  0
LINE
  5
9C69
  8
ALPHA
 10
40.730605
 20
25.512757
 30
0.0
 11
40.758291
 21
25.603087
 31
0.0
  0
LINE
  5
9C6A
  8
ALPHA
 10
41.191304
 20
25.353087
 30
0.0
 11
41.126919
 21
25.283945
 31
0.0
  0
LINE
  5
9C6B
  8
ALPHA
 10
41.191304
 20
25.353087
 30
0.0
 11
41.303067
 21
25.546666
 31
0.0
  0
LINE
  5
9C6C
  8
ALPHA
 10
41.08442
 20
25.667958
 30
0.0
 11
40.78442
 21
25.148342
 31
0.0
  0
LINE
  5
9C6D
  8
ALPHA
 10
40.758291
 20
25.603087
 30
0.0
 11
40.870054
 21
25.796666
 31
0.0
  0
LINE
  5
9C6E
  8
ALPHA
 10
43.25942
 20
26.189943
 30
0.0
 11
43.05942
 21
26.389943
 31
0.0
  0
LINE
  5
9C6F
  8
ALPHA
 10
42.98442
 20
32.439943
 30
0.0
 11
43.05942
 21
32.439943
 31
0.0
  0
LINE
  5
9C70
  8
ALPHA
 10
42.98442
 20
31.539943
 30
0.0
 11
43.05942
 21
31.539943
 31
0.0
  0
LINE
  5
9C71
  8
ALPHA
 10
42.98442
 20
31.289943
 30
0.0
 11
43.05942
 21
31.289943
 31
0.0
  0
LINE
  5
9C72
  8
ALPHA
 10
42.98442
 20
30.589943
 30
0.0
 11
43.05942
 21
30.589943
 31
0.0
  0
LINE
  5
9C73
  8
ALPHA
 10
42.93442
 20
28.361927
 30
0.0
 11
42.93442
 21
26.792829
 31
0.0
  0
LINE
  5
9C74
  8
ALPHA
 10
41.08442
 20
38.311929
 30
0.0
 11
40.78442
 21
38.831544
 31
0.0
  0
LINE
  5
9C75
  8
ALPHA
 10
40.758291
 20
38.3768
 30
0.0
 11
40.870054
 21
38.18322
 31
0.0
  0
LINE
  5
9C76
  8
ALPHA
 10
42.98442
 20
33.389943
 30
0.0
 11
43.05942
 21
33.389943
 31
0.0
  0
LINE
  5
9C77
  8
ALPHA
 10
42.98442
 20
32.689943
 30
0.0
 11
43.05942
 21
32.689943
 31
0.0
  0
LINE
  5
9C78
  8
ALPHA
 10
42.93442
 20
35.617959
 30
0.0
 11
42.93442
 21
37.187058
 31
0.0
  0
LINE
  5
9C79
  8
ALPHA
 10
43.25942
 20
37.789943
 30
0.0
 11
43.05942
 21
37.589943
 31
0.0
  0
LINE
  5
9C7A
  8
ALPHA
 10
40.730605
 20
38.467129
 30
0.0
 11
40.78442
 21
38.831544
 31
0.0
  0
LINE
  5
9C7B
  8
ALPHA
 10
40.78442
 20
38.831544
 30
0.0
 11
41.126919
 21
38.695941
 31
0.0
  0
LINE
  5
9C7C
  8
ALPHA
 10
41.126919
 20
38.695941
 30
0.0
 11
41.191304
 21
38.6268
 31
0.0
  0
LINE
  5
9C7D
  8
ALPHA
 10
40.758291
 20
38.3768
 30
0.0
 11
40.730605
 21
38.467129
 31
0.0
  0
LINE
  5
9C7E
  8
ALPHA
 10
41.191304
 20
38.6268
 30
0.0
 11
41.303067
 21
38.43322
 31
0.0
  0
ARC
  5
9C7F
  8
ALPHA
 10
44.73442
 20
31.989943
 30
0.0
 40
4.5
 50
293.578178
 51
66.421822
  0
ARC
  5
9C80
  8
ALPHA
 10
44.73442
 20
31.989943
 30
0.0
 40
5.5
 50
287.747793
 51
72.252207
  0
ARC
  5
9C81
  8
ALPHA
 10
44.73442
 20
31.989943
 30
0.0
 40
4.05
 50
294.454091
 51
65.545909
  0
ARC
  5
9C82
  8
ALPHA
 10
44.73442
 20
31.989943
 30
0.0
 40
3.5
 50
300.0
 51
60.0
  0
ARC
  5
9C83
  8
ALPHA
 10
44.73442
 20
31.989943
 30
0.0
 40
4.0
 50
294.79321
 51
65.20679
  0
LINE
  5
9C84
  8
ALPHA
 10
52.73442
 20
22.489943
 30
0.0
 11
52.73442
 21
38.377569
 31
0.0
  0
LINE
  5
9C85
  8
ALPHA
 10
46.48442
 20
28.393069
 30
0.0
 11
46.48442
 21
35.586817
 31
0.0
  0
LINE
  5
9C86
  8
ALPHA
 10
46.40942
 20
26.390009
 30
0.0
 11
46.40942
 21
37.589877
 31
0.0
  0
LINE
  5
9C87
  8
ALPHA
 10
46.20942
 20
26.189943
 30
0.0
 11
46.20942
 21
37.789943
 31
0.0
  0
LINE
  5
9C88
  8
ALPHA
 10
46.40942
 20
26.389943
 30
0.0
 11
46.20942
 21
26.189943
 31
0.0
  0
LINE
  5
9C89
  8
ALPHA
 10
48.738234
 20
25.512757
 30
0.0
 11
48.68442
 21
25.148342
 31
0.0
  0
LINE
  5
9C8A
  8
ALPHA
 10
48.68442
 20
25.148342
 30
0.0
 11
48.34192
 21
25.283945
 31
0.0
  0
LINE
  5
9C8B
  8
ALPHA
 10
48.710548
 20
25.603087
 30
0.0
 11
48.738234
 21
25.512757
 31
0.0
  0
LINE
  5
9C8C
  8
ALPHA
 10
48.34192
 20
25.283945
 30
0.0
 11
48.277535
 21
25.353087
 31
0.0
  0
LINE
  5
9C8D
  8
ALPHA
 10
48.710548
 20
25.603087
 30
0.0
 11
48.598785
 21
25.796666
 31
0.0
  0
LINE
  5
9C8E
  8
ALPHA
 10
48.38442
 20
25.667958
 30
0.0
 11
48.68442
 21
25.148342
 31
0.0
  0
LINE
  5
9C8F
  8
ALPHA
 10
48.277535
 20
25.353087
 30
0.0
 11
48.165772
 21
25.546666
 31
0.0
  0
LINE
  5
9C90
  8
ALPHA
 10
46.40942
 20
32.439943
 30
0.0
 11
46.48442
 21
32.439943
 31
0.0
  0
LINE
  5
9C91
  8
ALPHA
 10
46.40942
 20
31.539943
 30
0.0
 11
46.48442
 21
31.539943
 31
0.0
  0
LINE
  5
9C92
  8
ALPHA
 10
46.40942
 20
31.289943
 30
0.0
 11
46.48442
 21
31.289943
 31
0.0
  0
LINE
  5
9C93
  8
ALPHA
 10
46.40942
 20
30.589943
 30
0.0
 11
46.48442
 21
30.589943
 31
0.0
  0
LINE
  5
9C94
  8
ALPHA
 10
46.53442
 20
28.361927
 30
0.0
 11
46.53442
 21
26.792829
 31
0.0
  0
LINE
  5
9C95
  8
ALPHA
 10
52.448697
 20
27.354239
 30
0.0
 11
52.422735
 21
27.225465
 31
0.0
  0
LINE
  5
9C96
  8
ALPHA
 10
52.345735
 20
32.218755
 30
0.0
 11
52.63442
 21
31.989943
 31
0.0
  0
LINE
  5
9C97
  8
ALPHA
 10
52.63442
 20
31.989943
 30
0.0
 11
52.345735
 21
31.761131
 31
0.0
  0
LINE
  5
9C98
  8
ALPHA
 10
52.483815
 20
27.337425
 30
0.0
 11
52.422731
 21
27.225465
 31
0.0
  0
POLYLINE
  5
9C99
  8
ALPHA
 66
     1
 10
0.0
 20
0.0
 30
0.0
 70
   128
210
0.0
220
0.0
230
-1.0
  0
VERTEX
  5
9F2D
  8
ALPHA
 10
-52.73442
 20
28.384392
 30
0.0
  0
VERTEX
  5
9F2E
  8
ALPHA
 10
-52.672383
 20
27.84572
 30
0.0
  0
VERTEX
  5
9F2F
  8
ALPHA
 10
-52.483815
 20
27.337425
 30
0.0
  0
SEQEND
  5
9F30
  8
ALPHA
  0
LINE
  5
9C9A
  8
ALPHA
 10
52.253664
 20
32.239943
 30
0.0
 11
52.345735
 21
32.218755
 31
0.0
  0
LINE
  5
9C9B
  8
ALPHA
 10
52.345735
 20
31.761131
 30
0.0
 11
52.253664
 21
31.739943
 31
0.0
  0
ARC
  5
9C9C
  8
ALPHA
 10
50.73442
 20
28.384392
 30
0.0
 40
2.0
 50
328.997281
 51
0.0
  0
LINE
  5
9C9D
  8
ALPHA
 10
52.253664
 20
32.239943
 30
0.0
 11
52.030138
 21
32.239943
 31
0.0
  0
LINE
  5
9C9E
  8
ALPHA
 10
52.03442
 20
31.989943
 30
0.0
 11
52.63442
 21
31.989943
 31
0.0
  0
LINE
  5
9C9F
  8
ALPHA
 10
52.253664
 20
31.739943
 30
0.0
 11
52.030138
 21
31.739943
 31
0.0
  0
LINE
  5
9CA0
  8
ALPHA
 10
48.710548
 20
38.3768
 30
0.0
 11
48.598785
 21
38.18322
 31
0.0
  0
LINE
  5
9CA1
  8
ALPHA
 10
48.38442
 20
38.311929
 30
0.0
 11
48.68442
 21
38.831544
 31
0.0
  0
LINE
  5
9CA2
  8
ALPHA
 10
46.40942
 20
37.589943
 30
0.0
 11
46.20942
 21
37.789943
 31
0.0
  0
LINE
  5
9CA3
  8
ALPHA
 10
46.40942
 20
33.389943
 30
0.0
 11
46.48442
 21
33.389943
 31
0.0
  0
LINE
  5
9CA4
  8
ALPHA
 10
46.40942
 20
32.689943
 30
0.0
 11
46.48442
 21
32.689943
 31
0.0
  0
LINE
  5
9CA5
  8
ALPHA
 10
46.53442
 20
35.617959
 30
0.0
 11
46.53442
 21
37.187058
 31
0.0
  0
LINE
  5
9CA6
  8
ALPHA
 10
48.34192
 20
38.695941
 30
0.0
 11
48.68442
 21
38.831544
 31
0.0
  0
LINE
  5
9CA7
  8
ALPHA
 10
48.68442
 20
38.831544
 30
0.0
 11
48.738234
 21
38.467129
 31
0.0
  0
LINE
  5
9CA8
  8
ALPHA
 10
48.738234
 20
38.467129
 30
0.0
 11
48.710548
 21
38.3768
 31
0.0
  0
LINE
  5
9CA9
  8
ALPHA
 10
48.277535
 20
38.6268
 30
0.0
 11
48.34192
 21
38.695941
 31
0.0
  0
LINE
  5
9CAA
  8
ALPHA
 10
48.277535
 20
38.6268
 30
0.0
 11
48.165772
 21
38.43322
 31
0.0
  0
VIEWPORT
  5
494D
 67
     1
  8
0
 10
4.995325
 20
6.556512
 30
0.0
 40
22.70986
 41
13.988421
 68
    -1
 69
     1
1001
ACAD
1000
MVIEW
1002
{
1070
    16
1010
0.0
1020
0.0
1030
0.0
1010
0.0
1020
0.0
1030
1.0
1040
0.0
1040
13.988421
1040
4.995325
1040
6.556512
1040
50.0
1040
0.0
1040
0.0
1070
     0
1070
   100
1070
     1
1070
     1
1070
     0
1070
     0
1070
     0
1070
     0
1040
0.0
1040
0.0
1040
0.0
1040
10.0
1040
10.0
1040
10.0
1040
10.0
1070
     0
1002
{
1002
}
1002
}
  0
ENDSEC
  0
EOF
