  0
SECTION
  2
HEADER
  9
$ACADVER
  1
AC1009
  9
$INSBASE
 10
402.590624
 20
-1.041018
 30
0.0
  9
$EXTMIN
 10
-19.699122
 20
1.710589
 30
0.0
  9
$EXTMAX
 10
53.78154
 20
45.796743
 30
0.0
  9
$LIMMIN
 10
-407.970438
 20
-367.832444
  9
$LIMMAX
 10
429.804077
 20
234.370848
  9
$ORTHOMODE
 70
     1
  9
$REGENMODE
 70
     1
  9
$FILLMODE
 70
     1
  9
$QTEXTMODE
 70
     0
  9
$MIRRTEXT
 70
     1
  9
$DRAGMODE
 70
     2
  9
$LTSCALE
 40
10.0
  9
$OSMODE
 70
    35
  9
$ATTMODE
 70
     1
  9
$TEXTSIZE
 40
6.0
  9
$TRACEWID
 40
1.0
  9
$TEXTSTYLE
  7
STANDARD
  9
$CLAYER
  8
COTATION1
  9
$CELTYPE
  6
BYLAYER
  9
$CECOLOR
 62
   256
  9
$DIMSCALE
 40
1.0
  9
$DIMASZ
 40
5.0
  9
$DIMEXO
 40
2.0
  9
$DIMDLI
 40
0.38
  9
$DIMRND
 40
0.0
  9
$DIMDLE
 40
0.0
  9
$DIMEXE
 40
2.5
  9
$DIMTP
 40
0.0
  9
$DIMTM
 40
0.0
  9
$DIMTXT
 40
2.5
  9
$DIMCEN
 40
0.0
  9
$DIMTSZ
 40
0.0
  9
$DIMTOL
 70
     0
  9
$DIMLIM
 70
     0
  9
$DIMTIH
 70
     1
  9
$DIMTOH
 70
     1
  9
$DIMSE1
 70
     0
  9
$DIMSE2
 70
     0
  9
$DIMTAD
 70
     1
  9
$DIMZIN
 70
    12
  9
$DIMBLK
  1
OPEN30
  9
$DIMASO
 70
     1
  9
$DIMSHO
 70
     1
  9
$DIMPOST
  1

  9
$DIMAPOST
  1

  9
$DIMALT
 70
     0
  9
$DIMALTD
 70
     2
  9
$DIMALTF
 40
25.4
  9
$DIMLFAC
 40
1.0
  9
$DIMTOFL
 70
     0
  9
$DIMTVP
 40
0.0
  9
$DIMTIX
 70
     0
  9
$DIMSOXD
 70
     0
  9
$DIMSAH
 70
     0
  9
$DIMBLK1
  1

  9
$DIMBLK2
  1

  9
$DIMSTYLE
  2
SC_DEFAUT
  9
$DIMCLRD
 70
     0
  9
$DIMCLRE
 70
     0
  9
$DIMCLRT
 70
     0
  9
$DIMTFAC
 40
1.0
  9
$DIMGAP
 40
2.0
  9
$LUNITS
 70
     2
  9
$LUPREC
 70
     1
  9
$SKETCHINC
 40
0.1
  9
$FILLETRAD
 40
0.0
  9
$AUNITS
 70
     0
  9
$AUPREC
 70
     0
  9
$MENU
  1
acad
  9
$ELEVATION
 40
0.0
  9
$PELEVATION
 40
0.0
  9
$THICKNESS
 40
0.0
  9
$LIMCHECK
 70
     0
  9
$BLIPMODE
 70
     0
  9
$CHAMFERA
 40
0.0
  9
$CHAMFERB
 40
0.0
  9
$SKPOLY
 70
     0
  9
$TDCREATE
 40
2450373.687919
  9
$TDUPDATE
 40
2453038.440048
  9
$TDINDWG
 40
1.111629
  9
$TDUSRTIMER
 40
1.111629
  9
$USRTIMER
 70
     1
  9
$ANGBASE
 50
0.0
  9
$ANGDIR
 70
     0
  9
$PDMODE
 70
    32
  9
$PDSIZE
 40
0.0
  9
$PLINEWID
 40
0.0
  9
$COORDS
 70
     1
  9
$SPLFRAME
 70
     0
  9
$SPLINETYPE
 70
     6
  9
$SPLINESEGS
 70
     8
  9
$ATTDIA
 70
     0
  9
$ATTREQ
 70
     1
  9
$HANDLING
 70
     1
  9
$HANDSEED
  5
BC4B
  9
$SURFTAB1
 70
     6
  9
$SURFTAB2
 70
     6
  9
$SURFTYPE
 70
     6
  9
$SURFU
 70
     6
  9
$SURFV
 70
     6
  9
$UCSNAME
  2

  9
$UCSORG
 10
0.0
 20
0.0
 30
0.0
  9
$UCSXDIR
 10
1.0
 20
0.0
 30
0.0
  9
$UCSYDIR
 10
0.0
 20
1.0
 30
0.0
  9
$PUCSNAME
  2

  9
$PUCSORG
 10
0.0
 20
0.0
 30
0.0
  9
$PUCSXDIR
 10
1.0
 20
0.0
 30
0.0
  9
$PUCSYDIR
 10
0.0
 20
1.0
 30
0.0
  9
$USERI1
 70
     0
  9
$USERI2
 70
     0
  9
$USERI3
 70
     0
  9
$USERI4
 70
     0
  9
$USERI5
 70
     0
  9
$USERR1
 40
0.0
  9
$USERR2
 40
0.0
  9
$USERR3
 40
0.0
  9
$USERR4
 40
0.0
  9
$USERR5
 40
0.0
  9
$WORLDVIEW
 70
     1
  9
$SHADEDGE
 70
     3
  9
$SHADEDIF
 70
    70
  9
$TILEMODE
 70
     1
  9
$MAXACTVP
 70
    16
  9
$PLIMCHECK
 70
     0
  9
$PEXTMIN
 10
-1.452248
 20
-0.437698
 30
0.0
  9
$PEXTMAX
 10
12.749749
 20
8.310198
 30
0.0
  9
$PLIMMIN
 10
0.0
 20
0.0
  9
$PLIMMAX
 10
12.0
 20
9.0
  9
$UNITMODE
 70
     0
  9
$VISRETAIN
 70
     0
  9
$PLINEGEN
 70
     0
  9
$PSLTSCALE
 70
     0
  0
ENDSEC
  0
SECTION
  2
TABLES
  0
TABLE
  2
VPORT
 70
     2
  0
VPORT
  2
*ACTIVE
 70
     0
 10
0.0
 20
0.0
 11
1.0
 21
1.0
 12
17.052865
 22
23.756827
 13
0.0
 23
0.0
 14
1.0
 24
1.0
 15
10.0
 25
10.0
 16
0.0
 26
0.0
 36
1.0
 17
0.0
 27
0.0
 37
0.0
 40
50.374023
 41
1.466346
 42
50.0
 43
0.0
 44
0.0
 50
0.0
 51
0.0
 71
     0
 72
   100
 73
     1
 74
     0
 75
     0
 76
     0
 77
     0
 78
     0
  0
ENDTAB
  0
TABLE
  2
LTYPE
 70
     2
  0
LTYPE
  2
CONTINUOUS
 70
     0
  3
Solid line
 72
    65
 73
     0
 40
0.0
  0
LTYPE
  2
AXES2
 70
     0
  3
___ _ ___ _ ___ _ ___ _ ___ _ ___ _ ___ _ ___ _
 72
    65
 73
     4
 40
1.125
 49
0.75
 49
-0.125
 49
0.125
 49
-0.125
  0
ENDTAB
  0
TABLE
  2
LAYER
 70
     5
  0
LAYER
  2
0
 70
     0
 62
   255
  6
CONTINUOUS
  0
LAYER
  2
COTATION1
 70
     0
 62
     2
  6
CONTINUOUS
  0
LAYER
  2
AXE
 70
     0
 62
    80
  6
AXES2
  0
LAYER
  2
DEFPOINTS
 70
     0
 62
     7
  6
CONTINUOUS
  0
LAYER
  2
ALPHA
 70
     0
 62
   254
  6
CONTINUOUS
  0
ENDTAB
  0
TABLE
  2
STYLE
 70
     2
  0
STYLE
  2
ROMANS
 70
     0
 40
0.0
 41
1.0
 50
0.0
 71
     0
 42
6.0
  3
romans
  4

  0
STYLE
  2
STANDARD
 70
     0
 40
0.0
 41
1.0
 50
0.0
 71
     0
 42
0.2
  3
txt
  4

  0
ENDTAB
  0
TABLE
  2
VIEW
 70
     0
  0
ENDTAB
  0
TABLE
  2
UCS
 70
     0
  0
ENDTAB
  0
TABLE
  2
APPID
 70
     1
  0
APPID
  2
ACAD
 70
     0
  0
ENDTAB
  0
TABLE
  2
DIMSTYLE
 70
     2
  0
DIMSTYLE
  2
SC_DEFAUT
 70
     0
  3

  4

  5
OPEN30
  6

  7

 40
1.0
 41
5.0
 42
2.0
 43
0.38
 44
2.5
 45
0.0
 46
0.0
 47
0.0
 48
0.0
140
2.5
141
0.0
142
0.0
143
25.4
144
1.0
145
0.0
146
1.0
147
2.0
 71
     0
 72
     0
 73
     1
 74
     1
 75
     0
 76
     0
 77
     1
 78
    12
170
     0
171
     2
172
     0
173
     0
174
     0
175
     0
176
     0
177
     0
178
     0
  0
DIMSTYLE
  2
STANDARD
 70
     0
  3

  4

  5

  6

  7

 40
1.0
 41
0.18
 42
0.0625
 43
0.38
 44
0.18
 45
0.0
 46
0.0
 47
0.0
 48
0.0
140
0.18
141
0.09
142
0.0
143
25.4
144
1.0
145
0.0
146
1.0
147
0.09
 71
     0
 72
     0
 73
     1
 74
     1
 75
     0
 76
     0
 77
     0
 78
     0
170
     0
171
     2
172
     0
173
     0
174
     0
175
     0
176
     0
177
     0
178
     0
  0
ENDTAB
  0
ENDSEC
  0
SECTION
  2
BLOCKS
  0
BLOCK
  8
0
  2
$MODEL_SPACE
 70
     0
 10
0.0
 20
0.0
 30
0.0
  3
$MODEL_SPACE
  1

  0
ENDBLK
  5
BBA1
  8
0
  0
BLOCK
 67
     1
  8
0
  2
$PAPER_SPACE
 70
     0
 10
0.0
 20
0.0
 30
0.0
  3
$PAPER_SPACE
  1

  0
ENDBLK
  5
BB9F
 67
     1
  8
0
  0
BLOCK
  8
0
  2
COTE
 70
     0
 10
0.0
 20
0.0
 30
0.0
  3
COTE
  1

  0
ENDBLK
  5
F
  8
0
  0
BLOCK
  8
0
  2
FOND
 70
     0
 10
0.0
 20
0.0
 30
0.0
  3
FOND
  1

  0
ENDBLK
  5
75
  8
0
  0
BLOCK
  8
0
  2
_OPEN30
 70
     0
 10
0.0
 20
0.0
 30
0.0
  3
_OPEN30
  1

  0
LINE
  5
4B05
  8
COTATION1
 62
     0
 10
-1.0
 20
0.267949
 30
0.0
 11
0.0
 21
0.0
 31
0.0
1001
ACAD
1000
RTLwPs
1070
   158
  0
LINE
  5
4B06
  8
COTATION1
 62
     0
 10
0.0
 20
0.0
 30
0.0
 11
-1.0
 21
-0.267949
 31
0.0
1001
ACAD
1000
RTLwPs
1070
   158
  0
LINE
  5
4B07
  8
COTATION1
 62
     0
 10
0.0
 20
0.0
 30
0.0
 11
-1.0
 21
0.0
 31
0.0
1001
ACAD
1000
RTLwPs
1070
   158
  0
ENDBLK
  5
4B09
  8
0
  0
BLOCK
  8
0
  2
*D3
 70
     1
 10
0.0
 20
0.0
 30
0.0
  3
*D3
  1

  0
LINE
  5
B846
  8
COTATION1
 62
     0
 10
31.700588
 20
26.296743
 30
0.0
 11
52.650588
 21
26.296743
 31
0.0
1001
ACAD
1000
RTLwPs
1070
   158
  0
LINE
  5
B847
  8
COTATION1
 62
     0
 10
30.550588
 20
12.496743
 30
0.0
 11
52.650588
 21
12.496743
 31
0.0
1001
ACAD
1000
RTLwPs
1070
   158
  0
LINE
  5
B848
  8
COTATION1
 62
     0
 10
50.150588
 20
31.296743
 30
0.0
 11
50.150588
 21
36.296743
 31
0.0
1001
ACAD
1000
RTLwPs
1070
   158
  0
LINE
  5
B849
  8
COTATION1
 62
     0
 10
50.150588
 20
7.496743
 30
0.0
 11
50.150588
 21
2.496743
 31
0.0
1001
ACAD
1000
RTLwPs
1070
   158
  0
INSERT
  5
B84A
  8
COTATION1
 62
     0
  2
_OPEN30
 10
50.150588
 20
26.296743
 30
0.0
 41
5.0
 42
5.0
 43
5.0
 50
270.0
1001
ACAD
1000
RTLwPs
1070
   158
  0
INSERT
  5
B84B
  8
COTATION1
 62
     0
  2
_OPEN30
 10
50.150588
 20
12.496743
 30
0.0
 41
5.0
 42
5.0
 43
5.0
 50
90.0
1001
ACAD
1000
RTLwPs
1070
   158
  0
TEXT
  5
B84C
  8
COTATION1
 62
     0
 10
45.80535
 20
18.146743
 30
0.0
 40
2.5
  1
13.8
1001
ACAD
1000
MTEXTBEGIN
1070
    73
1070
     1
1070
    44
1040
1.0
1070
    74
1070
     0
1000
MTEXTEND
  0
POINT
  5
B84D
  8
DEFPOINTS
 62
     0
 10
29.700588
 20
26.296743
 30
0.0
  0
POINT
  5
B84E
  8
DEFPOINTS
 62
     0
 10
28.550588
 20
12.496743
 30
0.0
  0
POINT
  5
B84F
  8
DEFPOINTS
 62
     0
 10
50.150588
 20
12.496743
 30
0.0
  0
ENDBLK
  5
B7DF
  8
0
  0
BLOCK
  8
0
  2
*D4
 70
     1
 10
0.0
 20
0.0
 30
0.0
  3
*D4
  1

  0
LINE
  5
B850
  8
COTATION1
 62
     0
 10
5.200588
 20
28.296743
 30
0.0
 11
5.200588
 21
43.796743
 31
0.0
1001
ACAD
1000
RTLwPs
1070
   158
  0
LINE
  5
B851
  8
COTATION1
 62
     0
 10
29.700588
 20
28.296743
 30
0.0
 11
29.700588
 21
43.796743
 31
0.0
1001
ACAD
1000
RTLwPs
1070
   158
  0
LINE
  5
B852
  8
COTATION1
 62
     0
 10
10.200588
 20
41.296743
 30
0.0
 11
24.700588
 21
41.296743
 31
0.0
1001
ACAD
1000
RTLwPs
1070
   158
  0
INSERT
  5
B853
  8
COTATION1
 62
     0
  2
_OPEN30
 10
5.200588
 20
41.296743
 30
0.0
 41
5.0
 42
5.0
 43
5.0
 50
180.0
1001
ACAD
1000
RTLwPs
1070
   158
  0
INSERT
  5
B854
  8
COTATION1
 62
     0
  2
_OPEN30
 10
29.700588
 20
41.296743
 30
0.0
 41
5.0
 42
5.0
 43
5.0
1001
ACAD
1000
RTLwPs
1070
   158
  0
TEXT
  5
B855
  8
COTATION1
 62
     0
 10
13.283921
 20
43.296743
 30
0.0
 40
2.5
  1
24.5
1001
ACAD
1000
MTEXTBEGIN
1070
    73
1070
     1
1070
    44
1040
1.0
1070
    74
1070
     0
1000
MTEXTEND
  0
POINT
  5
B856
  8
DEFPOINTS
 62
     0
 10
5.200588
 20
26.296743
 30
0.0
  0
POINT
  5
B857
  8
DEFPOINTS
 62
     0
 10
29.700588
 20
26.296743
 30
0.0
  0
POINT
  5
B858
  8
DEFPOINTS
 62
     0
 10
29.700588
 20
41.296743
 30
0.0
  0
ENDBLK
  5
B7EB
  8
0
  0
ENDSEC
  0
SECTION
  2
ENTITIES
  0
INSERT
  5
A
  8
0
  2
COTE
 10
0.0
 20
0.0
 30
0.0
  0
INSERT
  5
17
  8
0
  2
COTE
 10
284.010391
 20
6.373258
 30
0.0
  0
INSERT
  5
72
  8
0
  2
FOND
 10
0.0
 20
0.0
 30
0.0
  0
LINE
  5
B4B8
  8
ALPHA
 10
5.200588
 20
26.296743
 30
0.0
 11
29.700588
 21
26.296743
 31
0.0
  0
LINE
  5
B4B9
  8
ALPHA
 10
5.200588
 20
23.796743
 30
0.0
 11
29.700588
 21
23.796743
 31
0.0
  0
LINE
  5
B4BA
  8
ALPHA
 10
6.400588
 20
22.968023
 30
0.0
 11
29.000588
 21
22.968023
 31
0.0
  0
LINE
  5
B4BB
  8
ALPHA
 10
5.600588
 20
22.296743
 30
0.0
 11
29.800588
 21
22.296743
 31
0.0
  0
LINE
  5
B4BC
  8
ALPHA
 10
6.400588
 20
21.625464
 30
0.0
 11
29.000588
 21
21.625464
 31
0.0
  0
LINE
  5
B4BD
  8
ALPHA
 10
6.400588
 20
20.796743
 30
0.0
 11
29.000588
 21
20.796743
 31
0.0
  0
LINE
  5
B4BE
  8
ALPHA
 10
6.450588
 20
20.496743
 30
0.0
 11
28.950588
 21
20.496743
 31
0.0
  0
LINE
  5
B4BF
  8
ALPHA
 10
6.544144
 20
20.196743
 30
0.0
 11
28.168443
 21
20.196743
 31
0.0
  0
LINE
  5
B4C0
  8
ALPHA
 10
28.168443
 20
19.42971
 30
0.0
 11
6.544144
 21
19.42971
 31
0.0
  0
LINE
  5
B4C1
  8
ALPHA
 10
29.032139
 20
18.305891
 30
0.0
 11
6.369036
 21
18.305891
 31
0.0
  0
LINE
  5
B4C2
  8
ALPHA
 10
6.927772
 20
16.922972
 30
0.0
 11
28.473404
 21
16.922972
 31
0.0
  0
LINE
  5
B4C3
  8
ALPHA
 10
7.000588
 20
16.548365
 30
0.0
 11
28.400588
 21
16.548365
 31
0.0
  0
LINE
  5
B4C4
  8
ALPHA
 10
5.800588
 20
13.796743
 30
0.0
 11
28.400588
 21
13.796743
 31
0.0
  0
LINE
  5
B4C5
  8
ALPHA
 10
6.850588
 20
13.296743
 30
0.0
 11
28.550588
 21
13.296743
 31
0.0
  0
LINE
  5
B4C6
  8
ALPHA
 10
6.850588
 20
12.496743
 30
0.0
 11
28.550588
 21
12.496743
 31
0.0
  0
ARC
  5
B4D0
  8
ALPHA
 10
7.500588
 20
20.896743
 30
0.0
 40
0.4
 50
270.0
 51
345.437694
  0
LINE
  5
B4D2
  8
ALPHA
 10
6.000588
 20
15.746743
 30
0.0
 11
17.700588
 21
15.746743
 31
0.0
  0
LINE
  5
B4D3
  8
ALPHA
 10
5.800588
 20
15.546743
 30
0.0
 11
11.177527
 21
15.546743
 31
0.0
  0
LINE
  5
B4D4
  8
ALPHA
 10
6.767254
 20
13.796743
 30
0.0
 11
6.767254
 21
15.546743
 31
0.0
  0
LINE
  5
B4D5
  8
ALPHA
 10
5.800588
 20
13.796743
 30
0.0
 11
5.800588
 21
15.546743
 31
0.0
  0
ARC
  5
B4D6
  8
ALPHA
 10
7.350588
 20
13.296743
 30
0.0
 40
0.5
 50
90.0
 51
180.0
  0
LINE
  5
B4D7
  8
ALPHA
 10
6.850588
 20
13.296743
 30
0.0
 11
6.850588
 21
12.496743
 31
0.0
  0
LINE
  5
B4D8
  8
ALPHA
 10
6.934325
 20
15.746743
 30
0.0
 11
6.767254
 21
15.546743
 31
0.0
  0
LINE
  5
B4D9
  8
ALPHA
 10
6.927772
 20
16.922972
 30
0.0
 11
6.369036
 21
18.305891
 31
0.0
  0
LINE
  5
B4DA
  8
ALPHA
 10
6.350588
 20
20.479586
 30
0.0
 11
6.450588
 21
20.496743
 31
0.0
  0
LINE
  5
B4DB
  8
ALPHA
 10
6.73733
 20
20.479586
 30
0.0
 11
6.354477
 21
20.479586
 31
0.0
  0
LINE
  5
B4DC
  8
ALPHA
 10
6.467126
 20
20.306507
 30
0.0
 11
6.486914
 21
20.306507
 31
0.0
  0
LINE
  5
B4DD
  8
ALPHA
 10
6.427059
 20
20.306507
 30
0.0
 11
6.443188
 21
20.306507
 31
0.0
  0
LINE
  5
B4DE
  8
ALPHA
 10
6.364899
 20
20.306507
 30
0.0
 11
6.372278
 21
20.306507
 31
0.0
  0
LINE
  5
B4DF
  8
ALPHA
 10
6.372278
 20
18.496743
 30
0.0
 11
6.364899
 21
18.496743
 31
0.0
  0
LINE
  5
B4E0
  8
ALPHA
 10
6.443188
 20
18.496743
 30
0.0
 11
6.427059
 21
18.496743
 31
0.0
  0
LINE
  5
B4E1
  8
ALPHA
 10
6.486914
 20
18.496743
 30
0.0
 11
6.467126
 21
18.496743
 31
0.0
  0
LINE
  5
B4E2
  8
ALPHA
 10
6.629201
 20
18.496743
 30
0.0
 11
6.60032
 21
18.496743
 31
0.0
  0
LINE
  5
B4E3
  8
ALPHA
 10
6.73733
 20
18.352677
 30
0.0
 11
6.354477
 21
18.352677
 31
0.0
  0
LINE
  5
B4E4
  8
ALPHA
 10
5.800588
 20
15.546743
 30
0.0
 11
6.000588
 21
15.746743
 31
0.0
  0
POLYLINE
  5
B4E5
  8
ALPHA
 66
     1
 10
0.0
 20
0.0
 30
0.0
  0
VERTEX
  5
BBA7
  8
ALPHA
 10
6.73733
 20
18.352677
 30
0.0
  0
VERTEX
  5
BBA8
  8
ALPHA
 10
6.630594
 20
18.702398
 30
0.0
  0
VERTEX
  5
BBA9
  8
ALPHA
 10
6.565839
 20
19.0633
 30
0.0
  0
VERTEX
  5
BBAA
  8
ALPHA
 10
6.544144
 20
19.42971
 30
0.0
  0
SEQEND
  5
BBAB
  8
ALPHA
  0
POLYLINE
  5
B4E6
  8
ALPHA
 66
     1
 10
0.0
 20
0.0
 30
0.0
  0
VERTEX
  5
BBAC
  8
ALPHA
 10
6.354477
 20
18.352677
 30
0.0
  0
VERTEX
  5
BBAD
  8
ALPHA
 10
6.244014
 20
18.702398
 30
0.0
  0
VERTEX
  5
BBAE
  8
ALPHA
 10
6.176998
 20
19.0633
 30
0.0
  0
VERTEX
  5
BBAF
  8
ALPHA
 10
6.154546
 20
19.42971
 30
0.0
  0
SEQEND
  5
BBB0
  8
ALPHA
  0
LINE
  5
B4E7
  8
ALPHA
 10
6.369036
 20
18.305891
 30
0.0
 11
6.350588
 21
18.352677
 31
0.0
  0
POLYLINE
  5
B4E8
  8
ALPHA
 66
     1
 10
0.0
 20
0.0
 30
0.0
  0
VERTEX
  5
BBB1
  8
ALPHA
 10
6.544144
 20
20.196743
 30
0.0
  0
VERTEX
  5
BBB2
  8
ALPHA
 10
6.55776
 20
20.287622
 30
0.0
  0
VERTEX
  5
BBB3
  8
ALPHA
 10
6.597324
 20
20.369954
 30
0.0
  0
VERTEX
  5
BBB4
  8
ALPHA
 10
6.659116
 20
20.436011
 30
0.0
  0
VERTEX
  5
BBB5
  8
ALPHA
 10
6.73733
 20
20.479586
 30
0.0
  0
SEQEND
  5
BBB6
  8
ALPHA
  0
LINE
  5
B4E9
  8
ALPHA
 10
6.53925
 20
19.574901
 30
0.0
 11
6.544103
 21
19.63713
 31
0.0
  0
POLYLINE
  5
B4EA
  8
ALPHA
 66
     1
 10
0.0
 20
0.0
 30
0.0
  0
VERTEX
  5
BBB7
  8
ALPHA
 10
6.53925
 20
19.22835
 30
0.0
  0
VERTEX
  5
BBB8
  8
ALPHA
 10
6.528109
 20
19.082307
 30
0.0
  0
VERTEX
  5
BBB9
  8
ALPHA
 10
6.506837
 20
18.789794
 30
0.0
  0
SEQEND
  5
BBBA
  8
ALPHA
  0
LINE
  5
B4EB
  8
ALPHA
 10
6.506837
 20
18.789794
 30
0.0
 11
6.486914
 21
18.496743
 31
0.0
  0
POLYLINE
  5
B4EC
  8
ALPHA
 66
     1
 10
0.0
 20
0.0
 30
0.0
  0
VERTEX
  5
BBBB
  8
ALPHA
 10
6.489709
 20
18.866989
 30
0.0
  0
VERTEX
  5
BBBC
  8
ALPHA
 10
6.514277
 20
19.236456
 30
0.0
  0
VERTEX
  5
BBBD
  8
ALPHA
 10
6.527305
 20
19.420878
 30
0.0
  0
SEQEND
  5
BBBE
  8
ALPHA
  0
LINE
  5
B4ED
  8
ALPHA
 10
6.467126
 20
18.496743
 30
0.0
 11
6.489709
 21
18.866989
 31
0.0
  0
POLYLINE
  5
B4EE
  8
ALPHA
 66
     1
 10
0.0
 20
0.0
 30
0.0
  0
VERTEX
  5
BBBF
  8
ALPHA
 10
6.443188
 20
20.306507
 30
0.0
  0
VERTEX
  5
BBC0
  8
ALPHA
 10
6.433871
 20
20.129651
 30
0.0
  0
VERTEX
  5
BBC1
  8
ALPHA
 10
6.416713
 20
19.775519
 30
0.0
  0
SEQEND
  5
BBC2
  8
ALPHA
  0
POLYLINE
  5
B4EF
  8
ALPHA
 66
     1
 10
0.0
 20
0.0
 30
0.0
  0
VERTEX
  5
BBC3
  8
ALPHA
 10
6.407102
 20
19.867787
 30
0.0
  0
VERTEX
  5
BBC4
  8
ALPHA
 10
6.420073
 20
20.160354
 30
0.0
  0
VERTEX
  5
BBC5
  8
ALPHA
 10
6.427059
 20
20.306507
 30
0.0
  0
SEQEND
  5
BBC6
  8
ALPHA
  0
LINE
  5
B4F0
  8
ALPHA
 10
6.416713
 20
19.775519
 30
0.0
 11
6.401527
 21
19.420878
 31
0.0
  0
LINE
  5
B4F1
  8
ALPHA
 10
6.395467
 20
19.574901
 30
0.0
 11
6.407102
 21
19.867787
 31
0.0
  0
POLYLINE
  5
B4F2
  8
ALPHA
 66
     1
 10
0.0
 20
0.0
 30
0.0
  0
VERTEX
  5
BBC7
  8
ALPHA
 10
6.395467
 20
19.22835
 30
0.0
  0
VERTEX
  5
BBC8
  8
ALPHA
 10
6.390163
 20
19.082153
 30
0.0
  0
VERTEX
  5
BBC9
  8
ALPHA
 10
6.380554
 20
18.789564
 30
0.0
  0
SEQEND
  5
BBCA
  8
ALPHA
  0
POLYLINE
  5
B4F3
  8
ALPHA
 66
     1
 10
0.0
 20
0.0
 30
0.0
  0
VERTEX
  5
BBCB
  8
ALPHA
 10
6.373384
 20
18.866637
 30
0.0
  0
VERTEX
  5
BBCC
  8
ALPHA
 10
6.383832
 20
19.236222
 30
0.0
  0
VERTEX
  5
BBCD
  8
ALPHA
 10
6.389792
 20
19.420878
 30
0.0
  0
SEQEND
  5
BBCE
  8
ALPHA
  0
LINE
  5
B4F4
  8
ALPHA
 10
6.380554
 20
18.789564
 30
0.0
 11
6.372278
 21
18.496743
 31
0.0
  0
LINE
  5
B4F5
  8
ALPHA
 10
6.364899
 20
18.496743
 30
0.0
 11
6.373384
 21
18.866637
 31
0.0
  0
LINE
  5
B4F6
  8
ALPHA
 10
6.544144
 20
19.42971
 30
0.0
 11
6.544144
 21
20.196743
 31
0.0
  0
LINE
  5
B4F7
  8
ALPHA
 10
6.354477
 20
20.479586
 30
0.0
 11
6.354477
 21
18.352677
 31
0.0
  0
POLYLINE
  5
B4F8
  8
ALPHA
 66
     1
 10
0.0
 20
0.0
 30
0.0
  0
VERTEX
  5
BBCF
  8
ALPHA
 10
6.378363
 20
19.774892
 30
0.0
  0
VERTEX
  5
BBD0
  8
ALPHA
 10
6.368896
 20
20.129233
 30
0.0
  0
VERTEX
  5
BBD1
  8
ALPHA
 10
6.364899
 20
20.306507
 30
0.0
  0
SEQEND
  5
BBD2
  8
ALPHA
  0
POLYLINE
  5
B4F9
  8
ALPHA
 66
     1
 10
0.0
 20
0.0
 30
0.0
  0
VERTEX
  5
BBD3
  8
ALPHA
 10
6.372278
 20
20.306507
 30
0.0
  0
VERTEX
  5
BBD4
  8
ALPHA
 10
6.37625
 20
20.16007
 30
0.0
  0
VERTEX
  5
BBD5
  8
ALPHA
 10
6.385192
 20
19.867361
 30
0.0
  0
SEQEND
  5
BBD6
  8
ALPHA
  0
LINE
  5
B4FA
  8
ALPHA
 10
6.389792
 20
19.420878
 30
0.0
 11
6.378363
 21
19.774892
 31
0.0
  0
LINE
  5
B4FB
  8
ALPHA
 10
6.385192
 20
19.867361
 30
0.0
 11
6.395467
 21
19.574901
 31
0.0
  0
POLYLINE
  5
B4FC
  8
ALPHA
 66
     1
 10
0.0
 20
0.0
 30
0.0
  0
VERTEX
  5
BBD7
  8
ALPHA
 10
6.401527
 20
19.420878
 30
0.0
  0
VERTEX
  5
BBD8
  8
ALPHA
 10
6.408873
 20
19.235786
 30
0.0
  0
VERTEX
  5
BBD9
  8
ALPHA
 10
6.425046
 20
18.865984
 30
0.0
  0
SEQEND
  5
BBDA
  8
ALPHA
  0
POLYLINE
  5
B4FD
  8
ALPHA
 66
     1
 10
0.0
 20
0.0
 30
0.0
  0
VERTEX
  5
BBDB
  8
ALPHA
 10
6.413421
 20
18.789138
 30
0.0
  0
VERTEX
  5
BBDC
  8
ALPHA
 10
6.401117
 20
19.081869
 30
0.0
  0
VERTEX
  5
BBDD
  8
ALPHA
 10
6.395467
 20
19.22835
 30
0.0
  0
SEQEND
  5
BBDE
  8
ALPHA
  0
LINE
  5
B4FE
  8
ALPHA
 10
6.427059
 20
18.496743
 30
0.0
 11
6.413421
 21
18.789138
 31
0.0
  0
LINE
  5
B4FF
  8
ALPHA
 10
6.425046
 20
18.865984
 30
0.0
 11
6.443188
 21
18.496743
 31
0.0
  0
POLYLINE
  5
B500
  8
ALPHA
 66
     1
 10
0.0
 20
0.0
 30
0.0
  0
VERTEX
  5
BBDF
  8
ALPHA
 10
6.501745
 20
19.774555
 30
0.0
  0
VERTEX
  5
BBE0
  8
ALPHA
 10
6.478169
 20
20.129009
 30
0.0
  0
VERTEX
  5
BBE1
  8
ALPHA
 10
6.467126
 20
20.306507
 30
0.0
  0
SEQEND
  5
BBE2
  8
ALPHA
  0
POLYLINE
  5
B501
  8
ALPHA
 66
     1
 10
0.0
 20
0.0
 30
0.0
  0
VERTEX
  5
BBE3
  8
ALPHA
 10
6.486914
 20
20.306507
 30
0.0
  0
VERTEX
  5
BBE4
  8
ALPHA
 10
6.496707
 20
20.159917
 30
0.0
  0
VERTEX
  5
BBE5
  8
ALPHA
 10
6.517305
 20
19.86713
 30
0.0
  0
SEQEND
  5
BBE6
  8
ALPHA
  0
LINE
  5
B502
  8
ALPHA
 10
6.527305
 20
19.420878
 30
0.0
 11
6.501745
 21
19.774555
 31
0.0
  0
LINE
  5
B503
  8
ALPHA
 10
6.517305
 20
19.86713
 30
0.0
 11
6.53925
 21
19.574901
 31
0.0
  0
POLYLINE
  5
B504
  8
ALPHA
 66
     1
 10
0.0
 20
0.0
 30
0.0
  0
VERTEX
  5
BBE7
  8
ALPHA
 10
6.574876
 20
18.788902
 30
0.0
  0
VERTEX
  5
BBE8
  8
ALPHA
 10
6.550787
 20
19.081712
 30
0.0
  0
VERTEX
  5
BBE9
  8
ALPHA
 10
6.53925
 20
19.22835
 30
0.0
  0
SEQEND
  5
BBEA
  8
ALPHA
  0
POLYLINE
  5
B505
  8
ALPHA
 66
     1
 10
0.0
 20
0.0
 30
0.0
  0
VERTEX
  5
BBEB
  8
ALPHA
 10
6.592507
 20
18.914456
 30
0.0
  0
VERTEX
  5
BBEC
  8
ALPHA
 10
6.599641
 20
18.830804
 30
0.0
  0
VERTEX
  5
BBED
  8
ALPHA
 10
6.629201
 20
18.496743
 30
0.0
  0
SEQEND
  5
BBEE
  8
ALPHA
  0
LINE
  5
B506
  8
ALPHA
 10
6.60032
 20
18.496743
 30
0.0
 11
6.574876
 21
18.788902
 31
0.0
  0
POLYLINE
  5
B507
  8
ALPHA
 66
     1
 10
0.0
 20
0.0
 30
0.0
  0
VERTEX
  5
BBEF
  8
ALPHA
 10
6.154546
 20
20.196743
 30
0.0
  0
VERTEX
  5
BBF0
  8
ALPHA
 10
6.168853
 20
20.288299
 30
0.0
  0
VERTEX
  5
BBF1
  8
ALPHA
 10
6.209755
 20
20.370199
 30
0.0
  0
VERTEX
  5
BBF2
  8
ALPHA
 10
6.273608
 20
20.436068
 30
0.0
  0
VERTEX
  5
BBF3
  8
ALPHA
 10
6.354477
 20
20.479586
 30
0.0
  0
SEQEND
  5
BBF4
  8
ALPHA
  0
LINE
  5
B508
  8
ALPHA
 10
6.154546
 20
19.42971
 30
0.0
 11
6.154546
 21
20.196743
 31
0.0
  0
ARC
  5
B509
  8
ALPHA
 10
6.000588
 20
16.548365
 30
0.0
 40
1.0
 50
0.0
 51
22.0
  0
LINE
  5
B50A
  8
ALPHA
 10
7.000588
 20
15.746743
 30
0.0
 11
7.000588
 21
16.548365
 31
0.0
  0
LINE
  5
B50B
  8
ALPHA
 10
11.177527
 20
13.796743
 30
0.0
 11
11.177527
 21
15.546743
 31
0.0
  0
POLYLINE
  5
B50C
  8
ALPHA
 66
     1
 10
0.0
 20
0.0
 30
0.0
  0
VERTEX
  5
BBF5
  8
ALPHA
 10
11.650106
 20
15.746743
 30
0.0
  0
VERTEX
  5
BBF6
  8
ALPHA
 10
11.493641
 20
15.682251
 30
0.0
  0
VERTEX
  5
BBF7
  8
ALPHA
 10
11.336138
 20
15.615597
 30
0.0
  0
VERTEX
  5
BBF8
  8
ALPHA
 10
11.177527
 20
15.546743
 30
0.0
  0
SEQEND
  5
BBF9
  8
ALPHA
  0
LINE
  5
B510
  8
ALPHA
 10
11.700588
 20
25.996743
 30
0.0
 11
5.377149
 21
25.996743
 31
0.0
  0
LINE
  5
B511
  8
ALPHA
 10
5.935592
 20
24.796743
 30
0.0
 11
8.014053
 21
25.996743
 31
0.0
  0
LINE
  5
B512
  8
ALPHA
 10
5.935592
 20
24.796743
 30
0.0
 11
5.555352
 21
24.796743
 31
0.0
  0
LINE
  5
B513
  8
ALPHA
 10
5.600588
 20
22.296743
 30
0.0
 11
6.400588
 21
21.625464
 31
0.0
  0
LINE
  5
B514
  8
ALPHA
 10
6.400588
 20
22.968023
 30
0.0
 11
5.600588
 21
22.296743
 31
0.0
  0
LINE
  5
B515
  8
ALPHA
 10
6.483215
 20
25.112914
 30
0.0
 11
6.483215
 21
23.796743
 31
0.0
  0
LINE
  5
B516
  8
ALPHA
 10
6.400588
 20
21.625464
 30
0.0
 11
6.400588
 21
20.796743
 31
0.0
  0
LINE
  5
B517
  8
ALPHA
 10
6.400588
 20
23.796743
 30
0.0
 11
6.400588
 21
22.968023
 31
0.0
  0
LINE
  5
B518
  8
ALPHA
 10
5.99648
 20
24.831897
 30
0.0
 11
5.99648
 21
23.796743
 31
0.0
  0
LINE
  5
B519
  8
ALPHA
 10
5.555352
 20
25.996743
 30
0.0
 11
5.555352
 21
24.796743
 31
0.0
  0
LINE
  5
B51A
  8
ALPHA
 10
5.377149
 20
26.296743
 30
0.0
 11
5.377149
 21
25.996743
 31
0.0
  0
LINE
  5
B51B
  8
ALPHA
 10
5.200588
 20
23.796743
 30
0.0
 11
5.200588
 21
26.296743
 31
0.0
  0
LINE
  5
B51C
  8
ALPHA
 10
11.900588
 20
26.196743
 30
0.0
 11
11.900588
 21
23.796743
 31
0.0
  0
LINE
  5
B51D
  8
ALPHA
 10
11.700588
 20
25.996743
 30
0.0
 11
11.700588
 21
23.796743
 31
0.0
  0
LINE
  5
B51E
  8
ALPHA
 10
12.000588
 20
26.296743
 30
0.0
 11
11.700588
 21
25.996743
 31
0.0
  0
ARC
  5
B521
  8
ALPHA
 10
27.900588
 20
20.896743
 30
0.0
 40
0.4
 50
194.562306
 51
270.0
  0
LINE
  5
B522
  8
ALPHA
 10
28.400588
 20
13.796743
 30
0.0
 11
28.400588
 21
16.548365
 31
0.0
  0
ARC
  5
B523
  8
ALPHA
 10
28.050588
 20
13.296743
 30
0.0
 40
0.5
 50
0.0
 51
90.0
  0
LINE
  5
B524
  8
ALPHA
 10
28.550588
 20
13.296743
 30
0.0
 11
28.550588
 21
12.496743
 31
0.0
  0
ARC
  5
B525
  8
ALPHA
 10
29.400588
 20
16.548365
 30
0.0
 40
1.0
 50
158.0
 51
180.0
  0
POLYLINE
  5
B526
  8
ALPHA
 66
     1
 10
0.0
 20
0.0
 30
0.0
  0
VERTEX
  5
BBFA
  8
ALPHA
 10
29.24663
 20
20.196743
 30
0.0
  0
VERTEX
  5
BBFB
  8
ALPHA
 10
29.232323
 20
20.288299
 30
0.0
  0
VERTEX
  5
BBFC
  8
ALPHA
 10
29.19142
 20
20.370199
 30
0.0
  0
VERTEX
  5
BBFD
  8
ALPHA
 10
29.127568
 20
20.436068
 30
0.0
  0
VERTEX
  5
BBFE
  8
ALPHA
 10
29.046698
 20
20.479586
 30
0.0
  0
SEQEND
  5
BBFF
  8
ALPHA
  0
LINE
  5
B527
  8
ALPHA
 10
28.910538
 20
18.764828
 30
0.0
 11
28.897145
 21
18.611637
 31
0.0
  0
LINE
  5
B528
  8
ALPHA
 10
28.917001
 20
18.91802
 30
0.0
 11
28.910538
 21
18.764828
 31
0.0
  0
LINE
  5
B529
  8
ALPHA
 10
28.920175
 20
19.109509
 30
0.0
 11
28.917001
 21
18.91802
 31
0.0
  0
LINE
  5
B52A
  8
ALPHA
 10
29.24663
 20
19.42971
 30
0.0
 11
29.24663
 21
20.196743
 31
0.0
  0
LINE
  5
B52B
  8
ALPHA
 10
29.046698
 20
18.352677
 30
0.0
 11
29.046698
 21
20.479586
 31
0.0
  0
LINE
  5
B52C
  8
ALPHA
 10
29.021782
 20
18.726531
 30
0.0
 11
29.021782
 21
18.496743
 31
0.0
  0
LINE
  5
B52D
  8
ALPHA
 10
29.021782
 20
20.296743
 30
0.0
 11
29.021782
 21
20.066956
 31
0.0
  0
LINE
  5
B52E
  8
ALPHA
 10
29.015591
 20
19.569084
 30
0.0
 11
29.015591
 21
19.339296
 31
0.0
  0
LINE
  5
B52F
  8
ALPHA
 10
28.96054
 20
19.339296
 30
0.0
 11
28.96054
 21
18.726531
 31
0.0
  0
LINE
  5
B530
  8
ALPHA
 10
28.96054
 20
20.066956
 30
0.0
 11
28.96054
 21
19.569084
 31
0.0
  0
LINE
  5
B531
  8
ALPHA
 10
28.944167
 20
18.496743
 30
0.0
 11
28.944167
 21
20.296743
 31
0.0
  0
LINE
  5
B532
  8
ALPHA
 10
28.920175
 20
19.683977
 30
0.0
 11
28.920175
 21
19.109509
 31
0.0
  0
LINE
  5
B533
  8
ALPHA
 10
28.917001
 20
19.875467
 30
0.0
 11
28.920175
 21
19.683977
 31
0.0
  0
LINE
  5
B534
  8
ALPHA
 10
28.910538
 20
20.028658
 30
0.0
 11
28.917001
 21
19.875467
 31
0.0
  0
LINE
  5
B535
  8
ALPHA
 10
28.897145
 20
20.18185
 30
0.0
 11
28.910538
 21
20.028658
 31
0.0
  0
LINE
  5
B536
  8
ALPHA
 10
28.540102
 20
18.956318
 30
0.0
 11
28.552824
 21
18.841424
 31
0.0
  0
LINE
  5
B537
  8
ALPHA
 10
28.697561
 20
20.18185
 30
0.0
 11
28.718304
 21
20.028658
 31
0.0
  0
LINE
  5
B538
  8
ALPHA
 10
28.890215
 20
19.952062
 30
0.0
 11
28.879525
 21
20.028658
 31
0.0
  0
POLYLINE
  5
B539
  8
ALPHA
 66
     1
 10
0.0
 20
0.0
 30
0.0
  0
VERTEX
  5
BC00
  8
ALPHA
 10
28.168443
 20
20.196743
 30
0.0
  0
VERTEX
  5
BC01
  8
ALPHA
 10
28.155667
 20
20.287622
 30
0.0
  0
VERTEX
  5
BC02
  8
ALPHA
 10
28.118546
 20
20.369954
 30
0.0
  0
VERTEX
  5
BC03
  8
ALPHA
 10
28.060567
 20
20.436011
 30
0.0
  0
VERTEX
  5
BC04
  8
ALPHA
 10
27.987181
 20
20.479586
 30
0.0
  0
SEQEND
  5
BC05
  8
ALPHA
  0
LINE
  5
B53A
  8
ALPHA
 10
28.540102
 20
18.611637
 30
0.0
 11
28.514141
 21
18.764828
 31
0.0
  0
LINE
  5
B53B
  8
ALPHA
 10
28.891611
 20
20.2125
 30
0.0
 11
28.897145
 21
20.18185
 31
0.0
  0
LINE
  5
B53C
  8
ALPHA
 10
28.883127
 20
20.258445
 30
0.0
 11
28.891611
 21
20.2125
 31
0.0
  0
LINE
  5
B53D
  8
ALPHA
 10
28.686943
 20
19.952062
 30
0.0
 11
28.670706
 21
20.028658
 31
0.0
  0
LINE
  5
B53E
  8
ALPHA
 10
28.552824
 20
18.841424
 30
0.0
 11
28.571586
 21
18.764828
 31
0.0
  0
LINE
  5
B53F
  8
ALPHA
 10
28.689075
 20
20.212506
 30
0.0
 11
28.697561
 21
20.18185
 31
0.0
  0
LINE
  5
B540
  8
ALPHA
 10
28.676159
 20
20.258445
 30
0.0
 11
28.689075
 21
20.212506
 31
0.0
  0
POLYLINE
  5
B541
  8
ALPHA
 66
     1
 10
0.0
 20
0.0
 30
0.0
  0
VERTEX
  5
BC06
  8
ALPHA
 10
28.879525
 20
20.028658
 30
0.0
  0
VERTEX
  5
BC07
  8
ALPHA
 10
28.876613
 20
20.036322
 30
0.0
  0
VERTEX
  5
BC08
  8
ALPHA
 10
28.870717
 20
20.051643
 30
0.0
  0
SEQEND
  5
BC09
  8
ALPHA
  0
LINE
  5
B542
  8
ALPHA
 10
28.870717
 20
20.051643
 30
0.0
 11
28.864723
 21
20.066956
 31
0.0
  0
POLYLINE
  5
B543
  8
ALPHA
 66
     1
 10
0.0
 20
0.0
 30
0.0
  0
VERTEX
  5
BC0A
  8
ALPHA
 10
28.872199
 20
20.281432
 30
0.0
  0
VERTEX
  5
BC0B
  8
ALPHA
 10
28.879523
 20
20.26611
 30
0.0
  0
VERTEX
  5
BC0C
  8
ALPHA
 10
28.883127
 20
20.258445
 30
0.0
  0
SEQEND
  5
BC0D
  8
ALPHA
  0
LINE
  5
B544
  8
ALPHA
 10
28.864723
 20
20.296743
 30
0.0
 11
28.872199
 21
20.281432
 31
0.0
  0
POLYLINE
  5
B545
  8
ALPHA
 66
     1
 10
0.0
 20
0.0
 30
0.0
  0
VERTEX
  5
BC0E
  8
ALPHA
 10
28.87588
 20
18.519714
 30
0.0
  0
VERTEX
  5
BC0F
  8
ALPHA
 10
28.86848
 20
18.504398
 30
0.0
  0
VERTEX
  5
BC10
  8
ALPHA
 10
28.864723
 20
18.496743
 30
0.0
  0
SEQEND
  5
BC11
  8
ALPHA
  0
LINE
  5
B546
  8
ALPHA
 10
28.883127
 20
18.535041
 30
0.0
 11
28.87588
 21
18.519714
 31
0.0
  0
LINE
  5
B547
  8
ALPHA
 10
28.473404
 20
16.922972
 30
0.0
 11
29.032139
 21
18.305891
 31
0.0
  0
LINE
  5
B548
  8
ALPHA
 10
29.032139
 20
18.305891
 30
0.0
 11
29.050588
 21
18.352677
 31
0.0
  0
POLYLINE
  5
B549
  8
ALPHA
 66
     1
 10
0.0
 20
0.0
 30
0.0
  0
VERTEX
  5
BC12
  8
ALPHA
 10
28.864723
 20
18.726531
 30
0.0
  0
VERTEX
  5
BC13
  8
ALPHA
 10
28.867732
 20
18.734186
 30
0.0
  0
VERTEX
  5
BC14
  8
ALPHA
 10
28.873677
 20
18.749503
 30
0.0
  0
SEQEND
  5
BC15
  8
ALPHA
  0
LINE
  5
B54A
  8
ALPHA
 10
28.873677
 20
18.749503
 30
0.0
 11
28.879525
 21
18.764828
 31
0.0
  0
POLYLINE
  5
B54B
  8
ALPHA
 66
     1
 10
0.0
 20
0.0
 30
0.0
  0
VERTEX
  5
BC16
  8
ALPHA
 10
29.046698
 20
18.352677
 30
0.0
  0
VERTEX
  5
BC17
  8
ALPHA
 10
29.157162
 20
18.702398
 30
0.0
  0
VERTEX
  5
BC18
  8
ALPHA
 10
29.224177
 20
19.0633
 30
0.0
  0
VERTEX
  5
BC19
  8
ALPHA
 10
29.24663
 20
19.42971
 30
0.0
  0
SEQEND
  5
BC1A
  8
ALPHA
  0
LINE
  5
B54C
  8
ALPHA
 10
28.684795
 20
18.565661
 30
0.0
 11
28.676159
 21
18.535041
 31
0.0
  0
LINE
  5
B54D
  8
ALPHA
 10
28.697561
 20
18.611637
 30
0.0
 11
28.684795
 21
18.565661
 31
0.0
  0
LINE
  5
B54E
  8
ALPHA
 10
28.571586
 20
20.028658
 30
0.0
 11
28.552824
 21
19.952062
 31
0.0
  0
POLYLINE
  5
B54F
  8
ALPHA
 66
     1
 10
0.0
 20
0.0
 30
0.0
  0
VERTEX
  5
BC1B
  8
ALPHA
 10
28.120401
 20
18.803126
 30
0.0
  0
VERTEX
  5
BC1C
  8
ALPHA
 10
28.180918
 20
19.060714
 30
0.0
  0
VERTEX
  5
BC1D
  8
ALPHA
 10
28.239478
 20
19.319769
 30
0.0
  0
VERTEX
  5
BC1E
  8
ALPHA
 10
28.296071
 20
19.580243
 30
0.0
  0
VERTEX
  5
BC1F
  8
ALPHA
 10
28.350685
 20
19.842087
 30
0.0
  0
VERTEX
  5
BC20
  8
ALPHA
 10
28.40331
 20
20.105254
 30
0.0
  0
SEQEND
  5
BC21
  8
ALPHA
  0
LINE
  5
B550
  8
ALPHA
 10
28.670706
 20
18.764828
 30
0.0
 11
28.686943
 21
18.841424
 31
0.0
  0
POLYLINE
  5
B551
  8
ALPHA
 66
     1
 10
0.0
 20
0.0
 30
0.0
  0
VERTEX
  5
BC22
  8
ALPHA
 10
28.439157
 20
20.028658
 30
0.0
  0
VERTEX
  5
BC23
  8
ALPHA
 10
28.389639
 20
19.765664
 30
0.0
  0
VERTEX
  5
BC24
  8
ALPHA
 10
28.338252
 20
19.503909
 30
0.0
  0
VERTEX
  5
BC25
  8
ALPHA
 10
28.285007
 20
19.243438
 30
0.0
  0
VERTEX
  5
BC26
  8
ALPHA
 10
28.229912
 20
18.984297
 30
0.0
  0
VERTEX
  5
BC27
  8
ALPHA
 10
28.172977
 20
18.726531
 30
0.0
  0
SEQEND
  5
BC28
  8
ALPHA
  0
LINE
  5
B552
  8
ALPHA
 10
28.888808
 20
18.565668
 30
0.0
 11
28.883127
 21
18.535041
 31
0.0
  0
LINE
  5
B553
  8
ALPHA
 10
28.897145
 20
18.611637
 30
0.0
 11
28.888808
 21
18.565668
 31
0.0
  0
LINE
  5
B554
  8
ALPHA
 10
28.514141
 20
20.028658
 30
0.0
 11
28.540102
 21
20.18185
 31
0.0
  0
LINE
  5
B555
  8
ALPHA
 10
28.879525
 20
18.764828
 30
0.0
 11
28.890215
 21
18.841424
 31
0.0
  0
LINE
  5
B556
  8
ALPHA
 10
28.718304
 20
18.764828
 30
0.0
 11
28.697561
 21
18.611637
 31
0.0
  0
LINE
  5
B557
  8
ALPHA
 10
28.552824
 20
19.952062
 30
0.0
 11
28.540102
 21
19.837169
 31
0.0
  0
LINE
  5
B558
  8
ALPHA
 10
28.500901
 20
19.875467
 30
0.0
 11
28.514141
 21
20.028658
 31
0.0
  0
LINE
  5
B559
  8
ALPHA
 10
28.890215
 20
18.841424
 30
0.0
 11
28.897145
 21
18.956318
 31
0.0
  0
LINE
  5
B55A
  8
ALPHA
 10
28.686943
 20
18.841424
 30
0.0
 11
28.692273
 21
18.956318
 31
0.0
  0
LINE
  5
B55B
  8
ALPHA
 10
28.540102
 20
19.837169
 30
0.0
 11
28.533676
 21
19.683977
 31
0.0
  0
LINE
  5
B55C
  8
ALPHA
 10
28.494216
 20
19.683977
 30
0.0
 11
28.500901
 21
19.875467
 31
0.0
  0
LINE
  5
B55D
  8
ALPHA
 10
28.723387
 20
18.956318
 30
0.0
 11
28.718304
 21
18.764828
 31
0.0
  0
LINE
  5
B55E
  8
ALPHA
 10
28.897145
 20
18.956318
 30
0.0
 11
28.900552
 21
19.109509
 31
0.0
  0
LINE
  5
B55F
  8
ALPHA
 10
28.900552
 20
19.109509
 30
0.0
 11
28.900552
 21
19.683977
 31
0.0
  0
LINE
  5
B560
  8
ALPHA
 10
28.790277
 20
20.066956
 30
0.0
 11
28.790277
 21
18.726531
 31
0.0
  0
LINE
  5
B561
  8
ALPHA
 10
28.762582
 20
18.496743
 30
0.0
 11
28.762582
 21
20.296743
 31
0.0
  0
LINE
  5
B562
  8
ALPHA
 10
28.533676
 20
19.683977
 30
0.0
 11
28.533676
 21
19.109509
 31
0.0
  0
LINE
  5
B563
  8
ALPHA
 10
28.494216
 20
19.109509
 30
0.0
 11
28.494216
 21
19.683977
 31
0.0
  0
LINE
  5
B564
  8
ALPHA
 10
28.439157
 20
18.726531
 30
0.0
 11
28.439157
 21
18.496743
 31
0.0
  0
LINE
  5
B565
  8
ALPHA
 10
28.439157
 20
20.296743
 30
0.0
 11
28.439157
 21
20.028658
 31
0.0
  0
LINE
  5
B566
  8
ALPHA
 10
28.168443
 20
19.42971
 30
0.0
 11
28.168443
 21
20.196743
 31
0.0
  0
LINE
  5
B567
  8
ALPHA
 10
28.120401
 20
18.496743
 30
0.0
 11
28.120401
 21
18.803126
 31
0.0
  0
LINE
  5
B568
  8
ALPHA
 10
28.900552
 20
19.683977
 30
0.0
 11
28.897145
 21
19.837169
 31
0.0
  0
LINE
  5
B569
  8
ALPHA
 10
28.718304
 20
20.028658
 30
0.0
 11
28.723387
 21
19.837169
 31
0.0
  0
LINE
  5
B56A
  8
ALPHA
 10
28.500901
 20
18.91802
 30
0.0
 11
28.494216
 21
19.109509
 31
0.0
  0
LINE
  5
B56B
  8
ALPHA
 10
28.533676
 20
19.109509
 30
0.0
 11
28.540102
 21
18.956318
 31
0.0
  0
LINE
  5
B56C
  8
ALPHA
 10
28.692273
 20
19.837169
 30
0.0
 11
28.686943
 21
19.952062
 31
0.0
  0
LINE
  5
B56D
  8
ALPHA
 10
28.897145
 20
19.837169
 30
0.0
 11
28.890215
 21
19.952062
 31
0.0
  0
LINE
  5
B56E
  8
ALPHA
 10
28.514141
 20
18.764828
 30
0.0
 11
28.500901
 21
18.91802
 31
0.0
  0
LINE
  5
B56F
  8
ALPHA
 10
28.565375
 20
18.535041
 30
0.0
 11
28.555341
 21
18.565701
 31
0.0
  0
LINE
  5
B570
  8
ALPHA
 10
28.555341
 20
18.565701
 30
0.0
 11
28.540102
 21
18.611637
 31
0.0
  0
POLYLINE
  5
B571
  8
ALPHA
 66
     1
 10
0.0
 20
0.0
 30
0.0
  0
VERTEX
  5
BC29
  8
ALPHA
 10
28.670706
 20
20.028658
 30
0.0
  0
VERTEX
  5
BC2A
  8
ALPHA
 10
28.666309
 20
20.036324
 30
0.0
  0
VERTEX
  5
BC2B
  8
ALPHA
 10
28.657441
 20
20.051646
 30
0.0
  0
SEQEND
  5
BC2C
  8
ALPHA
  0
LINE
  5
B572
  8
ALPHA
 10
28.657441
 20
20.051646
 30
0.0
 11
28.648474
 21
20.066956
 31
0.0
  0
LINE
  5
B573
  8
ALPHA
 10
28.665202
 20
20.273776
 30
0.0
 11
28.676159
 21
20.258445
 31
0.0
  0
LINE
  5
B574
  8
ALPHA
 10
28.654089
 20
20.289091
 30
0.0
 11
28.665202
 21
20.273776
 31
0.0
  0
POLYLINE
  5
B575
  8
ALPHA
 66
     1
 10
0.0
 20
0.0
 30
0.0
  0
VERTEX
  5
BC2D
  8
ALPHA
 10
28.665202
 20
18.51971
 30
0.0
  0
VERTEX
  5
BC2E
  8
ALPHA
 10
28.654089
 20
18.504395
 30
0.0
  0
VERTEX
  5
BC2F
  8
ALPHA
 10
28.648474
 20
18.496743
 30
0.0
  0
SEQEND
  5
BC30
  8
ALPHA
  0
LINE
  5
B576
  8
ALPHA
 10
28.676159
 20
18.535041
 30
0.0
 11
28.665202
 21
18.51971
 31
0.0
  0
POLYLINE
  5
B577
  8
ALPHA
 66
     1
 10
0.0
 20
0.0
 30
0.0
  0
VERTEX
  5
BC31
  8
ALPHA
 10
28.648474
 20
18.726531
 30
0.0
  0
VERTEX
  5
BC32
  8
ALPHA
 10
28.65297
 20
18.734184
 30
0.0
  0
VERTEX
  5
BC33
  8
ALPHA
 10
28.661888
 20
18.7495
 30
0.0
  0
SEQEND
  5
BC34
  8
ALPHA
  0
LINE
  5
B578
  8
ALPHA
 10
28.661888
 20
18.7495
 30
0.0
 11
28.670706
 21
18.764828
 31
0.0
  0
LINE
  5
B579
  8
ALPHA
 10
28.540102
 20
20.18185
 30
0.0
 11
28.550286
 21
20.212467
 31
0.0
  0
LINE
  5
B57A
  8
ALPHA
 10
28.550286
 20
20.212467
 30
0.0
 11
28.565375
 21
20.258445
 31
0.0
  0
POLYLINE
  5
B57B
  8
ALPHA
 66
     1
 10
0.0
 20
0.0
 30
0.0
  0
VERTEX
  5
BC35
  8
ALPHA
 10
27.987181
 20
18.352677
 30
0.0
  0
VERTEX
  5
BC36
  8
ALPHA
 10
28.087329
 20
18.702398
 30
0.0
  0
VERTEX
  5
BC37
  8
ALPHA
 10
28.148087
 20
19.0633
 30
0.0
  0
VERTEX
  5
BC38
  8
ALPHA
 10
28.168443
 20
19.42971
 30
0.0
  0
SEQEND
  5
BC39
  8
ALPHA
  0
POLYLINE
  5
B57C
  8
ALPHA
 66
     1
 10
0.0
 20
0.0
 30
0.0
  0
VERTEX
  5
BC3A
  8
ALPHA
 10
28.581428
 20
18.74952
 30
0.0
  0
VERTEX
  5
BC3B
  8
ALPHA
 10
28.591171
 20
18.734197
 30
0.0
  0
VERTEX
  5
BC3C
  8
ALPHA
 10
28.596004
 20
18.726531
 30
0.0
  0
SEQEND
  5
BC3D
  8
ALPHA
  0
LINE
  5
B57D
  8
ALPHA
 10
28.571586
 20
18.764828
 30
0.0
 11
28.581428
 21
18.74952
 31
0.0
  0
LINE
  5
B57E
  8
ALPHA
 10
28.648474
 20
20.296743
 30
0.0
 11
28.654089
 21
20.289091
 31
0.0
  0
POLYLINE
  5
B57F
  8
ALPHA
 66
     1
 10
0.0
 20
0.0
 30
0.0
  0
VERTEX
  5
BC3E
  8
ALPHA
 10
28.586312
 20
20.051626
 30
0.0
  0
VERTEX
  5
BC3F
  8
ALPHA
 10
28.576519
 20
20.036311
 30
0.0
  0
VERTEX
  5
BC40
  8
ALPHA
 10
28.571586
 20
20.028658
 30
0.0
  0
SEQEND
  5
BC41
  8
ALPHA
  0
LINE
  5
B580
  8
ALPHA
 10
28.596004
 20
20.066956
 30
0.0
 11
28.586312
 21
20.051626
 31
0.0
  0
POLYLINE
  5
B581
  8
ALPHA
 66
     1
 10
0.0
 20
0.0
 30
0.0
  0
VERTEX
  5
BC42
  8
ALPHA
 10
28.596004
 20
18.496743
 30
0.0
  0
VERTEX
  5
BC43
  8
ALPHA
 10
28.589957
 20
18.504411
 30
0.0
  0
VERTEX
  5
BC44
  8
ALPHA
 10
28.577744
 20
18.519735
 30
0.0
  0
SEQEND
  5
BC45
  8
ALPHA
  0
LINE
  5
B582
  8
ALPHA
 10
28.577744
 20
18.519735
 30
0.0
 11
28.565375
 21
18.535041
 31
0.0
  0
POLYLINE
  5
B583
  8
ALPHA
 66
     1
 10
0.0
 20
0.0
 30
0.0
  0
VERTEX
  5
BC46
  8
ALPHA
 10
28.565375
 20
20.258445
 30
0.0
  0
VERTEX
  5
BC47
  8
ALPHA
 10
28.571579
 20
20.266096
 30
0.0
  0
VERTEX
  5
BC48
  8
ALPHA
 10
28.58387
 20
20.281411
 30
0.0
  0
SEQEND
  5
BC49
  8
ALPHA
  0
LINE
  5
B584
  8
ALPHA
 10
28.58387
 20
20.281411
 30
0.0
 11
28.596004
 21
20.296743
 31
0.0
  0
LINE
  5
B585
  8
ALPHA
 10
29.050588
 20
20.479586
 30
0.0
 11
28.950588
 21
20.496743
 31
0.0
  0
LINE
  5
B586
  8
ALPHA
 10
27.987181
 20
20.479586
 30
0.0
 11
29.046698
 21
20.479586
 31
0.0
  0
LINE
  5
B587
  8
ALPHA
 10
28.762582
 20
20.296743
 30
0.0
 11
28.864723
 21
20.296743
 31
0.0
  0
LINE
  5
B588
  8
ALPHA
 10
28.944166
 20
20.296743
 30
0.0
 11
29.021782
 21
20.296743
 31
0.0
  0
LINE
  5
B589
  8
ALPHA
 10
28.596004
 20
20.296743
 30
0.0
 11
28.648474
 21
20.296743
 31
0.0
  0
LINE
  5
B58A
  8
ALPHA
 10
28.151584
 20
20.296743
 30
0.0
 11
28.439157
 21
20.296743
 31
0.0
  0
LINE
  5
B58B
  8
ALPHA
 10
28.40331
 20
20.105254
 30
0.0
 11
28.168502
 21
20.105254
 31
0.0
  0
LINE
  5
B58C
  8
ALPHA
 10
28.648474
 20
20.066956
 30
0.0
 11
28.596004
 21
20.066956
 31
0.0
  0
LINE
  5
B58D
  8
ALPHA
 10
28.864723
 20
20.066956
 30
0.0
 11
28.790277
 21
20.066956
 31
0.0
  0
LINE
  5
B58E
  8
ALPHA
 10
29.021782
 20
20.066956
 30
0.0
 11
28.96054
 21
20.066956
 31
0.0
  0
LINE
  5
B58F
  8
ALPHA
 10
28.723387
 20
19.837169
 30
0.0
 11
28.692273
 21
19.837169
 31
0.0
  0
LINE
  5
B590
  8
ALPHA
 10
28.96054
 20
19.569084
 30
0.0
 11
29.015591
 21
19.569084
 31
0.0
  0
LINE
  5
B591
  8
ALPHA
 10
29.015591
 20
19.339296
 30
0.0
 11
28.96054
 21
19.339296
 31
0.0
  0
LINE
  5
B592
  8
ALPHA
 10
28.692273
 20
18.956318
 30
0.0
 11
28.723387
 21
18.956318
 31
0.0
  0
LINE
  5
B593
  8
ALPHA
 10
28.790277
 20
18.726531
 30
0.0
 11
28.864723
 21
18.726531
 31
0.0
  0
LINE
  5
B594
  8
ALPHA
 10
28.96054
 20
18.726531
 30
0.0
 11
29.021782
 21
18.726531
 31
0.0
  0
LINE
  5
B595
  8
ALPHA
 10
28.596004
 20
18.726531
 30
0.0
 11
28.648474
 21
18.726531
 31
0.0
  0
LINE
  5
B596
  8
ALPHA
 10
28.172977
 20
18.726531
 30
0.0
 11
28.439157
 21
18.726531
 31
0.0
  0
LINE
  5
B597
  8
ALPHA
 10
28.439157
 20
18.496743
 30
0.0
 11
28.120401
 21
18.496743
 31
0.0
  0
LINE
  5
B598
  8
ALPHA
 10
28.648474
 20
18.496743
 30
0.0
 11
28.596004
 21
18.496743
 31
0.0
  0
LINE
  5
B599
  8
ALPHA
 10
28.864723
 20
18.496743
 30
0.0
 11
28.762582
 21
18.496743
 31
0.0
  0
LINE
  5
B59A
  8
ALPHA
 10
29.021782
 20
18.496743
 30
0.0
 11
28.944166
 21
18.496743
 31
0.0
  0
LINE
  5
B59B
  8
ALPHA
 10
27.987181
 20
18.352677
 30
0.0
 11
29.046698
 21
18.352677
 31
0.0
  0
LINE
  5
B59C
  8
ALPHA
 10
29.000588
 20
22.968023
 30
0.0
 11
29.800588
 21
22.296743
 31
0.0
  0
LINE
  5
B59D
  8
ALPHA
 10
29.800588
 20
22.296743
 30
0.0
 11
29.000588
 21
21.625464
 31
0.0
  0
LINE
  5
B59E
  8
ALPHA
 10
29.078048
 20
26.296743
 30
0.0
 11
29.078048
 21
23.796743
 31
0.0
  0
LINE
  5
B59F
  8
ALPHA
 10
29.000588
 20
21.625464
 30
0.0
 11
29.000588
 21
20.796743
 31
0.0
  0
LINE
  5
B5A0
  8
ALPHA
 10
29.000588
 20
23.796743
 30
0.0
 11
29.000588
 21
22.968023
 31
0.0
  0
LINE
  5
B5A1
  8
ALPHA
 10
28.580732
 20
26.296743
 30
0.0
 11
28.580732
 21
23.796743
 31
0.0
  0
LINE
  5
B5A2
  8
ALPHA
 10
29.700588
 20
26.296743
 30
0.0
 11
29.700588
 21
23.796743
 31
0.0
  0
DIMENSION
  5
B705
  8
COTATION1
  2
*D3
 10
50.150588
 20
12.496743
 30
0.0
 11
50.150588
 21
19.396743
 31
0.0
 13
29.700588
 23
26.296743
 33
0.0
 14
28.550588
 24
12.496743
 34
0.0
 50
90.0
  0
DIMENSION
  5
B706
  8
COTATION1
  2
*D4
 10
29.700588
 20
41.296743
 30
0.0
 11
17.450588
 21
44.546743
 31
0.0
 13
5.200588
 23
26.296743
 33
0.0
 14
29.700588
 24
26.296743
 34
0.0
  0
LINE
  5
B707
  8
AXE
 10
17.700588
 20
1.710589
 30
0.0
 11
17.700588
 21
31.296743
 31
0.0
  0
TEXT
  5
B71A
  8
AXE
 10
12.652969
 20
1.710589
 30
0.0
 40
5.0
  1
Y
 72
     2
 11
16.700588
 21
1.710589
 31
0.0
  0
LINE
  5
B81D
  8
AXE
 10
0.250588
 20
19.396743
 30
0.0
 11
40.150588
 21
19.396743
 31
0.0
  0
TEXT
  5
B81E
  8
AXE
 10
36.102969
 20
20.396743
 30
0.0
 40
5.0
  1
Z
 72
     2
 11
40.150588
 21
20.396743
 31
0.0
  0
LINE
  5
B97A
  8
0
  6
CONTINUOUS
 62
     2
 10
4.797049
 20
23.796743
 30
0.0
 11
-14.699122
 21
23.796743
 31
0.0
  0
LINE
  5
B97B
  8
0
  6
CONTINUOUS
 62
     2
 10
-19.699122
 20
16.296743
 30
0.0
 11
-9.699122
 21
16.296743
 31
0.0
  0
LINE
  5
B97C
  8
0
  6
CONTINUOUS
 62
     2
 10
-9.699122
 20
11.296743
 30
0.0
 11
-19.699122
 21
11.296743
 31
0.0
  0
TEXT
  5
B97D
  8
0
  6
CONTINUOUS
 62
     2
 10
-18.449122
 20
12.546743
 30
0.0
 40
2.5
  1
ENTRY
 41
0.642857
  7
STANDARD
 72
     5
 11
-10.949122
 21
12.546743
 31
0.0
  0
LINE
  5
B97E
  8
0
  6
CONTINUOUS
 62
     2
 10
-14.699122
 20
21.296743
 30
0.0
 11
-14.699122
 21
16.296743
 31
0.0
  0
LINE
  5
B97F
  8
0
  6
CONTINUOUS
 62
     2
 10
-19.699122
 20
11.296743
 30
0.0
 11
-19.699122
 21
16.296743
 31
0.0
  0
SOLID
  5
B980
  8
0
  6
CONTINUOUS
 62
     2
 10
-16.142498
 20
23.796743
 30
0.0
 11
-13.255747
 21
23.796743
 31
0.0
 12
-14.699122
 22
21.296743
 32
0.0
 13
-14.699122
 23
21.296743
 33
0.0
  0
LINE
  5
B981
  8
0
  6
CONTINUOUS
 62
     2
 10
-9.699122
 20
16.296743
 30
0.0
 11
-9.699122
 21
11.296743
 31
0.0
  0
ENDSEC
  0
EOF
