  0
SECTION
  2
HEADER
  9
$ACADVER
  1
AC1009
  9
$INSBASE
 10
402.590624
 20
-1.041018
 30
0.0
  9
$EXTMIN
 10
0.270063
 20
-13.059586
 30
0.0
  9
$EXTMAX
 10
70.924538
 20
44.926568
 30
0.0
  9
$LIMMIN
 10
-407.970438
 20
-367.832444
  9
$LIMMAX
 10
429.804077
 20
234.370848
  9
$ORTHOMODE
 70
     1
  9
$REGENMODE
 70
     1
  9
$FILLMODE
 70
     1
  9
$QTEXTMODE
 70
     0
  9
$MIRRTEXT
 70
     1
  9
$DRAGMODE
 70
     2
  9
$LTSCALE
 40
10.0
  9
$OSMODE
 70
    35
  9
$ATTMODE
 70
     1
  9
$TEXTSIZE
 40
6.0
  9
$TRACEWID
 40
1.0
  9
$TEXTSTYLE
  7
ROMANS
  9
$CLAYER
  8
ALPHA
  9
$CELTYPE
  6
BYLAYER
  9
$CECOLOR
 62
   256
  9
$DIMSCALE
 40
1.0
  9
$DIMASZ
 40
5.0
  9
$DIMEXO
 40
2.0
  9
$DIMDLI
 40
0.38
  9
$DIMRND
 40
0.0
  9
$DIMDLE
 40
0.0
  9
$DIMEXE
 40
2.5
  9
$DIMTP
 40
0.0
  9
$DIMTM
 40
0.0
  9
$DIMTXT
 40
2.5
  9
$DIMCEN
 40
0.0
  9
$DIMTSZ
 40
0.0
  9
$DIMTOL
 70
     0
  9
$DIMLIM
 70
     0
  9
$DIMTIH
 70
     1
  9
$DIMTOH
 70
     1
  9
$DIMSE1
 70
     0
  9
$DIMSE2
 70
     0
  9
$DIMTAD
 70
     1
  9
$DIMZIN
 70
    12
  9
$DIMBLK
  1
OPEN30
  9
$DIMASO
 70
     1
  9
$DIMSHO
 70
     1
  9
$DIMPOST
  1

  9
$DIMAPOST
  1

  9
$DIMALT
 70
     0
  9
$DIMALTD
 70
     2
  9
$DIMALTF
 40
25.4
  9
$DIMLFAC
 40
1.0
  9
$DIMTOFL
 70
     0
  9
$DIMTVP
 40
0.0
  9
$DIMTIX
 70
     0
  9
$DIMSOXD
 70
     0
  9
$DIMSAH
 70
     0
  9
$DIMBLK1
  1

  9
$DIMBLK2
  1

  9
$DIMSTYLE
  2
SC_DEFAUT
  9
$DIMCLRD
 70
     0
  9
$DIMCLRE
 70
     0
  9
$DIMCLRT
 70
     0
  9
$DIMTFAC
 40
1.0
  9
$DIMGAP
 40
2.0
  9
$LUNITS
 70
     2
  9
$LUPREC
 70
     1
  9
$SKETCHINC
 40
0.1
  9
$FILLETRAD
 40
0.0
  9
$AUNITS
 70
     0
  9
$AUPREC
 70
     0
  9
$MENU
  1
acad
  9
$ELEVATION
 40
0.0
  9
$PELEVATION
 40
0.0
  9
$THICKNESS
 40
0.0
  9
$LIMCHECK
 70
     0
  9
$BLIPMODE
 70
     0
  9
$CHAMFERA
 40
0.0
  9
$CHAMFERB
 40
0.0
  9
$SKPOLY
 70
     0
  9
$TDCREATE
 40
2450373.687919
  9
$TDUPDATE
 40
2453038.462328
  9
$TDINDWG
 40
1.168702
  9
$TDUSRTIMER
 40
1.168702
  9
$USRTIMER
 70
     1
  9
$ANGBASE
 50
0.0
  9
$ANGDIR
 70
     0
  9
$PDMODE
 70
    32
  9
$PDSIZE
 40
0.0
  9
$PLINEWID
 40
0.0
  9
$COORDS
 70
     1
  9
$SPLFRAME
 70
     0
  9
$SPLINETYPE
 70
     6
  9
$SPLINESEGS
 70
     8
  9
$ATTDIA
 70
     0
  9
$ATTREQ
 70
     1
  9
$HANDLING
 70
     1
  9
$HANDSEED
  5
E699
  9
$SURFTAB1
 70
     6
  9
$SURFTAB2
 70
     6
  9
$SURFTYPE
 70
     6
  9
$SURFU
 70
     6
  9
$SURFV
 70
     6
  9
$UCSNAME
  2

  9
$UCSORG
 10
0.0
 20
0.0
 30
0.0
  9
$UCSXDIR
 10
1.0
 20
0.0
 30
0.0
  9
$UCSYDIR
 10
0.0
 20
1.0
 30
0.0
  9
$PUCSNAME
  2

  9
$PUCSORG
 10
0.0
 20
0.0
 30
0.0
  9
$PUCSXDIR
 10
1.0
 20
0.0
 30
0.0
  9
$PUCSYDIR
 10
0.0
 20
1.0
 30
0.0
  9
$USERI1
 70
     0
  9
$USERI2
 70
     0
  9
$USERI3
 70
     0
  9
$USERI4
 70
     0
  9
$USERI5
 70
     0
  9
$USERR1
 40
0.0
  9
$USERR2
 40
0.0
  9
$USERR3
 40
0.0
  9
$USERR4
 40
0.0
  9
$USERR5
 40
0.0
  9
$WORLDVIEW
 70
     1
  9
$SHADEDGE
 70
     3
  9
$SHADEDIF
 70
    70
  9
$TILEMODE
 70
     1
  9
$MAXACTVP
 70
    16
  9
$PLIMCHECK
 70
     0
  9
$PEXTMIN
 10
-1.452248
 20
-0.437698
 30
0.0
  9
$PEXTMAX
 10
12.749749
 20
8.310198
 30
0.0
  9
$PLIMMIN
 10
0.0
 20
0.0
  9
$PLIMMAX
 10
12.0
 20
9.0
  9
$UNITMODE
 70
     0
  9
$VISRETAIN
 70
     0
  9
$PLINEGEN
 70
     0
  9
$PSLTSCALE
 70
     0
  0
ENDSEC
  0
SECTION
  2
TABLES
  0
TABLE
  2
VPORT
 70
     2
  0
VPORT
  2
*ACTIVE
 70
     0
 10
0.0
 20
0.0
 11
1.0
 21
1.0
 12
35.588831
 22
15.946268
 13
0.0
 23
0.0
 14
1.0
 24
1.0
 15
10.0
 25
10.0
 16
0.0
 26
0.0
 36
1.0
 17
0.0
 27
0.0
 37
0.0
 40
58.445826
 41
1.466346
 42
50.0
 43
0.0
 44
0.0
 50
0.0
 51
0.0
 71
     0
 72
   100
 73
     1
 74
     0
 75
     0
 76
     0
 77
     0
 78
     0
  0
ENDTAB
  0
TABLE
  2
LTYPE
 70
     2
  0
LTYPE
  2
CONTINUOUS
 70
     0
  3
Solid line
 72
    65
 73
     0
 40
0.0
  0
LTYPE
  2
AXES2
 70
     0
  3
___ _ ___ _ ___ _ ___ _ ___ _ ___ _ ___ _ ___ _
 72
    65
 73
     4
 40
1.125
 49
0.75
 49
-0.125
 49
0.125
 49
-0.125
  0
ENDTAB
  0
TABLE
  2
LAYER
 70
     5
  0
LAYER
  2
0
 70
     0
 62
   255
  6
CONTINUOUS
  0
LAYER
  2
COTATION1
 70
     0
 62
     2
  6
CONTINUOUS
  0
LAYER
  2
AXE
 70
     0
 62
    80
  6
AXES2
  0
LAYER
  2
DEFPOINTS
 70
     0
 62
     7
  6
CONTINUOUS
  0
LAYER
  2
ALPHA
 70
     0
 62
   254
  6
CONTINUOUS
  0
ENDTAB
  0
TABLE
  2
STYLE
 70
     2
  0
STYLE
  2
ROMANS
 70
     0
 40
0.0
 41
1.0
 50
0.0
 71
     0
 42
6.0
  3
romans
  4

  0
STYLE
  2
STANDARD
 70
     0
 40
0.0
 41
1.0
 50
0.0
 71
     0
 42
0.2
  3
txt
  4

  0
ENDTAB
  0
TABLE
  2
VIEW
 70
     0
  0
ENDTAB
  0
TABLE
  2
UCS
 70
     0
  0
ENDTAB
  0
TABLE
  2
APPID
 70
     1
  0
APPID
  2
ACAD
 70
     0
  0
ENDTAB
  0
TABLE
  2
DIMSTYLE
 70
     2
  0
DIMSTYLE
  2
SC_DEFAUT
 70
     0
  3

  4

  5
OPEN30
  6

  7

 40
1.0
 41
5.0
 42
2.0
 43
0.38
 44
2.5
 45
0.0
 46
0.0
 47
0.0
 48
0.0
140
2.5
141
0.0
142
0.0
143
25.4
144
1.0
145
0.0
146
1.0
147
2.0
 71
     0
 72
     0
 73
     1
 74
     1
 75
     0
 76
     0
 77
     1
 78
    12
170
     0
171
     2
172
     0
173
     0
174
     0
175
     0
176
     0
177
     0
178
     0
  0
DIMSTYLE
  2
STANDARD
 70
     0
  3

  4

  5

  6

  7

 40
1.0
 41
0.18
 42
0.0625
 43
0.38
 44
0.18
 45
0.0
 46
0.0
 47
0.0
 48
0.0
140
0.18
141
0.09
142
0.0
143
25.4
144
1.0
145
0.0
146
1.0
147
0.09
 71
     0
 72
     0
 73
     1
 74
     1
 75
     0
 76
     0
 77
     0
 78
     0
170
     0
171
     2
172
     0
173
     0
174
     0
175
     0
176
     0
177
     0
178
     0
  0
ENDTAB
  0
ENDSEC
  0
SECTION
  2
BLOCKS
  0
BLOCK
  8
0
  2
$MODEL_SPACE
 70
     0
 10
0.0
 20
0.0
 30
0.0
  3
$MODEL_SPACE
  1

  0
ENDBLK
  5
E5E7
  8
0
  0
BLOCK
 67
     1
  8
0
  2
$PAPER_SPACE
 70
     0
 10
0.0
 20
0.0
 30
0.0
  3
$PAPER_SPACE
  1

  0
ENDBLK
  5
E5E5
 67
     1
  8
0
  0
BLOCK
  8
0
  2
COTE
 70
     0
 10
0.0
 20
0.0
 30
0.0
  3
COTE
  1

  0
ENDBLK
  5
F
  8
0
  0
BLOCK
  8
0
  2
FOND
 70
     0
 10
0.0
 20
0.0
 30
0.0
  3
FOND
  1

  0
ENDBLK
  5
75
  8
0
  0
BLOCK
  8
0
  2
_OPEN30
 70
     0
 10
0.0
 20
0.0
 30
0.0
  3
_OPEN30
  1

  0
LINE
  5
4B05
  8
COTATION1
 62
     0
 10
-1.0
 20
0.267949
 30
0.0
 11
0.0
 21
0.0
 31
0.0
1001
ACAD
1000
RTLwPs
1070
   158
  0
LINE
  5
4B06
  8
COTATION1
 62
     0
 10
0.0
 20
0.0
 30
0.0
 11
-1.0
 21
-0.267949
 31
0.0
1001
ACAD
1000
RTLwPs
1070
   158
  0
LINE
  5
4B07
  8
COTATION1
 62
     0
 10
0.0
 20
0.0
 30
0.0
 11
-1.0
 21
0.0
 31
0.0
1001
ACAD
1000
RTLwPs
1070
   158
  0
ENDBLK
  5
4B09
  8
0
  0
BLOCK
  8
0
  2
*D3
 70
     1
 10
0.0
 20
0.0
 30
0.0
  3
*D3
  1

  0
LINE
  5
E1D7
  8
COTATION1
 62
     0
 10
21.765015
 20
3.226568
 30
0.0
 11
21.765015
 21
42.926568
 31
0.0
1001
ACAD
1000
RTLwPs
1070
   158
  0
LINE
  5
E1D8
  8
COTATION1
 62
     0
 10
47.565015
 20
3.226568
 30
0.0
 11
47.565015
 21
42.926568
 31
0.0
1001
ACAD
1000
RTLwPs
1070
   158
  0
LINE
  5
E1D9
  8
COTATION1
 62
     0
 10
26.765015
 20
40.426568
 30
0.0
 11
42.565015
 21
40.426568
 31
0.0
1001
ACAD
1000
RTLwPs
1070
   158
  0
INSERT
  5
E1DA
  8
COTATION1
 62
     0
  2
_OPEN30
 10
21.765015
 20
40.426568
 30
0.0
 41
5.0
 42
5.0
 43
5.0
 50
180.0
1001
ACAD
1000
RTLwPs
1070
   158
  0
INSERT
  5
E1DB
  8
COTATION1
 62
     0
  2
_OPEN30
 10
47.565015
 20
40.426568
 30
0.0
 41
5.0
 42
5.0
 43
5.0
1001
ACAD
1000
RTLwPs
1070
   158
  0
TEXT
  5
E1DC
  8
COTATION1
 62
     0
 10
30.498348
 20
42.426568
 30
0.0
 40
2.5
  1
25.8
1001
ACAD
1000
MTEXTBEGIN
1070
    73
1070
     1
1070
    44
1040
1.0
1070
    74
1070
     0
1000
MTEXTEND
  0
POINT
  5
E1DD
  8
DEFPOINTS
 62
     0
 10
21.765015
 20
1.226568
 30
0.0
  0
POINT
  5
E1DE
  8
DEFPOINTS
 62
     0
 10
47.565015
 20
1.226568
 30
0.0
  0
POINT
  5
E1DF
  8
DEFPOINTS
 62
     0
 10
47.565015
 20
40.426568
 30
0.0
  0
ENDBLK
  5
D507
  8
0
  0
BLOCK
  8
0
  2
*D4
 70
     1
 10
0.0
 20
0.0
 30
0.0
  3
*D4
  1

  0
LINE
  5
E1C4
  8
COTATION1
 62
     0
 10
49.115015
 20
25.426568
 30
0.0
 11
69.615015
 21
25.426568
 31
0.0
1001
ACAD
1000
RTLwPs
1070
   158
  0
LINE
  5
E1C5
  8
COTATION1
 62
     0
 10
48.664985
 20
-2.273432
 30
0.0
 11
69.615015
 21
-2.273432
 31
0.0
1001
ACAD
1000
RTLwPs
1070
   158
  0
LINE
  5
E1C6
  8
COTATION1
 62
     0
 10
67.115015
 20
20.426568
 30
0.0
 11
67.115015
 21
14.826568
 31
0.0
1001
ACAD
1000
RTLwPs
1070
   158
  0
LINE
  5
E1C7
  8
COTATION1
 62
     0
 10
67.115015
 20
2.726568
 30
0.0
 11
67.115015
 21
8.326568
 31
0.0
1001
ACAD
1000
RTLwPs
1070
   158
  0
INSERT
  5
E1C8
  8
COTATION1
 62
     0
  2
_OPEN30
 10
67.115015
 20
25.426568
 30
0.0
 41
5.0
 42
5.0
 43
5.0
 50
90.0
1001
ACAD
1000
RTLwPs
1070
   158
  0
INSERT
  5
E1C9
  8
COTATION1
 62
     0
  2
_OPEN30
 10
67.115015
 20
-2.273432
 30
0.0
 41
5.0
 42
5.0
 43
5.0
 50
270.0
1001
ACAD
1000
RTLwPs
1070
   158
  0
TEXT
  5
E1CA
  8
COTATION1
 62
     0
 10
62.948348
 20
10.326568
 30
0.0
 40
2.5
  1
27.7
1001
ACAD
1000
MTEXTBEGIN
1070
    73
1070
     1
1070
    44
1040
1.0
1070
    74
1070
     0
1000
MTEXTEND
  0
POINT
  5
E1CB
  8
DEFPOINTS
 62
     0
 10
47.115015
 20
25.426568
 30
0.0
  0
POINT
  5
E1CC
  8
DEFPOINTS
 62
     0
 10
46.664985
 20
-2.273432
 30
0.0
  0
POINT
  5
E1CD
  8
DEFPOINTS
 62
     0
 10
67.115015
 20
-2.273432
 30
0.0
  0
ENDBLK
  5
D54C
  8
0
  0
ENDSEC
  0
SECTION
  2
ENTITIES
  0
INSERT
  5
A
  8
0
  2
COTE
 10
0.0
 20
0.0
 30
0.0
  0
INSERT
  5
17
  8
0
  2
COTE
 10
284.010391
 20
6.373258
 30
0.0
  0
INSERT
  5
72
  8
0
  2
FOND
 10
0.0
 20
0.0
 30
0.0
  0
DIMENSION
  5
D4FB
  8
COTATION1
  2
*D3
 10
47.565015
 20
40.426568
 30
0.0
 11
34.665015
 21
43.676568
 31
0.0
 13
21.765015
 23
1.226568
 33
0.0
 14
47.565015
 24
1.226568
 34
0.0
  0
DIMENSION
  5
D53F
  8
COTATION1
  2
*D4
 10
67.115015
 20
-2.273432
 30
0.0
 11
67.115015
 21
11.576568
 31
0.0
 13
47.115015
 23
25.426568
 33
0.0
 14
46.664985
 24
-2.273432
 34
0.0
 50
90.0
  0
LINE
  5
D563
  8
AXE
 10
17.215015
 20
11.626568
 30
0.0
 11
57.115015
 21
11.626568
 31
0.0
  0
TEXT
  5
D564
  8
AXE
 10
53.067396
 20
12.626568
 30
0.0
 40
5.0
  1
Z
 72
     2
 11
57.115015
 21
12.626568
 31
0.0
  0
LINE
  5
E011
  8
ALPHA
 10
22.665044
 20
-2.273432
 30
0.0
 11
46.664985
 21
-2.273432
 31
0.0
  0
LINE
  5
E01C
  8
0
  6
CONTINUOUS
 62
     2
 10
22.015015
 20
21.576568
 30
0.0
 11
5.270063
 21
21.576568
 31
0.0
  0
LINE
  5
E01D
  8
0
  6
CONTINUOUS
 62
     2
 10
0.270063
 20
14.076568
 30
0.0
 11
10.270063
 21
14.076568
 31
0.0
  0
LINE
  5
E01E
  8
0
  6
CONTINUOUS
 62
     2
 10
10.270063
 20
9.076568
 30
0.0
 11
0.270063
 21
9.076568
 31
0.0
  0
TEXT
  5
E01F
  8
0
  6
CONTINUOUS
 62
     2
 10
1.520063
 20
10.326568
 30
0.0
 40
2.5
  1
ENTRY
 41
0.642857
  7
STANDARD
 72
     5
 11
9.020063
 21
10.326568
 31
0.0
  0
LINE
  5
E020
  8
0
  6
CONTINUOUS
 62
     2
 10
0.270063
 20
9.076568
 30
0.0
 11
0.270063
 21
14.076568
 31
0.0
  0
SOLID
  5
E021
  8
0
  6
CONTINUOUS
 62
     2
 10
3.826687
 20
21.576568
 30
0.0
 11
6.713438
 21
21.576568
 31
0.0
 12
5.270063
 22
19.076568
 32
0.0
 13
5.270063
 23
19.076568
 33
0.0
  0
LINE
  5
E022
  8
0
  6
CONTINUOUS
 62
     2
 10
5.270063
 20
19.076568
 30
0.0
 11
5.270063
 21
14.076568
 31
0.0
  0
LINE
  5
E02F
  8
0
  6
CONTINUOUS
 62
     2
 10
10.270063
 20
14.076568
 30
0.0
 11
10.270063
 21
9.076568
 31
0.0
  0
LINE
  5
E1C1
  8
AXE
 10
34.665015
 20
-13.059586
 30
0.0
 11
34.665015
 21
30.426568
 31
0.0
  0
TEXT
  5
E1C3
  8
AXE
 10
29.617396
 20
-13.059586
 30
0.0
 40
5.0
  1
Y
 72
     2
 11
33.665015
 21
-13.059586
 31
0.0
  0
ARC
  5
E36D
  8
ALPHA
 10
45.215015
 20
19.776568
 30
0.0
 40
1.3
 50
270.0
 51
90.0
  0
ARC
  5
E36E
  8
ALPHA
 10
24.115015
 20
19.776568
 30
0.0
 40
1.3
 50
90.0
 51
270.0
  0
LINE
  5
E372
  8
ALPHA
 10
22.665015
 20
-2.273432
 30
0.0
 11
46.665015
 21
-2.273432
 31
0.0
  0
LINE
  5
E373
  8
ALPHA
 10
22.665015
 20
-0.973432
 30
0.0
 11
46.665015
 21
-0.973432
 31
0.0
  0
LINE
  5
E374
  8
ALPHA
 10
21.765141
 20
-0.773432
 30
0.0
 11
47.564935
 21
-0.773432
 31
0.0
  0
LINE
  5
E375
  8
ALPHA
 10
29.685055
 20
1.226568
 30
0.0
 11
39.644974
 21
1.226568
 31
0.0
  0
LINE
  5
E376
  8
ALPHA
 10
23.115015
 20
8.726568
 30
0.0
 11
46.215015
 21
8.726568
 31
0.0
  0
LINE
  5
E377
  8
ALPHA
 10
23.115015
 20
9.876568
 30
0.0
 11
46.215015
 21
9.876568
 31
0.0
  0
POLYLINE
  5
E378
  8
ALPHA
 66
     1
 10
0.0
 20
0.0
 30
0.0
  0
VERTEX
  5
E5ED
  8
ALPHA
 10
29.685055
 20
7.376568
 30
0.0
  0
VERTEX
  5
E5EE
  8
ALPHA
 10
30.980957
 20
7.81935
 30
0.0
  0
VERTEX
  5
E5EF
  8
ALPHA
 10
32.229072
 20
8.129806
 30
0.0
  0
VERTEX
  5
E5F0
  8
ALPHA
 10
33.452492
 20
8.314954
 30
0.0
  0
VERTEX
  5
E5F1
  8
ALPHA
 10
34.665484
 20
8.376568
 30
0.0
  0
VERTEX
  5
E5F2
  8
ALPHA
 10
35.878391
 20
8.314867
 30
0.0
  0
VERTEX
  5
E5F3
  8
ALPHA
 10
37.101622
 20
8.129673
 30
0.0
  0
VERTEX
  5
E5F4
  8
ALPHA
 10
38.349298
 20
7.819283
 30
0.0
  0
VERTEX
  5
E5F5
  8
ALPHA
 10
39.644974
 20
7.376568
 30
0.0
  0
SEQEND
  5
E5F6
  8
ALPHA
  0
LINE
  5
E379
  8
ALPHA
 10
45.365015
 20
13.911106
 30
0.0
 11
23.965015
 21
13.911106
 31
0.0
  0
LINE
  5
E37A
  8
ALPHA
 10
23.965015
 20
14.078364
 30
0.0
 11
45.365015
 21
14.078364
 31
0.0
  0
LINE
  5
E37B
  8
ALPHA
 10
23.892198
 20
14.45297
 30
0.0
 11
45.437831
 21
14.45297
 31
0.0
  0
LINE
  5
E37C
  8
ALPHA
 10
45.996566
 20
15.835889
 30
0.0
 11
23.333463
 21
15.835889
 31
0.0
  0
LINE
  5
E37D
  8
ALPHA
 10
45.821458
 20
16.959709
 30
0.0
 11
24.19716
 21
16.959709
 31
0.0
  0
LINE
  5
E37E
  8
ALPHA
 10
23.315015
 20
18.276568
 30
0.0
 11
46.015015
 21
18.276568
 31
0.0
  0
LINE
  5
E37F
  8
ALPHA
 10
45.215015
 20
18.476568
 30
0.0
 11
24.115015
 21
18.476568
 31
0.0
  0
LINE
  5
E385
  8
ALPHA
 10
22.765015
 20
4.576568
 30
0.0
 11
22.765015
 21
8.376568
 31
0.0
  0
LINE
  5
E386
  8
ALPHA
 10
21.765015
 20
1.226568
 30
0.0
 11
22.765015
 21
1.226568
 31
0.0
  0
LINE
  5
E387
  8
ALPHA
 10
21.765015
 20
-0.773432
 30
0.0
 11
21.765015
 21
1.226568
 31
0.0
  0
LINE
  5
E388
  8
ALPHA
 10
29.685055
 20
1.226568
 30
0.0
 11
29.685055
 21
7.376568
 31
0.0
  0
LINE
  5
E389
  8
ALPHA
 10
22.765015
 20
1.226568
 30
0.0
 11
22.765015
 21
2.576568
 31
0.0
  0
LINE
  5
E38A
  8
ALPHA
 10
22.865015
 20
2.576568
 30
0.0
 11
22.865015
 21
4.576568
 31
0.0
  0
LINE
  5
E38B
  8
ALPHA
 10
22.765015
 20
2.576568
 30
0.0
 11
22.865015
 21
2.576568
 31
0.0
  0
LINE
  5
E38C
  8
ALPHA
 10
22.765015
 20
4.576568
 30
0.0
 11
22.865015
 21
4.576568
 31
0.0
  0
LINE
  5
E38D
  8
ALPHA
 10
22.765015
 20
7.376568
 30
0.0
 11
29.685055
 21
7.376568
 31
0.0
  0
LINE
  5
E38E
  8
ALPHA
 10
22.665015
 20
-2.273432
 30
0.0
 11
22.665015
 21
-0.973432
 31
0.0
  0
ARC
  5
E38F
  8
ALPHA
 10
22.865015
 20
-0.973432
 30
0.0
 40
0.2
 50
90.0
 51
180.0
  0
LINE
  5
E391
  8
ALPHA
 10
24.089675
 20
16.904227
 30
0.0
 11
24.034735
 21
16.541704
 31
0.0
  0
LINE
  5
E392
  8
ALPHA
 10
24.089675
 20
17.248908
 30
0.0
 11
24.147314
 21
17.614188
 31
0.0
  0
LINE
  5
E393
  8
ALPHA
 10
24.167415
 20
17.428088
 30
0.0
 11
24.113997
 21
17.095717
 31
0.0
  0
LINE
  5
E394
  8
ALPHA
 10
24.147314
 20
17.614188
 30
0.0
 11
24.197134
 21
17.918669
 31
0.0
  0
LINE
  5
E395
  8
ALPHA
 10
24.197122
 20
17.607886
 30
0.0
 11
24.167415
 21
17.428088
 31
0.0
  0
LINE
  5
E396
  8
ALPHA
 10
24.19716
 20
16.959709
 30
0.0
 11
24.19716
 21
18.276568
 31
0.0
  0
POLYLINE
  5
E397
  8
ALPHA
 66
     1
 10
0.0
 20
0.0
 30
0.0
  0
VERTEX
  5
E5F7
  8
ALPHA
 10
24.378421
 20
15.882676
 30
0.0
  0
VERTEX
  5
E5F8
  8
ALPHA
 10
24.278273
 20
16.232397
 30
0.0
  0
VERTEX
  5
E5F9
  8
ALPHA
 10
24.217515
 20
16.593299
 30
0.0
  0
VERTEX
  5
E5FA
  8
ALPHA
 10
24.19716
 20
16.959709
 30
0.0
  0
SEQEND
  5
E5FB
  8
ALPHA
  0
LINE
  5
E398
  8
ALPHA
 10
24.210023
 20
16.480914
 30
0.0
 11
24.259842
 21
16.176568
 31
0.0
  0
LINE
  5
E399
  8
ALPHA
 10
24.206793
 20
16.176568
 30
0.0
 11
24.147314
 21
16.538948
 31
0.0
  0
LINE
  5
E39A
  8
ALPHA
 10
24.161405
 20
16.787297
 30
0.0
 11
24.210023
 21
16.480914
 31
0.0
  0
LINE
  5
E39B
  8
ALPHA
 10
24.147314
 20
16.538948
 30
0.0
 11
24.089675
 21
16.904227
 31
0.0
  0
LINE
  5
E39C
  8
ALPHA
 10
24.113997
 20
17.095717
 30
0.0
 11
24.161405
 21
16.787297
 31
0.0
  0
LINE
  5
E39D
  8
ALPHA
 10
24.034735
 20
17.611432
 30
0.0
 11
24.089675
 21
17.248908
 31
0.0
  0
LINE
  5
E39E
  8
ALPHA
 10
24.259842
 20
16.176568
 30
0.0
 11
24.206793
 21
16.176568
 31
0.0
  0
ARC
  5
E39F
  8
ALPHA
 10
24.465015
 20
18.676568
 30
0.0
 40
0.4
 50
270.0
 51
329.668273
  0
LINE
  5
E3A0
  8
ALPHA
 10
23.315015
 20
18.276568
 30
0.0
 11
23.315015
 21
15.882676
 31
0.0
  0
LINE
  5
E3A1
  8
ALPHA
 10
23.318593
 20
16.827632
 30
0.0
 11
23.318593
 21
17.019121
 31
0.0
  0
LINE
  5
E3A2
  8
ALPHA
 10
23.329526
 20
17.019121
 30
0.0
 11
23.329526
 21
16.827632
 31
0.0
  0
LINE
  5
E3A3
  8
ALPHA
 10
23.447443
 20
16.176568
 30
0.0
 11
23.475922
 21
16.637011
 31
0.0
  0
LINE
  5
E3A4
  8
ALPHA
 10
23.492099
 20
16.540989
 30
0.0
 11
23.467214
 21
16.176568
 31
0.0
  0
LINE
  5
E3A5
  8
ALPHA
 10
23.475922
 20
16.637011
 30
0.0
 11
23.507116
 21
17.095717
 31
0.0
  0
LINE
  5
E3A6
  8
ALPHA
 10
23.518825
 20
16.904227
 30
0.0
 11
23.492099
 21
16.540989
 31
0.0
  0
LINE
  5
E3A7
  8
ALPHA
 10
23.518825
 20
17.248908
 30
0.0
 11
23.547589
 21
17.613442
 31
0.0
  0
LINE
  5
E3A8
  8
ALPHA
 10
23.567109
 20
17.537218
 30
0.0
 11
23.53089
 21
17.095717
 31
0.0
  0
LINE
  5
E3A9
  8
ALPHA
 10
23.547589
 20
17.613442
 30
0.0
 11
23.578194
 21
17.976568
 31
0.0
  0
LINE
  5
E3AA
  8
ALPHA
 10
23.606043
 20
17.976568
 30
0.0
 11
23.567109
 21
17.537218
 31
0.0
  0
LINE
  5
E3AB
  8
ALPHA
 10
23.645446
 20
16.176568
 30
0.0
 11
23.690323
 21
16.637518
 31
0.0
  0
LINE
  5
E3AC
  8
ALPHA
 10
23.690323
 20
16.637518
 30
0.0
 11
23.737918
 21
17.095717
 31
0.0
  0
LINE
  5
E3AD
  8
ALPHA
 10
23.71518
 20
16.541322
 30
0.0
 11
23.676717
 21
16.176568
 31
0.0
  0
LINE
  5
E3AE
  8
ALPHA
 10
23.755488
 20
16.904227
 30
0.0
 11
23.71518
 21
16.541322
 31
0.0
  0
LINE
  5
E3AF
  8
ALPHA
 10
23.755488
 20
17.248908
 30
0.0
 11
23.79809
 21
17.613787
 31
0.0
  0
LINE
  5
E3B0
  8
ALPHA
 10
23.808557
 20
17.390746
 30
0.0
 11
23.773437
 21
17.095717
 31
0.0
  0
LINE
  5
E3B1
  8
ALPHA
 10
23.79809
 20
17.613787
 30
0.0
 11
23.842533
 21
17.976568
 31
0.0
  0
LINE
  5
E3B2
  8
ALPHA
 10
23.844886
 20
17.684363
 30
0.0
 11
23.808557
 21
17.390746
 31
0.0
  0
LINE
  5
E3B3
  8
ALPHA
 10
23.88242
 20
17.976568
 30
0.0
 11
23.844886
 21
17.684363
 31
0.0
  0
LINE
  5
E3B4
  8
ALPHA
 10
23.938054
 20
16.176568
 30
0.0
 11
23.979416
 21
16.484689
 31
0.0
  0
LINE
  5
E3B5
  8
ALPHA
 10
23.979416
 20
16.484689
 30
0.0
 11
24.02199
 21
16.791072
 31
0.0
  0
LINE
  5
E3B6
  8
ALPHA
 10
23.721752
 20
17.241796
 30
0.0
 11
23.690322
 21
17.534829
 31
0.0
  0
POLYLINE
  5
E3B7
  8
ALPHA
 66
     1
 10
0.0
 20
0.0
 30
0.0
  0
VERTEX
  5
E5FC
  8
ALPHA
 10
23.676717
 20
17.976568
 30
0.0
  0
VERTEX
  5
E5FD
  8
ALPHA
 10
23.689332
 20
17.854778
 30
0.0
  0
VERTEX
  5
E5FE
  8
ALPHA
 10
23.728411
 20
17.49064
 30
0.0
  0
SEQEND
  5
E5FF
  8
ALPHA
  0
POLYLINE
  5
E3B8
  8
ALPHA
 66
     1
 10
0.0
 20
0.0
 30
0.0
  0
VERTEX
  5
E600
  8
ALPHA
 10
23.690322
 20
17.534829
 30
0.0
  0
VERTEX
  5
E601
  8
ALPHA
 10
23.660101
 20
17.82903
 30
0.0
  0
VERTEX
  5
E602
  8
ALPHA
 10
23.645446
 20
17.976568
 30
0.0
  0
SEQEND
  5
E603
  8
ALPHA
  0
LINE
  5
E3B9
  8
ALPHA
 10
23.578194
 20
16.176568
 30
0.0
 11
23.547589
 21
16.539694
 31
0.0
  0
LINE
  5
E3BA
  8
ALPHA
 10
23.56711
 20
16.635017
 30
0.0
 11
23.606043
 21
16.176568
 31
0.0
  0
LINE
  5
E3BB
  8
ALPHA
 10
23.547589
 20
16.539694
 30
0.0
 11
23.518825
 21
16.904227
 31
0.0
  0
LINE
  5
E3BC
  8
ALPHA
 10
23.53089
 20
17.095717
 30
0.0
 11
23.56711
 21
16.635017
 31
0.0
  0
LINE
  5
E3BD
  8
ALPHA
 10
23.492099
 20
17.612147
 30
0.0
 11
23.518825
 21
17.248908
 31
0.0
  0
LINE
  5
E3BE
  8
ALPHA
 10
23.507116
 20
17.095717
 30
0.0
 11
23.475922
 21
17.535314
 31
0.0
  0
LINE
  5
E3BF
  8
ALPHA
 10
23.467214
 20
17.976568
 30
0.0
 11
23.492099
 21
17.612147
 31
0.0
  0
LINE
  5
E3C0
  8
ALPHA
 10
23.475922
 20
17.535314
 30
0.0
 11
23.447443
 21
17.976568
 31
0.0
  0
LINE
  5
E3C1
  8
ALPHA
 10
23.965015
 20
13.911106
 30
0.0
 11
23.965015
 21
14.078364
 31
0.0
  0
LINE
  5
E3C2
  8
ALPHA
 10
23.844887
 20
16.481472
 30
0.0
 11
23.88242
 21
16.176568
 31
0.0
  0
LINE
  5
E3C3
  8
ALPHA
 10
23.842533
 20
16.176568
 30
0.0
 11
23.79809
 21
16.539349
 31
0.0
  0
LINE
  5
E3C4
  8
ALPHA
 10
23.808557
 20
16.787855
 30
0.0
 11
23.844887
 21
16.481472
 31
0.0
  0
LINE
  5
E3C5
  8
ALPHA
 10
23.79809
 20
16.539349
 30
0.0
 11
23.755488
 21
16.904227
 31
0.0
  0
LINE
  5
E3C6
  8
ALPHA
 10
23.773437
 20
17.095717
 30
0.0
 11
23.808557
 21
16.787855
 31
0.0
  0
LINE
  5
E3C7
  8
ALPHA
 10
23.728411
 20
17.49064
 30
0.0
 11
23.755488
 21
17.248908
 31
0.0
  0
LINE
  5
E3C8
  8
ALPHA
 10
23.737918
 20
17.095717
 30
0.0
 11
23.721752
 21
17.241796
 31
0.0
  0
LINE
  5
E3C9
  8
ALPHA
 10
23.892198
 20
14.45297
 30
0.0
 11
23.333463
 21
15.835889
 31
0.0
  0
LINE
  5
E3CA
  8
ALPHA
 10
23.333463
 20
15.835889
 30
0.0
 11
23.315015
 21
15.882676
 31
0.0
  0
LINE
  5
E3CB
  8
ALPHA
 10
24.021989
 20
17.387675
 30
0.0
 11
23.979415
 21
17.681292
 31
0.0
  0
LINE
  5
E3CC
  8
ALPHA
 10
23.979415
 20
17.681292
 30
0.0
 11
23.938054
 21
17.976568
 31
0.0
  0
LINE
  5
E3CD
  8
ALPHA
 10
23.676717
 20
16.176568
 30
0.0
 11
23.645446
 21
16.176568
 31
0.0
  0
LINE
  5
E3CE
  8
ALPHA
 10
23.981642
 20
16.176568
 30
0.0
 11
23.938054
 21
16.176568
 31
0.0
  0
LINE
  5
E3CF
  8
ALPHA
 10
23.88242
 20
16.176568
 30
0.0
 11
23.842533
 21
16.176568
 31
0.0
  0
LINE
  5
E3D0
  8
ALPHA
 10
23.467214
 20
16.176568
 30
0.0
 11
23.447443
 21
16.176568
 31
0.0
  0
LINE
  5
E3D1
  8
ALPHA
 10
23.606043
 20
16.176568
 30
0.0
 11
23.578194
 21
16.176568
 31
0.0
  0
LINE
  5
E3D2
  8
ALPHA
 10
23.329526
 20
16.827632
 30
0.0
 11
23.318593
 21
16.827632
 31
0.0
  0
LINE
  5
E3D3
  8
ALPHA
 10
23.318593
 20
17.019121
 30
0.0
 11
23.329526
 21
17.019121
 31
0.0
  0
LINE
  5
E3D4
  8
ALPHA
 10
23.447443
 20
17.976568
 30
0.0
 11
23.467214
 21
17.976568
 31
0.0
  0
LINE
  5
E3D5
  8
ALPHA
 10
23.578194
 20
17.976568
 30
0.0
 11
23.606043
 21
17.976568
 31
0.0
  0
LINE
  5
E3D6
  8
ALPHA
 10
23.645446
 20
17.976568
 30
0.0
 11
23.676717
 21
17.976568
 31
0.0
  0
LINE
  5
E3D7
  8
ALPHA
 10
23.842533
 20
17.976568
 30
0.0
 11
23.88242
 21
17.976568
 31
0.0
  0
LINE
  5
E3D8
  8
ALPHA
 10
23.938054
 20
17.976568
 30
0.0
 11
23.981642
 21
17.976568
 31
0.0
  0
ARC
  5
E3D9
  8
ALPHA
 10
22.965015
 20
14.078364
 30
0.0
 40
1.0
 50
0.0
 51
22.0
  0
LINE
  5
E3DA
  8
ALPHA
 10
24.02199
 20
16.791072
 30
0.0
 11
24.06577
 21
17.095717
 31
0.0
  0
LINE
  5
E3DB
  8
ALPHA
 10
24.034735
 20
16.541704
 30
0.0
 11
23.981642
 21
16.176568
 31
0.0
  0
LINE
  5
E3DC
  8
ALPHA
 10
24.06577
 20
17.095717
 30
0.0
 11
24.021989
 21
17.387675
 31
0.0
  0
LINE
  5
E3DD
  8
ALPHA
 10
23.981642
 20
17.976568
 30
0.0
 11
24.034735
 21
17.611432
 31
0.0
  0
LINE
  5
E3DE
  8
ALPHA
 10
24.378421
 20
15.882676
 30
0.0
 11
23.315015
 21
15.882676
 31
0.0
  0
LINE
  5
E3DF
  8
ALPHA
 10
23.115015
 20
8.726568
 30
0.0
 11
23.115015
 21
9.876568
 31
0.0
  0
LINE
  5
E3E0
  8
ALPHA
 10
22.765015
 20
8.376568
 30
0.0
 11
23.115015
 21
8.726568
 31
0.0
  0
ARC
  5
E3E1
  8
ALPHA
 10
13.965015
 20
13.911106
 30
0.0
 40
10.0
 50
336.205727
 51
0.0
  0
LINE
  5
E3E2
  8
ALPHA
 10
46.565015
 20
1.226568
 30
0.0
 11
47.565015
 21
1.226568
 31
0.0
  0
LINE
  5
E3E3
  8
ALPHA
 10
46.565015
 20
4.576568
 30
0.0
 11
46.565015
 21
8.376568
 31
0.0
  0
LINE
  5
E3E4
  8
ALPHA
 10
46.665015
 20
-2.273432
 30
0.0
 11
46.665015
 21
-0.973432
 31
0.0
  0
LINE
  5
E3E5
  8
ALPHA
 10
46.465015
 20
2.576568
 30
0.0
 11
46.565015
 21
2.576568
 31
0.0
  0
LINE
  5
E3E6
  8
ALPHA
 10
46.465015
 20
4.576568
 30
0.0
 11
46.565015
 21
4.576568
 31
0.0
  0
LINE
  5
E3E7
  8
ALPHA
 10
46.465015
 20
2.576568
 30
0.0
 11
46.465015
 21
4.576568
 31
0.0
  0
LINE
  5
E3E8
  8
ALPHA
 10
46.565015
 20
1.226568
 30
0.0
 11
46.565015
 21
2.576568
 31
0.0
  0
LINE
  5
E3E9
  8
ALPHA
 10
39.644974
 20
1.226568
 30
0.0
 11
39.644974
 21
7.376568
 31
0.0
  0
LINE
  5
E3EA
  8
ALPHA
 10
39.644974
 20
7.376568
 30
0.0
 11
46.565015
 21
7.376568
 31
0.0
  0
ARC
  5
E3EB
  8
ALPHA
 10
46.465015
 20
-0.973432
 30
0.0
 40
0.2
 50
0.0
 51
72.0
  0
LINE
  5
E3EC
  8
ALPHA
 10
45.628273
 20
15.882676
 30
0.0
 11
46.015015
 21
15.882676
 31
0.0
  0
LINE
  5
E3ED
  8
ALPHA
 10
45.996566
 20
15.835889
 30
0.0
 11
46.015015
 21
15.882676
 31
0.0
  0
LINE
  5
E3EE
  8
ALPHA
 10
45.437831
 20
14.45297
 30
0.0
 11
45.996566
 21
15.835889
 31
0.0
  0
POLYLINE
  5
E3EF
  8
ALPHA
 66
     1
 10
0.0
 20
0.0
 30
0.0
  0
VERTEX
  5
E604
  8
ALPHA
 10
45.628273
 20
15.882676
 30
0.0
  0
VERTEX
  5
E605
  8
ALPHA
 10
45.735009
 20
16.232397
 30
0.0
  0
VERTEX
  5
E606
  8
ALPHA
 10
45.799763
 20
16.593299
 30
0.0
  0
VERTEX
  5
E607
  8
ALPHA
 10
45.821458
 20
16.959709
 30
0.0
  0
SEQEND
  5
E608
  8
ALPHA
  0
LINE
  5
E3F0
  8
ALPHA
 10
45.365015
 20
13.911106
 30
0.0
 11
45.365015
 21
14.078364
 31
0.0
  0
LINE
  5
E3F1
  8
ALPHA
 10
45.821458
 20
16.959709
 30
0.0
 11
45.821458
 21
18.276568
 31
0.0
  0
LINE
  5
E3F2
  8
ALPHA
 10
46.015015
 20
15.882676
 30
0.0
 11
46.015015
 21
18.276568
 31
0.0
  0
ARC
  5
E3F3
  8
ALPHA
 10
46.365015
 20
14.078364
 30
0.0
 40
1.0
 50
158.0
 51
180.0
  0
ARC
  5
E3F4
  8
ALPHA
 10
44.865015
 20
18.676568
 30
0.0
 40
0.4
 50
210.331727
 51
270.0
  0
LINE
  5
E3F5
  8
ALPHA
 10
46.565015
 20
8.376568
 30
0.0
 11
46.215015
 21
8.726568
 31
0.0
  0
LINE
  5
E3F6
  8
ALPHA
 10
46.215015
 20
8.726568
 30
0.0
 11
46.215015
 21
9.876568
 31
0.0
  0
ARC
  5
E3F7
  8
ALPHA
 10
55.365015
 20
13.911106
 30
0.0
 40
10.0
 50
180.0
 51
203.794273
  0
LINE
  5
E3F8
  8
ALPHA
 10
47.565015
 20
-0.773432
 30
0.0
 11
47.565015
 21
1.226568
 31
0.0
  0
LINE
  5
E3F9
  8
ALPHA
 10
45.915015
 20
21.076568
 30
0.0
 11
23.415015
 21
21.076568
 31
0.0
  0
LINE
  5
E3FA
  8
ALPHA
 10
22.015015
 20
21.576568
 30
0.0
 11
47.315015
 21
21.576568
 31
0.0
  0
LINE
  5
E3FB
  8
ALPHA
 10
22.052538
 20
25.426568
 30
0.0
 11
47.277491
 21
25.426568
 31
0.0
  0
LINE
  5
E3FD
  8
ALPHA
 10
22.133868
 20
22.376568
 30
0.0
 11
22.726157
 21
22.376568
 31
0.0
  0
LINE
  5
E3FE
  8
ALPHA
 10
22.721416
 20
22.576568
 30
0.0
 11
22.351611
 21
22.576568
 31
0.0
  0
LINE
  5
E3FF
  8
ALPHA
 10
22.015015
 20
23.576568
 30
0.0
 11
22.015015
 21
21.576568
 31
0.0
  0
POLYLINE
  5
E400
  8
ALPHA
 66
     1
 10
0.0
 20
0.0
 30
0.0
  0
VERTEX
  5
E609
  8
ALPHA
 10
22.333076
 20
22.575715
 30
0.0
  0
VERTEX
  5
E60A
  8
ALPHA
 10
22.339244
 20
22.576189
 30
0.0
  0
VERTEX
  5
E60B
  8
ALPHA
 10
22.345425
 20
22.576473
 30
0.0
  0
VERTEX
  5
E60C
  8
ALPHA
 10
22.351611
 20
22.576568
 30
0.0
  0
SEQEND
  5
E60D
  8
ALPHA
  0
LINE
  5
E401
  8
ALPHA
 10
22.052538
 20
23.576568
 30
0.0
 11
22.015015
 21
23.576568
 31
0.0
  0
POLYLINE
  5
E402
  8
ALPHA
 66
     1
 10
0.0
 20
0.0
 30
0.0
  0
VERTEX
  5
E60E
  8
ALPHA
 10
22.333076
 20
22.575715
 30
0.0
  0
VERTEX
  5
E60F
  8
ALPHA
 10
22.26257
 20
22.556454
 30
0.0
  0
VERTEX
  5
E610
  8
ALPHA
 10
22.208213
 20
22.520746
 30
0.0
  0
VERTEX
  5
E611
  8
ALPHA
 10
22.169255
 20
22.475986
 30
0.0
  0
VERTEX
  5
E612
  8
ALPHA
 10
22.144731
 20
22.426667
 30
0.0
  0
VERTEX
  5
E613
  8
ALPHA
 10
22.133868
 20
22.376568
 30
0.0
  0
SEQEND
  5
E614
  8
ALPHA
  0
LINE
  5
E403
  8
ALPHA
 10
22.052538
 20
25.426568
 30
0.0
 11
22.052538
 21
23.576568
 31
0.0
  0
LINE
  5
E404
  8
ALPHA
 10
22.133868
 20
25.426568
 30
0.0
 11
22.133868
 21
22.376568
 31
0.0
  0
LINE
  5
E405
  8
ALPHA
 10
22.333076
 20
25.426568
 30
0.0
 11
22.333076
 21
22.575715
 31
0.0
  0
LINE
  5
E406
  8
ALPHA
 10
27.215015
 20
25.426568
 30
0.0
 11
26.965015
 21
25.176568
 31
0.0
  0
POLYLINE
  5
E407
  8
ALPHA
 66
     1
 10
0.0
 20
0.0
 30
0.0
  0
VERTEX
  5
E615
  8
ALPHA
 10
23.110387
 20
25.170399
 30
0.0
  0
VERTEX
  5
E616
  8
ALPHA
 10
23.035057
 20
25.137626
 30
0.0
  0
VERTEX
  5
E617
  8
ALPHA
 10
22.978111
 20
25.089577
 30
0.0
  0
VERTEX
  5
E618
  8
ALPHA
 10
22.938742
 20
25.034193
 30
0.0
  0
VERTEX
  5
E619
  8
ALPHA
 10
22.916396
 20
24.976568
 30
0.0
  0
SEQEND
  5
E61A
  8
ALPHA
  0
LINE
  5
E408
  8
ALPHA
 10
22.463396
 20
24.442229
 30
0.0
 11
22.466406
 21
24.476568
 31
0.0
  0
LINE
  5
E409
  8
ALPHA
 10
22.721416
 20
24.433427
 30
0.0
 11
22.726157
 21
24.476568
 31
0.0
  0
LINE
  5
E40A
  8
ALPHA
 10
22.463396
 20
24.442222
 30
0.0
 11
22.463396
 21
25.010914
 31
0.0
  0
LINE
  5
E40B
  8
ALPHA
 10
22.466406
 20
24.476568
 30
0.0
 11
22.466406
 21
24.976568
 31
0.0
  0
LINE
  5
E40C
  8
ALPHA
 10
22.463396
 20
25.010907
 30
0.0
 11
22.466406
 21
24.976568
 31
0.0
  0
LINE
  5
E40D
  8
ALPHA
 10
22.726157
 20
24.476568
 30
0.0
 11
22.466406
 21
24.476568
 31
0.0
  0
LINE
  5
E40E
  8
ALPHA
 10
22.466406
 20
24.976568
 30
0.0
 11
22.916396
 21
24.976568
 31
0.0
  0
LINE
  5
E40F
  8
ALPHA
 10
23.110387
 20
25.176568
 30
0.0
 11
22.629494
 21
25.176568
 31
0.0
  0
POLYLINE
  5
E410
  8
ALPHA
 66
     1
 10
0.0
 20
0.0
 30
0.0
  0
VERTEX
  5
E61B
  8
ALPHA
 10
23.110387
 20
25.170399
 30
0.0
  0
VERTEX
  5
E61C
  8
ALPHA
 10
23.127142
 20
25.173816
 30
0.0
  0
VERTEX
  5
E61D
  8
ALPHA
 10
23.144151
 20
25.175878
 30
0.0
  0
VERTEX
  5
E61E
  8
ALPHA
 10
23.161289
 20
25.176568
 30
0.0
  0
SEQEND
  5
E61F
  8
ALPHA
  0
POLYLINE
  5
E411
  8
ALPHA
 66
     1
 10
0.0
 20
0.0
 30
0.0
  0
VERTEX
  5
E620
  8
ALPHA
 10
22.629494
 20
25.176568
 30
0.0
  0
VERTEX
  5
E621
  8
ALPHA
 10
22.567973
 20
25.165979
 30
0.0
  0
VERTEX
  5
E622
  8
ALPHA
 10
22.521918
 20
25.13994
 30
0.0
  0
VERTEX
  5
E623
  8
ALPHA
 10
22.490122
 20
25.10456
 30
0.0
  0
VERTEX
  5
E624
  8
ALPHA
 10
22.471093
 20
25.063663
 30
0.0
  0
VERTEX
  5
E625
  8
ALPHA
 10
22.463611
 20
25.020073
 30
0.0
  0
VERTEX
  5
E626
  8
ALPHA
 10
22.463396
 20
25.010907
 30
0.0
  0
SEQEND
  5
E627
  8
ALPHA
  0
LINE
  5
E412
  8
ALPHA
 10
26.965015
 20
25.176568
 30
0.0
 11
23.161289
 21
25.176568
 31
0.0
  0
POLYLINE
  5
E413
  8
ALPHA
 66
     1
 10
0.0
 20
0.0
 30
0.0
  0
VERTEX
  5
E628
  8
ALPHA
 10
25.031326
 20
21.376568
 30
0.0
  0
VERTEX
  5
E629
  8
ALPHA
 10
25.070617
 20
21.328104
 30
0.0
  0
VERTEX
  5
E62A
  8
ALPHA
 10
25.10205
 20
21.27582
 30
0.0
  0
VERTEX
  5
E62B
  8
ALPHA
 10
25.12366
 20
21.22255
 30
0.0
  0
VERTEX
  5
E62C
  8
ALPHA
 10
25.134465
 20
21.173152
 30
0.0
  0
VERTEX
  5
E62D
  8
ALPHA
 10
25.13573
 20
21.131971
 30
0.0
  0
VERTEX
  5
E62E
  8
ALPHA
 10
25.129966
 20
21.101436
 30
0.0
  0
VERTEX
  5
E62F
  8
ALPHA
 10
25.119649
 20
21.082828
 30
0.0
  0
VERTEX
  5
E630
  8
ALPHA
 10
25.106534
 20
21.076568
 30
0.0
  0
SEQEND
  5
E631
  8
ALPHA
  0
POLYLINE
  5
E414
  8
ALPHA
 66
     1
 10
0.0
 20
0.0
 30
0.0
  0
VERTEX
  5
E632
  8
ALPHA
 10
25.031326
 20
21.376568
 30
0.0
  0
VERTEX
  5
E633
  8
ALPHA
 10
24.958066
 20
21.44391
 30
0.0
  0
VERTEX
  5
E634
  8
ALPHA
 10
24.874214
 20
21.499003
 30
0.0
  0
VERTEX
  5
E635
  8
ALPHA
 10
24.780882
 20
21.540604
 30
0.0
  0
VERTEX
  5
E636
  8
ALPHA
 10
24.679095
 20
21.567149
 30
0.0
  0
VERTEX
  5
E637
  8
ALPHA
 10
24.569966
 20
21.576568
 30
0.0
  0
SEQEND
  5
E638
  8
ALPHA
  0
POLYLINE
  5
E415
  8
ALPHA
 66
     1
 10
0.0
 20
0.0
 30
0.0
  0
VERTEX
  5
E639
  8
ALPHA
 10
22.721416
 20
22.476984
 30
0.0
  0
VERTEX
  5
E63A
  8
ALPHA
 10
22.717985
 20
22.466023
 30
0.0
  0
VERTEX
  5
E63B
  8
ALPHA
 10
22.716407
 20
22.423745
 30
0.0
  0
SEQEND
  5
E63C
  8
ALPHA
  0
LINE
  5
E416
  8
ALPHA
 10
23.115015
 20
21.576568
 30
0.0
 11
23.115015
 21
21.376568
 31
0.0
  0
LINE
  5
E417
  8
ALPHA
 10
23.338015
 20
21.376568
 30
0.0
 11
23.338015
 21
21.576568
 31
0.0
  0
LINE
  5
E418
  8
ALPHA
 10
22.721416
 20
22.441283
 30
0.0
 11
22.726157
 21
22.376601
 31
0.0
  0
LINE
  5
E419
  8
ALPHA
 10
23.632223
 20
21.076568
 30
0.0
 11
23.632223
 21
21.576568
 31
0.0
  0
LINE
  5
E41A
  8
ALPHA
 10
22.716407
 20
22.423745
 30
0.0
 11
22.72615
 21
22.376568
 31
0.0
  0
POLYLINE
  5
E41B
  8
ALPHA
 66
     1
 10
0.0
 20
0.0
 30
0.0
  0
VERTEX
  5
E63D
  8
ALPHA
 10
23.459292
 20
21.133863
 30
0.0
  0
VERTEX
  5
E63E
  8
ALPHA
 10
23.394203
 20
21.200232
 30
0.0
  0
VERTEX
  5
E63F
  8
ALPHA
 10
23.352414
 20
21.283863
 30
0.0
  0
VERTEX
  5
E640
  8
ALPHA
 10
23.338015
 20
21.376568
 30
0.0
  0
SEQEND
  5
E641
  8
ALPHA
  0
POLYLINE
  5
E41C
  8
ALPHA
 66
     1
 10
0.0
 20
0.0
 30
0.0
  0
VERTEX
  5
E642
  8
ALPHA
 10
23.632223
 20
21.076568
 30
0.0
  0
VERTEX
  5
E643
  8
ALPHA
 10
23.541307
 20
21.091251
 30
0.0
  0
VERTEX
  5
E644
  8
ALPHA
 10
23.459292
 20
21.133863
 30
0.0
  0
SEQEND
  5
E645
  8
ALPHA
  0
LINE
  5
E41D
  8
ALPHA
 10
22.629494
 20
24.276568
 30
0.0
 11
22.721416
 21
24.276568
 31
0.0
  0
ARC
  5
E41E
  8
ALPHA
 10
23.415015
 20
21.376568
 30
0.0
 40
0.3
 50
180.0
 51
270.0
  0
LINE
  5
E41F
  8
ALPHA
 10
23.115015
 20
21.376568
 30
0.0
 11
25.031326
 21
21.376568
 31
0.0
  0
LINE
  5
E420
  8
ALPHA
 10
22.721416
 20
22.441082
 30
0.0
 11
22.721416
 21
24.433426
 31
0.0
  0
LINE
  5
E421
  8
ALPHA
 10
22.726157
 20
22.376601
 30
0.0
 11
22.726157
 21
24.476568
 31
0.0
  0
LINE
  5
E422
  8
ALPHA
 10
22.916396
 20
24.976568
 30
0.0
 11
22.916396
 21
21.576568
 31
0.0
  0
LINE
  5
E423
  8
ALPHA
 10
23.110387
 20
25.170399
 30
0.0
 11
23.110387
 21
21.576568
 31
0.0
  0
LINE
  5
E424
  8
ALPHA
 10
26.965015
 20
21.576568
 30
0.0
 11
26.965015
 21
25.426568
 31
0.0
  0
LINE
  5
E425
  8
ALPHA
 10
27.165015
 20
21.576568
 30
0.0
 11
27.165015
 21
25.426568
 31
0.0
  0
POLYLINE
  5
E426
  8
ALPHA
 66
     1
 10
0.0
 20
0.0
 30
0.0
  0
VERTEX
  5
E646
  8
ALPHA
 10
22.629494
 20
24.276568
 30
0.0
  0
VERTEX
  5
E647
  8
ALPHA
 10
22.567973
 20
24.287156
 30
0.0
  0
VERTEX
  5
E648
  8
ALPHA
 10
22.521918
 20
24.313196
 30
0.0
  0
VERTEX
  5
E649
  8
ALPHA
 10
22.490122
 20
24.348575
 30
0.0
  0
VERTEX
  5
E64A
  8
ALPHA
 10
22.471093
 20
24.389473
 30
0.0
  0
VERTEX
  5
E64B
  8
ALPHA
 10
22.463611
 20
24.433062
 30
0.0
  0
VERTEX
  5
E64C
  8
ALPHA
 10
22.463396
 20
24.442229
 30
0.0
  0
SEQEND
  5
E64D
  8
ALPHA
  0
LINE
  5
E427
  8
ALPHA
 10
46.603873
 20
22.376568
 30
0.0
 11
47.196161
 21
22.376568
 31
0.0
  0
LINE
  5
E428
  8
ALPHA
 10
46.978418
 20
22.576568
 30
0.0
 11
46.608614
 21
22.576568
 31
0.0
  0
LINE
  5
E429
  8
ALPHA
 10
46.866633
 20
25.010907
 30
0.0
 11
46.863624
 21
24.976568
 31
0.0
  0
LINE
  5
E42A
  8
ALPHA
 10
46.863624
 20
24.976568
 30
0.0
 11
46.863624
 21
24.476568
 31
0.0
  0
LINE
  5
E42B
  8
ALPHA
 10
46.866633
 20
25.010914
 30
0.0
 11
46.866633
 21
24.442222
 31
0.0
  0
LINE
  5
E42C
  8
ALPHA
 10
46.608614
 20
24.433427
 30
0.0
 11
46.603873
 21
24.476568
 31
0.0
  0
LINE
  5
E42D
  8
ALPHA
 10
46.866633
 20
24.442229
 30
0.0
 11
46.863624
 21
24.476568
 31
0.0
  0
LINE
  5
E42E
  8
ALPHA
 10
46.863624
 20
24.476568
 30
0.0
 11
46.603873
 21
24.476568
 31
0.0
  0
POLYLINE
  5
E42F
  8
ALPHA
 66
     1
 10
0.0
 20
0.0
 30
0.0
  0
VERTEX
  5
E64E
  8
ALPHA
 10
46.700535
 20
25.176568
 30
0.0
  0
VERTEX
  5
E64F
  8
ALPHA
 10
46.762056
 20
25.165979
 30
0.0
  0
VERTEX
  5
E650
  8
ALPHA
 10
46.808111
 20
25.13994
 30
0.0
  0
VERTEX
  5
E651
  8
ALPHA
 10
46.839907
 20
25.10456
 30
0.0
  0
VERTEX
  5
E652
  8
ALPHA
 10
46.858936
 20
25.063663
 30
0.0
  0
VERTEX
  5
E653
  8
ALPHA
 10
46.866418
 20
25.020073
 30
0.0
  0
VERTEX
  5
E654
  8
ALPHA
 10
46.866633
 20
25.010907
 30
0.0
  0
SEQEND
  5
E655
  8
ALPHA
  0
LINE
  5
E430
  8
ALPHA
 10
46.612593
 20
22.414368
 30
0.0
 11
46.603875
 21
22.376568
 31
0.0
  0
POLYLINE
  5
E431
  8
ALPHA
 66
     1
 10
0.0
 20
0.0
 30
0.0
  0
VERTEX
  5
E656
  8
ALPHA
 10
46.608614
 20
22.4412
 30
0.0
  0
VERTEX
  5
E657
  8
ALPHA
 10
46.60854
 20
22.433268
 30
0.0
  0
VERTEX
  5
E658
  8
ALPHA
 10
46.603873
 20
22.376578
 30
0.0
  0
SEQEND
  5
E659
  8
ALPHA
  0
LINE
  5
E432
  8
ALPHA
 10
46.608614
 20
24.276568
 30
0.0
 11
46.700535
 21
24.276568
 31
0.0
  0
POLYLINE
  5
E433
  8
ALPHA
 66
     1
 10
0.0
 20
0.0
 30
0.0
  0
VERTEX
  5
E65A
  8
ALPHA
 10
46.608614
 20
22.480353
 30
0.0
  0
VERTEX
  5
E65B
  8
ALPHA
 10
46.609552
 20
22.477791
 30
0.0
  0
VERTEX
  5
E65C
  8
ALPHA
 10
46.614036
 20
22.447971
 30
0.0
  0
VERTEX
  5
E65D
  8
ALPHA
 10
46.612593
 20
22.414368
 30
0.0
  0
SEQEND
  5
E65E
  8
ALPHA
  0
POLYLINE
  5
E434
  8
ALPHA
 66
     1
 10
0.0
 20
0.0
 30
0.0
  0
VERTEX
  5
E65F
  8
ALPHA
 10
46.700535
 20
24.276568
 30
0.0
  0
VERTEX
  5
E660
  8
ALPHA
 10
46.762056
 20
24.287156
 30
0.0
  0
VERTEX
  5
E661
  8
ALPHA
 10
46.808111
 20
24.313196
 30
0.0
  0
VERTEX
  5
E662
  8
ALPHA
 10
46.839907
 20
24.348575
 30
0.0
  0
VERTEX
  5
E663
  8
ALPHA
 10
46.858936
 20
24.389473
 30
0.0
  0
VERTEX
  5
E664
  8
ALPHA
 10
46.866418
 20
24.433062
 30
0.0
  0
VERTEX
  5
E665
  8
ALPHA
 10
46.866633
 20
24.442229
 30
0.0
  0
SEQEND
  5
E666
  8
ALPHA
  0
LINE
  5
E435
  8
ALPHA
 10
46.603873
 20
24.476568
 30
0.0
 11
46.603873
 21
22.376578
 31
0.0
  0
LINE
  5
E436
  8
ALPHA
 10
46.608614
 20
24.433426
 30
0.0
 11
46.608614
 21
22.441032
 31
0.0
  0
POLYLINE
  5
E437
  8
ALPHA
 66
     1
 10
0.0
 20
0.0
 30
0.0
  0
VERTEX
  5
E667
  8
ALPHA
 10
46.219642
 20
25.170399
 30
0.0
  0
VERTEX
  5
E668
  8
ALPHA
 10
46.202887
 20
25.173816
 30
0.0
  0
VERTEX
  5
E669
  8
ALPHA
 10
46.185878
 20
25.175878
 30
0.0
  0
VERTEX
  5
E66A
  8
ALPHA
 10
46.168741
 20
25.176568
 30
0.0
  0
SEQEND
  5
E66B
  8
ALPHA
  0
POLYLINE
  5
E438
  8
ALPHA
 66
     1
 10
0.0
 20
0.0
 30
0.0
  0
VERTEX
  5
E66C
  8
ALPHA
 10
46.219642
 20
25.170399
 30
0.0
  0
VERTEX
  5
E66D
  8
ALPHA
 10
46.294973
 20
25.137626
 30
0.0
  0
VERTEX
  5
E66E
  8
ALPHA
 10
46.351918
 20
25.089577
 30
0.0
  0
VERTEX
  5
E66F
  8
ALPHA
 10
46.391288
 20
25.034193
 30
0.0
  0
VERTEX
  5
E670
  8
ALPHA
 10
46.413633
 20
24.976568
 30
0.0
  0
SEQEND
  5
E671
  8
ALPHA
  0
LINE
  5
E439
  8
ALPHA
 10
42.115015
 20
25.426568
 30
0.0
 11
42.365015
 21
25.176568
 31
0.0
  0
LINE
  5
E43A
  8
ALPHA
 10
42.365015
 20
25.176568
 30
0.0
 11
46.168741
 21
25.176568
 31
0.0
  0
POLYLINE
  5
E43B
  8
ALPHA
 66
     1
 10
0.0
 20
0.0
 30
0.0
  0
VERTEX
  5
E672
  8
ALPHA
 10
45.871059
 20
21.134101
 30
0.0
  0
VERTEX
  5
E673
  8
ALPHA
 10
45.936144
 20
21.20068
 30
0.0
  0
VERTEX
  5
E674
  8
ALPHA
 10
45.977829
 20
21.284536
 30
0.0
  0
VERTEX
  5
E675
  8
ALPHA
 10
45.992014
 20
21.376568
 30
0.0
  0
SEQEND
  5
E676
  8
ALPHA
  0
POLYLINE
  5
E43C
  8
ALPHA
 66
     1
 10
0.0
 20
0.0
 30
0.0
  0
VERTEX
  5
E677
  8
ALPHA
 10
45.697807
 20
21.076568
 30
0.0
  0
VERTEX
  5
E678
  8
ALPHA
 10
45.788909
 20
21.091313
 30
0.0
  0
VERTEX
  5
E679
  8
ALPHA
 10
45.871059
 20
21.134101
 30
0.0
  0
SEQEND
  5
E67A
  8
ALPHA
  0
LINE
  5
E43D
  8
ALPHA
 10
45.697807
 20
21.076568
 30
0.0
 11
45.697807
 21
21.576568
 31
0.0
  0
LINE
  5
E43E
  8
ALPHA
 10
45.992014
 20
21.376568
 30
0.0
 11
45.992014
 21
21.576568
 31
0.0
  0
LINE
  5
E43F
  8
ALPHA
 10
46.215015
 20
21.576568
 30
0.0
 11
46.215015
 21
21.376568
 31
0.0
  0
ARC
  5
E440
  8
ALPHA
 10
45.915015
 20
21.376568
 30
0.0
 40
0.3
 50
270.0
 51
0.0
  0
POLYLINE
  5
E441
  8
ALPHA
 66
     1
 10
0.0
 20
0.0
 30
0.0
  0
VERTEX
  5
E67B
  8
ALPHA
 10
44.223495
 20
21.076568
 30
0.0
  0
VERTEX
  5
E67C
  8
ALPHA
 10
44.210364
 20
21.082846
 30
0.0
  0
VERTEX
  5
E67D
  8
ALPHA
 10
44.200026
 20
21.101545
 30
0.0
  0
VERTEX
  5
E67E
  8
ALPHA
 10
44.194279
 20
21.132244
 30
0.0
  0
VERTEX
  5
E67F
  8
ALPHA
 10
44.195615
 20
21.173556
 30
0.0
  0
VERTEX
  5
E680
  8
ALPHA
 10
44.206492
 20
21.222943
 30
0.0
  0
VERTEX
  5
E681
  8
ALPHA
 10
44.228097
 20
21.276055
 30
0.0
  0
VERTEX
  5
E682
  8
ALPHA
 10
44.259462
 20
21.328174
 30
0.0
  0
VERTEX
  5
E683
  8
ALPHA
 10
44.298703
 20
21.376568
 30
0.0
  0
SEQEND
  5
E684
  8
ALPHA
  0
POLYLINE
  5
E442
  8
ALPHA
 66
     1
 10
0.0
 20
0.0
 30
0.0
  0
VERTEX
  5
E685
  8
ALPHA
 10
44.760063
 20
21.576568
 30
0.0
  0
VERTEX
  5
E686
  8
ALPHA
 10
44.650904
 20
21.567144
 30
0.0
  0
VERTEX
  5
E687
  8
ALPHA
 10
44.549001
 20
21.540553
 30
0.0
  0
VERTEX
  5
E688
  8
ALPHA
 10
44.455581
 20
21.498875
 30
0.0
  0
VERTEX
  5
E689
  8
ALPHA
 10
44.37177
 20
21.44376
 30
0.0
  0
VERTEX
  5
E68A
  8
ALPHA
 10
44.298703
 20
21.376568
 30
0.0
  0
SEQEND
  5
E68B
  8
ALPHA
  0
LINE
  5
E443
  8
ALPHA
 10
44.298703
 20
21.376568
 30
0.0
 11
46.215015
 21
21.376568
 31
0.0
  0
LINE
  5
E444
  8
ALPHA
 10
42.165015
 20
25.426568
 30
0.0
 11
42.165015
 21
21.576568
 31
0.0
  0
LINE
  5
E445
  8
ALPHA
 10
42.365015
 20
25.426568
 30
0.0
 11
42.365015
 21
21.576568
 31
0.0
  0
LINE
  5
E446
  8
ALPHA
 10
46.219642
 20
21.576568
 30
0.0
 11
46.219642
 21
25.170399
 31
0.0
  0
LINE
  5
E447
  8
ALPHA
 10
46.413633
 20
21.576568
 30
0.0
 11
46.413633
 21
24.976568
 31
0.0
  0
LINE
  5
E448
  8
ALPHA
 10
46.413633
 20
24.976568
 30
0.0
 11
46.863624
 21
24.976568
 31
0.0
  0
LINE
  5
E449
  8
ALPHA
 10
46.219642
 20
25.176568
 30
0.0
 11
46.700535
 21
25.176568
 31
0.0
  0
LINE
  5
E44A
  8
ALPHA
 10
47.315015
 20
23.576568
 30
0.0
 11
47.315015
 21
21.576568
 31
0.0
  0
LINE
  5
E44B
  8
ALPHA
 10
47.315015
 20
23.576568
 30
0.0
 11
47.277491
 21
23.576568
 31
0.0
  0
POLYLINE
  5
E44C
  8
ALPHA
 66
     1
 10
0.0
 20
0.0
 30
0.0
  0
VERTEX
  5
E68C
  8
ALPHA
 10
46.996954
 20
22.575715
 30
0.0
  0
VERTEX
  5
E68D
  8
ALPHA
 10
46.990785
 20
22.576189
 30
0.0
  0
VERTEX
  5
E68E
  8
ALPHA
 10
46.984604
 20
22.576473
 30
0.0
  0
VERTEX
  5
E68F
  8
ALPHA
 10
46.978418
 20
22.576568
 30
0.0
  0
SEQEND
  5
E690
  8
ALPHA
  0
POLYLINE
  5
E44D
  8
ALPHA
 66
     1
 10
0.0
 20
0.0
 30
0.0
  0
VERTEX
  5
E691
  8
ALPHA
 10
46.996954
 20
22.575715
 30
0.0
  0
VERTEX
  5
E692
  8
ALPHA
 10
47.067459
 20
22.556454
 30
0.0
  0
VERTEX
  5
E693
  8
ALPHA
 10
47.121816
 20
22.520746
 30
0.0
  0
VERTEX
  5
E694
  8
ALPHA
 10
47.160774
 20
22.475986
 30
0.0
  0
VERTEX
  5
E695
  8
ALPHA
 10
47.185298
 20
22.426667
 30
0.0
  0
VERTEX
  5
E696
  8
ALPHA
 10
47.196161
 20
22.376568
 30
0.0
  0
SEQEND
  5
E697
  8
ALPHA
  0
LINE
  5
E44E
  8
ALPHA
 10
46.996954
 20
22.575715
 30
0.0
 11
46.996954
 21
25.426568
 31
0.0
  0
LINE
  5
E44F
  8
ALPHA
 10
47.196161
 20
22.376568
 30
0.0
 11
47.196161
 21
25.426568
 31
0.0
  0
LINE
  5
E450
  8
ALPHA
 10
47.277491
 20
25.426568
 30
0.0
 11
47.277491
 21
23.576568
 31
0.0
  0
VIEWPORT
  5
494D
 67
     1
  8
0
 10
4.995325
 20
6.556512
 30
0.0
 40
22.70986
 41
13.988421
 68
    -1
 69
     1
1001
ACAD
1000
MVIEW
1002
{
1070
    16
1010
0.0
1020
0.0
1030
0.0
1010
0.0
1020
0.0
1030
1.0
1040
0.0
1040
13.988421
1040
4.995325
1040
6.556512
1040
50.0
1040
0.0
1040
0.0
1070
     0
1070
   100
1070
     1
1070
     1
1070
     0
1070
     0
1070
     0
1070
     0
1040
0.0
1040
0.0
1040
0.0
1040
10.0
1040
10.0
1040
10.0
1040
10.0
1070
     0
1002
{
1002
}
1002
}
  0
ENDSEC
  0
EOF
