  0
SECTION
  2
HEADER
  9
$ACADVER
  1
AC1009
  9
$INSBASE
 10
-146.27124
 20
-153.796096
 30
0.0
  9
$EXTMIN
 10
45.738764
 20
-195.662342
 30
0.0
  9
$EXTMAX
 10
159.542612
 20
-71.858525
 30
0.0
  9
$LIMMIN
 10
-407.970438
 20
-367.832444
  9
$LIMMAX
 10
429.804077
 20
234.370848
  9
$ORTHOMODE
 70
     1
  9
$REGENMODE
 70
     1
  9
$FILLMODE
 70
     1
  9
$QTEXTMODE
 70
     0
  9
$MIRRTEXT
 70
     1
  9
$DRAGMODE
 70
     2
  9
$LTSCALE
 40
10.0
  9
$OSMODE
 70
   165
  9
$ATTMODE
 70
     1
  9
$TEXTSIZE
 40
6.0
  9
$TRACEWID
 40
1.0
  9
$TEXTSTYLE
  7
ROMANS
  9
$CLAYER
  8
COTATION1
  9
$CELTYPE
  6
BYLAYER
  9
$CECOLOR
 62
   256
  9
$DIMSCALE
 40
1.0
  9
$DIMASZ
 40
3.0
  9
$DIMEXO
 40
0.5
  9
$DIMDLI
 40
0.38
  9
$DIMRND
 40
0.0
  9
$DIMDLE
 40
0.0
  9
$DIMEXE
 40
0.18
  9
$DIMTP
 40
0.0
  9
$DIMTM
 40
0.0
  9
$DIMTXT
 40
3.0
  9
$DIMCEN
 40
0.0
  9
$DIMTSZ
 40
0.0
  9
$DIMTOL
 70
     0
  9
$DIMLIM
 70
     0
  9
$DIMTIH
 70
     0
  9
$DIMTOH
 70
     1
  9
$DIMSE1
 70
     0
  9
$DIMSE2
 70
     0
  9
$DIMTAD
 70
     1
  9
$DIMZIN
 70
    12
  9
$DIMBLK
  1
OPEN30
  9
$DIMASO
 70
     1
  9
$DIMSHO
 70
     1
  9
$DIMPOST
  1

  9
$DIMAPOST
  1

  9
$DIMALT
 70
     0
  9
$DIMALTD
 70
     2
  9
$DIMALTF
 40
25.4
  9
$DIMLFAC
 40
1.0
  9
$DIMTOFL
 70
     0
  9
$DIMTVP
 40
0.0
  9
$DIMTIX
 70
     0
  9
$DIMSOXD
 70
     0
  9
$DIMSAH
 70
     0
  9
$DIMBLK1
  1

  9
$DIMBLK2
  1

  9
$DIMSTYLE
  2
ROMANS
  9
$DIMCLRD
 70
     0
  9
$DIMCLRE
 70
     0
  9
$DIMCLRT
 70
     0
  9
$DIMTFAC
 40
1.0
  9
$DIMGAP
 40
1.0
  9
$LUNITS
 70
     2
  9
$LUPREC
 70
     1
  9
$SKETCHINC
 40
0.1
  9
$FILLETRAD
 40
0.0
  9
$AUNITS
 70
     0
  9
$AUPREC
 70
     0
  9
$MENU
  1
acad
  9
$ELEVATION
 40
0.0
  9
$PELEVATION
 40
0.0
  9
$THICKNESS
 40
0.0
  9
$LIMCHECK
 70
     0
  9
$BLIPMODE
 70
     0
  9
$CHAMFERA
 40
0.0
  9
$CHAMFERB
 40
0.0
  9
$SKPOLY
 70
     0
  9
$TDCREATE
 40
2450365.355314
  9
$TDUPDATE
 40
2452592.693586
  9
$TDINDWG
 40
0.665516
  9
$TDUSRTIMER
 40
0.665516
  9
$USRTIMER
 70
     1
  9
$ANGBASE
 50
0.0
  9
$ANGDIR
 70
     0
  9
$PDMODE
 70
    32
  9
$PDSIZE
 40
0.0
  9
$PLINEWID
 40
0.0
  9
$COORDS
 70
     2
  9
$SPLFRAME
 70
     0
  9
$SPLINETYPE
 70
     6
  9
$SPLINESEGS
 70
     8
  9
$ATTDIA
 70
     0
  9
$ATTREQ
 70
     1
  9
$HANDLING
 70
     1
  9
$HANDSEED
  5
63DF
  9
$SURFTAB1
 70
     6
  9
$SURFTAB2
 70
     6
  9
$SURFTYPE
 70
     6
  9
$SURFU
 70
     6
  9
$SURFV
 70
     6
  9
$UCSNAME
  2

  9
$UCSORG
 10
0.0
 20
0.0
 30
0.0
  9
$UCSXDIR
 10
1.0
 20
0.0
 30
0.0
  9
$UCSYDIR
 10
0.0
 20
1.0
 30
0.0
  9
$PUCSNAME
  2

  9
$PUCSORG
 10
0.0
 20
0.0
 30
0.0
  9
$PUCSXDIR
 10
1.0
 20
0.0
 30
0.0
  9
$PUCSYDIR
 10
0.0
 20
1.0
 30
0.0
  9
$USERI1
 70
     0
  9
$USERI2
 70
     0
  9
$USERI3
 70
     0
  9
$USERI4
 70
     0
  9
$USERI5
 70
     0
  9
$USERR1
 40
0.0
  9
$USERR2
 40
0.0
  9
$USERR3
 40
0.0
  9
$USERR4
 40
0.0
  9
$USERR5
 40
0.0
  9
$WORLDVIEW
 70
     1
  9
$SHADEDGE
 70
     3
  9
$SHADEDIF
 70
    70
  9
$TILEMODE
 70
     1
  9
$MAXACTVP
 70
    16
  9
$PLIMCHECK
 70
     0
  9
$PEXTMIN
 10
1.000000E+020
 20
1.000000E+020
 30
1.000000E+020
  9
$PEXTMAX
 10
-1.000000E+020
 20
-1.000000E+020
 30
-1.000000E+020
  9
$PLIMMIN
 10
0.0
 20
0.0
  9
$PLIMMAX
 10
12.0
 20
9.0
  9
$UNITMODE
 70
     0
  9
$VISRETAIN
 70
     0
  9
$PLINEGEN
 70
     0
  9
$PSLTSCALE
 70
     0
  0
ENDSEC
  0
SECTION
  2
TABLES
  0
TABLE
  2
VPORT
 70
     2
  0
VPORT
  2
*ACTIVE
 70
     0
 10
0.0
 20
0.0
 11
1.0
 21
1.0
 12
102.637893
 22
-133.763771
 13
0.0
 23
0.0
 14
1.0
 24
1.0
 15
10.0
 25
10.0
 16
0.0
 26
0.0
 36
1.0
 17
0.0
 27
0.0
 37
0.0
 40
124.987239
 41
1.63142
 42
50.0
 43
0.0
 44
0.0
 50
0.0
 51
0.0
 71
     0
 72
   100
 73
     1
 74
     0
 75
     0
 76
     0
 77
     0
 78
     0
  0
ENDTAB
  0
TABLE
  2
LTYPE
 70
    26
  0
LTYPE
  2
CONTINUOUS
 70
     0
  3
Solid line
 72
    65
 73
     0
 40
0.0
  0
LTYPE
  2
AXES2
 70
     0
  3
___ _ ___ _ ___ _ ___ _ ___ _ ___ _ ___ _ ___ _
 72
    65
 73
     4
 40
1.125
 49
0.75
 49
-0.125
 49
0.125
 49
-0.125
  0
LTYPE
  2
ACAD_ISO04W100
 70
     0
  3
ISO Lang gestrichelt punktiert ____ . ____ . __
 72
    65
 73
     4
 40
30.5
 49
24.0
 49
-3.0
 49
0.5
 49
-3.0
  0
LTYPE
  2
AXES
 70
     0
  3
____ _ ____ _ ____ _ ____ _ ____ _ ____ _ ____ 
 72
    65
 73
     4
 40
2.0
 49
1.25
 49
-0.25
 49
0.25
 49
-0.25
  0
LTYPE
  2
AXESX2
 70
     0
  3
________  __  ________  __  ________  __  _____
 72
    65
 73
     4
 40
4.0
 49
2.5
 49
-0.5
 49
0.5
 49
-0.5
  0
LTYPE
  2
TIRETPT
 70
     0
  3
__ . __ . __ . __ . __ . __ . __ . __ . __ . __
 72
    65
 73
     4
 40
1.0
 49
0.5
 49
-0.25
 49
0.0
 49
-0.25
  0
LTYPE
  2
TIRETPT2
 70
     0
  3
_._._._._._._._._._._._._._._._._._._._._._._._
 72
    65
 73
     4
 40
0.5
 49
0.25
 49
-0.125
 49
0.0
 49
-0.125
  0
LTYPE
  2
TIRETPTX2
 70
     0
  3
____  .  ____  .  ____  .  ____  .  ____  .  __
 72
    65
 73
     4
 40
2.0
 49
1.0
 49
-0.5
 49
0.0
 49
-0.5
  0
LTYPE
  2
DISCONTINU
 70
     0
  3
__ __ __ __ __ __ __ __ __ __ __ __ __ __ __ __
 72
    65
 73
     2
 40
0.75
 49
0.5
 49
-0.25
  0
LTYPE
  2
DISCONTINU2
 70
     0
  3
_ _ _ _ _ _ _ _ _ _ _ _ _ _ _ _ _ _ _ _ _ _ _ _
 72
    65
 73
     2
 40
0.375
 49
0.25
 49
-0.125
  0
LTYPE
  2
DISCONTINUX2
 70
     0
  3
____  ____  ____  ____  ____  ____  ____  ____ 
 72
    65
 73
     2
 40
1.5
 49
1.0
 49
-0.5
  0
LTYPE
  2
DIVISE
 70
     0
  3
____ . . ____ . . ____ . . ____ . . ____ . . __
 72
    65
 73
     6
 40
1.25
 49
0.5
 49
-0.25
 49
0.0
 49
-0.25
 49
0.0
 49
-0.25
  0
LTYPE
  2
DIVISE2
 70
     0
  3
__..__..__..__..__..__..__..__..__..__..__..__.
 72
    65
 73
     6
 40
0.625
 49
0.25
 49
-0.125
 49
0.0
 49
-0.125
 49
0.0
 49
-0.125
  0
LTYPE
  2
DIVISEX2
 70
     0
  3
________  .  .  ________  .  .  ________  .  . 
 72
    65
 73
     6
 40
2.5
 49
1.0
 49
-0.5
 49
0.0
 49
-0.5
 49
0.0
 49
-0.5
  0
LTYPE
  2
POINTILLE
 70
     0
  3
. . . . . . . . . . . . . . . . . . . . . . . .
 72
    65
 73
     2
 40
0.25
 49
0.0
 49
-0.25
  0
LTYPE
  2
POINTILLE2
 70
     0
  3
...............................................
 72
    65
 73
     2
 40
0.125
 49
0.0
 49
-0.125
  0
LTYPE
  2
POINTILLEX2
 70
     0
  3
.  .  .  .  .  .  .  .  .  .  .  .  .  .  .  . 
 72
    65
 73
     2
 40
0.5
 49
0.0
 49
-0.5
  0
LTYPE
  2
CACHE
 70
     0
  3
__ __ __ __ __ __ __ __ __ __ __ __ __ __ __ __
 72
    65
 73
     2
 40
0.375
 49
0.25
 49
-0.125
  0
LTYPE
  2
CACHE2
 70
     0
  3
_ _ _ _ _ _ _ _ _ _ _ _ _ _ _ _ _ _ _ _ _ _ _ _
 72
    65
 73
     2
 40
0.1875
 49
0.125
 49
-0.0625
  0
LTYPE
  2
CACHEX2
 70
     0
  3
____ ____ ____ ____ ____ ____ ____ ____ ____ __
 72
    65
 73
     2
 40
0.75
 49
0.5
 49
-0.25
  0
LTYPE
  2
FANTOME
 70
     0
  3
______  __  __  ______  __  __  ______  __  __ 
 72
    65
 73
     6
 40
2.5
 49
1.25
 49
-0.25
 49
0.25
 49
-0.25
 49
0.25
 49
-0.25
  0
LTYPE
  2
FANTOME2
 70
     0
  3
___ _ _ ___ _ _ ___ _ _ ___ _ _ ___ _ _ ___ _ _
 72
    65
 73
     6
 40
1.25
 49
0.625
 49
-0.125
 49
0.125
 49
-0.125
 49
0.125
 49
-0.125
  0
LTYPE
  2
FANTOMEX2
 70
     0
  3
____________    ____    ____    ____________   
 72
    65
 73
     6
 40
5.0
 49
2.5
 49
-0.5
 49
0.5
 49
-0.5
 49
0.5
 49
-0.5
  0
LTYPE
  2
0
 70
     0
  3
MEDUSA PEN 0
 72
    65
 73
     0
 40
0.0
  0
LTYPE
  2
AI9-LTYPE1
 70
     0
  3
Illustrator Dash Style No.1
 72
    65
 73
     4
 40
5.64621
 49
4.106333
 49
-0.307975
 49
0.923926
 49
-0.307975
  0
LTYPE
  2
AI9-LTYPE2
 70
     0
  3
Illustrator Dash Style No.2
 72
    65
 73
     2
 40
1.33456
 49
1.026585
 49
-0.307975
  0
ENDTAB
  0
TABLE
  2
LAYER
 70
    17
  0
LAYER
  2
0
 70
     0
 62
     7
  6
CONTINUOUS
  0
LAYER
  2
TEXTE_MOYEN
 70
     0
 62
   131
  6
CONTINUOUS
  0
LAYER
  2
ALPHA
 70
     0
 62
   254
  6
CONTINUOUS
  0
LAYER
  2
COTATION1
 70
     0
 62
    50
  6
CONTINUOUS
  0
LAYER
  2
AXE
 70
     0
 62
    80
  6
AXES2
  0
LAYER
  2
DEFPOINTS
 70
     0
 62
     7
  6
CONTINUOUS
  0
LAYER
  2
HACHURES1
 70
     0
 62
   130
  6
CONTINUOUS
  0
LAYER
  2
FMULT
 70
     0
 62
   210
  6
CONTINUOUS
  0
LAYER
  2
FDP_CARTOUCHE
 70
     0
 62
   136
  6
CONTINUOUS
  0
LAYER
  2
FDP_TEXTES
 70
     0
 62
   171
  6
CONTINUOUS
  0
LAYER
  2
FDP_LOGO_MG
 70
     0
 62
    30
  6
CONTINUOUS
  0
LAYER
  2
FDP_LOGO_SCH
 70
     0
 62
    90
  6
CONTINUOUS
  0
LAYER
  2
FDP_FDP
 70
     0
 62
   170
  6
CONTINUOUS
  0
LAYER
  2
POINTILLE_COURT2
 70
     0
 62
    41
  6
CACHE2
  0
LAYER
  2
POINTILLE_MOYEN2
 70
     0
 62
   141
  6
CACHE
  0
LAYER
  2
POINTILLE_LONG2
 70
     0
 62
   241
  6
CACHEX2
  0
LAYER
  2
ALPHA_FIN
 70
     0
 62
   255
  6
CONTINUOUS
  0
ENDTAB
  0
TABLE
  2
STYLE
 70
     5
  0
STYLE
  2
ROMANS
 70
     0
 40
0.0
 41
1.0
 50
0.0
 71
     0
 42
6.0
  3
romans
  4

  0
STYLE
  2
STANDARD
 70
     0
 40
0.2
 41
1.0
 50
0.0
 71
     0
 42
0.2
  3
txt
  4

  0
STYLE
  2
STD
 70
     0
 40
0.0
 41
1.0
 50
0.0
 71
     0
 42
0.0
  3
txt
  4

  0
STYLE
  2
INFOCAR
 70
     0
 40
0.0
 41
1.34
 50
0.0
 71
     0
 42
2.0
  3
ROMANS.SHX
  4

  0
STYLE
  2
CARTOUCHE
 70
     0
 40
0.0
 41
1.0
 50
0.0
 71
     0
 42
0.2
  3
ROMANS.SHX
  4

  0
ENDTAB
  0
TABLE
  2
VIEW
 70
     0
  0
ENDTAB
  0
TABLE
  2
UCS
 70
     0
  0
ENDTAB
  0
TABLE
  2
APPID
 70
     4
  0
APPID
  2
ACAD
 70
     0
  0
APPID
  2
AVE_RENDER
 70
     0
  0
APPID
  2
AVE_MATERIAL
 70
     0
  0
APPID
  2
CONTENTBLOCKICON
 70
     0
  0
ENDTAB
  0
TABLE
  2
DIMSTYLE
 70
     1
  0
DIMSTYLE
  2
ROMANS
 70
     0
  3

  4

  5
OPEN30
  6

  7

 40
1.0
 41
3.0
 42
0.5
 43
0.38
 44
0.18
 45
0.0
 46
0.0
 47
0.0
 48
0.0
140
3.0
141
0.0
142
0.0
143
25.4
144
1.0
145
0.0
146
1.0
147
1.0
 71
     0
 72
     0
 73
     0
 74
     1
 75
     0
 76
     0
 77
     1
 78
    12
170
     0
171
     2
172
     0
173
     0
174
     0
175
     0
176
     0
177
     0
178
     0
  0
ENDTAB
  0
ENDSEC
  0
SECTION
  2
BLOCKS
  0
BLOCK
  8
0
  2
$MODEL_SPACE
 70
     0
 10
0.0
 20
0.0
 30
0.0
  3
$MODEL_SPACE
  1

  0
ENDBLK
  5
6321
  8
0
  0
BLOCK
 67
     1
  8
0
  2
$PAPER_SPACE
 70
     0
 10
0.0
 20
0.0
 30
0.0
  3
$PAPER_SPACE
  1

  0
ENDBLK
  5
631F
 67
     1
  8
0
  0
BLOCK
  8
0
  2
COTE
 70
     0
 10
0.0
 20
0.0
 30
0.0
  3
COTE
  1

  0
ENDBLK
  5
35
  8
0
  0
BLOCK
  8
0
  2
FOND
 70
     0
 10
0.0
 20
0.0
 30
0.0
  3
FOND
  1

  0
ENDBLK
  5
39
  8
0
  0
BLOCK
  8
0
  2
SCH_ISO
 70
     0
 10
0.0
 20
0.0
 30
0.0
  3
SCH_ISO
  1

  0
ENDBLK
  5
24AD
  8
0
  0
BLOCK
  8
0
  2
_OPEN30
 70
     0
 10
0.0
 20
0.0
 30
0.0
  3
_OPEN30
  1

  0
LINE
  5
27E1
  8
COTATION1
 62
     0
 10
-1.0
 20
0.267949
 30
0.0
 11
0.0
 21
0.0
 31
0.0
1001
ACAD
1000
RTLwPs
1070
   158
  0
LINE
  5
27E2
  8
COTATION1
 62
     0
 10
0.0
 20
0.0
 30
0.0
 11
-1.0
 21
-0.267949
 31
0.0
1001
ACAD
1000
RTLwPs
1070
   158
  0
LINE
  5
27E3
  8
COTATION1
 62
     0
 10
0.0
 20
0.0
 30
0.0
 11
-1.0
 21
0.0
 31
0.0
1001
ACAD
1000
RTLwPs
1070
   158
  0
ENDBLK
  5
27E5
  8
0
  0
BLOCK
  8
0
  2
*D4
 70
     1
 10
0.0
 20
0.0
 30
0.0
  3
*D4
  1

  0
LINE
  5
614B
  8
COTATION1
 62
     0
 10
69.738764
 20
-155.358495
 30
0.0
 11
69.738764
 21
-195.038495
 31
0.0
1001
ACAD
1000
RTLwPs
1070
   158
  0
LINE
  5
614C
  8
COTATION1
 62
     0
 10
133.738734
 20
-155.358495
 30
0.0
 11
133.738734
 21
-195.038495
 31
0.0
1001
ACAD
1000
RTLwPs
1070
   158
  0
LINE
  5
614D
  8
COTATION1
 62
     0
 10
72.738764
 20
-194.858495
 30
0.0
 11
130.738734
 21
-194.858495
 31
0.0
1001
ACAD
1000
RTLwPs
1070
   158
  0
INSERT
  5
614E
  8
COTATION1
 62
     0
  2
_OPEN30
 10
69.738764
 20
-194.858495
 30
0.0
 41
3.0
 42
3.0
 43
3.0
 50
180.0
1001
ACAD
1000
RTLwPs
1070
   158
  0
INSERT
  5
614F
  8
COTATION1
 62
     0
  2
_OPEN30
 10
133.738734
 20
-194.858495
 30
0.0
 41
3.0
 42
3.0
 43
3.0
1001
ACAD
1000
RTLwPs
1070
   158
  0
TEXT
  5
6150
  8
COTATION1
 62
     0
 10
98.738749
 20
-193.858495
 30
0.0
 40
3.0
  1
64
1001
ACAD
1000
MTEXTBEGIN
1070
    73
1070
     1
1070
    44
1040
1.0
1070
    74
1070
     0
1000
MTEXTEND
  0
POINT
  5
6151
  8
DEFPOINTS
 62
     0
 10
69.738764
 20
-154.858495
 30
0.0
  0
POINT
  5
6152
  8
DEFPOINTS
 62
     0
 10
133.738734
 20
-154.858495
 30
0.0
  0
POINT
  5
6153
  8
DEFPOINTS
 62
     0
 10
133.738734
 20
-194.858495
 30
0.0
  0
ENDBLK
  5
5984
  8
0
  0
BLOCK
  8
0
  2
*D5
 70
     1
 10
0.0
 20
0.0
 30
0.0
  3
*D5
  1

  0
LINE
  5
6166
  8
COTATION1
 62
     0
 10
72.23675
 20
-90.858525
 30
0.0
 11
49.558764
 21
-90.858525
 31
0.0
1001
ACAD
1000
RTLwPs
1070
   158
  0
LINE
  5
6167
  8
COTATION1
 62
     0
 10
69.238764
 20
-154.858495
 30
0.0
 11
49.558764
 21
-154.858495
 31
0.0
1001
ACAD
1000
RTLwPs
1070
   158
  0
LINE
  5
6168
  8
COTATION1
 62
     0
 10
49.738764
 20
-93.858525
 30
0.0
 11
49.738764
 21
-151.858495
 31
0.0
1001
ACAD
1000
RTLwPs
1070
   158
  0
INSERT
  5
6169
  8
COTATION1
 62
     0
  2
_OPEN30
 10
49.738764
 20
-90.858525
 30
0.0
 41
3.0
 42
3.0
 43
3.0
 50
90.0
1001
ACAD
1000
RTLwPs
1070
   158
  0
INSERT
  5
616A
  8
COTATION1
 62
     0
  2
_OPEN30
 10
49.738764
 20
-154.858495
 30
0.0
 41
3.0
 42
3.0
 43
3.0
 50
270.0
1001
ACAD
1000
RTLwPs
1070
   158
  0
TEXT
  5
616B
  8
COTATION1
 62
     0
 10
48.738764
 20
-125.85851
 30
0.0
 40
3.0
  1
64
 50
90.0
1001
ACAD
1000
MTEXTBEGIN
1070
    73
1070
     1
1070
    44
1040
1.0
1070
    74
1070
     0
1000
MTEXTEND
  0
POINT
  5
616C
  8
DEFPOINTS
 62
     0
 10
72.73675
 20
-90.858525
 30
0.0
  0
POINT
  5
616D
  8
DEFPOINTS
 62
     0
 10
69.738764
 20
-154.858495
 30
0.0
  0
POINT
  5
616E
  8
DEFPOINTS
 62
     0
 10
49.738764
 20
-154.858495
 30
0.0
  0
ENDBLK
  5
59BE
  8
0
  0
BLOCK
  8
0
  2
*D6
 70
     1
 10
0.0
 20
0.0
 30
0.0
  3
*D6
  1

  0
LINE
  5
6182
  8
COTATION1
 62
     0
 10
145.703272
 20
-88.386227
 30
0.0
 11
139.846129
 21
-88.386227
 31
0.0
1001
ACAD
1000
RTLwPs
1070
   158
  0
LINE
  5
6183
  8
COTATION1
 62
     0
 10
139.846129
 20
-88.386227
 30
0.0
 11
135.881732
 21
-90.768287
 31
0.0
1001
ACAD
1000
RTLwPs
1070
   158
  0
TEXT
  5
6184
  8
COTATION1
 62
     0
 10
140.274701
 20
-87.386227
 30
0.0
 40
3.0
  1
R3
1001
ACAD
1000
MTEXTBEGIN
1070
    73
1070
     1
1070
    44
1040
1.0
1070
    74
1070
     0
1000
MTEXTEND
  0
INSERT
  5
6185
  8
COTATION1
 62
     0
  2
_OPEN30
 10
133.310233
 20
-92.313406
 30
0.0
 41
3.0
 42
3.0
 43
3.0
 50
211.000107
1001
ACAD
1000
RTLwPs
1070
   158
  0
POINT
  5
6186
  8
DEFPOINTS
 62
     0
 10
133.310233
 20
-92.313406
 30
0.0
  0
POINT
  5
6187
  8
DEFPOINTS
 62
     0
 10
130.738734
 20
-93.858525
 30
0.0
  0
ENDBLK
  5
59F9
  8
0
  0
BLOCK
  8
0
  2
*D7
 70
     1
 10
0.0
 20
0.0
 30
0.0
  3
*D7
  1

  0
LINE
  5
6178
  8
COTATION1
 62
     0
 10
69.738764
 20
-93.358588
 30
0.0
 11
69.738764
 21
-75.678525
 31
0.0
1001
ACAD
1000
RTLwPs
1070
   158
  0
LINE
  5
6179
  8
COTATION1
 62
     0
 10
75.738764
 20
-95.358525
 30
0.0
 11
75.738764
 21
-75.678525
 31
0.0
1001
ACAD
1000
RTLwPs
1070
   158
  0
LINE
  5
617A
  8
COTATION1
 62
     0
 10
66.738764
 20
-75.858525
 30
0.0
 11
63.738764
 21
-75.858525
 31
0.0
1001
ACAD
1000
RTLwPs
1070
   158
  0
LINE
  5
617B
  8
COTATION1
 62
     0
 10
78.738764
 20
-75.858525
 30
0.0
 11
81.738764
 21
-75.858525
 31
0.0
1001
ACAD
1000
RTLwPs
1070
   158
  0
INSERT
  5
617C
  8
COTATION1
 62
     0
  2
_OPEN30
 10
69.738764
 20
-75.858525
 30
0.0
 41
3.0
 42
3.0
 43
3.0
1001
ACAD
1000
RTLwPs
1070
   158
  0
INSERT
  5
617D
  8
COTATION1
 62
     0
  2
_OPEN30
 10
75.738764
 20
-75.858525
 30
0.0
 41
3.0
 42
3.0
 43
3.0
 50
180.0
1001
ACAD
1000
RTLwPs
1070
   158
  0
TEXT
  5
617E
  8
COTATION1
 62
     0
 10
71.238764
 20
-74.858525
 30
0.0
 40
3.0
  1
6
1001
ACAD
1000
MTEXTBEGIN
1070
    73
1070
     1
1070
    44
1040
1.0
1070
    74
1070
     0
1000
MTEXTEND
  0
POINT
  5
617F
  8
DEFPOINTS
 62
     0
 10
69.738764
 20
-93.858588
 30
0.0
  0
POINT
  5
6180
  8
DEFPOINTS
 62
     0
 10
75.738764
 20
-95.858525
 30
0.0
  0
POINT
  5
6181
  8
DEFPOINTS
 62
     0
 10
75.738764
 20
-75.858525
 30
0.0
  0
ENDBLK
  5
5A15
  8
0
  0
BLOCK
  8
0
  2
*D8
 70
     1
 10
0.0
 20
0.0
 30
0.0
  3
*D8
  1

  0
LINE
  5
6141
  8
COTATION1
 62
     0
 10
69.738764
 20
-155.358495
 30
0.0
 11
69.738764
 21
-175.038495
 31
0.0
1001
ACAD
1000
RTLwPs
1070
   158
  0
LINE
  5
6142
  8
COTATION1
 62
     0
 10
75.738764
 20
-129.358525
 30
0.0
 11
75.738764
 21
-175.038495
 31
0.0
1001
ACAD
1000
RTLwPs
1070
   158
  0
LINE
  5
6143
  8
COTATION1
 62
     0
 10
66.738764
 20
-174.858495
 30
0.0
 11
63.738764
 21
-174.858495
 31
0.0
1001
ACAD
1000
RTLwPs
1070
   158
  0
LINE
  5
6144
  8
COTATION1
 62
     0
 10
78.738764
 20
-174.858495
 30
0.0
 11
81.738764
 21
-174.858495
 31
0.0
1001
ACAD
1000
RTLwPs
1070
   158
  0
INSERT
  5
6145
  8
COTATION1
 62
     0
  2
_OPEN30
 10
69.738764
 20
-174.858495
 30
0.0
 41
3.0
 42
3.0
 43
3.0
1001
ACAD
1000
RTLwPs
1070
   158
  0
INSERT
  5
6146
  8
COTATION1
 62
     0
  2
_OPEN30
 10
75.738764
 20
-174.858495
 30
0.0
 41
3.0
 42
3.0
 43
3.0
 50
180.0
1001
ACAD
1000
RTLwPs
1070
   158
  0
TEXT
  5
6147
  8
COTATION1
 62
     0
 10
71.238764
 20
-173.858495
 30
0.0
 40
3.0
  1
6
1001
ACAD
1000
MTEXTBEGIN
1070
    73
1070
     1
1070
    44
1040
1.0
1070
    74
1070
     0
1000
MTEXTEND
  0
POINT
  5
6148
  8
DEFPOINTS
 62
     0
 10
69.738764
 20
-154.858495
 30
0.0
  0
POINT
  5
6149
  8
DEFPOINTS
 62
     0
 10
75.738764
 20
-128.858525
 30
0.0
  0
POINT
  5
614A
  8
DEFPOINTS
 62
     0
 10
75.738764
 20
-174.858495
 30
0.0
  0
ENDBLK
  5
5A22
  8
0
  0
BLOCK
  8
0
  2
*D9
 70
     1
 10
0.0
 20
0.0
 30
0.0
  3
*D9
  1

  0
LINE
  5
6138
  8
COTATION1
 62
     0
 10
75.738764
 20
-129.358525
 30
0.0
 11
75.738764
 21
-175.038495
 31
0.0
1001
ACAD
1000
RTLwPs
1070
   158
  0
LINE
  5
6139
  8
COTATION1
 62
     0
 10
85.738764
 20
-130.108525
 30
0.0
 11
85.738764
 21
-175.038495
 31
0.0
1001
ACAD
1000
RTLwPs
1070
   158
  0
LINE
  5
613A
  8
COTATION1
 62
     0
 10
78.738764
 20
-174.858495
 30
0.0
 11
82.738764
 21
-174.858495
 31
0.0
1001
ACAD
1000
RTLwPs
1070
   158
  0
INSERT
  5
613B
  8
COTATION1
 62
     0
  2
_OPEN30
 10
75.738764
 20
-174.858495
 30
0.0
 41
3.0
 42
3.0
 43
3.0
 50
180.0
1001
ACAD
1000
RTLwPs
1070
   158
  0
INSERT
  5
613C
  8
COTATION1
 62
     0
  2
_OPEN30
 10
85.738764
 20
-174.858495
 30
0.0
 41
3.0
 42
3.0
 43
3.0
1001
ACAD
1000
RTLwPs
1070
   158
  0
TEXT
  5
613D
  8
COTATION1
 62
     0
 10
77.667336
 20
-173.858495
 30
0.0
 40
3.0
  1
10
1001
ACAD
1000
MTEXTBEGIN
1070
    73
1070
     1
1070
    44
1040
1.0
1070
    74
1070
     0
1000
MTEXTEND
  0
POINT
  5
613E
  8
DEFPOINTS
 62
     0
 10
75.738764
 20
-128.858525
 30
0.0
  0
POINT
  5
613F
  8
DEFPOINTS
 62
     0
 10
85.738764
 20
-129.608525
 30
0.0
  0
POINT
  5
6140
  8
DEFPOINTS
 62
     0
 10
85.738764
 20
-174.858495
 30
0.0
  0
ENDBLK
  5
5A38
  8
0
  0
BLOCK
  8
0
  2
*D10
 70
     1
 10
0.0
 20
0.0
 30
0.0
  3
*D10
  1

  0
LINE
  5
612F
  8
COTATION1
 62
     0
 10
75.738764
 20
-129.358525
 30
0.0
 11
75.738764
 21
-185.038495
 31
0.0
1001
ACAD
1000
RTLwPs
1070
   158
  0
LINE
  5
6130
  8
COTATION1
 62
     0
 10
127.738764
 20
-138.358525
 30
0.0
 11
127.738764
 21
-185.038495
 31
0.0
1001
ACAD
1000
RTLwPs
1070
   158
  0
LINE
  5
6131
  8
COTATION1
 62
     0
 10
78.738764
 20
-184.858495
 30
0.0
 11
124.738764
 21
-184.858495
 31
0.0
1001
ACAD
1000
RTLwPs
1070
   158
  0
INSERT
  5
6132
  8
COTATION1
 62
     0
  2
_OPEN30
 10
75.738764
 20
-184.858495
 30
0.0
 41
3.0
 42
3.0
 43
3.0
 50
180.0
1001
ACAD
1000
RTLwPs
1070
   158
  0
INSERT
  5
6133
  8
COTATION1
 62
     0
  2
_OPEN30
 10
127.738764
 20
-184.858495
 30
0.0
 41
3.0
 42
3.0
 43
3.0
1001
ACAD
1000
RTLwPs
1070
   158
  0
TEXT
  5
6134
  8
COTATION1
 62
     0
 10
98.881621
 20
-183.858495
 30
0.0
 40
3.0
  1
52
1001
ACAD
1000
MTEXTBEGIN
1070
    73
1070
     1
1070
    44
1040
1.0
1070
    74
1070
     0
1000
MTEXTEND
  0
POINT
  5
6135
  8
DEFPOINTS
 62
     0
 10
75.738764
 20
-128.858525
 30
0.0
  0
POINT
  5
6136
  8
DEFPOINTS
 62
     0
 10
127.738764
 20
-137.858525
 30
0.0
  0
POINT
  5
6137
  8
DEFPOINTS
 62
     0
 10
127.738764
 20
-184.858495
 30
0.0
  0
ENDBLK
  5
5A45
  8
0
  0
BLOCK
  8
0
  2
*D11
 70
     1
 10
0.0
 20
0.0
 30
0.0
  3
*D11
  1

  0
LINE
  5
616F
  8
COTATION1
 62
     0
 10
69.238764
 20
-154.858495
 30
0.0
 11
59.558764
 21
-154.858495
 31
0.0
1001
ACAD
1000
RTLwPs
1070
   158
  0
LINE
  5
6170
  8
COTATION1
 62
     0
 10
73.238764
 20
-126.858525
 30
0.0
 11
59.558764
 21
-126.858525
 31
0.0
1001
ACAD
1000
RTLwPs
1070
   158
  0
LINE
  5
6171
  8
COTATION1
 62
     0
 10
59.738764
 20
-151.858495
 30
0.0
 11
59.738764
 21
-129.858525
 31
0.0
1001
ACAD
1000
RTLwPs
1070
   158
  0
INSERT
  5
6172
  8
COTATION1
 62
     0
  2
_OPEN30
 10
59.738764
 20
-154.858495
 30
0.0
 41
3.0
 42
3.0
 43
3.0
 50
270.0
1001
ACAD
1000
RTLwPs
1070
   158
  0
INSERT
  5
6173
  8
COTATION1
 62
     0
  2
_OPEN30
 10
59.738764
 20
-126.858525
 30
0.0
 41
3.0
 42
3.0
 43
3.0
 50
90.0
1001
ACAD
1000
RTLwPs
1070
   158
  0
TEXT
  5
6174
  8
COTATION1
 62
     0
 10
58.738764
 20
-143.715653
 30
0.0
 40
3.0
  1
28
 50
90.0
1001
ACAD
1000
MTEXTBEGIN
1070
    73
1070
     1
1070
    44
1040
1.0
1070
    74
1070
     0
1000
MTEXTEND
  0
POINT
  5
6175
  8
DEFPOINTS
 62
     0
 10
69.738764
 20
-154.858495
 30
0.0
  0
POINT
  5
6176
  8
DEFPOINTS
 62
     0
 10
73.738764
 20
-126.858525
 30
0.0
  0
POINT
  5
6177
  8
DEFPOINTS
 62
     0
 10
59.738764
 20
-126.858525
 30
0.0
  0
ENDBLK
  5
5A5B
  8
0
  0
BLOCK
  8
0
  2
*D12
 70
     1
 10
0.0
 20
0.0
 30
0.0
  3
*D12
  1

  0
LINE
  5
618A
  8
COTATION1
 62
     0
 10
71.488764
 20
-126.858525
 30
0.0
 11
59.558764
 21
-126.858525
 31
0.0
1001
ACAD
1000
RTLwPs
1070
   158
  0
LINE
  5
618B
  8
COTATION1
 62
     0
 10
115.238764
 20
-106.858525
 30
0.0
 11
59.558764
 21
-106.858525
 31
0.0
1001
ACAD
1000
RTLwPs
1070
   158
  0
LINE
  5
618C
  8
COTATION1
 62
     0
 10
59.738764
 20
-123.858525
 30
0.0
 11
59.738764
 21
-109.858525
 31
0.0
1001
ACAD
1000
RTLwPs
1070
   158
  0
INSERT
  5
618D
  8
COTATION1
 62
     0
  2
_OPEN30
 10
59.738764
 20
-126.858525
 30
0.0
 41
3.0
 42
3.0
 43
3.0
 50
270.0
1001
ACAD
1000
RTLwPs
1070
   158
  0
INSERT
  5
618E
  8
COTATION1
 62
     0
  2
_OPEN30
 10
59.738764
 20
-106.858525
 30
0.0
 41
3.0
 42
3.0
 43
3.0
 50
90.0
1001
ACAD
1000
RTLwPs
1070
   158
  0
TEXT
  5
618F
  8
COTATION1
 62
     0
 10
58.738764
 20
-119.715668
 30
0.0
 40
3.0
  1
20
 50
90.0
1001
ACAD
1000
MTEXTBEGIN
1070
    73
1070
     1
1070
    44
1040
1.0
1070
    74
1070
     0
1000
MTEXTEND
  0
POINT
  5
6190
  8
DEFPOINTS
 62
     0
 10
71.988764
 20
-126.858525
 30
0.0
  0
POINT
  5
6191
  8
DEFPOINTS
 62
     0
 10
115.738764
 20
-106.858525
 30
0.0
  0
POINT
  5
6192
  8
DEFPOINTS
 62
     0
 10
59.738764
 20
-106.858525
 30
0.0
  0
ENDBLK
  5
5A68
  8
0
  0
BLOCK
  8
0
  2
*D13
 70
     1
 10
0.0
 20
0.0
 30
0.0
  3
*D13
  1

  0
LINE
  5
6154
  8
COTATION1
 62
     0
 10
75.738764
 20
-95.358525
 30
0.0
 11
75.738764
 21
-75.678525
 31
0.0
1001
ACAD
1000
RTLwPs
1070
   158
  0
LINE
  5
6155
  8
COTATION1
 62
     0
 10
133.738734
 20
-93.358525
 30
0.0
 11
133.738734
 21
-75.678525
 31
0.0
1001
ACAD
1000
RTLwPs
1070
   158
  0
LINE
  5
6156
  8
COTATION1
 62
     0
 10
78.738764
 20
-75.858525
 30
0.0
 11
130.738734
 21
-75.858525
 31
0.0
1001
ACAD
1000
RTLwPs
1070
   158
  0
INSERT
  5
6157
  8
COTATION1
 62
     0
  2
_OPEN30
 10
75.738764
 20
-75.858525
 30
0.0
 41
3.0
 42
3.0
 43
3.0
 50
180.0
1001
ACAD
1000
RTLwPs
1070
   158
  0
INSERT
  5
6158
  8
COTATION1
 62
     0
  2
_OPEN30
 10
133.738734
 20
-75.858525
 30
0.0
 41
3.0
 42
3.0
 43
3.0
1001
ACAD
1000
RTLwPs
1070
   158
  0
TEXT
  5
6159
  8
COTATION1
 62
     0
 10
101.881606
 20
-74.858525
 30
0.0
 40
3.0
  1
58
1001
ACAD
1000
MTEXTBEGIN
1070
    73
1070
     1
1070
    44
1040
1.0
1070
    74
1070
     0
1000
MTEXTEND
  0
POINT
  5
615A
  8
DEFPOINTS
 62
     0
 10
75.738764
 20
-95.858525
 30
0.0
  0
POINT
  5
615B
  8
DEFPOINTS
 62
     0
 10
133.738734
 20
-93.858525
 30
0.0
  0
POINT
  5
615C
  8
DEFPOINTS
 62
     0
 10
133.738734
 20
-75.858525
 30
0.0
  0
ENDBLK
  5
5A90
  8
0
  0
BLOCK
  8
0
  2
*D14
 70
     1
 10
0.0
 20
0.0
 30
0.0
  3
*D14
  1

  0
LINE
  5
6120
  8
COTATION1
 62
     0
 10
130.238764
 20
-117.858525
 30
0.0
 11
158.918764
 21
-117.858525
 31
0.0
1001
ACAD
1000
RTLwPs
1070
   158
  0
LINE
  5
6121
  8
COTATION1
 62
     0
 10
130.238764
 20
-135.858525
 30
0.0
 11
158.918764
 21
-135.858525
 31
0.0
1001
ACAD
1000
RTLwPs
1070
   158
  0
LINE
  5
6122
  8
COTATION1
 62
     0
 10
158.738764
 20
-120.858525
 30
0.0
 11
158.738764
 21
-132.858525
 31
0.0
1001
ACAD
1000
RTLwPs
1070
   158
  0
INSERT
  5
6123
  8
COTATION1
 62
     0
  2
_OPEN30
 10
158.738764
 20
-117.858525
 30
0.0
 41
3.0
 42
3.0
 43
3.0
 50
90.0
1001
ACAD
1000
RTLwPs
1070
   158
  0
INSERT
  5
6124
  8
COTATION1
 62
     0
  2
_OPEN30
 10
158.738764
 20
-135.858525
 30
0.0
 41
3.0
 42
3.0
 43
3.0
 50
270.0
1001
ACAD
1000
RTLwPs
1070
   158
  0
TEXT
  5
6125
  8
COTATION1
 62
     0
 10
157.738764
 20
-129.929953
 30
0.0
 40
3.0
  1
18
 50
90.0
1001
ACAD
1000
MTEXTBEGIN
1070
    73
1070
     1
1070
    44
1040
1.0
1070
    74
1070
     0
1000
MTEXTEND
  0
POINT
  5
6126
  8
DEFPOINTS
 62
     0
 10
129.738764
 20
-117.858525
 30
0.0
  0
POINT
  5
6127
  8
DEFPOINTS
 62
     0
 10
129.738764
 20
-135.858525
 30
0.0
  0
POINT
  5
6128
  8
DEFPOINTS
 62
     0
 10
158.738764
 20
-135.858525
 30
0.0
  0
ENDBLK
  5
5AAF
  8
0
  0
ENDSEC
  0
SECTION
  2
ENTITIES
  0
INSERT
  5
32
  8
0
  2
COTE
 10
0.0
 20
0.0
 30
0.0
  0
INSERT
  5
36
  8
0
  2
FOND
 10
0.0
 20
0.0
 30
0.0
  0
INSERT
  5
24AE
  8
ALPHA
  2
SCH_ISO
 10
-66.27012
 20
-238.940658
 30
0.0
  0
LINE
  5
5696
  8
AXE
 10
64.738764
 20
-122.85851
 30
0.0
 11
148.738764
 21
-122.85851
 31
0.0
  0
LINE
  5
5697
  8
AXE
 10
101.745279
 20
-174.858495
 30
0.0
 11
101.7329
 21
-85.871491
 31
0.0
  0
TEXT
  5
5698
  8
AXE
 10
142.262574
 20
-121.85851
 30
0.0
 40
8.0
  1
Z
 72
     2
 11
148.738764
 21
-121.85851
 31
0.0
  0
TEXT
  5
5699
  8
AXE
 10
94.269089
 20
-174.858495
 30
0.0
 40
8.0
  1
Y
 72
     2
 11
100.745279
 21
-174.858495
 31
0.0
  0
POLYLINE
  5
582B
  8
ALPHA
 66
     1
 10
0.0
 20
0.0
 30
0.0
 70
   128
  0
VERTEX
  5
6327
  8
ALPHA
 10
72.73675
 20
-90.858525
 30
0.0
  0
VERTEX
  5
6328
  8
ALPHA
 10
72.854148
 20
-90.858525
 30
0.0
  0
VERTEX
  5
6329
  8
ALPHA
 10
73.198501
 20
-90.858525
 30
0.0
  0
VERTEX
  5
632A
  8
ALPHA
 10
73.758051
 20
-90.858525
 30
0.0
  0
VERTEX
  5
632B
  8
ALPHA
 10
74.521039
 20
-90.858525
 30
0.0
  0
VERTEX
  5
632C
  8
ALPHA
 10
76.610291
 20
-90.858525
 30
0.0
  0
VERTEX
  5
632D
  8
ALPHA
 10
79.372186
 20
-90.858525
 30
0.0
  0
VERTEX
  5
632E
  8
ALPHA
 10
82.712651
 20
-90.858525
 30
0.0
  0
VERTEX
  5
632F
  8
ALPHA
 10
86.537614
 20
-90.858525
 30
0.0
  0
VERTEX
  5
6330
  8
ALPHA
 10
90.753002
 20
-90.858525
 30
0.0
  0
VERTEX
  5
6331
  8
ALPHA
 10
95.264744
 20
-90.858525
 30
0.0
  0
VERTEX
  5
6332
  8
ALPHA
 10
114.393802
 20
-90.858525
 30
0.0
  0
VERTEX
  5
6333
  8
ALPHA
 10
118.976227
 20
-90.858525
 30
0.0
  0
VERTEX
  5
6334
  8
ALPHA
 10
123.290573
 20
-90.858525
 30
0.0
  0
VERTEX
  5
6335
  8
ALPHA
 10
127.242766
 20
-90.858525
 30
0.0
  0
VERTEX
  5
6336
  8
ALPHA
 10
130.738734
 20
-90.858525
 30
0.0
  0
SEQEND
  5
6337
  8
ALPHA
  0
POLYLINE
  5
582C
  8
ALPHA
 66
     1
 10
0.0
 20
0.0
 30
0.0
 70
   128
  0
VERTEX
  5
6338
  8
ALPHA
 10
133.738734
 20
-154.858495
 30
0.0
  0
VERTEX
  5
6339
  8
ALPHA
 10
133.555141
 20
-154.858495
 30
0.0
  0
VERTEX
  5
633A
  8
ALPHA
 10
133.019985
 20
-154.858495
 30
0.0
  0
VERTEX
  5
633B
  8
ALPHA
 10
132.156704
 20
-154.858495
 30
0.0
  0
VERTEX
  5
633C
  8
ALPHA
 10
130.988736
 20
-154.858495
 30
0.0
  0
VERTEX
  5
633D
  8
ALPHA
 10
129.539518
 20
-154.858495
 30
0.0
  0
VERTEX
  5
633E
  8
ALPHA
 10
127.832487
 20
-154.858495
 30
0.0
  0
VERTEX
  5
633F
  8
ALPHA
 10
125.891082
 20
-154.858495
 30
0.0
  0
VERTEX
  5
6340
  8
ALPHA
 10
123.738739
 20
-154.858495
 30
0.0
  0
VERTEX
  5
6341
  8
ALPHA
 10
118.894991
 20
-154.858495
 30
0.0
  0
VERTEX
  5
6342
  8
ALPHA
 10
113.488744
 20
-154.858495
 30
0.0
  0
VERTEX
  5
6343
  8
ALPHA
 10
101.738749
 20
-154.858495
 30
0.0
  0
VERTEX
  5
6344
  8
ALPHA
 10
89.988755
 20
-154.858495
 30
0.0
  0
VERTEX
  5
6345
  8
ALPHA
 10
84.582507
 20
-154.858495
 30
0.0
  0
VERTEX
  5
6346
  8
ALPHA
 10
79.73876
 20
-154.858495
 30
0.0
  0
VERTEX
  5
6347
  8
ALPHA
 10
77.586417
 20
-154.858495
 30
0.0
  0
VERTEX
  5
6348
  8
ALPHA
 10
75.645012
 20
-154.858495
 30
0.0
  0
VERTEX
  5
6349
  8
ALPHA
 10
73.937981
 20
-154.858495
 30
0.0
  0
VERTEX
  5
634A
  8
ALPHA
 10
72.488763
 20
-154.858495
 30
0.0
  0
VERTEX
  5
634B
  8
ALPHA
 10
71.320795
 20
-154.858495
 30
0.0
  0
VERTEX
  5
634C
  8
ALPHA
 10
70.457514
 20
-154.858495
 30
0.0
  0
VERTEX
  5
634D
  8
ALPHA
 10
69.922358
 20
-154.858495
 30
0.0
  0
VERTEX
  5
634E
  8
ALPHA
 10
69.738764
 20
-154.858495
 30
0.0
  0
SEQEND
  5
634F
  8
ALPHA
  0
LINE
  5
5836
  8
ALPHA
 10
69.738764
 20
-148.858368
 30
0.0
 11
133.738734
 21
-148.858368
 31
0.0
  0
LINE
  5
5837
  8
ALPHA
 10
133.738734
 20
-151.857046
 30
0.0
 11
69.738764
 21
-151.857046
 31
0.0
  0
LINE
  5
58C9
  8
ALPHA
 10
72.43619
 20
-151.919374
 30
0.0
 11
72.43619
 21
-154.858495
 31
0.0
  0
LINE
  5
58D2
  8
ALPHA
 10
72.738135
 20
-90.858525
 30
0.0
 11
72.73675
 21
-90.858525
 31
0.0
  0
POLYLINE
  5
58D7
  8
ALPHA
 66
     1
 10
0.0
 20
0.0
 30
0.0
 70
   128
210
0.0
220
0.0
230
-1.0
  0
VERTEX
  5
6350
  8
ALPHA
 10
-86.236344
 20
-150.574471
 30
0.0
  0
VERTEX
  5
6351
  8
ALPHA
 10
-86.35335
 20
-150.770328
 30
0.0
  0
VERTEX
  5
6352
  8
ALPHA
 10
-86.506519
 20
-151.201215
 30
0.0
  0
VERTEX
  5
6353
  8
ALPHA
 10
-86.399079
 20
-151.632102
 30
0.0
  0
VERTEX
  5
6354
  8
ALPHA
 10
-86.154888
 20
-151.774099
 30
0.0
  0
VERTEX
  5
6355
  8
ALPHA
 10
-85.734255
 20
-151.82796
 30
0.0
  0
SEQEND
  5
6356
  8
ALPHA
  0
POLYLINE
  5
58DB
  8
ALPHA
 66
     1
 10
0.0
 20
0.0
 30
0.0
 70
   128
210
0.0
220
0.0
230
-1.0
  0
VERTEX
  5
6357
  8
ALPHA
 10
-103.199307
 20
-150.574471
 30
0.0
  0
VERTEX
  5
6358
  8
ALPHA
 10
-103.316291
 20
-150.770328
 30
0.0
  0
VERTEX
  5
6359
  8
ALPHA
 10
-103.469309
 20
-151.201215
 30
0.0
  0
VERTEX
  5
635A
  8
ALPHA
 10
-103.361457
 20
-151.632102
 30
0.0
  0
VERTEX
  5
635B
  8
ALPHA
 10
-103.116923
 20
-151.774099
 30
0.0
  0
VERTEX
  5
635C
  8
ALPHA
 10
-102.695833
 20
-151.82796
 30
0.0
  0
SEQEND
  5
635D
  8
ALPHA
  0
POLYLINE
  5
5901
  8
ALPHA
 66
     1
 10
0.0
 20
0.0
 30
0.0
 70
   128
  0
VERTEX
  5
635E
  8
ALPHA
 10
133.738734
 20
-93.858525
 30
0.0
  0
VERTEX
  5
635F
  8
ALPHA
 10
133.738734
 20
-97.142558
 30
0.0
  0
VERTEX
  5
6360
  8
ALPHA
 10
133.738734
 20
-101.007609
 30
0.0
  0
VERTEX
  5
6361
  8
ALPHA
 10
133.738734
 20
-105.344274
 30
0.0
  0
VERTEX
  5
6362
  8
ALPHA
 10
133.738734
 20
-110.043146
 30
0.0
  0
VERTEX
  5
6363
  8
ALPHA
 10
133.738734
 20
-120.089897
 30
0.0
  0
VERTEX
  5
6364
  8
ALPHA
 10
133.738734
 20
-130.272622
 30
0.0
  0
VERTEX
  5
6365
  8
ALPHA
 10
133.738734
 20
-135.141463
 30
0.0
  0
VERTEX
  5
6366
  8
ALPHA
 10
133.738734
 20
-139.716083
 30
0.0
  0
VERTEX
  5
6367
  8
ALPHA
 10
133.738734
 20
-143.887078
 30
0.0
  0
VERTEX
  5
6368
  8
ALPHA
 10
133.738734
 20
-147.545041
 30
0.0
  0
VERTEX
  5
6369
  8
ALPHA
 10
133.738734
 20
-150.58057
 30
0.0
  0
VERTEX
  5
636A
  8
ALPHA
 10
133.738734
 20
-151.830732
 30
0.0
  0
VERTEX
  5
636B
  8
ALPHA
 10
133.738734
 20
-152.884258
 30
0.0
  0
VERTEX
  5
636C
  8
ALPHA
 10
133.738734
 20
-153.727473
 30
0.0
  0
VERTEX
  5
636D
  8
ALPHA
 10
133.738734
 20
-154.346702
 30
0.0
  0
VERTEX
  5
636E
  8
ALPHA
 10
133.738734
 20
-154.728267
 30
0.0
  0
VERTEX
  5
636F
  8
ALPHA
 10
133.738734
 20
-154.858495
 30
0.0
  0
SEQEND
  5
6370
  8
ALPHA
  0
POLYLINE
  5
590A
  8
ALPHA
 66
     1
 10
0.0
 20
0.0
 30
0.0
 70
   128
210
0.0
220
0.0
230
-1.0
  0
VERTEX
  5
6371
  8
ALPHA
 10
-121.887375
 20
-150.574471
 30
0.0
  0
VERTEX
  5
6372
  8
ALPHA
 10
-122.00436
 20
-150.770328
 30
0.0
  0
VERTEX
  5
6373
  8
ALPHA
 10
-122.157378
 20
-151.201215
 30
0.0
  0
VERTEX
  5
6374
  8
ALPHA
 10
-122.049526
 20
-151.632102
 30
0.0
  0
VERTEX
  5
6375
  8
ALPHA
 10
-121.804992
 20
-151.774099
 30
0.0
  0
VERTEX
  5
6376
  8
ALPHA
 10
-121.383902
 20
-151.82796
 30
0.0
  0
SEQEND
  5
6377
  8
ALPHA
  0
LINE
  5
590C
  8
ALPHA
 10
130.737286
 20
-151.919374
 30
0.0
 11
130.737286
 21
-154.858495
 31
0.0
  0
DIMENSION
  5
5978
  8
COTATION1
  2
*D4
 10
133.738734
 20
-194.858495
 30
0.0
 11
101.738749
 21
-194.858495
 31
0.0
 70
   128
 13
69.738764
 23
-154.858495
 33
0.0
 14
133.738734
 24
-154.858495
 34
0.0
  0
DIMENSION
  5
59B2
  8
COTATION1
  2
*D5
 10
49.738764
 20
-154.858495
 30
0.0
 11
49.738764
 21
-122.85851
 31
0.0
 70
   128
 13
72.73675
 23
-90.858525
 33
0.0
 14
69.738764
 24
-154.858495
 34
0.0
 50
90.0
  0
ARC
  5
59EE
  8
ALPHA
 10
130.738734
 20
-93.858525
 30
0.0
 40
3.0
 50
360.0
 51
90.0
  0
DIMENSION
  5
59EF
  8
COTATION1
  2
*D6
 10
130.738734
 20
-93.858525
 30
0.0
 11
143.274701
 21
-88.386227
 31
0.0
 70
   132
 15
133.310233
 25
-92.313406
 35
0.0
 40
0.0
  0
POLYLINE
  5
5A07
  8
ALPHA
 66
     1
 10
0.0
 20
0.0
 30
0.0
 70
   128
  0
VERTEX
  5
6378
  8
ALPHA
 10
69.738764
 20
-154.858495
 30
0.0
  0
VERTEX
  5
6379
  8
ALPHA
 10
69.738764
 20
-154.683507
 30
0.0
  0
VERTEX
  5
637A
  8
ALPHA
 10
69.738764
 20
-154.173437
 30
0.0
  0
VERTEX
  5
637B
  8
ALPHA
 10
69.738764
 20
-153.350624
 30
0.0
  0
VERTEX
  5
637C
  8
ALPHA
 10
69.738764
 20
-152.237405
 30
0.0
  0
VERTEX
  5
637D
  8
ALPHA
 10
69.738764
 20
-150.856121
 30
0.0
  0
VERTEX
  5
637E
  8
ALPHA
 10
69.738764
 20
-149.229109
 30
0.0
  0
VERTEX
  5
637F
  8
ALPHA
 10
69.738764
 20
-147.378709
 30
0.0
  0
VERTEX
  5
6380
  8
ALPHA
 10
69.738764
 20
-145.327259
 30
0.0
  0
VERTEX
  5
6381
  8
ALPHA
 10
69.738764
 20
-140.710567
 30
0.0
  0
VERTEX
  5
6382
  8
ALPHA
 10
69.738764
 20
-135.557743
 30
0.0
  0
VERTEX
  5
6383
  8
ALPHA
 10
69.738764
 20
-124.358541
 30
0.0
  0
VERTEX
  5
6384
  8
ALPHA
 10
69.738764
 20
-113.15934
 30
0.0
  0
VERTEX
  5
6385
  8
ALPHA
 10
69.738764
 20
-108.006516
 30
0.0
  0
VERTEX
  5
6386
  8
ALPHA
 10
69.738764
 20
-103.389824
 30
0.0
  0
VERTEX
  5
6387
  8
ALPHA
 10
69.738764
 20
-101.338374
 30
0.0
  0
VERTEX
  5
6388
  8
ALPHA
 10
69.738764
 20
-99.487974
 30
0.0
  0
VERTEX
  5
6389
  8
ALPHA
 10
69.738764
 20
-97.860962
 30
0.0
  0
VERTEX
  5
638A
  8
ALPHA
 10
69.738764
 20
-96.479678
 30
0.0
  0
VERTEX
  5
638B
  8
ALPHA
 10
69.738764
 20
-95.366459
 30
0.0
  0
VERTEX
  5
638C
  8
ALPHA
 10
69.738764
 20
-94.543646
 30
0.0
  0
VERTEX
  5
638D
  8
ALPHA
 10
69.738764
 20
-94.033576
 30
0.0
  0
VERTEX
  5
638E
  8
ALPHA
 10
69.738764
 20
-93.858588
 30
0.0
  0
SEQEND
  5
638F
  8
ALPHA
  0
POLYLINE
  5
5A08
  8
ALPHA
 66
     1
 10
0.0
 20
0.0
 30
0.0
 70
   128
210
0.0
220
0.0
230
-1.0
  0
VERTEX
  5
6390
  8
ALPHA
 10
-69.738764
 20
-93.858588
 30
0.0
  0
VERTEX
  5
6391
  8
ALPHA
 10
-69.974464
 20
-92.690973
 30
0.0
  0
VERTEX
  5
6392
  8
ALPHA
 10
-70.617245
 20
-91.737352
 30
0.0
  0
VERTEX
  5
6393
  8
ALPHA
 10
-71.570629
 20
-91.094333
 30
0.0
  0
VERTEX
  5
6394
  8
ALPHA
 10
-72.738135
 20
-90.858525
 30
0.0
  0
SEQEND
  5
6395
  8
ALPHA
  0
DIMENSION
  5
5A09
  8
COTATION1
  2
*D7
 10
75.738764
 20
-75.858525
 30
0.0
 11
72.738764
 21
-73.358525
 31
0.0
 13
69.738764
 23
-93.858588
 33
0.0
 14
75.738764
 24
-95.858525
 34
0.0
  0
DIMENSION
  5
5A16
  8
COTATION1
  2
*D8
 10
75.738764
 20
-174.858495
 30
0.0
 11
72.738764
 21
-172.358495
 31
0.0
 13
69.738764
 23
-154.858495
 33
0.0
 14
75.738764
 24
-128.858525
 34
0.0
  0
DIMENSION
  5
5A2C
  8
COTATION1
  2
*D9
 10
85.738764
 20
-174.858495
 30
0.0
 11
80.738764
 21
-172.358495
 31
0.0
 13
75.738764
 23
-128.858525
 33
0.0
 14
85.738764
 24
-129.608525
 34
0.0
  0
DIMENSION
  5
5A39
  8
COTATION1
  2
*D10
 10
127.738764
 20
-184.858495
 30
0.0
 11
101.738764
 21
-182.358495
 31
0.0
 13
75.738764
 23
-128.858525
 33
0.0
 14
127.738764
 24
-137.858525
 34
0.0
  0
DIMENSION
  5
5A4F
  8
COTATION1
  2
*D11
 10
59.738764
 20
-126.858525
 30
0.0
 11
57.238764
 21
-140.85851
 31
0.0
 13
69.738764
 23
-154.858495
 33
0.0
 14
73.738764
 24
-126.858525
 34
0.0
 50
90.0
  0
DIMENSION
  5
5A5C
  8
COTATION1
  2
*D12
 10
59.738764
 20
-106.858525
 30
0.0
 11
57.238764
 21
-116.858525
 31
0.0
 13
71.988764
 23
-126.858525
 33
0.0
 14
115.738764
 24
-106.858525
 34
0.0
 50
90.0
  0
DIMENSION
  5
5A84
  8
COTATION1
  2
*D13
 10
133.738734
 20
-75.858525
 30
0.0
 11
104.738749
 21
-73.358525
 31
0.0
 13
75.738764
 23
-95.858525
 33
0.0
 14
133.738734
 24
-93.858525
 34
0.0
  0
DIMENSION
  5
5AA3
  8
COTATION1
  2
*D14
 10
158.738764
 20
-135.858525
 30
0.0
 11
156.238764
 21
-126.858525
 31
0.0
 13
129.738764
 23
-117.858525
 33
0.0
 14
129.738764
 24
-135.858525
 34
0.0
 50
90.0
  0
LINE
  5
5B2D
  8
AXE
 10
127.738764
 20
-119.858525
 30
0.0
 11
127.738764
 21
-133.858525
 31
0.0
  0
LINE
  5
5B2F
  8
AXE
 10
89.488764
 20
-126.858525
 30
0.0
 11
71.988764
 21
-126.858525
 31
0.0
  0
POLYLINE
  5
6015
  8
ALPHA
 66
     1
 10
0.0
 20
0.0
 30
0.0
 70
   128
  0
VERTEX
  5
6396
  8
ALPHA
 10
85.734255
 20
-151.82796
 30
0.0
  0
VERTEX
  5
6397
  8
ALPHA
 10
85.540416
 20
-151.82796
 30
0.0
  0
VERTEX
  5
6398
  8
ALPHA
 10
85.029384
 20
-151.82796
 30
0.0
  0
VERTEX
  5
6399
  8
ALPHA
 10
83.478667
 20
-151.82796
 30
0.0
  0
VERTEX
  5
639A
  8
ALPHA
 10
81.927951
 20
-151.82796
 30
0.0
  0
VERTEX
  5
639B
  8
ALPHA
 10
81.416919
 20
-151.82796
 30
0.0
  0
VERTEX
  5
639C
  8
ALPHA
 10
81.223079
 20
-151.82796
 30
0.0
  0
SEQEND
  5
639D
  8
ALPHA
  0
POLYLINE
  5
6016
  8
ALPHA
 66
     1
 10
0.0
 20
0.0
 30
0.0
 70
   128
210
0.0
220
0.0
230
-1.0
  0
VERTEX
  5
639E
  8
ALPHA
 10
-81.223079
 20
-151.82796
 30
0.0
  0
VERTEX
  5
639F
  8
ALPHA
 10
-80.759687
 20
-151.615113
 30
0.0
  0
VERTEX
  5
63A0
  8
ALPHA
 10
-80.707141
 20
-151.194117
 30
0.0
  0
VERTEX
  5
63A1
  8
ALPHA
 10
-80.84054
 20
-150.78221
 30
0.0
  0
VERTEX
  5
63A2
  8
ALPHA
 10
-80.934985
 20
-150.596632
 30
0.0
  0
SEQEND
  5
63A3
  8
ALPHA
  0
POLYLINE
  5
6017
  8
ALPHA
 66
     1
 10
0.0
 20
0.0
 30
0.0
 70
   128
210
0.0
220
0.0
230
-1.0
  0
VERTEX
  5
63A4
  8
ALPHA
 10
-80.934985
 20
-150.596632
 30
0.0
  0
VERTEX
  5
63A5
  8
ALPHA
 10
-81.381584
 20
-149.905416
 30
0.0
  0
VERTEX
  5
63A6
  8
ALPHA
 10
-81.999065
 20
-149.366516
 30
0.0
  0
VERTEX
  5
63A7
  8
ALPHA
 10
-82.751072
 20
-149.016417
 30
0.0
  0
VERTEX
  5
63A8
  8
ALPHA
 10
-83.601246
 20
-148.891609
 30
0.0
  0
VERTEX
  5
63A9
  8
ALPHA
 10
-84.434767
 20
-149.022499
 30
0.0
  0
VERTEX
  5
63AA
  8
ALPHA
 10
-85.172523
 20
-149.380886
 30
0.0
  0
VERTEX
  5
63AB
  8
ALPHA
 10
-85.783415
 20
-149.91535
 30
0.0
  0
VERTEX
  5
63AC
  8
ALPHA
 10
-86.236344
 20
-150.574471
 30
0.0
  0
SEQEND
  5
63AD
  8
ALPHA
  0
POLYLINE
  5
6018
  8
ALPHA
 66
     1
 10
0.0
 20
0.0
 30
0.0
 70
   128
  0
VERTEX
  5
63AE
  8
ALPHA
 10
102.695833
 20
-151.82796
 30
0.0
  0
VERTEX
  5
63AF
  8
ALPHA
 10
102.501994
 20
-151.82796
 30
0.0
  0
VERTEX
  5
63B0
  8
ALPHA
 10
101.990962
 20
-151.82796
 30
0.0
  0
VERTEX
  5
63B1
  8
ALPHA
 10
100.440245
 20
-151.82796
 30
0.0
  0
VERTEX
  5
63B2
  8
ALPHA
 10
98.889529
 20
-151.82796
 30
0.0
  0
VERTEX
  5
63B3
  8
ALPHA
 10
98.378497
 20
-151.82796
 30
0.0
  0
VERTEX
  5
63B4
  8
ALPHA
 10
98.184657
 20
-151.82796
 30
0.0
  0
SEQEND
  5
63B5
  8
ALPHA
  0
POLYLINE
  5
6019
  8
ALPHA
 66
     1
 10
0.0
 20
0.0
 30
0.0
 70
   128
210
0.0
220
0.0
230
-1.0
  0
VERTEX
  5
63B6
  8
ALPHA
 10
-98.184657
 20
-151.82796
 30
0.0
  0
VERTEX
  5
63B7
  8
ALPHA
 10
-97.72068
 20
-151.615113
 30
0.0
  0
VERTEX
  5
63B8
  8
ALPHA
 10
-97.668199
 20
-151.194117
 30
0.0
  0
VERTEX
  5
63B9
  8
ALPHA
 10
-97.801923
 20
-150.78221
 30
0.0
  0
VERTEX
  5
63BA
  8
ALPHA
 10
-97.896563
 20
-150.596632
 30
0.0
  0
SEQEND
  5
63BB
  8
ALPHA
  0
POLYLINE
  5
601A
  8
ALPHA
 66
     1
 10
0.0
 20
0.0
 30
0.0
 70
   128
210
0.0
220
0.0
230
-1.0
  0
VERTEX
  5
63BC
  8
ALPHA
 10
-97.896563
 20
-150.596632
 30
0.0
  0
VERTEX
  5
63BD
  8
ALPHA
 10
-98.343161
 20
-149.905416
 30
0.0
  0
VERTEX
  5
63BE
  8
ALPHA
 10
-98.960643
 20
-149.366516
 30
0.0
  0
VERTEX
  5
63BF
  8
ALPHA
 10
-99.71265
 20
-149.016417
 30
0.0
  0
VERTEX
  5
63C0
  8
ALPHA
 10
-100.562824
 20
-148.891609
 30
0.0
  0
VERTEX
  5
63C1
  8
ALPHA
 10
-101.396366
 20
-149.022499
 30
0.0
  0
VERTEX
  5
63C2
  8
ALPHA
 10
-102.134274
 20
-149.380886
 30
0.0
  0
VERTEX
  5
63C3
  8
ALPHA
 10
-102.745577
 20
-149.91535
 30
0.0
  0
VERTEX
  5
63C4
  8
ALPHA
 10
-103.199307
 20
-150.574471
 30
0.0
  0
SEQEND
  5
63C5
  8
ALPHA
  0
POLYLINE
  5
601B
  8
ALPHA
 66
     1
 10
0.0
 20
0.0
 30
0.0
 70
   128
  0
VERTEX
  5
63C6
  8
ALPHA
 10
121.383902
 20
-151.82796
 30
0.0
  0
VERTEX
  5
63C7
  8
ALPHA
 10
121.190092
 20
-151.82796
 30
0.0
  0
VERTEX
  5
63C8
  8
ALPHA
 10
120.679139
 20
-151.82796
 30
0.0
  0
VERTEX
  5
63C9
  8
ALPHA
 10
119.12866
 20
-151.82796
 30
0.0
  0
VERTEX
  5
63CA
  8
ALPHA
 10
117.578182
 20
-151.82796
 30
0.0
  0
VERTEX
  5
63CB
  8
ALPHA
 10
117.067229
 20
-151.82796
 30
0.0
  0
VERTEX
  5
63CC
  8
ALPHA
 10
116.873419
 20
-151.82796
 30
0.0
  0
SEQEND
  5
63CD
  8
ALPHA
  0
POLYLINE
  5
601C
  8
ALPHA
 66
     1
 10
0.0
 20
0.0
 30
0.0
 70
   128
210
0.0
220
0.0
230
-1.0
  0
VERTEX
  5
63CE
  8
ALPHA
 10
-116.873419
 20
-151.82796
 30
0.0
  0
VERTEX
  5
63CF
  8
ALPHA
 10
-116.409734
 20
-151.615113
 30
0.0
  0
VERTEX
  5
63D0
  8
ALPHA
 10
-116.35722
 20
-151.194117
 30
0.0
  0
VERTEX
  5
63D1
  8
ALPHA
 10
-116.490782
 20
-150.78221
 30
0.0
  0
VERTEX
  5
63D2
  8
ALPHA
 10
-116.585324
 20
-150.596632
 30
0.0
  0
SEQEND
  5
63D3
  8
ALPHA
  0
POLYLINE
  5
601D
  8
ALPHA
 66
     1
 10
0.0
 20
0.0
 30
0.0
 70
   128
210
0.0
220
0.0
230
-1.0
  0
VERTEX
  5
63D4
  8
ALPHA
 10
-116.585324
 20
-150.596632
 30
0.0
  0
VERTEX
  5
63D5
  8
ALPHA
 10
-117.032226
 20
-149.905416
 30
0.0
  0
VERTEX
  5
63D6
  8
ALPHA
 10
-117.65027
 20
-149.366516
 30
0.0
  0
VERTEX
  5
63D7
  8
ALPHA
 10
-118.40258
 20
-149.016417
 30
0.0
  0
VERTEX
  5
63D8
  8
ALPHA
 10
-119.252278
 20
-148.891609
 30
0.0
  0
VERTEX
  5
63D9
  8
ALPHA
 10
-120.085506
 20
-149.022499
 30
0.0
  0
VERTEX
  5
63DA
  8
ALPHA
 10
-120.822775
 20
-149.380886
 30
0.0
  0
VERTEX
  5
63DB
  8
ALPHA
 10
-121.43357
 20
-149.91535
 30
0.0
  0
VERTEX
  5
63DC
  8
ALPHA
 10
-121.887375
 20
-150.574471
 30
0.0
  0
SEQEND
  5
63DD
  8
ALPHA
  0
ARC
  5
601F
  8
ALPHA
 10
85.738764
 20
-126.858525
 30
0.0
 40
2.75
 50
270.0
 51
90.0
  0
ARC
  5
6020
  8
ALPHA
 10
75.738764
 20
-126.858525
 30
0.0
 40
2.75
 50
90.0
 51
270.0
  0
LINE
  5
6022
  8
AXE
 10
85.738764
 20
-128.858525
 30
0.0
 11
85.738764
 21
-124.858525
 31
0.0
  0
LINE
  5
6023
  8
AXE
 10
75.738764
 20
-128.858525
 30
0.0
 11
75.738764
 21
-124.858525
 31
0.0
  0
LINE
  5
6024
  8
ALPHA
 10
75.738764
 20
-129.608525
 30
0.0
 11
85.738764
 21
-129.608525
 31
0.0
  0
LINE
  5
6025
  8
ALPHA
 10
75.738764
 20
-124.108525
 30
0.0
 11
85.738764
 21
-124.108525
 31
0.0
  0
LINE
  5
6026
  8
ALPHA
 10
72.988764
 20
-97.858525
 30
0.0
 11
72.988764
 21
-115.858525
 31
0.0
  0
LINE
  5
6027
  8
ALPHA
 10
78.488764
 20
-97.858525
 30
0.0
 11
78.488764
 21
-115.858525
 31
0.0
  0
ARC
  5
6028
  8
ALPHA
 10
75.738764
 20
-115.858525
 30
0.0
 40
2.75
 50
180.0
 51
0.0
  0
LINE
  5
6029
  8
AXE
 10
75.738764
 20
-117.858525
 30
0.0
 11
75.738764
 21
-113.858525
 31
0.0
  0
LINE
  5
602A
  8
AXE
 10
73.738764
 20
-115.858525
 30
0.0
 11
77.738764
 21
-115.858525
 31
0.0
  0
LINE
  5
602B
  8
AXE
 10
75.738764
 20
-99.858525
 30
0.0
 11
75.738764
 21
-95.858525
 31
0.0
  0
LINE
  5
602C
  8
AXE
 10
73.738764
 20
-97.858525
 30
0.0
 11
77.738764
 21
-97.858525
 31
0.0
  0
ARC
  5
602D
  8
ALPHA
 10
75.738764
 20
-97.858525
 30
0.0
 40
2.75
 50
0.0
 51
180.0
  0
LINE
  5
602E
  8
ALPHA
 10
124.988764
 20
-117.858525
 30
0.0
 11
124.988764
 21
-135.858525
 31
0.0
  0
LINE
  5
602F
  8
ALPHA
 10
130.488764
 20
-117.858525
 30
0.0
 11
130.488764
 21
-135.858525
 31
0.0
  0
ARC
  5
6030
  8
ALPHA
 10
127.738764
 20
-135.858525
 30
0.0
 40
2.75
 50
180.0
 51
0.0
  0
LINE
  5
6031
  8
AXE
 10
127.738764
 20
-137.858525
 30
0.0
 11
127.738764
 21
-133.858525
 31
0.0
  0
LINE
  5
6032
  8
AXE
 10
125.738764
 20
-135.858525
 30
0.0
 11
129.738764
 21
-135.858525
 31
0.0
  0
LINE
  5
6033
  8
AXE
 10
127.738764
 20
-119.858525
 30
0.0
 11
127.738764
 21
-115.858525
 31
0.0
  0
LINE
  5
6034
  8
AXE
 10
125.738764
 20
-117.858525
 30
0.0
 11
129.738764
 21
-117.858525
 31
0.0
  0
ARC
  5
6035
  8
ALPHA
 10
127.738764
 20
-117.858525
 30
0.0
 40
2.75
 50
0.0
 51
180.0
  0
LINE
  5
6036
  8
AXE
 10
129.738764
 20
-106.858525
 30
0.0
 11
125.738764
 21
-106.858525
 31
0.0
  0
ARC
  5
6037
  8
ALPHA
 10
127.738764
 20
-106.858525
 30
0.0
 40
2.75
 50
270.0
 51
90.0
  0
ARC
  5
6038
  8
ALPHA
 10
117.738764
 20
-106.858525
 30
0.0
 40
2.75
 50
90.0
 51
270.0
  0
LINE
  5
6039
  8
AXE
 10
119.738764
 20
-106.858525
 30
0.0
 11
115.738764
 21
-106.858525
 31
0.0
  0
LINE
  5
603A
  8
AXE
 10
127.738764
 20
-108.858525
 30
0.0
 11
127.738764
 21
-104.858525
 31
0.0
  0
LINE
  5
603B
  8
AXE
 10
117.738764
 20
-108.858525
 30
0.0
 11
117.738764
 21
-104.858525
 31
0.0
  0
LINE
  5
603C
  8
ALPHA
 10
117.738764
 20
-109.608525
 30
0.0
 11
127.738764
 21
-109.608525
 31
0.0
  0
LINE
  5
603D
  8
ALPHA
 10
117.738764
 20
-104.108525
 30
0.0
 11
127.738764
 21
-104.108525
 31
0.0
  0
ENDSEC
  0
EOF
