  0
SECTION
  2
HEADER
  9
$ACADVER
  1
AC1009
  9
$INSBASE
 10
402.590624
 20
-1.041018
 30
0.0
  9
$EXTMIN
 10
-5.172906
 20
0.773739
 30
0.0
  9
$EXTMAX
 10
82.989242
 20
64.523739
 30
0.0
  9
$LIMMIN
 10
-407.970438
 20
-367.832444
  9
$LIMMAX
 10
429.804077
 20
234.370848
  9
$ORTHOMODE
 70
     1
  9
$REGENMODE
 70
     1
  9
$FILLMODE
 70
     1
  9
$QTEXTMODE
 70
     0
  9
$MIRRTEXT
 70
     1
  9
$DRAGMODE
 70
     2
  9
$LTSCALE
 40
10.0
  9
$OSMODE
 70
    39
  9
$ATTMODE
 70
     1
  9
$TEXTSIZE
 40
6.0
  9
$TRACEWID
 40
1.0
  9
$TEXTSTYLE
  7
ROMANS
  9
$CLAYER
  8
ALPHA
  9
$CELTYPE
  6
BYLAYER
  9
$CECOLOR
 62
   256
  9
$DIMSCALE
 40
1.0
  9
$DIMASZ
 40
5.0
  9
$DIMEXO
 40
2.0
  9
$DIMDLI
 40
0.38
  9
$DIMRND
 40
0.0
  9
$DIMDLE
 40
0.0
  9
$DIMEXE
 40
2.5
  9
$DIMTP
 40
0.0
  9
$DIMTM
 40
0.0
  9
$DIMTXT
 40
2.5
  9
$DIMCEN
 40
0.0
  9
$DIMTSZ
 40
0.0
  9
$DIMTOL
 70
     0
  9
$DIMLIM
 70
     0
  9
$DIMTIH
 70
     1
  9
$DIMTOH
 70
     1
  9
$DIMSE1
 70
     0
  9
$DIMSE2
 70
     0
  9
$DIMTAD
 70
     1
  9
$DIMZIN
 70
    12
  9
$DIMBLK
  1
OPEN30
  9
$DIMASO
 70
     1
  9
$DIMSHO
 70
     1
  9
$DIMPOST
  1

  9
$DIMAPOST
  1

  9
$DIMALT
 70
     0
  9
$DIMALTD
 70
     2
  9
$DIMALTF
 40
25.4
  9
$DIMLFAC
 40
1.0
  9
$DIMTOFL
 70
     0
  9
$DIMTVP
 40
0.0
  9
$DIMTIX
 70
     0
  9
$DIMSOXD
 70
     0
  9
$DIMSAH
 70
     0
  9
$DIMBLK1
  1

  9
$DIMBLK2
  1

  9
$DIMSTYLE
  2
SC_DEFAUT
  9
$DIMCLRD
 70
     0
  9
$DIMCLRE
 70
     0
  9
$DIMCLRT
 70
     0
  9
$DIMTFAC
 40
1.0
  9
$DIMGAP
 40
2.0
  9
$LUNITS
 70
     2
  9
$LUPREC
 70
     1
  9
$SKETCHINC
 40
0.1
  9
$FILLETRAD
 40
0.0
  9
$AUNITS
 70
     0
  9
$AUPREC
 70
     0
  9
$MENU
  1
acad
  9
$ELEVATION
 40
0.0
  9
$PELEVATION
 40
0.0
  9
$THICKNESS
 40
0.0
  9
$LIMCHECK
 70
     0
  9
$BLIPMODE
 70
     0
  9
$CHAMFERA
 40
0.0
  9
$CHAMFERB
 40
0.0
  9
$SKPOLY
 70
     0
  9
$TDCREATE
 40
2450373.687919
  9
$TDUPDATE
 40
2452996.481455
  9
$TDINDWG
 40
0.878195
  9
$TDUSRTIMER
 40
0.878195
  9
$USRTIMER
 70
     1
  9
$ANGBASE
 50
0.0
  9
$ANGDIR
 70
     0
  9
$PDMODE
 70
    32
  9
$PDSIZE
 40
0.0
  9
$PLINEWID
 40
0.0
  9
$COORDS
 70
     1
  9
$SPLFRAME
 70
     0
  9
$SPLINETYPE
 70
     6
  9
$SPLINESEGS
 70
     8
  9
$ATTDIA
 70
     0
  9
$ATTREQ
 70
     1
  9
$HANDLING
 70
     1
  9
$HANDSEED
  5
981F
  9
$SURFTAB1
 70
     6
  9
$SURFTAB2
 70
     6
  9
$SURFTYPE
 70
     6
  9
$SURFU
 70
     6
  9
$SURFV
 70
     6
  9
$UCSNAME
  2

  9
$UCSORG
 10
0.0
 20
0.0
 30
0.0
  9
$UCSXDIR
 10
1.0
 20
0.0
 30
0.0
  9
$UCSYDIR
 10
0.0
 20
1.0
 30
0.0
  9
$PUCSNAME
  2

  9
$PUCSORG
 10
0.0
 20
0.0
 30
0.0
  9
$PUCSXDIR
 10
1.0
 20
0.0
 30
0.0
  9
$PUCSYDIR
 10
0.0
 20
1.0
 30
0.0
  9
$USERI1
 70
     0
  9
$USERI2
 70
     0
  9
$USERI3
 70
     0
  9
$USERI4
 70
     0
  9
$USERI5
 70
     0
  9
$USERR1
 40
0.0
  9
$USERR2
 40
0.0
  9
$USERR3
 40
0.0
  9
$USERR4
 40
0.0
  9
$USERR5
 40
0.0
  9
$WORLDVIEW
 70
     1
  9
$SHADEDGE
 70
     3
  9
$SHADEDIF
 70
    70
  9
$TILEMODE
 70
     1
  9
$MAXACTVP
 70
    16
  9
$PLIMCHECK
 70
     0
  9
$PEXTMIN
 10
-1.452248
 20
-0.437698
 30
0.0
  9
$PEXTMAX
 10
12.749749
 20
8.310198
 30
0.0
  9
$PLIMMIN
 10
0.0
 20
0.0
  9
$PLIMMAX
 10
12.0
 20
9.0
  9
$UNITMODE
 70
     0
  9
$VISRETAIN
 70
     0
  9
$PLINEGEN
 70
     0
  9
$PSLTSCALE
 70
     0
  0
ENDSEC
  0
SECTION
  2
TABLES
  0
TABLE
  2
VPORT
 70
     2
  0
VPORT
  2
*ACTIVE
 70
     0
 10
0.0
 20
0.0
 11
1.0
 21
1.0
 12
38.912521
 22
32.647081
 13
0.0
 23
0.0
 14
1.0
 24
1.0
 15
10.0
 25
10.0
 16
0.0
 26
0.0
 36
1.0
 17
0.0
 27
0.0
 37
0.0
 40
64.230251
 41
1.466346
 42
50.0
 43
0.0
 44
0.0
 50
0.0
 51
0.0
 71
     0
 72
   100
 73
     1
 74
     0
 75
     0
 76
     0
 77
     0
 78
     0
  0
ENDTAB
  0
TABLE
  2
LTYPE
 70
     2
  0
LTYPE
  2
CONTINUOUS
 70
     0
  3
Solid line
 72
    65
 73
     0
 40
0.0
  0
LTYPE
  2
AXES2
 70
     0
  3
___ _ ___ _ ___ _ ___ _ ___ _ ___ _ ___ _ ___ _
 72
    65
 73
     4
 40
1.125
 49
0.75
 49
-0.125
 49
0.125
 49
-0.125
  0
ENDTAB
  0
TABLE
  2
LAYER
 70
     5
  0
LAYER
  2
0
 70
     0
 62
   255
  6
CONTINUOUS
  0
LAYER
  2
COTATION1
 70
     0
 62
     2
  6
CONTINUOUS
  0
LAYER
  2
AXE
 70
     0
 62
    80
  6
AXES2
  0
LAYER
  2
DEFPOINTS
 70
     0
 62
     7
  6
CONTINUOUS
  0
LAYER
  2
ALPHA
 70
     0
 62
   254
  6
CONTINUOUS
  0
ENDTAB
  0
TABLE
  2
STYLE
 70
     2
  0
STYLE
  2
ROMANS
 70
     0
 40
0.0
 41
1.0
 50
0.0
 71
     0
 42
6.0
  3
romans
  4

  0
STYLE
  2
STANDARD
 70
     0
 40
0.0
 41
1.0
 50
0.0
 71
     0
 42
0.2
  3
txt
  4

  0
ENDTAB
  0
TABLE
  2
VIEW
 70
     0
  0
ENDTAB
  0
TABLE
  2
UCS
 70
     0
  0
ENDTAB
  0
TABLE
  2
APPID
 70
     1
  0
APPID
  2
ACAD
 70
     0
  0
ENDTAB
  0
TABLE
  2
DIMSTYLE
 70
     1
  0
DIMSTYLE
  2
SC_DEFAUT
 70
     0
  3

  4

  5
OPEN30
  6

  7

 40
1.0
 41
5.0
 42
2.0
 43
0.38
 44
2.5
 45
0.0
 46
0.0
 47
0.0
 48
0.0
140
2.5
141
0.0
142
0.0
143
25.4
144
1.0
145
0.0
146
1.0
147
2.0
 71
     0
 72
     0
 73
     1
 74
     1
 75
     0
 76
     0
 77
     1
 78
    12
170
     0
171
     2
172
     0
173
     0
174
     0
175
     0
176
     0
177
     0
178
     0
  0
ENDTAB
  0
ENDSEC
  0
SECTION
  2
BLOCKS
  0
BLOCK
  8
0
  2
$MODEL_SPACE
 70
     0
 10
0.0
 20
0.0
 30
0.0
  3
$MODEL_SPACE
  1

  0
ENDBLK
  5
97AC
  8
0
  0
BLOCK
 67
     1
  8
0
  2
$PAPER_SPACE
 70
     0
 10
0.0
 20
0.0
 30
0.0
  3
$PAPER_SPACE
  1

  0
ENDBLK
  5
97AA
 67
     1
  8
0
  0
BLOCK
  8
0
  2
COTE
 70
     0
 10
0.0
 20
0.0
 30
0.0
  3
COTE
  1

  0
ENDBLK
  5
F
  8
0
  0
BLOCK
  8
0
  2
FOND
 70
     0
 10
0.0
 20
0.0
 30
0.0
  3
FOND
  1

  0
ENDBLK
  5
75
  8
0
  0
BLOCK
  8
0
  2
_OPEN30
 70
     0
 10
0.0
 20
0.0
 30
0.0
  3
_OPEN30
  1

  0
LINE
  5
4B05
  8
COTATION1
 62
     0
 10
-1.0
 20
0.267949
 30
0.0
 11
0.0
 21
0.0
 31
0.0
1001
ACAD
1000
RTLwPs
1070
   158
  0
LINE
  5
4B06
  8
COTATION1
 62
     0
 10
0.0
 20
0.0
 30
0.0
 11
-1.0
 21
-0.267949
 31
0.0
1001
ACAD
1000
RTLwPs
1070
   158
  0
LINE
  5
4B07
  8
COTATION1
 62
     0
 10
0.0
 20
0.0
 30
0.0
 11
-1.0
 21
0.0
 31
0.0
1001
ACAD
1000
RTLwPs
1070
   158
  0
ENDBLK
  5
4B09
  8
0
  0
BLOCK
  8
0
  2
*D3
 70
     1
 10
0.0
 20
0.0
 30
0.0
  3
*D3
  1

  0
LINE
  5
95BF
  8
COTATION1
 62
     0
 10
43.379661
 20
32.283739
 30
0.0
 11
43.379661
 21
62.523739
 31
0.0
1001
ACAD
1000
RTLwPs
1070
   158
  0
LINE
  5
95C0
  8
COTATION1
 62
     0
 10
60.379661
 20
32.283739
 30
0.0
 11
60.379661
 21
62.523739
 31
0.0
1001
ACAD
1000
RTLwPs
1070
   158
  0
LINE
  5
95C1
  8
COTATION1
 62
     0
 10
48.379661
 20
60.023739
 30
0.0
 11
55.379661
 21
60.023739
 31
0.0
1001
ACAD
1000
RTLwPs
1070
   158
  0
INSERT
  5
95C2
  8
COTATION1
 62
     0
  2
_OPEN30
 10
43.379661
 20
60.023739
 30
0.0
 41
5.0
 42
5.0
 43
5.0
 50
180.0
1001
ACAD
1000
RTLwPs
1070
   158
  0
INSERT
  5
95C3
  8
COTATION1
 62
     0
  2
_OPEN30
 10
60.379661
 20
60.023739
 30
0.0
 41
5.0
 42
5.0
 43
5.0
1001
ACAD
1000
RTLwPs
1070
   158
  0
TEXT
  5
95C4
  8
COTATION1
 62
     0
 10
49.320137
 20
62.023739
 30
0.0
 40
2.5
  1
17
1001
ACAD
1000
MTEXTBEGIN
1070
    73
1070
     1
1070
    44
1040
1.0
1070
    74
1070
     0
1000
MTEXTEND
  0
POINT
  5
95C5
  8
DEFPOINTS
 62
     0
 10
43.379661
 20
30.283739
 30
0.0
  0
POINT
  5
95C6
  8
DEFPOINTS
 62
     0
 10
60.379661
 20
30.283739
 30
0.0
  0
POINT
  5
95C7
  8
DEFPOINTS
 62
     0
 10
60.379661
 20
60.023739
 30
0.0
  0
ENDBLK
  5
7F3E
  8
0
  0
BLOCK
  8
0
  2
*D4
 70
     1
 10
0.0
 20
0.0
 30
0.0
  3
*D4
  1

  0
LINE
  5
95D2
  8
COTATION1
 62
     0
 10
49.879661
 20
45.023739
 30
0.0
 11
28.237846
 21
45.023739
 31
0.0
1001
ACAD
1000
RTLwPs
1070
   158
  0
LINE
  5
95D3
  8
COTATION1
 62
     0
 10
41.929661
 20
19.073739
 30
0.0
 11
28.237846
 21
19.073739
 31
0.0
1001
ACAD
1000
RTLwPs
1070
   158
  0
LINE
  5
95D4
  8
COTATION1
 62
     0
 10
30.737846
 20
40.023739
 30
0.0
 11
30.737846
 21
35.298739
 31
0.0
1001
ACAD
1000
RTLwPs
1070
   158
  0
LINE
  5
95D5
  8
COTATION1
 62
     0
 10
30.737846
 20
24.073739
 30
0.0
 11
30.737846
 21
28.798739
 31
0.0
1001
ACAD
1000
RTLwPs
1070
   158
  0
INSERT
  5
95D6
  8
COTATION1
 62
     0
  2
_OPEN30
 10
30.737846
 20
45.023739
 30
0.0
 41
5.0
 42
5.0
 43
5.0
 50
90.0
1001
ACAD
1000
RTLwPs
1070
   158
  0
INSERT
  5
95D7
  8
COTATION1
 62
     0
  2
_OPEN30
 10
30.737846
 20
19.073739
 30
0.0
 41
5.0
 42
5.0
 43
5.0
 50
270.0
1001
ACAD
1000
RTLwPs
1070
   158
  0
TEXT
  5
95D8
  8
COTATION1
 62
     0
 10
28.356893
 20
30.798739
 30
0.0
 40
2.5
  1
26
1001
ACAD
1000
MTEXTBEGIN
1070
    73
1070
     1
1070
    44
1040
1.0
1070
    74
1070
     0
1000
MTEXTEND
  0
POINT
  5
95D9
  8
DEFPOINTS
 62
     0
 10
51.879661
 20
45.023739
 30
0.0
  0
POINT
  5
95DA
  8
DEFPOINTS
 62
     0
 10
43.929661
 20
19.073739
 30
0.0
  0
POINT
  5
95DB
  8
DEFPOINTS
 62
     0
 10
30.737846
 20
19.073739
 30
0.0
  0
ENDBLK
  5
7F4B
  8
0
  0
BLOCK
  8
0
  2
*D5
 70
     1
 10
0.0
 20
0.0
 30
0.0
  3
*D5
  1

  0
LINE
  5
96CC
  8
COTATION1
 62
     0
 10
53.879661
 20
45.023739
 30
0.0
 11
81.679718
 21
45.023739
 31
0.0
1001
ACAD
1000
RTLwPs
1070
   158
  0
LINE
  5
96CD
  8
COTATION1
 62
     0
 10
59.729661
 20
10.773739
 30
0.0
 11
81.679718
 21
10.773739
 31
0.0
1001
ACAD
1000
RTLwPs
1070
   158
  0
LINE
  5
96CE
  8
COTATION1
 62
     0
 10
79.179718
 20
40.023739
 30
0.0
 11
79.179718
 21
31.148739
 31
0.0
1001
ACAD
1000
RTLwPs
1070
   158
  0
LINE
  5
96CF
  8
COTATION1
 62
     0
 10
79.179718
 20
15.773739
 30
0.0
 11
79.179718
 21
24.648739
 31
0.0
1001
ACAD
1000
RTLwPs
1070
   158
  0
TEXT
  5
96D0
  8
COTATION1
 62
     0
 10
75.013051
 20
26.648739
 30
0.0
 40
2.5
  1
34.3
1001
ACAD
1000
MTEXTBEGIN
1070
    73
1070
     1
1070
    44
1040
1.0
1070
    74
1070
     0
1000
MTEXTEND
  0
INSERT
  5
96D1
  8
COTATION1
 62
     0
  2
_OPEN30
 10
79.179718
 20
45.023739
 30
0.0
 41
5.0
 42
5.0
 43
5.0
 50
90.0
1001
ACAD
1000
RTLwPs
1070
   158
  0
INSERT
  5
96D2
  8
COTATION1
 62
     0
  2
_OPEN30
 10
79.179718
 20
10.773739
 30
0.0
 41
5.0
 42
5.0
 43
5.0
 50
270.0
1001
ACAD
1000
RTLwPs
1070
   158
  0
POINT
  5
96D3
  8
DEFPOINTS
 62
     0
 10
51.879661
 20
45.023739
 30
0.0
  0
POINT
  5
96D4
  8
DEFPOINTS
 62
     0
 10
57.729661
 20
10.773739
 30
0.0
  0
POINT
  5
96D5
  8
DEFPOINTS
 62
     0
 10
79.179718
 20
10.773739
 30
0.0
  0
ENDBLK
  5
8EB4
  8
0
  0
ENDSEC
  0
SECTION
  2
ENTITIES
  0
INSERT
  5
A
  8
0
  2
COTE
 10
0.0
 20
0.0
 30
0.0
  0
INSERT
  5
17
  8
0
  2
COTE
 10
284.010391
 20
6.373258
 30
0.0
  0
INSERT
  5
72
  8
0
  2
FOND
 10
0.0
 20
0.0
 30
0.0
  0
DIMENSION
  5
7F30
  8
COTATION1
  2
*D3
 10
60.379661
 20
60.023739
 30
0.0
 11
51.879661
 21
63.273739
 31
0.0
 13
43.379661
 23
30.283739
 33
0.0
 14
60.379661
 24
30.283739
 34
0.0
  0
DIMENSION
  5
7F31
  8
COTATION1
  2
*D4
 10
30.737846
 20
19.073739
 30
0.0
 11
30.737846
 21
32.048739
 31
0.0
 13
51.879661
 23
45.023739
 33
0.0
 14
43.929661
 24
19.073739
 34
0.0
 50
90.0
  0
LINE
  5
8AD3
  8
AXE
 10
51.879661
 20
0.773739
 30
0.0
 11
51.879661
 21
50.023739
 31
0.0
  0
TEXT
  5
8AD4
  8
AXE
 10
46.832042
 20
0.773739
 30
0.0
 40
5.0
  1
Y
 72
     2
 11
50.879661
 21
0.773739
 31
0.0
  0
LINE
  5
8AD5
  8
AXE
 10
38.879661
 20
18.018739
 30
0.0
 11
69.879661
 21
18.018739
 31
0.0
  0
TEXT
  5
8AD6
  8
AXE
 10
65.832042
 20
19.018739
 30
0.0
 40
5.0
  1
X
 72
     2
 11
69.879661
 21
19.018739
 31
0.0
  0
LINE
  5
8B73
  8
COTATION1
 10
8.077094
 20
21.573739
 30
0.0
 11
8.077094
 21
46.532661
 31
0.0
  0
LINE
  5
8B74
  8
COTATION1
 10
-0.023259
 20
19.073739
 30
0.0
 11
42.879661
 21
19.073739
 31
0.0
  0
SOLID
  5
8B75
  8
COTATION1
 10
9.520469
 20
19.073739
 30
0.0
 11
6.633718
 21
19.073739
 31
0.0
 12
8.077094
 22
21.573739
 32
0.0
 13
8.077094
 23
21.573739
 33
0.0
  0
LINE
  5
8B76
  8
COTATION1
 10
-5.172906
 20
51.532661
 30
0.0
 11
21.327094
 21
51.532661
 31
0.0
  0
LINE
  5
8B77
  8
COTATION1
 10
21.327094
 20
46.532661
 30
0.0
 11
-5.172906
 21
46.532661
 31
0.0
  0
TEXT
  5
8B78
  8
COTATION1
 10
-3.922906
 20
47.782661
 30
0.0
 40
2.5
  1
PLANE_TO_LINE_UP
 41
0.626087
  7
STANDARD
 72
     5
 11
20.077094
 21
47.782661
 31
0.0
  0
LINE
  5
8B79
  8
COTATION1
 10
21.327094
 20
51.532661
 30
0.0
 11
21.327094
 21
46.532661
 31
0.0
  0
LINE
  5
8B7A
  8
COTATION1
 10
-5.172906
 20
46.532661
 30
0.0
 11
-5.172906
 21
51.532661
 31
0.0
  0
DIMENSION
  5
8EA7
  8
COTATION1
  2
*D5
 10
79.179718
 20
10.773739
 30
0.0
 11
79.179718
 21
27.898739
 31
0.0
 70
   128
 13
51.879661
 23
45.023739
 33
0.0
 14
57.729661
 24
10.773739
 34
0.0
 50
90.0
  0
LINE
  5
9223
  8
ALPHA
 10
46.398951
 20
32.762072
 30
0.0
 11
57.373541
 21
33.243985
 31
0.0
  0
POLYLINE
  5
9224
  8
ALPHA
 66
     1
 10
0.0
 20
0.0
 30
0.0
 70
   128
210
0.0
220
0.0
230
-1.0
  0
VERTEX
  5
97B2
  8
ALPHA
 10
-46.385438
 20
21.763184
 30
0.0
  0
VERTEX
  5
97B3
  8
ALPHA
 10
-49.132156
 20
21.91549
 30
0.0
  0
VERTEX
  5
97B4
  8
ALPHA
 10
-51.883009
 20
21.998833
 30
0.0
  0
VERTEX
  5
97B5
  8
ALPHA
 10
-54.63382
 20
22.082299
 30
0.0
  0
VERTEX
  5
97B6
  8
ALPHA
 10
-56.0086
 20
22.134672
 30
0.0
  0
VERTEX
  5
97B7
  8
ALPHA
 10
-57.373539
 20
22.253493
 30
0.0
  0
SEQEND
  5
97B8
  8
ALPHA
  0
LINE
  5
9225
  8
ALPHA
 10
57.879659
 20
21.798407
 30
0.0
 11
45.88019
 21
21.303882
 31
0.0
  0
POLYLINE
  5
9226
  8
ALPHA
 66
     1
 10
0.0
 20
0.0
 30
0.0
 70
   128
210
0.0
220
0.0
230
-1.0
  0
VERTEX
  5
97B9
  8
ALPHA
 10
-46.391239
 20
33.758143
 30
0.0
  0
VERTEX
  5
97BA
  8
ALPHA
 10
-49.135612
 20
33.915586
 30
0.0
  0
VERTEX
  5
97BB
  8
ALPHA
 10
-51.88531
 20
33.998901
 30
0.0
  0
VERTEX
  5
97BC
  8
ALPHA
 10
-54.63497
 20
34.082338
 30
0.0
  0
VERTEX
  5
97BD
  8
ALPHA
 10
-56.009175
 20
34.134698
 30
0.0
  0
VERTEX
  5
97BE
  8
ALPHA
 10
-57.37354
 20
34.253493
 30
0.0
  0
SEQEND
  5
97BF
  8
ALPHA
  0
LINE
  5
9227
  8
ALPHA
 10
57.797959
 20
22.772443
 30
0.0
 11
45.880189
 21
22.30388
 31
0.0
  0
LINE
  5
9228
  8
ALPHA
 10
57.799018
 20
26.772615
 30
0.0
 11
45.880191
 21
26.303882
 31
0.0
  0
LINE
  5
9229
  8
ALPHA
 10
57.799694
 20
30.772726
 30
0.0
 11
45.88019
 21
30.303882
 31
0.0
  0
LINE
  5
922A
  8
ALPHA
 10
57.798139
 20
31.772473
 30
0.0
 11
45.880196
 21
31.303886
 31
0.0
  0
LINE
  5
922B
  8
ALPHA
 10
46.398949
 20
34.762072
 30
0.0
 11
57.373539
 21
35.243985
 31
0.0
  0
LINE
  5
922C
  8
ALPHA
 10
57.798016
 20
32.772452
 30
0.0
 11
45.880189
 21
32.303881
 31
0.0
  0
LINE
  5
922D
  8
ALPHA
 10
57.79812
 20
33.77247
 30
0.0
 11
45.88019
 21
33.303881
 31
0.0
  0
LINE
  5
922E
  8
ALPHA
 10
46.397506
 20
30.798739
 30
0.0
 11
57.372839
 21
31.294842
 31
0.0
  0
LINE
  5
922F
  8
ALPHA
 10
57.798835
 20
34.772586
 30
0.0
 11
45.88019
 21
34.303882
 31
0.0
  0
LINE
  5
9230
  8
ALPHA
 10
46.379661
 20
31.798739
 30
0.0
 11
57.361912
 21
32.293375
 31
0.0
  0
POLYLINE
  5
9231
  8
ALPHA
 66
     1
 10
0.0
 20
0.0
 30
0.0
 70
   128
210
0.0
220
0.0
230
-1.0
  0
VERTEX
  5
97C0
  8
ALPHA
 10
-46.382786
 20
35.753492
 30
0.0
  0
VERTEX
  5
97C1
  8
ALPHA
 10
-48.864862
 20
35.906422
 30
0.0
  0
VERTEX
  5
97C2
  8
ALPHA
 10
-51.353133
 20
35.983479
 30
0.0
  0
VERTEX
  5
97C3
  8
ALPHA
 10
-56.329255
 20
36.148739
 30
0.0
  0
SEQEND
  5
97C4
  8
ALPHA
  0
LINE
  5
9232
  8
ALPHA
 10
45.971767
 20
36.165844
 30
0.0
 11
56.488929
 21
36.37637
 31
0.0
  0
LINE
  5
9233
  8
ALPHA
 10
45.9611
 20
22.274991
 30
0.0
 11
57.879132
 21
22.743595
 31
0.0
  0
POLYLINE
  5
9234
  8
ALPHA
 66
     1
 10
0.0
 20
0.0
 30
0.0
 70
   128
210
0.0
220
0.0
230
-1.0
  0
VERTEX
  5
97C5
  8
ALPHA
 10
-56.733763
 20
35.698739
 30
0.0
  0
VERTEX
  5
97C6
  8
ALPHA
 10
-51.304441
 20
35.533458
 30
0.0
  0
VERTEX
  5
97C7
  8
ALPHA
 10
-48.589595
 20
35.456348
 30
0.0
  0
VERTEX
  5
97C8
  8
ALPHA
 10
-45.880269
 20
35.303929
 30
0.0
  0
SEQEND
  5
97C9
  8
ALPHA
  0
LINE
  5
9235
  8
ALPHA
 10
46.042546
 20
26.277953
 30
0.0
 11
57.879134
 21
26.743596
 31
0.0
  0
POLYLINE
  5
9236
  8
ALPHA
 66
     1
 10
0.0
 20
0.0
 30
0.0
 70
   128
  0
VERTEX
  5
97CA
  8
ALPHA
 10
55.380292
 20
35.598076
 30
0.0
  0
VERTEX
  5
97CB
  8
ALPHA
 10
50.667783
 20
35.466372
 30
0.0
  0
VERTEX
  5
97CC
  8
ALPHA
 10
45.958219
 20
35.274522
 30
0.0
  0
SEQEND
  5
97CD
  8
ALPHA
  0
LINE
  5
9237
  8
ALPHA
 10
45.961192
 20
34.275005
 30
0.0
 11
57.879133
 21
34.743596
 31
0.0
  0
LINE
  5
9238
  8
ALPHA
 10
46.397506
 20
32.798738
 30
0.0
 11
57.37284
 21
33.294843
 31
0.0
  0
LINE
  5
9239
  8
ALPHA
 10
45.961296
 20
33.275022
 30
0.0
 11
57.879133
 21
33.743596
 31
0.0
  0
LINE
  5
923A
  8
ALPHA
 10
46.379661
 20
33.798738
 30
0.0
 11
57.361912
 21
34.293375
 31
0.0
  0
LINE
  5
923B
  8
ALPHA
 10
45.960397
 20
32.274878
 30
0.0
 11
57.879132
 21
32.743596
 31
0.0
  0
LINE
  5
923C
  8
ALPHA
 10
46.397506
 20
34.79874
 30
0.0
 11
57.372839
 21
35.294842
 31
0.0
  0
LINE
  5
923D
  8
ALPHA
 10
46.042546
 20
30.277952
 30
0.0
 11
57.879134
 21
30.743597
 31
0.0
  0
POLYLINE
  5
923E
  8
ALPHA
 66
     1
 10
0.0
 20
0.0
 30
0.0
 70
   128
210
0.0
220
0.0
230
-1.0
  0
VERTEX
  5
97CE
  8
ALPHA
 10
-46.379661
 20
35.798739
 30
0.0
  0
VERTEX
  5
97CF
  8
ALPHA
 10
-48.86154
 20
35.956313
 30
0.0
  0
VERTEX
  5
97D0
  8
ALPHA
 10
-51.35092
 20
36.033414
 30
0.0
  0
VERTEX
  5
97D1
  8
ALPHA
 10
-56.329255
 20
36.198739
 30
0.0
  0
SEQEND
  5
97D2
  8
ALPHA
  0
LINE
  5
923F
  8
ALPHA
 10
46.39895
 20
30.762072
 30
0.0
 11
57.37354
 21
31.243985
 31
0.0
  0
LINE
  5
9240
  8
ALPHA
 10
46.379661
 20
21.798739
 30
0.0
 11
57.361911
 21
22.293374
 31
0.0
  0
LINE
  5
9241
  8
ALPHA
 10
45.961151
 20
31.274999
 30
0.0
 11
57.87912
 21
31.743589
 31
0.0
  0
POLYLINE
  5
9242
  8
ALPHA
 66
     1
 10
0.0
 20
0.0
 30
0.0
 70
   128
210
0.0
220
0.0
230
-1.0
  0
VERTEX
  5
97D3
  8
ALPHA
 10
-46.39124
 20
31.758143
 30
0.0
  0
VERTEX
  5
97D4
  8
ALPHA
 10
-49.135612
 20
31.915587
 30
0.0
  0
VERTEX
  5
97D5
  8
ALPHA
 10
-51.88531
 20
31.998901
 30
0.0
  0
VERTEX
  5
97D6
  8
ALPHA
 10
-54.634971
 20
32.082338
 30
0.0
  0
VERTEX
  5
97D7
  8
ALPHA
 10
-56.009175
 20
32.134699
 30
0.0
  0
VERTEX
  5
97D8
  8
ALPHA
 10
-57.373541
 20
32.253493
 30
0.0
  0
SEQEND
  5
97D9
  8
ALPHA
  0
POLYLINE
  5
9243
  8
ALPHA
 66
     1
 10
0.0
 20
0.0
 30
0.0
 70
   128
  0
VERTEX
  5
97DA
  8
ALPHA
 10
47.629661
 20
26.783739
 30
0.0
  0
VERTEX
  5
97DB
  8
ALPHA
 10
49.761389
 20
26.87748
 30
0.0
  0
VERTEX
  5
97DC
  8
ALPHA
 10
51.879661
 20
27.13608
 30
0.0
  0
SEQEND
  5
97DD
  8
ALPHA
  0
POLYLINE
  5
9244
  8
ALPHA
 66
     1
 10
0.0
 20
0.0
 30
0.0
 70
   128
210
0.0
220
0.0
230
-1.0
  0
VERTEX
  5
97DE
  8
ALPHA
 10
-47.629661
 20
30.283739
 30
0.0
  0
VERTEX
  5
97DF
  8
ALPHA
 10
-49.761389
 20
30.189998
 30
0.0
  0
VERTEX
  5
97E0
  8
ALPHA
 10
-51.879661
 20
29.931398
 30
0.0
  0
SEQEND
  5
97E1
  8
ALPHA
  0
POLYLINE
  5
9245
  8
ALPHA
 66
     1
 10
0.0
 20
0.0
 30
0.0
 70
   128
  0
VERTEX
  5
97E2
  8
ALPHA
 10
47.629661
 20
22.783739
 30
0.0
  0
VERTEX
  5
97E3
  8
ALPHA
 10
49.761389
 20
22.87748
 30
0.0
  0
VERTEX
  5
97E4
  8
ALPHA
 10
51.879661
 20
23.13608
 30
0.0
  0
SEQEND
  5
97E5
  8
ALPHA
  0
POLYLINE
  5
9246
  8
ALPHA
 66
     1
 10
0.0
 20
0.0
 30
0.0
 70
   128
210
0.0
220
0.0
230
-1.0
  0
VERTEX
  5
97E6
  8
ALPHA
 10
-47.629661
 20
26.283739
 30
0.0
  0
VERTEX
  5
97E7
  8
ALPHA
 10
-49.761389
 20
26.189998
 30
0.0
  0
VERTEX
  5
97E8
  8
ALPHA
 10
-51.879661
 20
25.931398
 30
0.0
  0
SEQEND
  5
97E9
  8
ALPHA
  0
LINE
  5
9247
  8
ALPHA
 10
46.879661
 20
37.073739
 30
0.0
 11
56.879661
 21
37.073739
 31
0.0
  0
LINE
  5
9248
  8
ALPHA
 10
43.379661
 20
30.283739
 30
0.0
 11
60.379661
 21
30.283739
 31
0.0
  0
LINE
  5
9249
  8
ALPHA
 10
43.379661
 20
26.783739
 30
0.0
 11
60.379661
 21
26.783739
 31
0.0
  0
LINE
  5
924A
  8
ALPHA
 10
43.379661
 20
26.283739
 30
0.0
 11
60.379661
 21
26.283739
 31
0.0
  0
LINE
  5
924B
  8
ALPHA
 10
43.379661
 20
22.783739
 30
0.0
 11
60.379661
 21
22.783739
 31
0.0
  0
LINE
  5
924C
  8
ALPHA
 10
44.129661
 20
21.073739
 30
0.0
 11
59.629661
 21
21.073739
 31
0.0
  0
LINE
  5
924D
  8
ALPHA
 10
43.929661
 20
20.873739
 30
0.0
 11
59.829661
 21
20.873739
 31
0.0
  0
LINE
  5
924E
  8
ALPHA
 10
43.929661
 20
19.073739
 30
0.0
 11
59.829661
 21
19.073739
 31
0.0
  0
LINE
  5
924F
  8
ALPHA
 10
54.824466
 20
16.973739
 30
0.0
 11
45.147224
 21
16.973739
 31
0.0
  0
LINE
  5
9250
  8
ALPHA
 10
45.533085
 20
15.623739
 30
0.0
 11
58.229573
 21
15.623739
 31
0.0
  0
LINE
  5
9251
  8
ALPHA
 10
54.872377
 20
14.673739
 30
0.0
 11
45.533085
 21
14.673739
 31
0.0
  0
LINE
  5
9252
  8
ALPHA
 10
58.029661
 20
14.473739
 30
0.0
 11
45.729661
 21
14.473739
 31
0.0
  0
LINE
  5
9253
  8
ALPHA
 10
57.879661
 20
13.473739
 30
0.0
 11
45.879661
 21
13.473739
 31
0.0
  0
LINE
  5
9254
  8
ALPHA
 10
45.533085
 20
13.273739
 30
0.0
 11
58.229661
 21
13.273739
 31
0.0
  0
LINE
  5
9255
  8
ALPHA
 10
58.229661
 20
11.273739
 30
0.0
 11
45.529661
 21
11.273739
 31
0.0
  0
LINE
  5
9256
  8
ALPHA
 10
57.729661
 20
10.773739
 30
0.0
 11
46.029661
 21
10.773739
 31
0.0
  0
LINE
  5
9257
  8
ALPHA
 10
46.382502
 20
22.753854
 30
0.0
 11
45.882265
 21
22.303428
 31
0.0
  0
ARC
  5
9258
  8
ALPHA
 10
46.029661
 20
11.273739
 30
0.0
 40
0.5
 50
180.0
 51
270.0
  0
ARC
  5
9259
  8
ALPHA
 10
44.129661
 20
20.873739
 30
0.0
 40
0.2
 50
90.0
 51
180.0
  0
LINE
  5
925A
  8
ALPHA
 10
43.929661
 20
19.073739
 30
0.0
 11
43.929661
 21
20.873739
 31
0.0
  0
LINE
  5
925B
  8
ALPHA
 10
46.379661
 20
16.973739
 30
0.0
 11
46.379661
 21
15.623739
 31
0.0
  0
LINE
  5
925C
  8
ALPHA
 10
45.533085
 20
14.673739
 30
0.0
 11
45.579661
 21
14.623739
 31
0.0
  0
ARC
  5
925D
  8
ALPHA
 10
45.879661
 20
13.973739
 30
0.0
 40
0.5
 50
90.0
 51
270.0
  0
LINE
  5
925E
  8
ALPHA
 10
45.533085
 20
13.273739
 30
0.0
 11
45.533085
 21
11.290837
 31
0.0
  0
LINE
  5
925F
  8
ALPHA
 10
45.533085
 20
15.623739
 30
0.0
 11
45.533085
 21
14.673739
 31
0.0
  0
LINE
  5
9260
  8
ALPHA
 10
45.529661
 20
11.290837
 30
0.0
 11
45.529661
 21
11.273739
 31
0.0
  0
LINE
  5
9261
  8
ALPHA
 10
45.579661
 20
14.623739
 30
0.0
 11
45.729661
 21
14.473739
 31
0.0
  0
LINE
  5
9262
  8
ALPHA
 10
45.533085
 20
11.290837
 30
0.0
 11
45.529661
 21
11.290837
 31
0.0
  0
LINE
  5
9263
  8
ALPHA
 10
46.279661
 20
13.273739
 30
0.0
 11
46.279661
 21
13.473739
 31
0.0
  0
LINE
  5
9264
  8
ALPHA
 10
46.382502
 20
21.753854
 30
0.0
 11
45.882265
 21
21.303428
 31
0.0
  0
LINE
  5
9265
  8
ALPHA
 10
46.379661
 20
21.798739
 30
0.0
 11
45.879661
 21
22.248739
 31
0.0
  0
LINE
  5
9266
  8
ALPHA
 10
45.883887
 20
22.261717
 30
0.0
 11
45.9611
 21
22.274991
 31
0.0
  0
LINE
  5
9267
  8
ALPHA
 10
45.879661
 20
22.248739
 30
0.0
 11
45.883887
 21
22.261717
 31
0.0
  0
LINE
  5
9268
  8
ALPHA
 10
45.882265
 20
21.303428
 30
0.0
 11
45.879661
 21
21.298739
 31
0.0
  0
LINE
  5
9269
  8
ALPHA
 10
45.882265
 20
22.303428
 30
0.0
 11
45.879661
 21
22.298738
 31
0.0
  0
LINE
  5
926A
  8
ALPHA
 10
45.879661
 20
21.298739
 30
0.0
 11
45.879661
 21
21.073739
 31
0.0
  0
LINE
  5
926B
  8
ALPHA
 10
45.879661
 20
22.298738
 30
0.0
 11
45.879661
 21
22.248739
 31
0.0
  0
LINE
  5
926C
  8
ALPHA
 10
45.147224
 20
16.973739
 30
0.0
 11
45.147224
 21
17.073739
 31
0.0
  0
LINE
  5
926D
  8
ALPHA
 10
44.584661
 20
19.073739
 30
0.0
 11
44.584661
 21
17.273739
 31
0.0
  0
LINE
  5
926E
  8
ALPHA
 10
44.584661
 20
17.273739
 30
0.0
 11
44.638251
 21
17.073739
 31
0.0
  0
LINE
  5
9270
  8
ALPHA
 10
44.638251
 20
17.073739
 30
0.0
 11
45.147224
 21
17.073739
 31
0.0
  0
LINE
  5
9271
  8
ALPHA
 10
46.380341
 20
21.754409
 30
0.0
 11
46.385438
 21
21.763184
 31
0.0
  0
LINE
  5
9272
  8
ALPHA
 10
46.379661
 20
21.748739
 30
0.0
 11
46.379661
 21
21.798739
 31
0.0
  0
LINE
  5
9273
  8
ALPHA
 10
45.882265
 20
34.244049
 30
0.0
 11
46.378389
 21
33.797326
 31
0.0
  0
POLYLINE
  5
9274
  8
ALPHA
 66
     1
 10
0.0
 20
0.0
 30
0.0
 70
   128
210
0.0
220
0.0
230
-1.0
  0
VERTEX
  5
97EA
  8
ALPHA
 10
-43.379661
 20
29.931398
 30
0.0
  0
VERTEX
  5
97EB
  8
ALPHA
 10
-45.497933
 20
30.189998
 30
0.0
  0
VERTEX
  5
97EC
  8
ALPHA
 10
-47.629661
 20
30.283739
 30
0.0
  0
SEQEND
  5
97ED
  8
ALPHA
  0
POLYLINE
  5
9275
  8
ALPHA
 66
     1
 10
0.0
 20
0.0
 30
0.0
 70
   128
  0
VERTEX
  5
97EE
  8
ALPHA
 10
43.379661
 20
27.13608
 30
0.0
  0
VERTEX
  5
97EF
  8
ALPHA
 10
45.497933
 20
26.87748
 30
0.0
  0
VERTEX
  5
97F0
  8
ALPHA
 10
47.629661
 20
26.783739
 30
0.0
  0
SEQEND
  5
97F1
  8
ALPHA
  0
POLYLINE
  5
9276
  8
ALPHA
 66
     1
 10
0.0
 20
0.0
 30
0.0
 70
   128
210
0.0
220
0.0
230
-1.0
  0
VERTEX
  5
97F2
  8
ALPHA
 10
-43.379661
 20
25.931398
 30
0.0
  0
VERTEX
  5
97F3
  8
ALPHA
 10
-45.497933
 20
26.189998
 30
0.0
  0
VERTEX
  5
97F4
  8
ALPHA
 10
-47.629661
 20
26.283739
 30
0.0
  0
SEQEND
  5
97F5
  8
ALPHA
  0
POLYLINE
  5
9277
  8
ALPHA
 66
     1
 10
0.0
 20
0.0
 30
0.0
 70
   128
  0
VERTEX
  5
97F6
  8
ALPHA
 10
43.379661
 20
23.13608
 30
0.0
  0
VERTEX
  5
97F7
  8
ALPHA
 10
45.497933
 20
22.87748
 30
0.0
  0
VERTEX
  5
97F8
  8
ALPHA
 10
47.629661
 20
22.783739
 30
0.0
  0
SEQEND
  5
97F9
  8
ALPHA
  0
LINE
  5
9278
  8
ALPHA
 10
43.379661
 20
26.783739
 30
0.0
 11
43.379661
 21
30.283739
 31
0.0
  0
LINE
  5
9279
  8
ALPHA
 10
43.379661
 20
22.783739
 30
0.0
 11
43.379661
 21
26.283739
 31
0.0
  0
LINE
  5
927A
  8
ALPHA
 10
46.382502
 20
26.753854
 30
0.0
 11
45.882265
 21
26.303428
 31
0.0
  0
LINE
  5
927B
  8
ALPHA
 10
45.882265
 20
26.303428
 30
0.0
 11
45.879661
 21
26.298738
 31
0.0
  0
LINE
  5
927C
  8
ALPHA
 10
45.879661
 20
26.298738
 30
0.0
 11
45.879661
 21
26.283739
 31
0.0
  0
LINE
  5
927D
  8
ALPHA
 10
46.398952
 20
22.762072
 30
0.0
 11
46.524538
 21
22.791655
 31
0.0
  0
LINE
  5
927E
  8
ALPHA
 10
46.397638
 20
22.752888
 30
0.0
 11
46.398952
 21
22.762072
 31
0.0
  0
LINE
  5
927F
  8
ALPHA
 10
46.398951
 20
26.762072
 30
0.0
 11
46.524536
 21
26.791655
 31
0.0
  0
LINE
  5
9280
  8
ALPHA
 10
46.397638
 20
26.752888
 30
0.0
 11
46.398951
 21
26.762072
 31
0.0
  0
LINE
  5
9281
  8
ALPHA
 10
46.379661
 20
22.783739
 30
0.0
 11
46.379661
 21
22.753854
 31
0.0
  0
LINE
  5
9282
  8
ALPHA
 10
46.379661
 20
26.783739
 30
0.0
 11
46.379661
 21
26.753854
 31
0.0
  0
LINE
  5
9283
  8
ALPHA
 10
45.882265
 20
31.244049
 30
0.0
 11
46.378389
 21
30.797326
 31
0.0
  0
LINE
  5
9284
  8
ALPHA
 10
45.882265
 20
32.24405
 30
0.0
 11
46.378389
 21
31.797327
 31
0.0
  0
LINE
  5
9285
  8
ALPHA
 10
46.382502
 20
30.753854
 30
0.0
 11
45.882265
 21
30.303428
 31
0.0
  0
LINE
  5
9286
  8
ALPHA
 10
46.382502
 20
31.753855
 30
0.0
 11
45.882265
 21
31.303429
 31
0.0
  0
LINE
  5
9287
  8
ALPHA
 10
45.882265
 20
33.244049
 30
0.0
 11
46.378389
 21
32.797326
 31
0.0
  0
LINE
  5
9288
  8
ALPHA
 10
46.382502
 20
32.753854
 30
0.0
 11
45.882265
 21
32.303428
 31
0.0
  0
LINE
  5
9289
  8
ALPHA
 10
46.382502
 20
33.753854
 30
0.0
 11
45.882265
 21
33.303428
 31
0.0
  0
LINE
  5
928A
  8
ALPHA
 10
45.883812
 20
33.261638
 30
0.0
 11
45.961296
 21
33.275022
 31
0.0
  0
LINE
  5
928B
  8
ALPHA
 10
45.879663
 20
33.249069
 30
0.0
 11
45.883812
 21
33.261638
 31
0.0
  0
LINE
  5
928C
  8
ALPHA
 10
45.879661
 20
33.248738
 30
0.0
 11
45.879663
 21
33.249069
 31
0.0
  0
LINE
  5
928D
  8
ALPHA
 10
45.88417
 20
32.262003
 30
0.0
 11
45.960397
 21
32.274878
 31
0.0
  0
LINE
  5
928E
  8
ALPHA
 10
45.879663
 20
32.249069
 30
0.0
 11
45.88417
 21
32.262003
 31
0.0
  0
LINE
  5
928F
  8
ALPHA
 10
45.879661
 20
32.248739
 30
0.0
 11
45.879663
 21
32.249069
 31
0.0
  0
LINE
  5
9290
  8
ALPHA
 10
45.883869
 20
31.261698
 30
0.0
 11
45.961151
 21
31.274999
 31
0.0
  0
LINE
  5
9291
  8
ALPHA
 10
45.879663
 20
31.24907
 30
0.0
 11
45.883869
 21
31.261698
 31
0.0
  0
LINE
  5
9292
  8
ALPHA
 10
45.879661
 20
31.248739
 30
0.0
 11
45.879663
 21
31.24907
 31
0.0
  0
LINE
  5
9293
  8
ALPHA
 10
45.879661
 20
30.298739
 30
0.0
 11
45.879661
 21
30.283739
 31
0.0
  0
LINE
  5
9294
  8
ALPHA
 10
45.879661
 20
31.298739
 30
0.0
 11
45.879661
 21
31.248739
 31
0.0
  0
LINE
  5
9295
  8
ALPHA
 10
45.879661
 20
32.298738
 30
0.0
 11
45.879661
 21
32.248739
 31
0.0
  0
LINE
  5
9296
  8
ALPHA
 10
45.879661
 20
33.298738
 30
0.0
 11
45.879661
 21
33.248738
 31
0.0
  0
LINE
  5
9297
  8
ALPHA
 10
45.882265
 20
30.303428
 30
0.0
 11
45.879661
 21
30.298739
 31
0.0
  0
LINE
  5
9298
  8
ALPHA
 10
45.882265
 20
31.303429
 30
0.0
 11
45.879661
 21
31.298739
 31
0.0
  0
LINE
  5
9299
  8
ALPHA
 10
45.882265
 20
32.303428
 30
0.0
 11
45.879661
 21
32.298738
 31
0.0
  0
LINE
  5
929A
  8
ALPHA
 10
45.882265
 20
33.303428
 30
0.0
 11
45.879661
 21
33.298738
 31
0.0
  0
LINE
  5
929B
  8
ALPHA
 10
46.397638
 20
32.752888
 30
0.0
 11
46.398951
 21
32.762072
 31
0.0
  0
LINE
  5
929C
  8
ALPHA
 10
46.382785
 20
33.753492
 30
0.0
 11
46.391239
 21
33.758143
 31
0.0
  0
LINE
  5
929D
  8
ALPHA
 10
46.397638
 20
30.75289
 30
0.0
 11
46.39895
 21
30.762072
 31
0.0
  0
LINE
  5
929E
  8
ALPHA
 10
46.382786
 20
31.753492
 30
0.0
 11
46.39124
 21
31.758143
 31
0.0
  0
LINE
  5
929F
  8
ALPHA
 10
46.379661
 20
30.798739
 30
0.0
 11
46.379661
 21
30.753854
 31
0.0
  0
LINE
  5
92A0
  8
ALPHA
 10
46.379661
 20
31.798739
 30
0.0
 11
46.379661
 21
31.753855
 31
0.0
  0
LINE
  5
92A1
  8
ALPHA
 10
46.379661
 20
32.798738
 30
0.0
 11
46.379661
 21
32.753854
 31
0.0
  0
LINE
  5
92A2
  8
ALPHA
 10
46.379661
 20
33.798738
 30
0.0
 11
46.379661
 21
33.753854
 31
0.0
  0
LINE
  5
92A3
  8
ALPHA
 10
45.882265
 20
35.24405
 30
0.0
 11
46.378389
 21
34.797327
 31
0.0
  0
LINE
  5
92A4
  8
ALPHA
 10
45.971905
 20
36.163339
 30
0.0
 11
46.378389
 21
35.797327
 31
0.0
  0
LINE
  5
92A5
  8
ALPHA
 10
46.382502
 20
34.753854
 30
0.0
 11
45.882265
 21
34.303428
 31
0.0
  0
LINE
  5
92A6
  8
ALPHA
 10
46.382502
 20
35.753855
 30
0.0
 11
45.882265
 21
35.303429
 31
0.0
  0
LINE
  5
92A7
  8
ALPHA
 10
46.879661
 20
37.073739
 30
0.0
 11
45.971767
 21
36.165844
 31
0.0
  0
LINE
  5
92A8
  8
ALPHA
 10
45.879663
 20
35.249066
 30
0.0
 11
45.879661
 21
35.248739
 31
0.0
  0
LINE
  5
92A9
  8
ALPHA
 10
45.885042
 20
35.262781
 30
0.0
 11
45.879663
 21
35.249066
 31
0.0
  0
LINE
  5
92AA
  8
ALPHA
 10
45.958219
 20
35.274522
 30
0.0
 11
45.885042
 21
35.262781
 31
0.0
  0
LINE
  5
92AB
  8
ALPHA
 10
45.883852
 20
34.261681
 30
0.0
 11
45.961192
 21
34.275005
 31
0.0
  0
LINE
  5
92AC
  8
ALPHA
 10
45.879663
 20
34.249069
 30
0.0
 11
45.883852
 21
34.261681
 31
0.0
  0
LINE
  5
92AD
  8
ALPHA
 10
45.879661
 20
34.248738
 30
0.0
 11
45.879663
 21
34.249069
 31
0.0
  0
LINE
  5
92AE
  8
ALPHA
 10
45.879661
 20
34.298739
 30
0.0
 11
45.879661
 21
34.248738
 31
0.0
  0
LINE
  5
92AF
  8
ALPHA
 10
45.879661
 20
35.298739
 30
0.0
 11
45.879661
 21
35.248739
 31
0.0
  0
LINE
  5
92B0
  8
ALPHA
 10
45.882265
 20
34.303428
 30
0.0
 11
45.879661
 21
34.298739
 31
0.0
  0
LINE
  5
92B1
  8
ALPHA
 10
45.882265
 20
35.303429
 30
0.0
 11
45.879661
 21
35.298739
 31
0.0
  0
LINE
  5
92B2
  8
ALPHA
 10
46.397637
 20
34.752891
 30
0.0
 11
46.398949
 21
34.762072
 31
0.0
  0
LINE
  5
92B3
  8
ALPHA
 10
46.379661
 20
34.798739
 30
0.0
 11
46.379661
 21
34.753854
 31
0.0
  0
LINE
  5
92B4
  8
ALPHA
 10
46.379661
 20
35.798739
 30
0.0
 11
46.379661
 21
35.753855
 31
0.0
  0
LINE
  5
92B5
  8
ALPHA
 10
57.37682
 20
22.293623
 30
0.0
 11
57.877057
 21
22.744049
 31
0.0
  0
LINE
  5
92C7
  8
ALPHA
 10
58.629581
 20
16.973739
 30
0.0
 11
54.860142
 21
16.973739
 31
0.0
  0
LINE
  5
92C8
  8
ALPHA
 10
58.229661
 20
14.673739
 30
0.0
 11
55.233521
 21
14.673739
 31
0.0
  0
POLYLINE
  5
92C9
  8
ALPHA
 66
     1
 10
0.0
 20
0.0
 30
0.0
 70
   128
210
0.0
220
0.0
230
-1.0
  0
VERTEX
  5
97FA
  8
ALPHA
 10
-55.233521
 20
14.673739
 30
0.0
  0
VERTEX
  5
97FB
  8
ALPHA
 10
-55.051639
 20
14.624446
 30
0.0
  0
VERTEX
  5
97FC
  8
ALPHA
 10
-54.872377
 20
14.673739
 30
0.0
  0
SEQEND
  5
97FD
  8
ALPHA
  0
LINE
  5
92CA
  8
ALPHA
 10
55.233521
 20
13.273739
 30
0.0
 11
55.233521
 21
11.290837
 31
0.0
  0
LINE
  5
92CB
  8
ALPHA
 10
55.233521
 20
15.623739
 30
0.0
 11
55.233521
 21
14.673739
 31
0.0
  0
LINE
  5
92CC
  8
ALPHA
 10
54.872377
 20
13.273739
 30
0.0
 11
54.872377
 21
11.290837
 31
0.0
  0
LINE
  5
92CD
  8
ALPHA
 10
54.872377
 20
15.623739
 30
0.0
 11
54.872377
 21
14.673739
 31
0.0
  0
LINE
  5
92CE
  8
ALPHA
 10
55.233521
 20
11.290837
 30
0.0
 11
54.872377
 21
11.290837
 31
0.0
  0
ARC
  5
92D5
  8
ALPHA
 10
57.729661
 20
11.273739
 30
0.0
 40
0.5
 50
270.0
 51
0.0
  0
LINE
  5
92D6
  8
ALPHA
 10
57.379661
 20
16.973739
 30
0.0
 11
57.379661
 21
15.623739
 31
0.0
  0
ARC
  5
92D7
  8
ALPHA
 10
57.879661
 20
13.973739
 30
0.0
 40
0.5
 50
270.0
 51
90.0
  0
LINE
  5
92D8
  8
ALPHA
 10
58.229661
 20
14.673739
 30
0.0
 11
58.029661
 21
14.473739
 31
0.0
  0
LINE
  5
92D9
  8
ALPHA
 10
58.229661
 20
13.273739
 30
0.0
 11
58.229661
 21
11.273739
 31
0.0
  0
LINE
  5
92DA
  8
ALPHA
 10
58.229661
 20
15.623739
 30
0.0
 11
58.229661
 21
14.673739
 31
0.0
  0
LINE
  5
92DB
  8
ALPHA
 10
57.479661
 20
13.273739
 30
0.0
 11
57.479661
 21
13.473739
 31
0.0
  0
LINE
  5
92DC
  8
ALPHA
 10
57.879661
 20
21.798738
 30
0.0
 11
57.879659
 21
21.798407
 31
0.0
  0
LINE
  5
92DD
  8
ALPHA
 10
57.361911
 20
22.293374
 30
0.0
 11
57.370529
 21
22.300217
 31
0.0
  0
LINE
  5
92DE
  8
ALPHA
 10
57.877057
 20
21.803428
 30
0.0
 11
57.380933
 21
22.25015
 31
0.0
  0
LINE
  5
92DF
  8
ALPHA
 10
57.879661
 20
21.798738
 30
0.0
 11
57.879661
 21
21.073739
 31
0.0
  0
LINE
  5
92E0
  8
ALPHA
 10
57.379661
 20
22.248738
 30
0.0
 11
57.379661
 21
22.293623
 31
0.0
  0
ARC
  5
92E1
  8
ALPHA
 10
59.629661
 20
20.873739
 30
0.0
 40
0.2
 50
0.0
 51
90.0
  0
LINE
  5
92E2
  8
ALPHA
 10
59.829661
 20
19.073739
 30
0.0
 11
59.829661
 21
20.873739
 31
0.0
  0
LINE
  5
92E3
  8
ALPHA
 10
58.629661
 20
16.973739
 30
0.0
 11
58.629661
 21
19.073739
 31
0.0
  0
LINE
  5
933C
  8
ALPHA
 10
57.867503
 20
35.738606
 30
0.0
 11
55.380292
 21
35.598076
 31
0.0
  0
LINE
  5
933D
  8
ALPHA
 10
56.329255
 20
36.148739
 30
0.0
 11
57.374137
 21
36.253117
 31
0.0
  0
LINE
  5
933E
  8
ALPHA
 10
56.329255
 20
36.198739
 30
0.0
 11
57.376541
 21
36.293978
 31
0.0
  0
POLYLINE
  5
933F
  8
ALPHA
 66
     1
 10
0.0
 20
0.0
 30
0.0
 70
   128
210
0.0
220
0.0
230
-1.0
  0
VERTEX
  5
97FE
  8
ALPHA
 10
-56.129661
 20
30.283739
 30
0.0
  0
VERTEX
  5
97FF
  8
ALPHA
 10
-58.261389
 20
30.189998
 30
0.0
  0
VERTEX
  5
9800
  8
ALPHA
 10
-60.379661
 20
29.931398
 30
0.0
  0
SEQEND
  5
9801
  8
ALPHA
  0
POLYLINE
  5
9340
  8
ALPHA
 66
     1
 10
0.0
 20
0.0
 30
0.0
 70
   128
  0
VERTEX
  5
9802
  8
ALPHA
 10
56.129661
 20
26.783739
 30
0.0
  0
VERTEX
  5
9803
  8
ALPHA
 10
58.261389
 20
26.87748
 30
0.0
  0
VERTEX
  5
9804
  8
ALPHA
 10
60.379661
 20
27.13608
 30
0.0
  0
SEQEND
  5
9805
  8
ALPHA
  0
POLYLINE
  5
9341
  8
ALPHA
 66
     1
 10
0.0
 20
0.0
 30
0.0
 70
   128
210
0.0
220
0.0
230
-1.0
  0
VERTEX
  5
9806
  8
ALPHA
 10
-56.129661
 20
26.283739
 30
0.0
  0
VERTEX
  5
9807
  8
ALPHA
 10
-58.261389
 20
26.189998
 30
0.0
  0
VERTEX
  5
9808
  8
ALPHA
 10
-60.379661
 20
25.931398
 30
0.0
  0
SEQEND
  5
9809
  8
ALPHA
  0
POLYLINE
  5
9342
  8
ALPHA
 66
     1
 10
0.0
 20
0.0
 30
0.0
 70
   128
  0
VERTEX
  5
980A
  8
ALPHA
 10
56.129661
 20
22.783739
 30
0.0
  0
VERTEX
  5
980B
  8
ALPHA
 10
58.261389
 20
22.87748
 30
0.0
  0
VERTEX
  5
980C
  8
ALPHA
 10
60.379661
 20
23.13608
 30
0.0
  0
SEQEND
  5
980D
  8
ALPHA
  0
POLYLINE
  5
9343
  8
ALPHA
 66
     1
 10
0.0
 20
0.0
 30
0.0
 70
   128
210
0.0
220
0.0
230
-1.0
  0
VERTEX
  5
980E
  8
ALPHA
 10
-51.879661
 20
29.931398
 30
0.0
  0
VERTEX
  5
980F
  8
ALPHA
 10
-53.997933
 20
30.189998
 30
0.0
  0
VERTEX
  5
9810
  8
ALPHA
 10
-56.129661
 20
30.283739
 30
0.0
  0
SEQEND
  5
9811
  8
ALPHA
  0
POLYLINE
  5
9344
  8
ALPHA
 66
     1
 10
0.0
 20
0.0
 30
0.0
 70
   128
  0
VERTEX
  5
9812
  8
ALPHA
 10
51.879661
 20
27.13608
 30
0.0
  0
VERTEX
  5
9813
  8
ALPHA
 10
53.997933
 20
26.87748
 30
0.0
  0
VERTEX
  5
9814
  8
ALPHA
 10
56.129661
 20
26.783739
 30
0.0
  0
SEQEND
  5
9815
  8
ALPHA
  0
POLYLINE
  5
9345
  8
ALPHA
 66
     1
 10
0.0
 20
0.0
 30
0.0
 70
   128
210
0.0
220
0.0
230
-1.0
  0
VERTEX
  5
9816
  8
ALPHA
 10
-51.879661
 20
25.931398
 30
0.0
  0
VERTEX
  5
9817
  8
ALPHA
 10
-53.997933
 20
26.189998
 30
0.0
  0
VERTEX
  5
9818
  8
ALPHA
 10
-56.129661
 20
26.283739
 30
0.0
  0
SEQEND
  5
9819
  8
ALPHA
  0
POLYLINE
  5
9346
  8
ALPHA
 66
     1
 10
0.0
 20
0.0
 30
0.0
 70
   128
  0
VERTEX
  5
981A
  8
ALPHA
 10
51.879661
 20
23.13608
 30
0.0
  0
VERTEX
  5
981B
  8
ALPHA
 10
53.997933
 20
22.87748
 30
0.0
  0
VERTEX
  5
981C
  8
ALPHA
 10
56.129661
 20
22.783739
 30
0.0
  0
SEQEND
  5
981D
  8
ALPHA
  0
LINE
  5
9347
  8
ALPHA
 10
51.879661
 20
27.13608
 30
0.0
 11
51.879661
 21
29.931398
 31
0.0
  0
LINE
  5
9348
  8
ALPHA
 10
51.879661
 20
23.13608
 30
0.0
 11
51.879661
 21
25.931398
 31
0.0
  0
LINE
  5
9349
  8
ALPHA
 10
50.879661
 20
45.023739
 30
0.0
 11
52.879661
 21
45.023739
 31
0.0
  0
LINE
  5
934A
  8
ALPHA
 10
48.474899
 20
44.138053
 30
0.0
 11
55.284423
 21
44.138053
 31
0.0
  0
LINE
  5
934B
  8
ALPHA
 10
48.379661
 20
43.967686
 30
0.0
 11
55.379661
 21
43.967686
 31
0.0
  0
LINE
  5
934C
  8
ALPHA
 10
48.379661
 20
43.967686
 30
0.0
 11
48.379661
 21
37.073739
 31
0.0
  0
ARC
  5
934D
  8
ALPHA
 10
51.879661
 20
38.601122
 30
0.0
 40
6.5
 50
98.849883
 51
121.588135
  0
ARC
  5
934E
  8
ALPHA
 10
48.579661
 20
43.967686
 30
0.0
 40
0.2
 50
121.588134
 51
180.0
  0
LINE
  5
934F
  8
ALPHA
 10
55.379661
 20
43.967686
 30
0.0
 11
55.379661
 21
37.073739
 31
0.0
  0
ARC
  5
9350
  8
ALPHA
 10
51.879661
 20
38.601122
 30
0.0
 40
6.5
 50
58.411865
 51
81.150117
  0
ARC
  5
9351
  8
ALPHA
 10
55.179661
 20
43.967686
 30
0.0
 40
0.2
 50
0.0
 51
58.411866
  0
LINE
  5
9352
  8
ALPHA
 10
57.877057
 20
33.803428
 30
0.0
 11
57.380933
 21
34.250151
 31
0.0
  0
LINE
  5
9353
  8
ALPHA
 10
60.379661
 20
26.783739
 30
0.0
 11
60.379661
 21
30.283739
 31
0.0
  0
LINE
  5
9354
  8
ALPHA
 10
57.361911
 20
26.293374
 30
0.0
 11
57.370529
 21
26.300217
 31
0.0
  0
LINE
  5
9355
  8
ALPHA
 10
57.348985
 20
26.285383
 30
0.0
 11
57.361911
 21
26.293374
 31
0.0
  0
LINE
  5
9356
  8
ALPHA
 10
57.833584
 20
22.772699
 30
0.0
 11
57.797959
 21
22.772443
 31
0.0
  0
LINE
  5
9357
  8
ALPHA
 10
57.833882
 20
26.772916
 30
0.0
 11
57.799018
 21
26.772615
 31
0.0
  0
LINE
  5
9358
  8
ALPHA
 10
57.37682
 20
26.293623
 30
0.0
 11
57.877057
 21
26.744049
 31
0.0
  0
LINE
  5
9359
  8
ALPHA
 10
57.877057
 20
22.744049
 30
0.0
 11
57.879661
 21
22.748738
 31
0.0
  0
LINE
  5
935A
  8
ALPHA
 10
57.877057
 20
26.744049
 30
0.0
 11
57.879661
 21
26.748738
 31
0.0
  0
LINE
  5
935B
  8
ALPHA
 10
57.879661
 20
22.783739
 30
0.0
 11
57.879661
 21
22.748738
 31
0.0
  0
LINE
  5
935C
  8
ALPHA
 10
57.879661
 20
26.783739
 30
0.0
 11
57.879661
 21
26.748738
 31
0.0
  0
LINE
  5
935D
  8
ALPHA
 10
57.379661
 20
26.283739
 30
0.0
 11
57.379661
 21
26.293623
 31
0.0
  0
LINE
  5
935E
  8
ALPHA
 10
60.379661
 20
22.783739
 30
0.0
 11
60.379661
 21
26.283739
 31
0.0
  0
LINE
  5
935F
  8
ALPHA
 10
57.874854
 20
30.785191
 30
0.0
 11
57.799694
 21
30.772726
 31
0.0
  0
LINE
  5
9360
  8
ALPHA
 10
57.879659
 20
30.79841
 30
0.0
 11
57.874854
 21
30.785191
 31
0.0
  0
LINE
  5
9361
  8
ALPHA
 10
57.879661
 20
30.798739
 30
0.0
 11
57.879659
 21
30.79841
 31
0.0
  0
LINE
  5
9362
  8
ALPHA
 10
57.361912
 20
30.293374
 30
0.0
 11
57.370529
 21
30.300217
 31
0.0
  0
LINE
  5
9363
  8
ALPHA
 10
57.348984
 20
30.285383
 30
0.0
 11
57.361912
 21
30.293374
 31
0.0
  0
LINE
  5
9364
  8
ALPHA
 10
57.875461
 20
31.785788
 30
0.0
 11
57.798139
 21
31.772473
 31
0.0
  0
LINE
  5
9365
  8
ALPHA
 10
57.879659
 20
31.798408
 30
0.0
 11
57.875461
 21
31.785788
 31
0.0
  0
LINE
  5
9366
  8
ALPHA
 10
57.879661
 20
31.798739
 30
0.0
 11
57.879659
 21
31.798408
 31
0.0
  0
LINE
  5
9367
  8
ALPHA
 10
57.875514
 20
32.785843
 30
0.0
 11
57.798016
 21
32.772452
 31
0.0
  0
LINE
  5
9368
  8
ALPHA
 10
57.879659
 20
32.798407
 30
0.0
 11
57.875514
 21
32.785843
 31
0.0
  0
LINE
  5
9369
  8
ALPHA
 10
57.879661
 20
32.798738
 30
0.0
 11
57.879659
 21
32.798407
 31
0.0
  0
LINE
  5
936A
  8
ALPHA
 10
57.875474
 20
33.785801
 30
0.0
 11
57.79812
 21
33.77247
 31
0.0
  0
LINE
  5
936B
  8
ALPHA
 10
57.879659
 20
33.798408
 30
0.0
 11
57.875474
 21
33.785801
 31
0.0
  0
LINE
  5
936C
  8
ALPHA
 10
57.879661
 20
33.798739
 30
0.0
 11
57.879659
 21
33.798408
 31
0.0
  0
LINE
  5
936D
  8
ALPHA
 10
57.374682
 20
31.292335
 30
0.0
 11
57.372839
 21
31.294842
 31
0.0
  0
LINE
  5
936E
  8
ALPHA
 10
57.361912
 20
32.293375
 30
0.0
 11
57.37053
 21
32.300217
 31
0.0
  0
LINE
  5
936F
  8
ALPHA
 10
57.374683
 20
33.292335
 30
0.0
 11
57.37284
 21
33.294843
 31
0.0
  0
LINE
  5
9370
  8
ALPHA
 10
57.37682
 20
30.293623
 30
0.0
 11
57.877057
 21
30.744049
 31
0.0
  0
LINE
  5
9371
  8
ALPHA
 10
57.37682
 20
31.293624
 30
0.0
 11
57.877057
 21
31.74405
 31
0.0
  0
LINE
  5
9372
  8
ALPHA
 10
57.37682
 20
32.293624
 30
0.0
 11
57.877057
 21
32.74405
 31
0.0
  0
LINE
  5
9373
  8
ALPHA
 10
57.877057
 20
30.803428
 30
0.0
 11
57.380933
 21
31.250151
 31
0.0
  0
LINE
  5
9374
  8
ALPHA
 10
57.877057
 20
31.803428
 30
0.0
 11
57.380933
 21
32.250151
 31
0.0
  0
LINE
  5
9375
  8
ALPHA
 10
57.37682
 20
33.293623
 30
0.0
 11
57.877057
 21
33.744049
 31
0.0
  0
LINE
  5
9376
  8
ALPHA
 10
57.877057
 20
32.803428
 30
0.0
 11
57.380933
 21
33.25015
 31
0.0
  0
LINE
  5
9377
  8
ALPHA
 10
57.879661
 20
30.798739
 30
0.0
 11
57.879661
 21
30.748738
 31
0.0
  0
LINE
  5
9378
  8
ALPHA
 10
57.879661
 20
31.798739
 30
0.0
 11
57.879661
 21
31.748739
 31
0.0
  0
LINE
  5
9379
  8
ALPHA
 10
57.879661
 20
32.798738
 30
0.0
 11
57.879661
 21
32.748739
 31
0.0
  0
LINE
  5
937A
  8
ALPHA
 10
57.879661
 20
33.798739
 30
0.0
 11
57.879661
 21
33.748738
 31
0.0
  0
LINE
  5
937B
  8
ALPHA
 10
57.379661
 20
33.248738
 30
0.0
 11
57.379661
 21
33.293623
 31
0.0
  0
LINE
  5
937C
  8
ALPHA
 10
57.379661
 20
32.248739
 30
0.0
 11
57.379661
 21
32.293624
 31
0.0
  0
LINE
  5
937D
  8
ALPHA
 10
57.379661
 20
31.248739
 30
0.0
 11
57.379661
 21
31.293624
 31
0.0
  0
LINE
  5
937E
  8
ALPHA
 10
57.379661
 20
30.283739
 30
0.0
 11
57.379661
 21
30.293623
 31
0.0
  0
LINE
  5
937F
  8
ALPHA
 10
57.877057
 20
30.744049
 30
0.0
 11
57.879661
 21
30.748738
 31
0.0
  0
LINE
  5
9380
  8
ALPHA
 10
57.877057
 20
31.74405
 30
0.0
 11
57.879661
 21
31.748739
 31
0.0
  0
LINE
  5
9381
  8
ALPHA
 10
57.877057
 20
32.74405
 30
0.0
 11
57.879661
 21
32.748739
 31
0.0
  0
LINE
  5
9382
  8
ALPHA
 10
57.877057
 20
33.744049
 30
0.0
 11
57.879661
 21
33.748738
 31
0.0
  0
LINE
  5
9383
  8
ALPHA
 10
57.875186
 20
34.78551
 30
0.0
 11
57.798835
 21
34.772586
 31
0.0
  0
LINE
  5
9384
  8
ALPHA
 10
57.879659
 20
34.798409
 30
0.0
 11
57.875186
 21
34.78551
 31
0.0
  0
LINE
  5
9385
  8
ALPHA
 10
57.879661
 20
34.798739
 30
0.0
 11
57.879659
 21
34.798409
 31
0.0
  0
LINE
  5
9386
  8
ALPHA
 10
56.488929
 20
36.37637
 30
0.0
 11
57.52572
 21
36.427521
 31
0.0
  0
LINE
  5
9387
  8
ALPHA
 10
57.866931
 20
35.740293
 30
0.0
 11
57.867503
 21
35.738606
 31
0.0
  0
LINE
  5
9388
  8
ALPHA
 10
57.866255
 20
35.788998
 30
0.0
 11
57.879661
 21
35.798739
 31
0.0
  0
LINE
  5
9389
  8
ALPHA
 10
57.862358
 20
35.787578
 30
0.0
 11
57.866255
 21
35.788998
 31
0.0
  0
LINE
  5
938A
  8
ALPHA
 10
57.805794
 20
35.773739
 30
0.0
 11
57.862358
 21
35.787578
 31
0.0
  0
LINE
  5
938B
  8
ALPHA
 10
56.733763
 20
35.698739
 30
0.0
 11
57.805794
 21
35.773739
 31
0.0
  0
LINE
  5
938C
  8
ALPHA
 10
57.361912
 20
34.293375
 30
0.0
 11
57.37053
 21
34.300217
 31
0.0
  0
LINE
  5
938D
  8
ALPHA
 10
57.374681
 20
35.292335
 30
0.0
 11
57.372839
 21
35.294842
 31
0.0
  0
LINE
  5
938E
  8
ALPHA
 10
57.37682
 20
34.293623
 30
0.0
 11
57.877057
 21
34.744049
 31
0.0
  0
LINE
  5
938F
  8
ALPHA
 10
57.37682
 20
35.293624
 30
0.0
 11
57.877057
 21
35.74405
 31
0.0
  0
LINE
  5
9390
  8
ALPHA
 10
57.877057
 20
34.803429
 30
0.0
 11
57.380933
 21
35.250152
 31
0.0
  0
LINE
  5
9391
  8
ALPHA
 10
57.37682
 20
36.293623
 30
0.0
 11
57.524253
 21
36.42638
 31
0.0
  0
LINE
  5
9392
  8
ALPHA
 10
57.877057
 20
35.803428
 30
0.0
 11
57.380933
 21
36.250151
 31
0.0
  0
LINE
  5
9393
  8
ALPHA
 10
56.879661
 20
37.073739
 30
0.0
 11
57.524398
 21
36.429002
 31
0.0
  0
LINE
  5
9394
  8
ALPHA
 10
57.879661
 20
35.798739
 30
0.0
 11
57.877057
 21
35.803428
 31
0.0
  0
LINE
  5
9395
  8
ALPHA
 10
57.879661
 20
34.798739
 30
0.0
 11
57.879661
 21
34.748739
 31
0.0
  0
LINE
  5
9396
  8
ALPHA
 10
57.879661
 20
35.798739
 30
0.0
 11
57.879661
 21
35.748739
 31
0.0
  0
LINE
  5
9397
  8
ALPHA
 10
57.379661
 20
36.248739
 30
0.0
 11
57.379661
 21
36.293623
 31
0.0
  0
LINE
  5
9398
  8
ALPHA
 10
57.379661
 20
35.248739
 30
0.0
 11
57.379661
 21
35.293624
 31
0.0
  0
LINE
  5
9399
  8
ALPHA
 10
57.379661
 20
34.248739
 30
0.0
 11
57.379661
 21
34.293623
 31
0.0
  0
LINE
  5
939A
  8
ALPHA
 10
57.524253
 20
36.42638
 30
0.0
 11
57.524398
 21
36.429002
 31
0.0
  0
LINE
  5
939B
  8
ALPHA
 10
57.877057
 20
34.744049
 30
0.0
 11
57.879661
 21
34.748739
 31
0.0
  0
LINE
  5
939C
  8
ALPHA
 10
57.879661
 20
35.748739
 30
0.0
 11
57.877057
 21
35.74405
 31
0.0
  0
VIEWPORT
  5
494D
 67
     1
  8
0
 10
4.995325
 20
6.556512
 30
0.0
 40
22.70986
 41
13.988421
 68
    -1
 69
     1
1001
ACAD
1000
MVIEW
1002
{
1070
    16
1010
0.0
1020
0.0
1030
0.0
1010
0.0
1020
0.0
1030
1.0
1040
0.0
1040
13.988421
1040
4.995325
1040
6.556512
1040
50.0
1040
0.0
1040
0.0
1070
     0
1070
   100
1070
     1
1070
     1
1070
     0
1070
     0
1070
     0
1070
     0
1040
0.0
1040
0.0
1040
0.0
1040
10.0
1040
10.0
1040
10.0
1040
10.0
1070
     0
1002
{
1002
}
1002
}
  0
ENDSEC
  0
EOF
