  0
SECTION
  2
HEADER
  9
$ACADVER
  1
AC1009
  9
$INSBASE
 10
402.590624
 20
-1.041018
 30
0.0
  9
$EXTMIN
 10
256.637169
 20
-98.112107
 30
0.0
  9
$EXTMAX
 10
292.637169
 20
14.69505
 30
0.0
  9
$LIMMIN
 10
-407.970438
 20
-367.832444
  9
$LIMMAX
 10
429.804077
 20
234.370848
  9
$ORTHOMODE
 70
     1
  9
$REGENMODE
 70
     1
  9
$FILLMODE
 70
     1
  9
$QTEXTMODE
 70
     0
  9
$MIRRTEXT
 70
     1
  9
$DRAGMODE
 70
     2
  9
$LTSCALE
 40
10.0
  9
$OSMODE
 70
   161
  9
$ATTMODE
 70
     1
  9
$TEXTSIZE
 40
6.0
  9
$TRACEWID
 40
1.0
  9
$TEXTSTYLE
  7
ROMANS
  9
$CLAYER
  8
ALPHA
  9
$CELTYPE
  6
BYLAYER
  9
$CECOLOR
 62
   256
  9
$DIMSCALE
 40
1.0
  9
$DIMASZ
 40
5.0
  9
$DIMEXO
 40
2.0
  9
$DIMDLI
 40
0.38
  9
$DIMRND
 40
0.0
  9
$DIMDLE
 40
0.0
  9
$DIMEXE
 40
2.5
  9
$DIMTP
 40
0.0
  9
$DIMTM
 40
0.0
  9
$DIMTXT
 40
2.5
  9
$DIMCEN
 40
0.0
  9
$DIMTSZ
 40
0.0
  9
$DIMTOL
 70
     0
  9
$DIMLIM
 70
     0
  9
$DIMTIH
 70
     1
  9
$DIMTOH
 70
     1
  9
$DIMSE1
 70
     0
  9
$DIMSE2
 70
     0
  9
$DIMTAD
 70
     1
  9
$DIMZIN
 70
    12
  9
$DIMBLK
  1
OPEN30
  9
$DIMASO
 70
     1
  9
$DIMSHO
 70
     1
  9
$DIMPOST
  1

  9
$DIMAPOST
  1

  9
$DIMALT
 70
     0
  9
$DIMALTD
 70
     2
  9
$DIMALTF
 40
25.4
  9
$DIMLFAC
 40
1.0
  9
$DIMTOFL
 70
     0
  9
$DIMTVP
 40
0.0
  9
$DIMTIX
 70
     0
  9
$DIMSOXD
 70
     0
  9
$DIMSAH
 70
     0
  9
$DIMBLK1
  1

  9
$DIMBLK2
  1

  9
$DIMSTYLE
  2
SC_DEFAUT
  9
$DIMCLRD
 70
     0
  9
$DIMCLRE
 70
     0
  9
$DIMCLRT
 70
     0
  9
$DIMTFAC
 40
1.0
  9
$DIMGAP
 40
2.0
  9
$LUNITS
 70
     2
  9
$LUPREC
 70
     1
  9
$SKETCHINC
 40
0.1
  9
$FILLETRAD
 40
0.0
  9
$AUNITS
 70
     0
  9
$AUPREC
 70
     0
  9
$MENU
  1
acad
  9
$ELEVATION
 40
0.0
  9
$PELEVATION
 40
0.0
  9
$THICKNESS
 40
0.0
  9
$LIMCHECK
 70
     0
  9
$BLIPMODE
 70
     0
  9
$CHAMFERA
 40
0.0
  9
$CHAMFERB
 40
0.0
  9
$SKPOLY
 70
     0
  9
$TDCREATE
 40
2450373.687919
  9
$TDUPDATE
 40
2453031.665937
  9
$TDINDWG
 40
1.053835
  9
$TDUSRTIMER
 40
1.053835
  9
$USRTIMER
 70
     1
  9
$ANGBASE
 50
0.0
  9
$ANGDIR
 70
     0
  9
$PDMODE
 70
    32
  9
$PDSIZE
 40
0.0
  9
$PLINEWID
 40
0.0
  9
$COORDS
 70
     1
  9
$SPLFRAME
 70
     0
  9
$SPLINETYPE
 70
     6
  9
$SPLINESEGS
 70
     8
  9
$ATTDIA
 70
     0
  9
$ATTREQ
 70
     1
  9
$HANDLING
 70
     1
  9
$HANDSEED
  5
9EEF
  9
$SURFTAB1
 70
     6
  9
$SURFTAB2
 70
     6
  9
$SURFTYPE
 70
     6
  9
$SURFU
 70
     6
  9
$SURFV
 70
     6
  9
$UCSNAME
  2

  9
$UCSORG
 10
0.0
 20
0.0
 30
0.0
  9
$UCSXDIR
 10
1.0
 20
0.0
 30
0.0
  9
$UCSYDIR
 10
0.0
 20
1.0
 30
0.0
  9
$PUCSNAME
  2

  9
$PUCSORG
 10
0.0
 20
0.0
 30
0.0
  9
$PUCSXDIR
 10
1.0
 20
0.0
 30
0.0
  9
$PUCSYDIR
 10
0.0
 20
1.0
 30
0.0
  9
$USERI1
 70
     0
  9
$USERI2
 70
     0
  9
$USERI3
 70
     0
  9
$USERI4
 70
     0
  9
$USERI5
 70
     0
  9
$USERR1
 40
0.0
  9
$USERR2
 40
0.0
  9
$USERR3
 40
0.0
  9
$USERR4
 40
0.0
  9
$USERR5
 40
0.0
  9
$WORLDVIEW
 70
     1
  9
$SHADEDGE
 70
     3
  9
$SHADEDIF
 70
    70
  9
$TILEMODE
 70
     1
  9
$MAXACTVP
 70
    16
  9
$PLIMCHECK
 70
     0
  9
$PEXTMIN
 10
-1.452248
 20
-0.437698
 30
0.0
  9
$PEXTMAX
 10
12.749749
 20
8.310198
 30
0.0
  9
$PLIMMIN
 10
0.0
 20
0.0
  9
$PLIMMAX
 10
12.0
 20
9.0
  9
$UNITMODE
 70
     0
  9
$VISRETAIN
 70
     0
  9
$PLINEGEN
 70
     0
  9
$PSLTSCALE
 70
     0
  0
ENDSEC
  0
SECTION
  2
TABLES
  0
TABLE
  2
VPORT
 70
     2
  0
VPORT
  2
*ACTIVE
 70
     0
 10
0.0
 20
0.0
 11
1.0
 21
1.0
 12
274.638871
 22
-41.714035
 13
0.0
 23
0.0
 14
1.0
 24
1.0
 15
10.0
 25
10.0
 16
0.0
 26
0.0
 36
1.0
 17
0.0
 27
0.0
 37
0.0
 40
113.698651
 41
1.466346
 42
50.0
 43
0.0
 44
0.0
 50
0.0
 51
0.0
 71
     0
 72
   100
 73
     1
 74
     0
 75
     0
 76
     0
 77
     0
 78
     0
  0
ENDTAB
  0
TABLE
  2
LTYPE
 70
     2
  0
LTYPE
  2
CONTINUOUS
 70
     0
  3
Solid line
 72
    65
 73
     0
 40
0.0
  0
LTYPE
  2
AXES2
 70
     0
  3
___ _ ___ _ ___ _ ___ _ ___ _ ___ _ ___ _ ___ _
 72
    65
 73
     4
 40
1.125
 49
0.75
 49
-0.125
 49
0.125
 49
-0.125
  0
ENDTAB
  0
TABLE
  2
LAYER
 70
     5
  0
LAYER
  2
0
 70
     0
 62
   255
  6
CONTINUOUS
  0
LAYER
  2
COTATION1
 70
     0
 62
     2
  6
CONTINUOUS
  0
LAYER
  2
AXE
 70
     0
 62
    80
  6
AXES2
  0
LAYER
  2
DEFPOINTS
 70
     0
 62
     7
  6
CONTINUOUS
  0
LAYER
  2
ALPHA
 70
     0
 62
   254
  6
CONTINUOUS
  0
ENDTAB
  0
TABLE
  2
STYLE
 70
     2
  0
STYLE
  2
ROMANS
 70
     0
 40
0.0
 41
1.0
 50
0.0
 71
     0
 42
6.0
  3
romans
  4

  0
STYLE
  2
STANDARD
 70
     0
 40
0.0
 41
1.0
 50
0.0
 71
     0
 42
0.2
  3
txt
  4

  0
ENDTAB
  0
TABLE
  2
VIEW
 70
     0
  0
ENDTAB
  0
TABLE
  2
UCS
 70
     0
  0
ENDTAB
  0
TABLE
  2
APPID
 70
     1
  0
APPID
  2
ACAD
 70
     0
  0
ENDTAB
  0
TABLE
  2
DIMSTYLE
 70
     2
  0
DIMSTYLE
  2
SC_DEFAUT
 70
     0
  3

  4

  5
OPEN30
  6

  7

 40
1.0
 41
5.0
 42
2.0
 43
0.38
 44
2.5
 45
0.0
 46
0.0
 47
0.0
 48
0.0
140
2.5
141
0.0
142
0.0
143
25.4
144
1.0
145
0.0
146
1.0
147
2.0
 71
     0
 72
     0
 73
     1
 74
     1
 75
     0
 76
     0
 77
     1
 78
    12
170
     0
171
     2
172
     0
173
     0
174
     0
175
     0
176
     0
177
     0
178
     0
  0
DIMSTYLE
  2
STANDARD
 70
     0
  3

  4

  5

  6

  7

 40
1.0
 41
0.18
 42
0.0625
 43
0.38
 44
0.18
 45
0.0
 46
0.0
 47
0.0
 48
0.0
140
0.18
141
0.09
142
0.0
143
25.4
144
1.0
145
0.0
146
1.0
147
0.09
 71
     0
 72
     0
 73
     1
 74
     1
 75
     0
 76
     0
 77
     0
 78
     0
170
     0
171
     2
172
     0
173
     0
174
     0
175
     0
176
     0
177
     0
178
     0
  0
ENDTAB
  0
ENDSEC
  0
SECTION
  2
BLOCKS
  0
BLOCK
  8
0
  2
$MODEL_SPACE
 70
     0
 10
0.0
 20
0.0
 30
0.0
  3
$MODEL_SPACE
  1

  0
ENDBLK
  5
9D52
  8
0
  0
BLOCK
 67
     1
  8
0
  2
$PAPER_SPACE
 70
     0
 10
0.0
 20
0.0
 30
0.0
  3
$PAPER_SPACE
  1

  0
ENDBLK
  5
9D50
 67
     1
  8
0
  0
BLOCK
  8
0
  2
COTE
 70
     0
 10
0.0
 20
0.0
 30
0.0
  3
COTE
  1

  0
ENDBLK
  5
F
  8
0
  0
BLOCK
  8
0
  2
FOND
 70
     0
 10
0.0
 20
0.0
 30
0.0
  3
FOND
  1

  0
ENDBLK
  5
75
  8
0
  0
BLOCK
  8
0
  2
_OPEN30
 70
     0
 10
0.0
 20
0.0
 30
0.0
  3
_OPEN30
  1

  0
LINE
  5
4B05
  8
COTATION1
 62
     0
 10
-1.0
 20
0.267949
 30
0.0
 11
0.0
 21
0.0
 31
0.0
1001
ACAD
1000
RTLwPs
1070
   158
  0
LINE
  5
4B06
  8
COTATION1
 62
     0
 10
0.0
 20
0.0
 30
0.0
 11
-1.0
 21
-0.267949
 31
0.0
1001
ACAD
1000
RTLwPs
1070
   158
  0
LINE
  5
4B07
  8
COTATION1
 62
     0
 10
0.0
 20
0.0
 30
0.0
 11
-1.0
 21
0.0
 31
0.0
1001
ACAD
1000
RTLwPs
1070
   158
  0
ENDBLK
  5
4B09
  8
0
  0
BLOCK
  8
0
  2
*D3
 70
     1
 10
0.0
 20
0.0
 30
0.0
  3
*D3
  1

  0
LINE
  5
9B0C
  8
COTATION1
 62
     0
 10
256.637169
 20
-56.10495
 30
0.0
 11
256.637169
 21
-98.112107
 31
0.0
1001
ACAD
1000
RTLwPs
1070
   158
  0
LINE
  5
9B0D
  8
COTATION1
 62
     0
 10
282.637169
 20
-56.10495
 30
0.0
 11
282.637169
 21
-98.112107
 31
0.0
1001
ACAD
1000
RTLwPs
1070
   158
  0
LINE
  5
9B0E
  8
COTATION1
 62
     0
 10
261.637169
 20
-95.612107
 30
0.0
 11
277.637169
 21
-95.612107
 31
0.0
1001
ACAD
1000
RTLwPs
1070
   158
  0
INSERT
  5
9B0F
  8
COTATION1
 62
     0
  2
_OPEN30
 10
256.637169
 20
-95.612107
 30
0.0
 41
5.0
 42
5.0
 43
5.0
 50
180.0
1001
ACAD
1000
RTLwPs
1070
   158
  0
INSERT
  5
9B10
  8
COTATION1
 62
     0
  2
_OPEN30
 10
282.637169
 20
-95.612107
 30
0.0
 41
5.0
 42
5.0
 43
5.0
1001
ACAD
1000
RTLwPs
1070
   158
  0
TEXT
  5
9B11
  8
COTATION1
 62
     0
 10
266.244312
 20
-93.612107
 30
0.0
 40
2.5
  1
%%c
1001
ACAD
1000
MTEXTBEGIN
1070
    73
1070
     1
1070
    44
1040
1.0
1070
    74
1070
     0
1000
MTEXTEND
  0
TEXT
  5
9D23
  8
COTATION1
 62
     0
 10
268.506217
 20
-93.612107
 30
0.0
 40
2.5
  1
26
1001
ACAD
1000
R13OBJECT
1002
{
1005
9B11
1002
}
  0
POINT
  5
9B12
  8
DEFPOINTS
 62
     0
 10
256.637169
 20
-54.10495
 30
0.0
  0
POINT
  5
9B13
  8
DEFPOINTS
 62
     0
 10
282.637169
 20
-54.10495
 30
0.0
  0
POINT
  5
9B14
  8
DEFPOINTS
 62
     0
 10
282.637169
 20
-95.612107
 30
0.0
  0
ENDBLK
  5
9AD1
  8
0
  0
BLOCK
  8
0
  2
*D4
 70
     1
 10
0.0
 20
0.0
 30
0.0
  3
*D4
  1

  0
LINE
  5
9AE7
  8
COTATION1
 62
     0
 10
261.237169
 20
-4.082931
 30
0.0
 11
261.237169
 21
12.69505
 31
0.0
1001
ACAD
1000
RTLwPs
1070
   158
  0
LINE
  5
9AE8
  8
COTATION1
 62
     0
 10
277.637169
 20
-2.80495
 30
0.0
 11
277.637169
 21
12.69505
 31
0.0
1001
ACAD
1000
RTLwPs
1070
   158
  0
LINE
  5
9AE9
  8
COTATION1
 62
     0
 10
266.237169
 20
10.19505
 30
0.0
 11
272.637169
 21
10.19505
 31
0.0
1001
ACAD
1000
RTLwPs
1070
   158
  0
INSERT
  5
9AEA
  8
COTATION1
 62
     0
  2
_OPEN30
 10
261.237169
 20
10.19505
 30
0.0
 41
5.0
 42
5.0
 43
5.0
 50
180.0
1001
ACAD
1000
RTLwPs
1070
   158
  0
INSERT
  5
9AEB
  8
COTATION1
 62
     0
  2
_OPEN30
 10
277.637169
 20
10.19505
 30
0.0
 41
5.0
 42
5.0
 43
5.0
1001
ACAD
1000
RTLwPs
1070
   158
  0
TEXT
  5
9AEC
  8
COTATION1
 62
     0
 10
265.032407
 20
12.19505
 30
0.0
 40
2.5
  1
16.4
1001
ACAD
1000
MTEXTBEGIN
1070
    73
1070
     1
1070
    44
1040
1.0
1070
    74
1070
     0
1000
MTEXTEND
  0
POINT
  5
9AED
  8
DEFPOINTS
 62
     0
 10
261.237169
 20
-6.082931
 30
0.0
  0
POINT
  5
9AEE
  8
DEFPOINTS
 62
     0
 10
277.637169
 20
-4.80495
 30
0.0
  0
POINT
  5
9AEF
  8
DEFPOINTS
 62
     0
 10
277.637169
 20
10.19505
 30
0.0
  0
ENDBLK
  5
9ADD
  8
0
  0
ENDSEC
  0
SECTION
  2
ENTITIES
  0
INSERT
  5
A
  8
0
  2
COTE
 10
0.0
 20
0.0
 30
0.0
  0
INSERT
  5
17
  8
0
  2
COTE
 10
284.010391
 20
6.373258
 30
0.0
  0
INSERT
  5
72
  8
0
  2
FOND
 10
0.0
 20
0.0
 30
0.0
  0
CIRCLE
  5
96E7
  8
ALPHA
 10
269.637169
 20
-54.10495
 30
0.0
 40
7.25
  0
CIRCLE
  5
96E9
  8
ALPHA
 10
269.637169
 20
-54.10495
 30
0.0
 40
10.0
  0
CIRCLE
  5
96EA
  8
ALPHA
 10
269.637169
 20
-54.10495
 30
0.0
 40
9.0
  0
POLYLINE
  5
96EB
  8
ALPHA
 66
     1
 10
0.0
 20
0.0
 30
0.0
 70
   128
210
0.0
220
0.0
230
-1.0
  0
VERTEX
  5
9D58
  8
ALPHA
 10
-270.623198
 20
-43.149412
 30
0.0
  0
VERTEX
  5
9D59
  8
ALPHA
 10
-272.709868
 20
-43.53787
 30
0.0
  0
VERTEX
  5
9D5A
  8
ALPHA
 10
-274.683882
 20
-44.330878
 30
0.0
  0
VERTEX
  5
9D5B
  8
ALPHA
 10
-276.46953
 20
-45.484858
 30
0.0
  0
VERTEX
  5
9D5C
  8
ALPHA
 10
-278.000067
 20
-46.958944
 30
0.0
  0
VERTEX
  5
9D5D
  8
ALPHA
 10
-279.218285
 20
-48.701357
 30
0.0
  0
VERTEX
  5
9D5E
  8
ALPHA
 10
-280.078783
 20
-50.644908
 30
0.0
  0
VERTEX
  5
9D5F
  8
ALPHA
 10
-280.549363
 20
-52.717875
 30
0.0
  0
VERTEX
  5
9D60
  8
ALPHA
 10
-280.61238
 20
-54.842624
 30
0.0
  0
VERTEX
  5
9D61
  8
ALPHA
 10
-280.265523
 20
-56.939797
 30
0.0
  0
VERTEX
  5
9D62
  8
ALPHA
 10
-279.521812
 20
-58.931105
 30
0.0
  0
VERTEX
  5
9D63
  8
ALPHA
 10
-278.409023
 20
-60.742215
 30
0.0
  0
VERTEX
  5
9D64
  8
ALPHA
 10
-276.968664
 20
-62.3055
 30
0.0
  0
VERTEX
  5
9D65
  8
ALPHA
 10
-275.254475
 20
-63.562515
 30
0.0
  0
VERTEX
  5
9D66
  8
ALPHA
 10
-273.330511
 20
-64.466307
 30
0.0
  0
VERTEX
  5
9D67
  8
ALPHA
 10
-271.268657
 20
-64.983192
 30
0.0
  0
VERTEX
  5
9D68
  8
ALPHA
 10
-269.145886
 20
-65.093904
 30
0.0
  0
VERTEX
  5
9D69
  8
ALPHA
 10
-267.041438
 20
-64.794282
 30
0.0
  0
VERTEX
  5
9D6A
  8
ALPHA
 10
-265.033914
 20
-64.09544
 30
0.0
  0
VERTEX
  5
9D6B
  8
ALPHA
 10
-263.198326
 20
-63.023473
 30
0.0
  0
VERTEX
  5
9D6C
  8
ALPHA
 10
-261.603197
 20
-61.618487
 30
0.0
  0
VERTEX
  5
9D6D
  8
ALPHA
 10
-260.308047
 20
-59.932962
 30
0.0
  0
VERTEX
  5
9D6E
  8
ALPHA
 10
-259.361233
 20
-58.029807
 30
0.0
  0
VERTEX
  5
9D6F
  8
ALPHA
 10
-258.798168
 20
-55.980055
 30
0.0
  0
VERTEX
  5
9D70
  8
ALPHA
 10
-258.639936
 20
-53.860272
 30
0.0
  0
VERTEX
  5
9D71
  8
ALPHA
 10
-258.892374
 20
-51.749659
 30
0.0
  0
VERTEX
  5
9D72
  8
ALPHA
 10
-259.54601
 20
-49.726977
 30
0.0
  0
VERTEX
  5
9D73
  8
ALPHA
 10
-260.576432
 20
-47.86781
 30
0.0
  0
VERTEX
  5
9D74
  8
ALPHA
 10
-261.945245
 20
-46.241467
 30
0.0
  0
VERTEX
  5
9D75
  8
ALPHA
 10
-263.601384
 20
-44.908674
 30
0.0
  0
VERTEX
  5
9D76
  8
ALPHA
 10
-265.482622
 20
-43.92061
 30
0.0
  0
VERTEX
  5
9D77
  8
ALPHA
 10
-267.520079
 20
-43.307871
 30
0.0
  0
VERTEX
  5
9D78
  8
ALPHA
 10
-269.633629
 20
-43.105004
 30
0.0
  0
SEQEND
  5
9D79
  8
ALPHA
  0
POLYLINE
  5
96EC
  8
ALPHA
 66
     1
 10
0.0
 20
0.0
 30
0.0
 70
   128
210
0.0
220
0.0
230
-1.0
  0
VERTEX
  5
9D7A
  8
ALPHA
 10
-273.192481
 20
-43.695343
 30
0.0
  0
VERTEX
  5
9D7B
  8
ALPHA
 10
-275.181026
 20
-44.598252
 30
0.0
  0
VERTEX
  5
9D7C
  8
ALPHA
 10
-276.949854
 20
-45.888053
 30
0.0
  0
VERTEX
  5
9D7D
  8
ALPHA
 10
-278.431038
 20
-47.497367
 30
0.0
  0
VERTEX
  5
9D7E
  8
ALPHA
 10
-279.564722
 20
-49.367205
 30
0.0
  0
VERTEX
  5
9D7F
  8
ALPHA
 10
-280.30565
 20
-51.425352
 30
0.0
  0
VERTEX
  5
9D80
  8
ALPHA
 10
-280.624986
 20
-53.588912
 30
0.0
  0
VERTEX
  5
9D81
  8
ALPHA
 10
-280.509912
 20
-55.773065
 30
0.0
  0
VERTEX
  5
9D82
  8
ALPHA
 10
-279.964993
 20
-57.891245
 30
0.0
  0
VERTEX
  5
9D83
  8
ALPHA
 10
-279.011712
 20
-59.859728
 30
0.0
  0
VERTEX
  5
9D84
  8
ALPHA
 10
-277.687801
 20
-61.60067
 30
0.0
  0
VERTEX
  5
9D85
  8
ALPHA
 10
-276.045645
 20
-63.045272
 30
0.0
  0
VERTEX
  5
9D86
  8
ALPHA
 10
-274.15016
 20
-64.136458
 30
0.0
  0
VERTEX
  5
9D87
  8
ALPHA
 10
-272.076256
 20
-64.831089
 30
0.0
  0
VERTEX
  5
9D88
  8
ALPHA
 10
-269.905899
 20
-65.101666
 30
0.0
  0
VERTEX
  5
9D89
  8
ALPHA
 10
-267.724913
 20
-64.937437
 30
0.0
  0
VERTEX
  5
9D8A
  8
ALPHA
 10
-265.619552
 20
-64.344931
 30
0.0
  0
VERTEX
  5
9D8B
  8
ALPHA
 10
-263.673034
 20
-63.347623
 30
0.0
  0
VERTEX
  5
9D8C
  8
ALPHA
 10
-261.962283
 20
-61.984949
 30
0.0
  0
VERTEX
  5
9D8D
  8
ALPHA
 10
-260.554921
 20
-60.310755
 30
0.0
  0
VERTEX
  5
9D8E
  8
ALPHA
 10
-259.506616
 20
-58.391193
 30
0.0
  0
VERTEX
  5
9D8F
  8
ALPHA
 10
-258.85887
 20
-56.302151
 30
0.0
  0
VERTEX
  5
9D90
  8
ALPHA
 10
-258.637262
 20
-54.126262
 30
0.0
  0
VERTEX
  5
9D91
  8
ALPHA
 10
-258.850505
 20
-51.949545
 30
0.0
  0
VERTEX
  5
9D92
  8
ALPHA
 10
-259.490145
 20
-49.858047
 30
0.0
  0
VERTEX
  5
9D93
  8
ALPHA
 10
-260.530933
 20
-47.93439
 30
0.0
  0
VERTEX
  5
9D94
  8
ALPHA
 10
-261.931739
 20
-46.254707
 30
0.0
  0
VERTEX
  5
9D95
  8
ALPHA
 10
-263.637179
 20
-44.885505
 30
0.0
  0
VERTEX
  5
9D96
  8
ALPHA
 10
-265.580146
 20
-43.880079
 30
0.0
  0
VERTEX
  5
9D97
  8
ALPHA
 10
-267.682112
 20
-43.281935
 30
0.0
  0
VERTEX
  5
9D98
  8
ALPHA
 10
-269.865551
 20
-43.102221
 30
0.0
  0
VERTEX
  5
9D99
  8
ALPHA
 10
-272.030592
 20
-43.378551
 30
0.0
  0
VERTEX
  5
9D9A
  8
ALPHA
 10
-274.111274
 20
-44.055951
 30
0.0
  0
SEQEND
  5
9D9B
  8
ALPHA
  0
POLYLINE
  5
96ED
  8
ALPHA
 66
     1
 10
0.0
 20
0.0
 30
0.0
 70
   128
210
0.0
220
0.0
230
-1.0
  0
VERTEX
  5
9D9C
  8
ALPHA
 10
-274.409897
 20
-44.194285
 30
0.0
  0
VERTEX
  5
9D9D
  8
ALPHA
 10
-276.24281
 20
-45.307944
 30
0.0
  0
VERTEX
  5
9D9E
  8
ALPHA
 10
-277.824955
 20
-46.759865
 30
0.0
  0
VERTEX
  5
9D9F
  8
ALPHA
 10
-279.095472
 20
-48.488848
 30
0.0
  0
VERTEX
  5
9DA0
  8
ALPHA
 10
-280.005977
 20
-50.432466
 30
0.0
  0
VERTEX
  5
9DA1
  8
ALPHA
 10
-280.521758
 20
-52.515714
 30
0.0
  0
VERTEX
  5
9DA2
  8
ALPHA
 10
-280.623136
 20
-54.659476
 30
0.0
  0
VERTEX
  5
9DA3
  8
ALPHA
 10
-280.306322
 20
-56.78212
 30
0.0
  0
VERTEX
  5
9DA4
  8
ALPHA
 10
-279.583418
 20
-58.802842
 30
0.0
  0
VERTEX
  5
9DA5
  8
ALPHA
 10
-278.481931
 20
-60.644766
 30
0.0
  0
VERTEX
  5
9DA6
  8
ALPHA
 10
-277.043741
 20
-62.237763
 30
0.0
  0
VERTEX
  5
9DA7
  8
ALPHA
 10
-275.323561
 20
-63.521129
 30
0.0
  0
VERTEX
  5
9DA8
  8
ALPHA
 10
-273.386924
 20
-64.446019
 30
0.0
  0
VERTEX
  5
9DA9
  8
ALPHA
 10
-271.307577
 20
-64.977284
 30
0.0
  0
VERTEX
  5
9DAA
  8
ALPHA
 10
-269.164649
 20
-65.094728
 30
0.0
  0
VERTEX
  5
9DAB
  8
ALPHA
 10
-267.039685
 20
-64.793856
 30
0.0
  0
VERTEX
  5
9DAC
  8
ALPHA
 10
-265.013589
 20
-64.086052
 30
0.0
  0
VERTEX
  5
9DAD
  8
ALPHA
 10
-263.163531
 20
-62.998254
 30
0.0
  0
VERTEX
  5
9DAE
  8
ALPHA
 10
-261.559916
 20
-61.571941
 30
0.0
  0
VERTEX
  5
9DAF
  8
ALPHA
 10
-260.263745
 20
-59.861427
 30
0.0
  0
VERTEX
  5
9DB0
  8
ALPHA
 10
-259.324342
 20
-57.931793
 30
0.0
  0
VERTEX
  5
9DB1
  8
ALPHA
 10
-258.77751
 20
-55.856459
 30
0.0
  0
VERTEX
  5
9DB2
  8
ALPHA
 10
-258.644132
 20
-53.714439
 30
0.0
  0
VERTEX
  5
9DB3
  8
ALPHA
 10
-258.929242
 20
-51.587303
 30
0.0
  0
VERTEX
  5
9DB4
  8
ALPHA
 10
-259.621918
 20
-49.556031
 30
0.0
  0
VERTEX
  5
9DB5
  8
ALPHA
 10
-260.695816
 20
-47.697852
 30
0.0
  0
VERTEX
  5
9DB6
  8
ALPHA
 10
-262.11004
 20
-46.083617
 30
0.0
  0
VERTEX
  5
9DB7
  8
ALPHA
 10
-263.810845
 20
-44.774734
 30
0.0
  0
VERTEX
  5
9DB8
  8
ALPHA
 10
-265.73372
 20
-43.820475
 30
0.0
  0
VERTEX
  5
9DB9
  8
ALPHA
 10
-267.803803
 20
-43.260745
 30
0.0
  0
VERTEX
  5
9DBA
  8
ALPHA
 10
-269.948109
 20
-43.103778
 30
0.0
  0
VERTEX
  5
9DBB
  8
ALPHA
 10
-272.070352
 20
-43.388557
 30
0.0
  0
VERTEX
  5
9DBC
  8
ALPHA
 10
-274.111274
 20
-44.055951
 30
0.0
  0
SEQEND
  5
9DBD
  8
ALPHA
  0
POLYLINE
  5
96EE
  8
ALPHA
 66
     1
 10
0.0
 20
0.0
 30
0.0
 70
   128
210
0.0
220
0.0
230
-1.0
  0
VERTEX
  5
9DBE
  8
ALPHA
 10
-274.409897
 20
-44.194285
 30
0.0
  0
VERTEX
  5
9DBF
  8
ALPHA
 10
-276.24281
 20
-45.307944
 30
0.0
  0
VERTEX
  5
9DC0
  8
ALPHA
 10
-277.824955
 20
-46.759865
 30
0.0
  0
VERTEX
  5
9DC1
  8
ALPHA
 10
-279.095472
 20
-48.488848
 30
0.0
  0
VERTEX
  5
9DC2
  8
ALPHA
 10
-280.005977
 20
-50.432466
 30
0.0
  0
VERTEX
  5
9DC3
  8
ALPHA
 10
-280.521758
 20
-52.515714
 30
0.0
  0
VERTEX
  5
9DC4
  8
ALPHA
 10
-280.623136
 20
-54.659476
 30
0.0
  0
VERTEX
  5
9DC5
  8
ALPHA
 10
-280.306322
 20
-56.78212
 30
0.0
  0
VERTEX
  5
9DC6
  8
ALPHA
 10
-279.583418
 20
-58.802842
 30
0.0
  0
VERTEX
  5
9DC7
  8
ALPHA
 10
-278.481931
 20
-60.644766
 30
0.0
  0
VERTEX
  5
9DC8
  8
ALPHA
 10
-277.043741
 20
-62.237763
 30
0.0
  0
VERTEX
  5
9DC9
  8
ALPHA
 10
-275.323561
 20
-63.521129
 30
0.0
  0
VERTEX
  5
9DCA
  8
ALPHA
 10
-273.386924
 20
-64.446019
 30
0.0
  0
VERTEX
  5
9DCB
  8
ALPHA
 10
-271.307577
 20
-64.977284
 30
0.0
  0
VERTEX
  5
9DCC
  8
ALPHA
 10
-269.164649
 20
-65.094728
 30
0.0
  0
VERTEX
  5
9DCD
  8
ALPHA
 10
-267.039685
 20
-64.793856
 30
0.0
  0
VERTEX
  5
9DCE
  8
ALPHA
 10
-265.013589
 20
-64.086052
 30
0.0
  0
VERTEX
  5
9DCF
  8
ALPHA
 10
-263.163531
 20
-62.998254
 30
0.0
  0
VERTEX
  5
9DD0
  8
ALPHA
 10
-261.559916
 20
-61.571941
 30
0.0
  0
VERTEX
  5
9DD1
  8
ALPHA
 10
-260.263745
 20
-59.861427
 30
0.0
  0
VERTEX
  5
9DD2
  8
ALPHA
 10
-259.324342
 20
-57.931793
 30
0.0
  0
VERTEX
  5
9DD3
  8
ALPHA
 10
-258.77751
 20
-55.856459
 30
0.0
  0
VERTEX
  5
9DD4
  8
ALPHA
 10
-258.644132
 20
-53.714439
 30
0.0
  0
VERTEX
  5
9DD5
  8
ALPHA
 10
-258.929242
 20
-51.587303
 30
0.0
  0
VERTEX
  5
9DD6
  8
ALPHA
 10
-259.621918
 20
-49.556031
 30
0.0
  0
VERTEX
  5
9DD7
  8
ALPHA
 10
-260.695816
 20
-47.697852
 30
0.0
  0
VERTEX
  5
9DD8
  8
ALPHA
 10
-262.11004
 20
-46.083617
 30
0.0
  0
VERTEX
  5
9DD9
  8
ALPHA
 10
-263.810845
 20
-44.774734
 30
0.0
  0
VERTEX
  5
9DDA
  8
ALPHA
 10
-265.73372
 20
-43.820475
 30
0.0
  0
VERTEX
  5
9DDB
  8
ALPHA
 10
-267.803803
 20
-43.260745
 30
0.0
  0
VERTEX
  5
9DDC
  8
ALPHA
 10
-269.948109
 20
-43.103778
 30
0.0
  0
VERTEX
  5
9DDD
  8
ALPHA
 10
-272.070352
 20
-43.388557
 30
0.0
  0
VERTEX
  5
9DDE
  8
ALPHA
 10
-274.111274
 20
-44.055951
 30
0.0
  0
SEQEND
  5
9DDF
  8
ALPHA
  0
POLYLINE
  5
96EF
  8
ALPHA
 66
     1
 10
0.0
 20
0.0
 30
0.0
 70
   128
210
0.0
220
0.0
230
-1.0
  0
VERTEX
  5
9DE0
  8
ALPHA
 10
-266.394882
 20
-64.616169
 30
0.0
  0
VERTEX
  5
9DE1
  8
ALPHA
 10
-264.45272
 20
-63.811811
 30
0.0
  0
VERTEX
  5
9DE2
  8
ALPHA
 10
-262.700345
 20
-62.642256
 30
0.0
  0
VERTEX
  5
9DE3
  8
ALPHA
 10
-261.201273
 20
-61.163354
 30
0.0
  0
VERTEX
  5
9DE4
  8
ALPHA
 10
-260.010708
 20
-59.428013
 30
0.0
  0
VERTEX
  5
9DE5
  8
ALPHA
 10
-259.173106
 20
-57.496127
 30
0.0
  0
VERTEX
  5
9DE6
  8
ALPHA
 10
-258.718591
 20
-55.440659
 30
0.0
  0
VERTEX
  5
9DE7
  8
ALPHA
 10
-258.664074
 20
-53.33607
 30
0.0
  0
VERTEX
  5
9DE8
  8
ALPHA
 10
-259.011568
 20
-51.259672
 30
0.0
  0
VERTEX
  5
9DE9
  8
ALPHA
 10
-259.748263
 20
-49.287531
 30
0.0
  0
VERTEX
  5
9DEA
  8
ALPHA
 10
-260.847132
 20
-47.491829
 30
0.0
  0
VERTEX
  5
9DEB
  8
ALPHA
 10
-262.267946
 20
-45.938323
 30
0.0
  0
VERTEX
  5
9DEC
  8
ALPHA
 10
-263.958722
 20
-44.683951
 30
0.0
  0
VERTEX
  5
9DED
  8
ALPHA
 10
-265.857533
 20
-43.774733
 30
0.0
  0
VERTEX
  5
9DEE
  8
ALPHA
 10
-267.894766
 20
-43.243917
 30
0.0
  0
VERTEX
  5
9DEF
  8
ALPHA
 10
-269.995802
 20
-43.110884
 30
0.0
  0
VERTEX
  5
9DF0
  8
ALPHA
 10
-272.083719
 20
-43.38051
 30
0.0
  0
VERTEX
  5
9DF1
  8
ALPHA
 10
-274.082041
 20
-44.042987
 30
0.0
  0
VERTEX
  5
9DF2
  8
ALPHA
 10
-275.917518
 20
-45.074098
 30
0.0
  0
VERTEX
  5
9DF3
  8
ALPHA
 10
-277.522924
 20
-46.435992
 30
0.0
  0
VERTEX
  5
9DF4
  8
ALPHA
 10
-278.839507
 20
-48.078751
 30
0.0
  0
VERTEX
  5
9DF5
  8
ALPHA
 10
-279.819064
 20
-49.942232
 30
0.0
  0
VERTEX
  5
9DF6
  8
ALPHA
 10
-280.425661
 20
-51.958221
 30
0.0
  0
VERTEX
  5
9DF7
  8
ALPHA
 10
-280.637004
 20
-54.052859
 30
0.0
  0
VERTEX
  5
9DF8
  8
ALPHA
 10
-280.445426
 20
-56.149362
 30
0.0
  0
VERTEX
  5
9DF9
  8
ALPHA
 10
-279.857992
 20
-58.171034
 30
0.0
  0
VERTEX
  5
9DFA
  8
ALPHA
 10
-278.896236
 20
-60.043663
 30
0.0
  0
VERTEX
  5
9DFB
  8
ALPHA
 10
-277.595279
 20
-61.698924
 30
0.0
  0
VERTEX
  5
9DFC
  8
ALPHA
 10
-276.002701
 20
-63.076394
 30
0.0
  0
VERTEX
  5
9DFD
  8
ALPHA
 10
-274.177449
 20
-64.122077
 30
0.0
  0
VERTEX
  5
9DFE
  8
ALPHA
 10
-272.184219
 20
-64.812176
 30
0.0
  0
VERTEX
  5
9DFF
  8
ALPHA
 10
-270.101742
 20
-65.083242
 30
0.0
  0
VERTEX
  5
9E00
  8
ALPHA
 10
-267.997712
 20
-64.982091
 30
0.0
  0
SEQEND
  5
9E01
  8
ALPHA
  0
POLYLINE
  5
96F0
  8
ALPHA
 66
     1
 10
0.0
 20
0.0
 30
0.0
 70
   128
210
0.0
220
0.0
230
-1.0
  0
VERTEX
  5
9E02
  8
ALPHA
 10
-267.673049
 20
-64.928158
 30
0.0
  0
VERTEX
  5
9E03
  8
ALPHA
 10
-265.590821
 20
-64.334747
 30
0.0
  0
VERTEX
  5
9E04
  8
ALPHA
 10
-263.664039
 20
-63.341392
 30
0.0
  0
VERTEX
  5
9E05
  8
ALPHA
 10
-261.969586
 20
-61.992167
 30
0.0
  0
VERTEX
  5
9E06
  8
ALPHA
 10
-260.572334
 20
-60.33615
 30
0.0
  0
VERTEX
  5
9E07
  8
ALPHA
 10
-259.526795
 20
-58.438579
 30
0.0
  0
VERTEX
  5
9E08
  8
ALPHA
 10
-258.87353
 20
-56.372841
 30
0.0
  0
VERTEX
  5
9E09
  8
ALPHA
 10
-258.637842
 20
-54.219133
 30
0.0
  0
VERTEX
  5
9E0A
  8
ALPHA
 10
-258.828827
 20
-52.061021
 30
0.0
  0
VERTEX
  5
9E0B
  8
ALPHA
 10
-259.439063
 20
-49.982185
 30
0.0
  0
VERTEX
  5
9E0C
  8
ALPHA
 10
-260.444911
 20
-48.063259
 30
0.0
  0
VERTEX
  5
9E0D
  8
ALPHA
 10
-261.807403
 20
-46.378719
 30
0.0
  0
VERTEX
  5
9E0E
  8
ALPHA
 10
-263.473674
 20
-44.993955
 30
0.0
  0
VERTEX
  5
9E0F
  8
ALPHA
 10
-265.379027
 20
-43.96265
 30
0.0
  0
VERTEX
  5
9E10
  8
ALPHA
 10
-267.449543
 20
-43.324769
 30
0.0
  0
VERTEX
  5
9E11
  8
ALPHA
 10
-269.604928
 20
-43.105048
 30
0.0
  0
VERTEX
  5
9E12
  8
ALPHA
 10
-271.761587
 20
-43.312048
 30
0.0
  0
VERTEX
  5
9E13
  8
ALPHA
 10
-273.835832
 20
-43.937803
 30
0.0
  0
VERTEX
  5
9E14
  8
ALPHA
 10
-275.747164
 20
-44.958009
 30
0.0
  0
VERTEX
  5
9E15
  8
ALPHA
 10
-277.421459
 20
-46.333029
 30
0.0
  0
VERTEX
  5
9E16
  8
ALPHA
 10
-278.793801
 20
-48.009516
 30
0.0
  0
VERTEX
  5
9E17
  8
ALPHA
 10
-279.810962
 20
-49.922463
 30
0.0
  0
VERTEX
  5
9E18
  8
ALPHA
 10
-280.43344
 20
-51.99769
 30
0.0
  0
VERTEX
  5
9E19
  8
ALPHA
 10
-280.637027
 20
-54.15468
 30
0.0
  0
VERTEX
  5
9E1A
  8
ALPHA
 10
-280.41387
 20
-56.309719
 30
0.0
  0
VERTEX
  5
9E1B
  8
ALPHA
 10
-279.772683
 20
-58.379208
 30
0.0
  0
VERTEX
  5
9E1C
  8
ALPHA
 10
-278.738333
 20
-60.282923
 30
0.0
  0
VERTEX
  5
9E1D
  8
ALPHA
 10
-277.350941
 20
-61.946964
 30
0.0
  0
VERTEX
  5
9E1E
  8
ALPHA
 10
-275.664255
 20
-63.306796
 30
0.0
  0
VERTEX
  5
9E1F
  8
ALPHA
 10
-273.743632
 20
-64.309814
 30
0.0
  0
VERTEX
  5
9E20
  8
ALPHA
 10
-271.664305
 20
-64.915675
 30
0.0
  0
VERTEX
  5
9E21
  8
ALPHA
 10
-269.504269
 20
-65.10675
 30
0.0
  0
VERTEX
  5
9E22
  8
ALPHA
 10
-267.353605
 20
-64.865255
 30
0.0
  0
SEQEND
  5
9E23
  8
ALPHA
  0
POLYLINE
  5
96F1
  8
ALPHA
 66
     1
 10
0.0
 20
0.0
 30
0.0
 70
   128
210
0.0
220
0.0
230
-1.0
  0
VERTEX
  5
9E24
  8
ALPHA
 10
-266.394882
 20
-64.616169
 30
0.0
  0
VERTEX
  5
9E25
  8
ALPHA
 10
-264.434612
 20
-63.80226
 30
0.0
  0
VERTEX
  5
9E26
  8
ALPHA
 10
-262.668605
 20
-62.616172
 30
0.0
  0
VERTEX
  5
9E27
  8
ALPHA
 10
-261.161901
 20
-61.116155
 30
0.0
  0
VERTEX
  5
9E28
  8
ALPHA
 10
-259.971288
 20
-59.356064
 30
0.0
  0
VERTEX
  5
9E29
  8
ALPHA
 10
-259.141956
 20
-57.398445
 30
0.0
  0
VERTEX
  5
9E2A
  8
ALPHA
 10
-258.704347
 20
-55.318457
 30
0.0
  0
VERTEX
  5
9E2B
  8
ALPHA
 10
-258.675043
 20
-53.19295
 30
0.0
  0
VERTEX
  5
9E2C
  8
ALPHA
 10
-259.055162
 20
-51.101529
 30
0.0
  0
VERTEX
  5
9E2D
  8
ALPHA
 10
-259.830465
 20
-49.122299
 30
0.0
  0
VERTEX
  5
9E2E
  8
ALPHA
 10
-260.97194
 20
-47.32913
 30
0.0
  0
VERTEX
  5
9E2F
  8
ALPHA
 10
-262.436962
 20
-45.788958
 30
0.0
  0
VERTEX
  5
9E30
  8
ALPHA
 10
-264.170872
 20
-44.559301
 30
0.0
  0
VERTEX
  5
9E31
  8
ALPHA
 10
-266.10895
 20
-43.686153
 30
0.0
  0
VERTEX
  5
9E32
  8
ALPHA
 10
-268.178781
 20
-43.202125
 30
0.0
  0
VERTEX
  5
9E33
  8
ALPHA
 10
-270.303046
 20
-43.125218
 30
0.0
  0
VERTEX
  5
9E34
  8
ALPHA
 10
-272.402447
 20
-43.458275
 30
0.0
  0
VERTEX
  5
9E35
  8
ALPHA
 10
-274.398614
 20
-44.188889
 30
0.0
  0
VERTEX
  5
9E36
  8
ALPHA
 10
-276.216972
 20
-45.289847
 30
0.0
  0
VERTEX
  5
9E37
  8
ALPHA
 10
-277.789574
 20
-46.72003
 30
0.0
  0
VERTEX
  5
9E38
  8
ALPHA
 10
-279.057733
 20
-48.425961
 30
0.0
  0
VERTEX
  5
9E39
  8
ALPHA
 10
-279.97414
 20
-50.34393
 30
0.0
  0
VERTEX
  5
9E3A
  8
ALPHA
 10
-280.504576
 20
-52.402351
 30
0.0
  0
VERTEX
  5
9E3B
  8
ALPHA
 10
-280.629169
 20
-54.52438
 30
0.0
  0
VERTEX
  5
9E3C
  8
ALPHA
 10
-280.343214
 20
-56.630739
 30
0.0
  0
VERTEX
  5
9E3D
  8
ALPHA
 10
-279.657471
 20
-58.642746
 30
0.0
  0
VERTEX
  5
9E3E
  8
ALPHA
 10
-278.597577
 20
-60.485329
 30
0.0
  0
VERTEX
  5
9E3F
  8
ALPHA
 10
-277.203129
 20
-62.089632
 30
0.0
  0
VERTEX
  5
9E40
  8
ALPHA
 10
-275.52609
 20
-63.395843
 30
0.0
  0
VERTEX
  5
9E41
  8
ALPHA
 10
-273.629037
 20
-64.355179
 30
0.0
  0
VERTEX
  5
9E42
  8
ALPHA
 10
-271.583478
 20
-64.930519
 30
0.0
  0
VERTEX
  5
9E43
  8
ALPHA
 10
-269.463148
 20
-65.106256
 30
0.0
  0
VERTEX
  5
9E44
  8
ALPHA
 10
-267.353605
 20
-64.865255
 30
0.0
  0
SEQEND
  5
9E45
  8
ALPHA
  0
POLYLINE
  5
96F2
  8
ALPHA
 66
     1
 10
0.0
 20
0.0
 30
0.0
 70
   128
210
0.0
220
0.0
230
-1.0
  0
VERTEX
  5
9E46
  8
ALPHA
 10
-262.908216
 20
-62.806719
 30
0.0
  0
VERTEX
  5
9E47
  8
ALPHA
 10
-261.346868
 20
-61.336352
 30
0.0
  0
VERTEX
  5
9E48
  8
ALPHA
 10
-260.101186
 20
-59.58719
 30
0.0
  0
VERTEX
  5
9E49
  8
ALPHA
 10
-259.2179
 20
-57.631843
 30
0.0
  0
VERTEX
  5
9E4A
  8
ALPHA
 10
-258.731393
 20
-55.541391
 30
0.0
  0
VERTEX
  5
9E4B
  8
ALPHA
 10
-258.660014
 20
-53.39643
 30
0.0
  0
VERTEX
  5
9E4C
  8
ALPHA
 10
-259.006563
 20
-51.278437
 30
0.0
  0
VERTEX
  5
9E4D
  8
ALPHA
 10
-259.757776
 20
-49.268048
 30
0.0
  0
VERTEX
  5
9E4E
  8
ALPHA
 10
-260.885013
 20
-47.441783
 30
0.0
  0
VERTEX
  5
9E4F
  8
ALPHA
 10
-262.345386
 20
-45.86912
 30
0.0
  0
VERTEX
  5
9E50
  8
ALPHA
 10
-264.08335
 20
-44.60995
 30
0.0
  0
VERTEX
  5
9E51
  8
ALPHA
 10
-266.032766
 20
-43.712272
 30
0.0
  0
VERTEX
  5
9E52
  8
ALPHA
 10
-268.119378
 20
-43.210242
 30
0.0
  0
VERTEX
  5
9E53
  8
ALPHA
 10
-270.263742
 20
-43.122905
 30
0.0
  0
VERTEX
  5
9E54
  8
ALPHA
 10
-272.38426
 20
-43.453566
 30
0.0
  0
VERTEX
  5
9E55
  8
ALPHA
 10
-274.400234
 20
-44.189667
 30
0.0
  0
VERTEX
  5
9E56
  8
ALPHA
 10
-276.234895
 20
-45.303251
 30
0.0
  0
VERTEX
  5
9E57
  8
ALPHA
 10
-277.81836
 20
-46.751926
 30
0.0
  0
VERTEX
  5
9E58
  8
ALPHA
 10
-279.090386
 20
-48.480479
 30
0.0
  0
VERTEX
  5
9E59
  8
ALPHA
 10
-280.002598
 20
-50.423103
 30
0.0
  0
VERTEX
  5
9E5A
  8
ALPHA
 10
-280.52028
 20
-52.505882
 30
0.0
  0
VERTEX
  5
9E5B
  8
ALPHA
 10
-280.623679
 20
-54.649557
 30
0.0
  0
VERTEX
  5
9E5C
  8
ALPHA
 10
-280.308793
 20
-56.7725
 30
0.0
  0
VERTEX
  5
9E5D
  8
ALPHA
 10
-279.587659
 20
-58.793876
 30
0.0
  0
VERTEX
  5
9E5E
  8
ALPHA
 10
-278.487795
 20
-60.636745
 30
0.0
  0
VERTEX
  5
9E5F
  8
ALPHA
 10
-277.051029
 20
-62.231044
 30
0.0
  0
VERTEX
  5
9E60
  8
ALPHA
 10
-275.332093
 20
-63.515971
 30
0.0
  0
VERTEX
  5
9E61
  8
ALPHA
 10
-273.396323
 20
-64.442636
 30
0.0
  0
VERTEX
  5
9E62
  8
ALPHA
 10
-271.317066
 20
-64.976256
 30
0.0
  0
VERTEX
  5
9E63
  8
ALPHA
 10
-269.175846
 20
-65.093362
 30
0.0
  0
VERTEX
  5
9E64
  8
ALPHA
 10
-267.045763
 20
-64.801075
 30
0.0
  0
VERTEX
  5
9E65
  8
ALPHA
 10
-265.029104
 20
-64.081282
 30
0.0
  0
VERTEX
  5
9E66
  8
ALPHA
 10
-263.171539
 20
-63.004143
 30
0.0
  0
SEQEND
  5
9E67
  8
ALPHA
  0
POLYLINE
  5
96F3
  8
ALPHA
 66
     1
 10
0.0
 20
0.0
 30
0.0
 70
   128
210
0.0
220
0.0
230
-1.0
  0
VERTEX
  5
9E68
  8
ALPHA
 10
-262.908216
 20
-62.806719
 30
0.0
  0
VERTEX
  5
9E69
  8
ALPHA
 10
-261.346868
 20
-61.336352
 30
0.0
  0
VERTEX
  5
9E6A
  8
ALPHA
 10
-260.101186
 20
-59.58719
 30
0.0
  0
VERTEX
  5
9E6B
  8
ALPHA
 10
-259.2179
 20
-57.631843
 30
0.0
  0
VERTEX
  5
9E6C
  8
ALPHA
 10
-258.731393
 20
-55.541391
 30
0.0
  0
VERTEX
  5
9E6D
  8
ALPHA
 10
-258.660014
 20
-53.39643
 30
0.0
  0
VERTEX
  5
9E6E
  8
ALPHA
 10
-259.006563
 20
-51.278437
 30
0.0
  0
VERTEX
  5
9E6F
  8
ALPHA
 10
-259.757776
 20
-49.268048
 30
0.0
  0
VERTEX
  5
9E70
  8
ALPHA
 10
-260.885013
 20
-47.441783
 30
0.0
  0
VERTEX
  5
9E71
  8
ALPHA
 10
-262.345386
 20
-45.86912
 30
0.0
  0
VERTEX
  5
9E72
  8
ALPHA
 10
-264.08335
 20
-44.60995
 30
0.0
  0
VERTEX
  5
9E73
  8
ALPHA
 10
-266.032766
 20
-43.712272
 30
0.0
  0
VERTEX
  5
9E74
  8
ALPHA
 10
-268.119378
 20
-43.210242
 30
0.0
  0
VERTEX
  5
9E75
  8
ALPHA
 10
-270.263742
 20
-43.122905
 30
0.0
  0
VERTEX
  5
9E76
  8
ALPHA
 10
-272.38426
 20
-43.453566
 30
0.0
  0
VERTEX
  5
9E77
  8
ALPHA
 10
-274.400234
 20
-44.189667
 30
0.0
  0
VERTEX
  5
9E78
  8
ALPHA
 10
-276.234895
 20
-45.303251
 30
0.0
  0
VERTEX
  5
9E79
  8
ALPHA
 10
-277.81836
 20
-46.751926
 30
0.0
  0
VERTEX
  5
9E7A
  8
ALPHA
 10
-279.090386
 20
-48.480479
 30
0.0
  0
VERTEX
  5
9E7B
  8
ALPHA
 10
-280.002598
 20
-50.423103
 30
0.0
  0
VERTEX
  5
9E7C
  8
ALPHA
 10
-280.52028
 20
-52.505882
 30
0.0
  0
VERTEX
  5
9E7D
  8
ALPHA
 10
-280.623679
 20
-54.649557
 30
0.0
  0
VERTEX
  5
9E7E
  8
ALPHA
 10
-280.308793
 20
-56.7725
 30
0.0
  0
VERTEX
  5
9E7F
  8
ALPHA
 10
-279.587659
 20
-58.793876
 30
0.0
  0
VERTEX
  5
9E80
  8
ALPHA
 10
-278.487795
 20
-60.636745
 30
0.0
  0
VERTEX
  5
9E81
  8
ALPHA
 10
-277.051029
 20
-62.231044
 30
0.0
  0
VERTEX
  5
9E82
  8
ALPHA
 10
-275.332093
 20
-63.515971
 30
0.0
  0
VERTEX
  5
9E83
  8
ALPHA
 10
-273.396323
 20
-64.442636
 30
0.0
  0
VERTEX
  5
9E84
  8
ALPHA
 10
-271.317066
 20
-64.976256
 30
0.0
  0
VERTEX
  5
9E85
  8
ALPHA
 10
-269.175846
 20
-65.093362
 30
0.0
  0
VERTEX
  5
9E86
  8
ALPHA
 10
-267.045763
 20
-64.801075
 30
0.0
  0
VERTEX
  5
9E87
  8
ALPHA
 10
-265.029104
 20
-64.081282
 30
0.0
  0
VERTEX
  5
9E88
  8
ALPHA
 10
-263.171539
 20
-63.004143
 30
0.0
  0
SEQEND
  5
9E89
  8
ALPHA
  0
POLYLINE
  5
96F4
  8
ALPHA
 66
     1
 10
0.0
 20
0.0
 30
0.0
 70
   128
210
0.0
220
0.0
230
-1.0
  0
VERTEX
  5
9E8A
  8
ALPHA
 10
-262.908216
 20
-62.806719
 30
0.0
  0
VERTEX
  5
9E8B
  8
ALPHA
 10
-261.92527
 20
-61.951298
 30
0.0
  0
VERTEX
  5
9E8C
  8
ALPHA
 10
-261.050958
 20
-60.981416
 30
0.0
  0
VERTEX
  5
9E8D
  8
ALPHA
 10
-260.297462
 20
-59.915213
 30
0.0
  0
VERTEX
  5
9E8E
  8
ALPHA
 10
-259.674939
 20
-58.768789
 30
0.0
  0
VERTEX
  5
9E8F
  8
ALPHA
 10
-259.192738
 20
-57.556594
 30
0.0
  0
VERTEX
  5
9E90
  8
ALPHA
 10
-258.857484
 20
-56.295438
 30
0.0
  0
VERTEX
  5
9E91
  8
ALPHA
 10
-258.67402
 20
-55.003484
 30
0.0
  0
VERTEX
  5
9E92
  8
ALPHA
 10
-258.644693
 20
-53.698982
 30
0.0
  0
VERTEX
  5
9E93
  8
ALPHA
 10
-258.770145
 20
-52.400215
 30
0.0
  0
VERTEX
  5
9E94
  8
ALPHA
 10
-259.048428
 20
-51.125368
 30
0.0
  0
VERTEX
  5
9E95
  8
ALPHA
 10
-259.475791
 20
-49.892497
 30
0.0
  0
VERTEX
  5
9E96
  8
ALPHA
 10
-260.046066
 20
-48.718853
 30
0.0
  0
VERTEX
  5
9E97
  8
ALPHA
 10
-260.751362
 20
-47.621061
 30
0.0
  0
VERTEX
  5
9E98
  8
ALPHA
 10
-261.581645
 20
-46.614438
 30
0.0
  0
VERTEX
  5
9E99
  8
ALPHA
 10
-262.525318
 20
-45.713286
 30
0.0
  0
VERTEX
  5
9E9A
  8
ALPHA
 10
-263.569039
 20
-44.930148
 30
0.0
  0
VERTEX
  5
9E9B
  8
ALPHA
 10
-264.698162
 20
-44.276181
 30
0.0
  0
VERTEX
  5
9E9C
  8
ALPHA
 10
-265.89678
 20
-43.760453
 30
0.0
  0
VERTEX
  5
9E9D
  8
ALPHA
 10
-267.148025
 20
-43.390348
 30
0.0
  0
VERTEX
  5
9E9E
  8
ALPHA
 10
-268.434309
 20
-43.170956
 30
0.0
  0
VERTEX
  5
9E9F
  8
ALPHA
 10
-269.737498
 20
-43.105472
 30
0.0
  0
VERTEX
  5
9EA0
  8
ALPHA
 10
-271.039303
 20
-43.194723
 30
0.0
  0
VERTEX
  5
9EA1
  8
ALPHA
 10
-272.321346
 20
-43.437531
 30
0.0
  0
VERTEX
  5
9EA2
  8
ALPHA
 10
-273.565653
 20
-43.830419
 30
0.0
  0
VERTEX
  5
9EA3
  8
ALPHA
 10
-274.754645
 20
-44.367901
 30
0.0
  0
VERTEX
  5
9EA4
  8
ALPHA
 10
-275.871663
 20
-45.042389
 30
0.0
  0
VERTEX
  5
9EA5
  8
ALPHA
 10
-276.900918
 20
-45.8444
 30
0.0
  0
VERTEX
  5
9EA6
  8
ALPHA
 10
-277.827993
 20
-46.762656
 30
0.0
  0
VERTEX
  5
9EA7
  8
ALPHA
 10
-278.639786
 20
-47.784215
 30
0.0
  0
VERTEX
  5
9EA8
  8
ALPHA
 10
-279.324919
 20
-48.894735
 30
0.0
  0
VERTEX
  5
9EA9
  8
ALPHA
 10
-279.873717
 20
-50.078547
 30
0.0
  0
VERTEX
  5
9EAA
  8
ALPHA
 10
-280.27848
 20
-51.319042
 30
0.0
  0
VERTEX
  5
9EAB
  8
ALPHA
 10
-280.533505
 20
-52.598711
 30
0.0
  0
VERTEX
  5
9EAC
  8
ALPHA
 10
-280.635194
 20
-53.899603
 30
0.0
  0
VERTEX
  5
9EAD
  8
ALPHA
 10
-280.582143
 20
-55.203357
 30
0.0
  0
VERTEX
  5
9EAE
  8
ALPHA
 10
-280.375055
 20
-56.49168
 30
0.0
  0
VERTEX
  5
9EAF
  8
ALPHA
 10
-280.016902
 20
-57.746398
 30
0.0
  0
VERTEX
  5
9EB0
  8
ALPHA
 10
-279.512653
 20
-58.94989
 30
0.0
  0
VERTEX
  5
9EB1
  8
ALPHA
 10
-278.869486
 20
-60.085199
 30
0.0
  0
VERTEX
  5
9EB2
  8
ALPHA
 10
-278.096358
 20
-61.136358
 30
0.0
  0
VERTEX
  5
9EB3
  8
ALPHA
 10
-277.20425
 20
-62.088583
 30
0.0
  0
VERTEX
  5
9EB4
  8
ALPHA
 10
-276.205608
 20
-62.928449
 30
0.0
  0
VERTEX
  5
9EB5
  8
ALPHA
 10
-275.114593
 20
-63.644184
 30
0.0
  0
VERTEX
  5
9EB6
  8
ALPHA
 10
-273.94645
 20
-64.225651
 30
0.0
  0
VERTEX
  5
9EB7
  8
ALPHA
 10
-272.717719
 20
-64.664753
 30
0.0
  0
VERTEX
  5
9EB8
  8
ALPHA
 10
-271.445596
 20
-64.955205
 30
0.0
  0
VERTEX
  5
9EB9
  8
ALPHA
 10
-270.148063
 20
-65.093046
 30
0.0
  0
VERTEX
  5
9EBA
  8
ALPHA
 10
-268.843312
 20
-65.076194
 30
0.0
  0
VERTEX
  5
9EBB
  8
ALPHA
 10
-267.54975
 20
-64.905042
 30
0.0
  0
VERTEX
  5
9EBC
  8
ALPHA
 10
-266.285552
 20
-64.58183
 30
0.0
  0
VERTEX
  5
9EBD
  8
ALPHA
 10
-265.068518
 20
-64.111288
 30
0.0
  0
VERTEX
  5
9EBE
  8
ALPHA
 10
-263.91579
 20
-63.499848
 30
0.0
  0
VERTEX
  5
9EBF
  8
ALPHA
 10
-262.843517
 20
-62.756294
 30
0.0
  0
VERTEX
  5
9EC0
  8
ALPHA
 10
-261.86688
 20
-61.890906
 30
0.0
  0
VERTEX
  5
9EC1
  8
ALPHA
 10
-260.999605
 20
-60.91609
 30
0.0
  0
VERTEX
  5
9EC2
  8
ALPHA
 10
-260.253963
 20
-59.845355
 30
0.0
  0
VERTEX
  5
9EC3
  8
ALPHA
 10
-259.639977
 20
-58.693776
 30
0.0
  0
VERTEX
  5
9EC4
  8
ALPHA
 10
-259.166676
 20
-57.477514
 30
0.0
  0
VERTEX
  5
9EC5
  8
ALPHA
 10
-258.841684
 20
-56.214391
 30
0.0
  0
VERTEX
  5
9EC6
  8
ALPHA
 10
-258.669096
 20
-54.92173
 30
0.0
  0
VERTEX
  5
9EC7
  8
ALPHA
 10
-258.646745
 20
-53.615626
 30
0.0
  0
VERTEX
  5
9EC8
  8
ALPHA
 10
-258.777571
 20
-52.315594
 30
0.0
  0
VERTEX
  5
9EC9
  8
ALPHA
 10
-259.075492
 20
-51.047938
 30
0.0
  0
VERTEX
  5
9ECA
  8
ALPHA
 10
-259.506862
 20
-49.818346
 30
0.0
  0
SEQEND
  5
9ECB
  8
ALPHA
  0
CIRCLE
  5
96F5
  8
ALPHA
 10
269.637169
 20
-58.10495
 30
0.0
 40
1.0
  0
CIRCLE
  5
96F6
  8
ALPHA
 10
269.637169
 20
-58.10495
 30
0.0
 40
1.5
  0
LINE
  5
96F7
  8
ALPHA
 10
265.163076
 20
-64.153935
 30
0.0
 11
263.995315
 21
-63.547812
 31
0.0
  0
LINE
  5
96F8
  8
ALPHA
 10
266.394882
 20
-64.616169
 30
0.0
 11
265.163076
 21
-64.153935
 31
0.0
  0
LINE
  5
96F9
  8
ALPHA
 10
263.168706
 20
-63.002018
 30
0.0
 11
262.650888
 21
-62.60153
 31
0.0
  0
LINE
  5
96FA
  8
ALPHA
 10
267.387169
 20
-48.60495
 30
0.0
 11
271.887169
 21
-48.60495
 31
0.0
  0
LINE
  5
96FB
  8
ALPHA
 10
267.387169
 20
-48.60495
 30
0.0
 11
267.387169
 21
-47.256772
 31
0.0
  0
CIRCLE
  5
96FC
  8
ALPHA
 10
265.887169
 20
-52.10495
 30
0.0
 40
0.049998
  0
CIRCLE
  5
96FD
  8
ALPHA
 10
265.887169
 20
-56.10495
 30
0.0
 40
0.049998
  0
CIRCLE
  5
96FE
  8
ALPHA
 10
265.887169
 20
-52.10495
 30
0.0
 40
1.0
  0
CIRCLE
  5
96FF
  8
ALPHA
 10
265.887169
 20
-52.10495
 30
0.0
 40
1.5
  0
CIRCLE
  5
9700
  8
ALPHA
 10
265.887169
 20
-56.10495
 30
0.0
 40
1.0
  0
CIRCLE
  5
9701
  8
ALPHA
 10
265.887169
 20
-56.10495
 30
0.0
 40
1.5
  0
LINE
  5
9702
  8
ALPHA
 10
271.887169
 20
-48.60495
 30
0.0
 11
271.887169
 21
-47.259508
 31
0.0
  0
CIRCLE
  5
9703
  8
ALPHA
 10
273.387169
 20
-56.10495
 30
0.0
 40
0.049998
  0
CIRCLE
  5
9704
  8
ALPHA
 10
273.387169
 20
-52.10495
 30
0.0
 40
0.049998
  0
CIRCLE
  5
9705
  8
ALPHA
 10
273.387169
 20
-52.10495
 30
0.0
 40
1.0
  0
CIRCLE
  5
9706
  8
ALPHA
 10
273.387169
 20
-52.10495
 30
0.0
 40
1.5
  0
CIRCLE
  5
9707
  8
ALPHA
 10
273.387169
 20
-56.10495
 30
0.0
 40
1.0
  0
CIRCLE
  5
9708
  8
ALPHA
 10
273.387169
 20
-56.10495
 30
0.0
 40
1.5
  0
CIRCLE
  5
9709
  8
ALPHA
 10
269.637169
 20
-58.10495
 30
0.0
 40
0.049998
  0
LINE
  5
970A
  8
ALPHA
 10
274.114514
 20
-44.05739
 30
0.0
 11
274.704239
 21
-44.341508
 31
0.0
  0
LINE
  5
970B
  8
ALPHA
 10
271.924178
 20
-43.345393
 30
0.0
 11
273.192481
 21
-43.695343
 31
0.0
  0
LINE
  5
970C
  8
ALPHA
 10
269.637169
 20
-43.10495
 30
0.0
 11
269.637169
 21
-44.10495
 31
0.0
  0
LINE
  5
970D
  8
ALPHA
 10
268.979327
 20
-43.124639
 30
0.0
 11
269.633629
 21
-43.105004
 31
0.0
  0
LINE
  5
970E
  8
ALPHA
 10
270.623198
 20
-43.149412
 30
0.0
 11
271.924178
 21
-43.345393
 31
0.0
  0
LINE
  5
970F
  8
ALPHA
 10
277.814088
 20
-46.747176
 30
0.0
 11
278.237316
 21
-47.246562
 31
0.0
  0
DIMENSION
  5
9A43
  8
COTATION1
  2
*D3
 10
282.637169
 20
-95.612107
 30
0.0
 11
269.637169
 21
-92.362107
 31
0.0
  1
%%c<>
 13
256.637169
 23
-54.10495
 33
0.0
 14
282.637169
 24
-54.10495
 34
0.0
  0
LINE
  5
9A50
  8
ALPHA
 10
269.637169
 20
-5.321707
 30
0.0
 11
265.016588
 21
-5.152206
 31
0.0
  0
LINE
  5
9A51
  8
ALPHA
 10
276.937169
 20
-7.009068
 30
0.0
 11
262.337169
 21
-7.009068
 31
0.0
  0
DIMENSION
  5
9A52
  8
COTATION1
  2
*D4
 10
277.637169
 20
10.19505
 30
0.0
 11
269.437169
 21
13.44505
 31
0.0
 13
261.237169
 23
-6.082931
 33
0.0
 14
277.637169
 24
-4.80495
 34
0.0
  0
LINE
  5
9A53
  8
ALPHA
 10
277.636951
 20
-4.80495
 30
0.0
 11
261.637387
 21
-4.80495
 31
0.0
  0
LINE
  5
9A54
  8
ALPHA
 10
277.252498
 20
-6.522535
 30
0.0
 11
262.02184
 21
-6.522535
 31
0.0
  0
LINE
  5
9A59
  8
AXE
 10
256.637169
 20
-28.406991
 30
0.0
 11
292.637169
 21
-28.406991
 31
0.0
  0
LINE
  5
9A5A
  8
ALPHA
 10
262.337169
 20
-7.009068
 30
0.0
 11
262.337169
 21
-43.348092
 31
0.0
  0
LINE
  5
9A5B
  8
ALPHA
 10
261.637169
 20
-43.857999
 30
0.0
 11
261.637169
 21
-4.80495
 31
0.0
  0
TEXT
  5
9A5C
  8
AXE
 10
262.160979
 20
-82.834131
 30
0.0
 40
8.0
  1
Y
 72
     2
 11
268.637169
 21
-82.834131
 31
0.0
  0
LINE
  5
9A79
  8
ALPHA
 10
261.537169
 20
-10.865459
 30
0.0
 11
261.537169
 21
-6.082931
 31
0.0
  0
LINE
  5
9A7A
  8
ALPHA
 10
261.237169
 20
-10.865459
 30
0.0
 11
261.237169
 21
-6.082931
 31
0.0
  0
POLYLINE
  5
9A7B
  8
ALPHA
 66
     1
 10
0.0
 20
0.0
 30
0.0
  0
VERTEX
  5
9ECC
  8
ALPHA
 10
261.637169
 20
-10.263241
 30
0.0
  0
VERTEX
  5
9ECD
  8
ALPHA
 10
261.606244
 20
-10.258506
 30
0.0
  0
VERTEX
  5
9ECE
  8
ALPHA
 10
261.578381
 20
-10.244786
 30
0.0
  0
VERTEX
  5
9ECF
  8
ALPHA
 10
261.556275
 20
-10.223433
 30
0.0
  0
VERTEX
  5
9ED0
  8
ALPHA
 10
261.542071
 20
-10.196519
 30
0.0
  0
VERTEX
  5
9ED1
  8
ALPHA
 10
261.537169
 20
-10.166648
 30
0.0
  0
SEQEND
  5
9ED2
  8
ALPHA
  0
LINE
  5
9A7C
  8
ALPHA
 10
261.649584
 20
-14.80495
 30
0.0
 11
261.637169
 21
-15.611564
 31
0.0
  0
LINE
  5
9A7D
  8
ALPHA
 10
261.644242
 20
-14.80495
 30
0.0
 11
261.637125
 21
-15.61159
 31
0.0
  0
LINE
  5
9A7E
  8
ALPHA
 10
261.637169
 20
-13.998337
 30
0.0
 11
261.649584
 21
-14.80495
 31
0.0
  0
LINE
  5
9A7F
  8
ALPHA
 10
261.637128
 20
-13.998309
 30
0.0
 11
261.644252
 21
-14.80495
 31
0.0
  0
POLYLINE
  5
9A80
  8
ALPHA
 66
     1
 10
0.0
 20
0.0
 30
0.0
  0
VERTEX
  5
9ED3
  8
ALPHA
 10
261.637169
 20
-10.962052
 30
0.0
  0
VERTEX
  5
9ED4
  8
ALPHA
 10
261.606244
 20
-10.957317
 30
0.0
  0
VERTEX
  5
9ED5
  8
ALPHA
 10
261.578381
 20
-10.943598
 30
0.0
  0
VERTEX
  5
9ED6
  8
ALPHA
 10
261.556275
 20
-10.922245
 30
0.0
  0
VERTEX
  5
9ED7
  8
ALPHA
 10
261.542071
 20
-10.895331
 30
0.0
  0
VERTEX
  5
9ED8
  8
ALPHA
 10
261.537169
 20
-10.865459
 30
0.0
  0
SEQEND
  5
9ED9
  8
ALPHA
  0
POLYLINE
  5
9A81
  8
ALPHA
 66
     1
 10
0.0
 20
0.0
 30
0.0
  0
VERTEX
  5
9EDA
  8
ALPHA
 10
261.237169
 20
-10.865459
 30
0.0
  0
VERTEX
  5
9EDB
  8
ALPHA
 10
261.250819
 20
-10.96553
 30
0.0
  0
VERTEX
  5
9EDC
  8
ALPHA
 10
261.290721
 20
-11.058581
 30
0.0
  0
VERTEX
  5
9EDD
  8
ALPHA
 10
261.354327
 20
-11.138665
 30
0.0
  0
VERTEX
  5
9EDE
  8
ALPHA
 10
261.437235
 20
-11.200103
 30
0.0
  0
VERTEX
  5
9EDF
  8
ALPHA
 10
261.533569
 20
-11.238646
 30
0.0
  0
VERTEX
  5
9EE0
  8
ALPHA
 10
261.637169
 20
-11.25183
 30
0.0
  0
SEQEND
  5
9EE1
  8
ALPHA
  0
LINE
  5
9A82
  8
ALPHA
 10
263.878798
 20
-5.058645
 30
0.0
 11
263.845229
 21
-5.055576
 31
0.0
  0
LINE
  5
9A83
  8
ALPHA
 10
265.016588
 20
-5.152206
 30
0.0
 11
263.878798
 21
-5.058645
 31
0.0
  0
POLYLINE
  5
9A84
  8
ALPHA
 66
     1
 10
0.0
 20
0.0
 30
0.0
 70
   128
210
0.0
220
0.0
230
-1.0
  0
VERTEX
  5
9EE2
  8
ALPHA
 10
-261.637169
 20
-6.756672
 30
0.0
  0
VERTEX
  5
9EE3
  8
ALPHA
 10
-261.726493
 20
-6.54865
 30
0.0
  0
VERTEX
  5
9EE4
  8
ALPHA
 10
-261.937169
 20
-6.464477
 30
0.0
  0
SEQEND
  5
9EE5
  8
ALPHA
  0
LINE
  5
9A85
  8
ALPHA
 10
261.730277
 20
-4.909545
 30
0.0
 11
261.937169
 21
-4.852106
 31
0.0
  0
LINE
  5
9A86
  8
ALPHA
 10
261.637169
 20
-6.756672
 30
0.0
 11
261.785344
 21
-6.814455
 31
0.0
  0
LINE
  5
9A87
  8
ALPHA
 10
261.637169
 20
-5.11495
 30
0.0
 11
261.730277
 21
-4.909545
 31
0.0
  0
LINE
  5
9A88
  8
ALPHA
 10
261.537169
 20
-6.082931
 30
0.0
 11
261.637169
 21
-5.98218
 31
0.0
  0
LINE
  5
9A89
  8
ALPHA
 10
261.628515
 20
-6.317279
 30
0.0
 11
261.637169
 21
-6.316884
 31
0.0
  0
LINE
  5
9A8A
  8
ALPHA
 10
261.537169
 20
-6.421063
 30
0.0
 11
261.628515
 21
-6.317279
 31
0.0
  0
POLYLINE
  5
9A8B
  8
ALPHA
 66
     1
 10
0.0
 20
0.0
 30
0.0
 70
   128
210
0.0
220
0.0
230
-1.0
  0
VERTEX
  5
9EE6
  8
ALPHA
 10
-261.237169
 20
-6.082931
 30
0.0
  0
VERTEX
  5
9EE7
  8
ALPHA
 10
-261.353798
 20
-5.798498
 30
0.0
  0
VERTEX
  5
9EE8
  8
ALPHA
 10
-261.637169
 20
-5.679927
 30
0.0
  0
SEQEND
  5
9EE9
  8
ALPHA
  0
LINE
  5
9A8C
  8
ALPHA
 10
261.537169
 20
-6.509692
 30
0.0
 11
261.237169
 21
-6.509692
 31
0.0
  0
LINE
  5
9A8D
  8
ALPHA
 10
261.537169
 20
-6.639101
 30
0.0
 11
261.237169
 21
-6.639101
 31
0.0
  0
LINE
  5
9A8E
  8
ALPHA
 10
261.785344
 20
-6.814455
 30
0.0
 11
262.02184
 21
-6.522535
 31
0.0
  0
LINE
  5
9A8F
  8
ALPHA
 10
261.937169
 20
-6.464477
 30
0.0
 11
262.02184
 21
-6.522535
 31
0.0
  0
LINE
  5
9A90
  8
ALPHA
 10
261.937169
 20
-6.464477
 30
0.0
 11
261.937169
 21
-4.852106
 31
0.0
  0
LINE
  5
9A91
  8
ALPHA
 10
263.845229
 20
-5.055576
 30
0.0
 11
261.937169
 21
-4.852106
 31
0.0
  0
LINE
  5
9A92
  8
ALPHA
 10
262.337169
 20
-7.009068
 30
0.0
 11
262.02184
 21
-6.522535
 31
0.0
  0
LINE
  5
9A93
  8
ALPHA
 10
262.337169
 20
-7.009068
 30
0.0
 11
261.785344
 21
-6.814455
 31
0.0
  0
LINE
  5
9A94
  8
AXE
 10
269.637169
 20
0.19505
 30
0.0
 11
269.637169
 21
-82.834131
 31
0.0
  0
LINE
  5
9A95
  8
ALPHA
 10
277.637169
 20
-43.857999
 30
0.0
 11
277.637169
 21
-4.80495
 31
0.0
  0
LINE
  5
9A96
  8
ALPHA
 10
276.937169
 20
-43.348092
 30
0.0
 11
276.937169
 21
-7.009068
 31
0.0
  0
LINE
  5
9AB4
  8
ALPHA
 10
277.637169
 20
-15.611564
 30
0.0
 11
277.624755
 21
-14.80495
 31
0.0
  0
LINE
  5
9AB5
  8
ALPHA
 10
277.637212
 20
-15.611592
 30
0.0
 11
277.630097
 21
-14.80495
 31
0.0
  0
LINE
  5
9AB6
  8
ALPHA
 10
277.624755
 20
-14.80495
 30
0.0
 11
277.637169
 21
-13.998337
 31
0.0
  0
LINE
  5
9AB7
  8
ALPHA
 10
277.630085
 20
-14.80495
 30
0.0
 11
277.637217
 21
-13.99831
 31
0.0
  0
TEXT
  5
9AB8
  8
AXE
 10
286.160979
 20
-27.406991
 30
0.0
 40
8.0
  1
Z
 72
     2
 11
292.637169
 21
-27.406991
 31
0.0
  0
LINE
  5
9AB9
  8
ALPHA
 10
277.488995
 20
-6.814455
 30
0.0
 11
277.252498
 21
-6.522535
 31
0.0
  0
LINE
  5
9ABA
  8
ALPHA
 10
277.488995
 20
-6.814455
 30
0.0
 11
276.937169
 21
-7.009068
 31
0.0
  0
POLYLINE
  5
9ABB
  8
ALPHA
 66
     1
 10
0.0
 20
0.0
 30
0.0
 70
   128
  0
VERTEX
  5
9EEA
  8
ALPHA
 10
277.637169
 20
-6.756672
 30
0.0
  0
VERTEX
  5
9EEB
  8
ALPHA
 10
277.547846
 20
-6.54865
 30
0.0
  0
VERTEX
  5
9EEC
  8
ALPHA
 10
277.337169
 20
-6.464477
 30
0.0
  0
SEQEND
  5
9EED
  8
ALPHA
  0
LINE
  5
9ABC
  8
ALPHA
 10
277.544062
 20
-4.909545
 30
0.0
 11
277.337169
 21
-4.852106
 31
0.0
  0
LINE
  5
9ABD
  8
ALPHA
 10
277.337169
 20
-4.852106
 30
0.0
 11
275.429028
 21
-5.055583
 31
0.0
  0
LINE
  5
9ABE
  8
ALPHA
 10
275.395541
 20
-5.058645
 30
0.0
 11
274.25775
 21
-5.152206
 31
0.0
  0
LINE
  5
9ABF
  8
ALPHA
 10
275.429028
 20
-5.055583
 30
0.0
 11
275.395541
 21
-5.058645
 31
0.0
  0
LINE
  5
9AC0
  8
ALPHA
 10
277.252498
 20
-6.522535
 30
0.0
 11
276.937169
 21
-7.009068
 31
0.0
  0
LINE
  5
9AC1
  8
ALPHA
 10
277.337169
 20
-6.464477
 30
0.0
 11
277.252498
 21
-6.522535
 31
0.0
  0
LINE
  5
9AC2
  8
ALPHA
 10
277.337169
 20
-6.464477
 30
0.0
 11
277.337169
 21
-4.852106
 31
0.0
  0
LINE
  5
9AC3
  8
ALPHA
 10
274.25775
 20
-5.152206
 30
0.0
 11
269.637169
 21
-5.321707
 31
0.0
  0
LINE
  5
9AC4
  8
ALPHA
 10
277.637169
 20
-5.11495
 30
0.0
 11
277.544062
 21
-4.909545
 31
0.0
  0
LINE
  5
9AC5
  8
ALPHA
 10
277.637169
 20
-6.756672
 30
0.0
 11
277.488995
 21
-6.814455
 31
0.0
  0
CIRCLE
  5
9AF9
  8
ALPHA
 10
269.637169
 20
-54.10495
 30
0.0
 40
13.0
  0
VIEWPORT
  5
494D
 67
     1
  8
0
 10
4.995325
 20
6.556512
 30
0.0
 40
22.70986
 41
13.988421
 68
    -1
 69
     1
1001
ACAD
1000
MVIEW
1002
{
1070
    16
1010
0.0
1020
0.0
1030
0.0
1010
0.0
1020
0.0
1030
1.0
1040
0.0
1040
13.988421
1040
4.995325
1040
6.556512
1040
50.0
1040
0.0
1040
0.0
1070
     0
1070
   100
1070
     1
1070
     1
1070
     0
1070
     0
1070
     0
1070
     0
1040
0.0
1040
0.0
1040
0.0
1040
10.0
1040
10.0
1040
10.0
1040
10.0
1070
     0
1002
{
1002
}
1002
}
  0
ENDSEC
  0
EOF
