  0
SECTION
  2
HEADER
  9
$ACADVER
  1
AC1009
  9
$INSBASE
 10
-146.27124
 20
-153.796096
 30
0.0
  9
$EXTMIN
 10
396.107992
 20
-198.473031
 30
0.0
  9
$EXTMAX
 10
500.485143
 20
-56.229448
 30
0.0
  9
$LIMMIN
 10
-407.970438
 20
-367.832444
  9
$LIMMAX
 10
429.804077
 20
234.370848
  9
$ORTHOMODE
 70
     1
  9
$REGENMODE
 70
     1
  9
$FILLMODE
 70
     1
  9
$QTEXTMODE
 70
     0
  9
$MIRRTEXT
 70
     1
  9
$DRAGMODE
 70
     2
  9
$LTSCALE
 40
10.0
  9
$OSMODE
 70
    37
  9
$ATTMODE
 70
     1
  9
$TEXTSIZE
 40
6.0
  9
$TRACEWID
 40
1.0
  9
$TEXTSTYLE
  7
ROMANS
  9
$CLAYER
  8
COTATION1
  9
$CELTYPE
  6
BYLAYER
  9
$CECOLOR
 62
   256
  9
$DIMSCALE
 40
1.0
  9
$DIMASZ
 40
2.0
  9
$DIMEXO
 40
0.5
  9
$DIMDLI
 40
0.38
  9
$DIMRND
 40
0.0
  9
$DIMDLE
 40
0.0
  9
$DIMEXE
 40
0.18
  9
$DIMTP
 40
0.0
  9
$DIMTM
 40
0.0
  9
$DIMTXT
 40
2.0
  9
$DIMCEN
 40
0.09
  9
$DIMTSZ
 40
0.0
  9
$DIMTOL
 70
     0
  9
$DIMLIM
 70
     0
  9
$DIMTIH
 70
     0
  9
$DIMTOH
 70
     1
  9
$DIMSE1
 70
     0
  9
$DIMSE2
 70
     0
  9
$DIMTAD
 70
     1
  9
$DIMZIN
 70
    12
  9
$DIMBLK
  1
OPEN30
  9
$DIMASO
 70
     1
  9
$DIMSHO
 70
     1
  9
$DIMPOST
  1

  9
$DIMAPOST
  1

  9
$DIMALT
 70
     0
  9
$DIMALTD
 70
     2
  9
$DIMALTF
 40
25.4
  9
$DIMLFAC
 40
1.0
  9
$DIMTOFL
 70
     0
  9
$DIMTVP
 40
0.0
  9
$DIMTIX
 70
     0
  9
$DIMSOXD
 70
     0
  9
$DIMSAH
 70
     0
  9
$DIMBLK1
  1

  9
$DIMBLK2
  1

  9
$DIMSTYLE
  2
ROMANS
  9
$DIMCLRD
 70
     0
  9
$DIMCLRE
 70
     0
  9
$DIMCLRT
 70
     0
  9
$DIMTFAC
 40
1.0
  9
$DIMGAP
 40
0.5
  9
$LUNITS
 70
     2
  9
$LUPREC
 70
     1
  9
$SKETCHINC
 40
0.1
  9
$FILLETRAD
 40
0.0
  9
$AUNITS
 70
     0
  9
$AUPREC
 70
     0
  9
$MENU
  1
acad
  9
$ELEVATION
 40
0.0
  9
$PELEVATION
 40
0.0
  9
$THICKNESS
 40
0.0
  9
$LIMCHECK
 70
     0
  9
$BLIPMODE
 70
     0
  9
$CHAMFERA
 40
0.0
  9
$CHAMFERB
 40
0.0
  9
$SKPOLY
 70
     0
  9
$TDCREATE
 40
2450365.355314
  9
$TDUPDATE
 40
2452608.377713
  9
$TDINDWG
 40
0.589383
  9
$TDUSRTIMER
 40
0.589383
  9
$USRTIMER
 70
     1
  9
$ANGBASE
 50
0.0
  9
$ANGDIR
 70
     0
  9
$PDMODE
 70
    32
  9
$PDSIZE
 40
0.0
  9
$PLINEWID
 40
0.0
  9
$COORDS
 70
     2
  9
$SPLFRAME
 70
     0
  9
$SPLINETYPE
 70
     6
  9
$SPLINESEGS
 70
     8
  9
$ATTDIA
 70
     0
  9
$ATTREQ
 70
     1
  9
$HANDLING
 70
     1
  9
$HANDSEED
  5
54CB
  9
$SURFTAB1
 70
     6
  9
$SURFTAB2
 70
     6
  9
$SURFTYPE
 70
     6
  9
$SURFU
 70
     6
  9
$SURFV
 70
     6
  9
$UCSNAME
  2

  9
$UCSORG
 10
0.0
 20
0.0
 30
0.0
  9
$UCSXDIR
 10
1.0
 20
0.0
 30
0.0
  9
$UCSYDIR
 10
0.0
 20
1.0
 30
0.0
  9
$PUCSNAME
  2

  9
$PUCSORG
 10
0.0
 20
0.0
 30
0.0
  9
$PUCSXDIR
 10
1.0
 20
0.0
 30
0.0
  9
$PUCSYDIR
 10
0.0
 20
1.0
 30
0.0
  9
$USERI1
 70
     0
  9
$USERI2
 70
     0
  9
$USERI3
 70
     0
  9
$USERI4
 70
     0
  9
$USERI5
 70
     0
  9
$USERR1
 40
0.0
  9
$USERR2
 40
0.0
  9
$USERR3
 40
0.0
  9
$USERR4
 40
0.0
  9
$USERR5
 40
0.0
  9
$WORLDVIEW
 70
     1
  9
$SHADEDGE
 70
     3
  9
$SHADEDIF
 70
    70
  9
$TILEMODE
 70
     1
  9
$MAXACTVP
 70
    16
  9
$PLIMCHECK
 70
     0
  9
$PEXTMIN
 10
1.000000E+020
 20
1.000000E+020
 30
1.000000E+020
  9
$PEXTMAX
 10
-1.000000E+020
 20
-1.000000E+020
 30
-1.000000E+020
  9
$PLIMMIN
 10
0.0
 20
0.0
  9
$PLIMMAX
 10
12.0
 20
9.0
  9
$UNITMODE
 70
     0
  9
$VISRETAIN
 70
     0
  9
$PLINEGEN
 70
     0
  9
$PSLTSCALE
 70
     0
  0
ENDSEC
  0
SECTION
  2
TABLES
  0
TABLE
  2
VPORT
 70
     2
  0
VPORT
  2
*ACTIVE
 70
     0
 10
0.0
 20
0.0
 11
1.0
 21
1.0
 12
448.288041
 22
-127.354518
 13
0.0
 23
0.0
 14
1.0
 24
1.0
 15
10.0
 25
10.0
 16
0.0
 26
0.0
 36
1.0
 17
0.0
 27
0.0
 37
0.0
 40
143.5777
 41
1.63142
 42
50.0
 43
0.0
 44
0.0
 50
0.0
 51
0.0
 71
     0
 72
   100
 73
     1
 74
     0
 75
     0
 76
     0
 77
     0
 78
     0
  0
ENDTAB
  0
TABLE
  2
LTYPE
 70
    26
  0
LTYPE
  2
CONTINUOUS
 70
     0
  3
Solid line
 72
    65
 73
     0
 40
0.0
  0
LTYPE
  2
AXES2
 70
     0
  3
___ _ ___ _ ___ _ ___ _ ___ _ ___ _ ___ _ ___ _
 72
    65
 73
     4
 40
1.125
 49
0.75
 49
-0.125
 49
0.125
 49
-0.125
  0
LTYPE
  2
ACAD_ISO04W100
 70
     0
  3
ISO Lang gestrichelt punktiert ____ . ____ . __
 72
    65
 73
     4
 40
30.5
 49
24.0
 49
-3.0
 49
0.5
 49
-3.0
  0
LTYPE
  2
AXES
 70
     0
  3
____ _ ____ _ ____ _ ____ _ ____ _ ____ _ ____ 
 72
    65
 73
     4
 40
2.0
 49
1.25
 49
-0.25
 49
0.25
 49
-0.25
  0
LTYPE
  2
AXESX2
 70
     0
  3
________  __  ________  __  ________  __  _____
 72
    65
 73
     4
 40
4.0
 49
2.5
 49
-0.5
 49
0.5
 49
-0.5
  0
LTYPE
  2
TIRETPT
 70
     0
  3
__ . __ . __ . __ . __ . __ . __ . __ . __ . __
 72
    65
 73
     4
 40
1.0
 49
0.5
 49
-0.25
 49
0.0
 49
-0.25
  0
LTYPE
  2
TIRETPT2
 70
     0
  3
_._._._._._._._._._._._._._._._._._._._._._._._
 72
    65
 73
     4
 40
0.5
 49
0.25
 49
-0.125
 49
0.0
 49
-0.125
  0
LTYPE
  2
TIRETPTX2
 70
     0
  3
____  .  ____  .  ____  .  ____  .  ____  .  __
 72
    65
 73
     4
 40
2.0
 49
1.0
 49
-0.5
 49
0.0
 49
-0.5
  0
LTYPE
  2
DISCONTINU
 70
     0
  3
__ __ __ __ __ __ __ __ __ __ __ __ __ __ __ __
 72
    65
 73
     2
 40
0.75
 49
0.5
 49
-0.25
  0
LTYPE
  2
DISCONTINU2
 70
     0
  3
_ _ _ _ _ _ _ _ _ _ _ _ _ _ _ _ _ _ _ _ _ _ _ _
 72
    65
 73
     2
 40
0.375
 49
0.25
 49
-0.125
  0
LTYPE
  2
DISCONTINUX2
 70
     0
  3
____  ____  ____  ____  ____  ____  ____  ____ 
 72
    65
 73
     2
 40
1.5
 49
1.0
 49
-0.5
  0
LTYPE
  2
DIVISE
 70
     0
  3
____ . . ____ . . ____ . . ____ . . ____ . . __
 72
    65
 73
     6
 40
1.25
 49
0.5
 49
-0.25
 49
0.0
 49
-0.25
 49
0.0
 49
-0.25
  0
LTYPE
  2
DIVISE2
 70
     0
  3
__..__..__..__..__..__..__..__..__..__..__..__.
 72
    65
 73
     6
 40
0.625
 49
0.25
 49
-0.125
 49
0.0
 49
-0.125
 49
0.0
 49
-0.125
  0
LTYPE
  2
DIVISEX2
 70
     0
  3
________  .  .  ________  .  .  ________  .  . 
 72
    65
 73
     6
 40
2.5
 49
1.0
 49
-0.5
 49
0.0
 49
-0.5
 49
0.0
 49
-0.5
  0
LTYPE
  2
POINTILLE
 70
     0
  3
. . . . . . . . . . . . . . . . . . . . . . . .
 72
    65
 73
     2
 40
0.25
 49
0.0
 49
-0.25
  0
LTYPE
  2
POINTILLE2
 70
     0
  3
...............................................
 72
    65
 73
     2
 40
0.125
 49
0.0
 49
-0.125
  0
LTYPE
  2
POINTILLEX2
 70
     0
  3
.  .  .  .  .  .  .  .  .  .  .  .  .  .  .  . 
 72
    65
 73
     2
 40
0.5
 49
0.0
 49
-0.5
  0
LTYPE
  2
CACHE
 70
     0
  3
__ __ __ __ __ __ __ __ __ __ __ __ __ __ __ __
 72
    65
 73
     2
 40
0.375
 49
0.25
 49
-0.125
  0
LTYPE
  2
CACHE2
 70
     0
  3
_ _ _ _ _ _ _ _ _ _ _ _ _ _ _ _ _ _ _ _ _ _ _ _
 72
    65
 73
     2
 40
0.1875
 49
0.125
 49
-0.0625
  0
LTYPE
  2
CACHEX2
 70
     0
  3
____ ____ ____ ____ ____ ____ ____ ____ ____ __
 72
    65
 73
     2
 40
0.75
 49
0.5
 49
-0.25
  0
LTYPE
  2
FANTOME
 70
     0
  3
______  __  __  ______  __  __  ______  __  __ 
 72
    65
 73
     6
 40
2.5
 49
1.25
 49
-0.25
 49
0.25
 49
-0.25
 49
0.25
 49
-0.25
  0
LTYPE
  2
FANTOME2
 70
     0
  3
___ _ _ ___ _ _ ___ _ _ ___ _ _ ___ _ _ ___ _ _
 72
    65
 73
     6
 40
1.25
 49
0.625
 49
-0.125
 49
0.125
 49
-0.125
 49
0.125
 49
-0.125
  0
LTYPE
  2
FANTOMEX2
 70
     0
  3
____________    ____    ____    ____________   
 72
    65
 73
     6
 40
5.0
 49
2.5
 49
-0.5
 49
0.5
 49
-0.5
 49
0.5
 49
-0.5
  0
LTYPE
  2
0
 70
     0
  3
MEDUSA PEN 0
 72
    65
 73
     0
 40
0.0
  0
LTYPE
  2
AI9-LTYPE1
 70
     0
  3
Illustrator Dash Style No.1
 72
    65
 73
     4
 40
5.64621
 49
4.106333
 49
-0.307975
 49
0.923926
 49
-0.307975
  0
LTYPE
  2
AI9-LTYPE2
 70
     0
  3
Illustrator Dash Style No.2
 72
    65
 73
     2
 40
1.33456
 49
1.026585
 49
-0.307975
  0
ENDTAB
  0
TABLE
  2
LAYER
 70
    17
  0
LAYER
  2
0
 70
     0
 62
     7
  6
CONTINUOUS
  0
LAYER
  2
TEXTE_MOYEN
 70
     0
 62
   131
  6
CONTINUOUS
  0
LAYER
  2
ALPHA
 70
     0
 62
   254
  6
CONTINUOUS
  0
LAYER
  2
COTATION1
 70
     0
 62
    50
  6
CONTINUOUS
  0
LAYER
  2
AXE
 70
     0
 62
    80
  6
AXES2
  0
LAYER
  2
DEFPOINTS
 70
     0
 62
     7
  6
CONTINUOUS
  0
LAYER
  2
HACHURES1
 70
     0
 62
   130
  6
CONTINUOUS
  0
LAYER
  2
FMULT
 70
     0
 62
   210
  6
CONTINUOUS
  0
LAYER
  2
FDP_CARTOUCHE
 70
     0
 62
   136
  6
CONTINUOUS
  0
LAYER
  2
FDP_TEXTES
 70
     0
 62
   171
  6
CONTINUOUS
  0
LAYER
  2
FDP_LOGO_MG
 70
     0
 62
    30
  6
CONTINUOUS
  0
LAYER
  2
FDP_LOGO_SCH
 70
     0
 62
    90
  6
CONTINUOUS
  0
LAYER
  2
FDP_FDP
 70
     0
 62
   170
  6
CONTINUOUS
  0
LAYER
  2
POINTILLE_COURT2
 70
     0
 62
    41
  6
CACHE2
  0
LAYER
  2
POINTILLE_MOYEN2
 70
     0
 62
   141
  6
CACHE
  0
LAYER
  2
POINTILLE_LONG2
 70
     0
 62
   241
  6
CACHEX2
  0
LAYER
  2
ALPHA_FIN
 70
     0
 62
   255
  6
CONTINUOUS
  0
ENDTAB
  0
TABLE
  2
STYLE
 70
     5
  0
STYLE
  2
ROMANS
 70
     0
 40
0.0
 41
1.0
 50
0.0
 71
     0
 42
6.0
  3
romans
  4

  0
STYLE
  2
STANDARD
 70
     0
 40
0.2
 41
1.0
 50
0.0
 71
     0
 42
0.2
  3
txt
  4

  0
STYLE
  2
STD
 70
     0
 40
0.0
 41
1.0
 50
0.0
 71
     0
 42
0.0
  3
txt
  4

  0
STYLE
  2
INFOCAR
 70
     0
 40
0.0
 41
1.34
 50
0.0
 71
     0
 42
2.0
  3
ROMANS.SHX
  4

  0
STYLE
  2
CARTOUCHE
 70
     0
 40
0.0
 41
1.0
 50
0.0
 71
     0
 42
0.2
  3
ROMANS.SHX
  4

  0
ENDTAB
  0
TABLE
  2
VIEW
 70
     0
  0
ENDTAB
  0
TABLE
  2
UCS
 70
     0
  0
ENDTAB
  0
TABLE
  2
APPID
 70
     3
  0
APPID
  2
ACAD
 70
     0
  0
APPID
  2
AVE_RENDER
 70
     0
  0
APPID
  2
AVE_MATERIAL
 70
     0
  0
ENDTAB
  0
TABLE
  2
DIMSTYLE
 70
     1
  0
DIMSTYLE
  2
ROMANS
 70
     0
  3

  4

  5
OPEN30
  6

  7

 40
1.0
 41
2.0
 42
0.5
 43
0.38
 44
0.18
 45
0.0
 46
0.0
 47
0.0
 48
0.0
140
2.0
141
0.09
142
0.0
143
25.4
144
1.0
145
0.0
146
1.0
147
0.5
 71
     0
 72
     0
 73
     0
 74
     1
 75
     0
 76
     0
 77
     1
 78
    12
170
     0
171
     2
172
     0
173
     0
174
     0
175
     0
176
     0
177
     0
178
     0
  0
ENDTAB
  0
ENDSEC
  0
SECTION
  2
BLOCKS
  0
BLOCK
  8
0
  2
$MODEL_SPACE
 70
     0
 10
0.0
 20
0.0
 30
0.0
  3
$MODEL_SPACE
  1

  0
ENDBLK
  5
5379
  8
0
  0
BLOCK
 67
     1
  8
0
  2
$PAPER_SPACE
 70
     0
 10
0.0
 20
0.0
 30
0.0
  3
$PAPER_SPACE
  1

  0
ENDBLK
  5
5377
 67
     1
  8
0
  0
BLOCK
  8
0
  2
COTE
 70
     0
 10
0.0
 20
0.0
 30
0.0
  3
COTE
  1

  0
ENDBLK
  5
35
  8
0
  0
BLOCK
  8
0
  2
FOND
 70
     0
 10
0.0
 20
0.0
 30
0.0
  3
FOND
  1

  0
ENDBLK
  5
39
  8
0
  0
BLOCK
  8
0
  2
SCH_ISO
 70
     0
 10
0.0
 20
0.0
 30
0.0
  3
SCH_ISO
  1

  0
ENDBLK
  5
24AD
  8
0
  0
BLOCK
  8
0
  2
_OPEN30
 70
     0
 10
0.0
 20
0.0
 30
0.0
  3
_OPEN30
  1

  0
LINE
  5
27E1
  8
COTATION1
 62
     0
 10
-1.0
 20
0.267949
 30
0.0
 11
0.0
 21
0.0
 31
0.0
1001
ACAD
1000
RTLwPs
1070
   158
  0
LINE
  5
27E2
  8
COTATION1
 62
     0
 10
0.0
 20
0.0
 30
0.0
 11
-1.0
 21
-0.267949
 31
0.0
1001
ACAD
1000
RTLwPs
1070
   158
  0
LINE
  5
27E3
  8
COTATION1
 62
     0
 10
0.0
 20
0.0
 30
0.0
 11
-1.0
 21
0.0
 31
0.0
1001
ACAD
1000
RTLwPs
1070
   158
  0
ENDBLK
  5
27E5
  8
0
  0
BLOCK
  8
0
  2
*D4
 70
     1
 10
0.0
 20
0.0
 30
0.0
  3
*D4
  1

  0
LINE
  5
5119
  8
COTATION1
 62
     0
 10
481.009504
 20
-83.729448
 30
0.0
 11
398.427992
 21
-83.729448
 31
0.0
1001
ACAD
1000
RTLwPs
1070
   158
  0
LINE
  5
511A
  8
COTATION1
 62
     0
 10
481.009504
 20
-183.72949
 30
0.0
 11
398.427992
 21
-183.72949
 31
0.0
1001
ACAD
1000
RTLwPs
1070
   158
  0
LINE
  5
511B
  8
COTATION1
 62
     0
 10
398.607992
 20
-85.729448
 30
0.0
 11
398.607992
 21
-181.72949
 31
0.0
1001
ACAD
1000
RTLwPs
1070
   158
  0
INSERT
  5
511C
  8
COTATION1
 62
     0
  2
_OPEN30
 10
398.607992
 20
-83.729448
 30
0.0
 41
2.0
 42
2.0
 43
2.0
 50
90.0
1001
ACAD
1000
RTLwPs
1070
   158
  0
INSERT
  5
511D
  8
COTATION1
 62
     0
  2
_OPEN30
 10
398.607992
 20
-183.72949
 30
0.0
 41
2.0
 42
2.0
 43
2.0
 50
270.0
1001
ACAD
1000
RTLwPs
1070
   158
  0
TEXT
  5
511E
  8
COTATION1
 62
     0
 10
398.107992
 20
-136.729469
 30
0.0
 40
2.0
  1
100
 50
90.0
1001
ACAD
1000
MTEXTBEGIN
1070
    73
1070
     1
1070
    44
1040
1.0
1070
    74
1070
     0
1000
MTEXTEND
  0
POINT
  5
511F
  8
DEFPOINTS
 62
     0
 10
481.509504
 20
-83.729448
 30
0.0
  0
POINT
  5
5120
  8
DEFPOINTS
 62
     0
 10
481.509504
 20
-183.72949
 30
0.0
  0
POINT
  5
5121
  8
DEFPOINTS
 62
     0
 10
398.607992
 20
-183.72949
 30
0.0
  0
ENDBLK
  5
46B4
  8
0
  0
BLOCK
  8
0
  2
*D5
 70
     1
 10
0.0
 20
0.0
 30
0.0
  3
*D5
  1

  0
LINE
  5
5110
  8
COTATION1
 62
     0
 10
484.60799
 20
-83.229448
 30
0.0
 11
484.60799
 21
-58.549448
 31
0.0
1001
ACAD
1000
RTLwPs
1070
   158
  0
LINE
  5
5111
  8
COTATION1
 62
     0
 10
433.607992
 20
-127.927708
 30
0.0
 11
433.607992
 21
-58.549448
 31
0.0
1001
ACAD
1000
RTLwPs
1070
   158
  0
LINE
  5
5112
  8
COTATION1
 62
     0
 10
482.60799
 20
-58.729448
 30
0.0
 11
435.607992
 21
-58.729448
 31
0.0
1001
ACAD
1000
RTLwPs
1070
   158
  0
INSERT
  5
5113
  8
COTATION1
 62
     0
  2
_OPEN30
 10
484.60799
 20
-58.729448
 30
0.0
 41
2.0
 42
2.0
 43
2.0
1001
ACAD
1000
RTLwPs
1070
   158
  0
INSERT
  5
5114
  8
COTATION1
 62
     0
  2
_OPEN30
 10
433.607992
 20
-58.729448
 30
0.0
 41
2.0
 42
2.0
 43
2.0
 50
180.0
1001
ACAD
1000
RTLwPs
1070
   158
  0
TEXT
  5
5115
  8
COTATION1
 62
     0
 10
457.488943
 20
-58.229448
 30
0.0
 40
2.0
  1
51
1001
ACAD
1000
MTEXTBEGIN
1070
    73
1070
     1
1070
    44
1040
1.0
1070
    74
1070
     0
1000
MTEXTEND
  0
POINT
  5
5116
  8
DEFPOINTS
 62
     0
 10
484.60799
 20
-83.729448
 30
0.0
  0
POINT
  5
5117
  8
DEFPOINTS
 62
     0
 10
433.607992
 20
-128.427708
 30
0.0
  0
POINT
  5
5118
  8
DEFPOINTS
 62
     0
 10
433.607992
 20
-58.729448
 30
0.0
  0
ENDBLK
  5
4715
  8
0
  0
BLOCK
  8
0
  2
*D6
 70
     1
 10
0.0
 20
0.0
 30
0.0
  3
*D6
  1

  0
LINE
  5
50E5
  8
COTATION1
 62
     0
 10
497.934089
 20
-93.300758
 30
0.0
 11
491.334089
 21
-93.300758
 31
0.0
1001
ACAD
1000
RTLwPs
1070
   158
  0
LINE
  5
50E6
  8
COTATION1
 62
     0
 10
491.334089
 20
-93.300758
 30
0.0
 11
479.092554
 21
-100.975328
 31
0.0
1001
ACAD
1000
RTLwPs
1070
   158
  0
TEXT
  5
50E7
  8
COTATION1
 62
     0
 10
491.743613
 20
-92.800758
 30
0.0
 40
2.0
  1
%%c5.5
1001
ACAD
1000
MTEXTBEGIN
1070
    73
1070
     1
1070
    44
1040
1.0
1070
    74
1070
     0
1000
MTEXTEND
  0
INSERT
  5
50E8
  8
COTATION1
 62
     0
  2
_OPEN30
 10
477.398028
 20
-102.037676
 30
0.0
 41
2.0
 42
2.0
 43
2.0
 50
212.084783
1001
ACAD
1000
RTLwPs
1070
   158
  0
LINE
  5
50E9
  8
COTATION1
 62
     0
 10
474.978055
 20
-103.498403
 30
0.0
 11
475.158055
 21
-103.498403
 31
0.0
1001
ACAD
1000
RTLwPs
1070
   158
  0
LINE
  5
50EA
  8
COTATION1
 62
     0
 10
475.068055
 20
-103.588403
 30
0.0
 11
475.068055
 21
-103.408403
 31
0.0
1001
ACAD
1000
RTLwPs
1070
   158
  0
POINT
  5
50EB
  8
DEFPOINTS
 62
     0
 10
477.398028
 20
-102.037676
 30
0.0
  0
POINT
  5
50EC
  8
DEFPOINTS
 62
     0
 10
472.738082
 20
-104.95913
 30
0.0
  0
ENDBLK
  5
47B4
  8
0
  0
BLOCK
  8
0
  2
*D7
 70
     1
 10
0.0
 20
0.0
 30
0.0
  3
*D7
  1

  0
LINE
  5
5107
  8
COTATION1
 62
     0
 10
474.629174
 20
-117.090472
 30
0.0
 11
418.427992
 21
-117.090472
 31
0.0
1001
ACAD
1000
RTLwPs
1070
   158
  0
LINE
  5
5108
  8
COTATION1
 62
     0
 10
474.629174
 20
-150.090472
 30
0.0
 11
418.427992
 21
-150.090472
 31
0.0
1001
ACAD
1000
RTLwPs
1070
   158
  0
LINE
  5
5109
  8
COTATION1
 62
     0
 10
418.607992
 20
-119.090472
 30
0.0
 11
418.607992
 21
-148.090472
 31
0.0
1001
ACAD
1000
RTLwPs
1070
   158
  0
INSERT
  5
510A
  8
COTATION1
 62
     0
  2
_OPEN30
 10
418.607992
 20
-117.090472
 30
0.0
 41
2.0
 42
2.0
 43
2.0
 50
90.0
1001
ACAD
1000
RTLwPs
1070
   158
  0
INSERT
  5
510B
  8
COTATION1
 62
     0
  2
_OPEN30
 10
418.607992
 20
-150.090472
 30
0.0
 41
2.0
 42
2.0
 43
2.0
 50
270.0
1001
ACAD
1000
RTLwPs
1070
   158
  0
TEXT
  5
510C
  8
COTATION1
 62
     0
 10
418.107992
 20
-135.495234
 30
0.0
 40
2.0
  1
33
 50
90.0
1001
ACAD
1000
MTEXTBEGIN
1070
    73
1070
     1
1070
    44
1040
1.0
1070
    74
1070
     0
1000
MTEXTEND
  0
POINT
  5
510D
  8
DEFPOINTS
 62
     0
 10
475.129174
 20
-117.090472
 30
0.0
  0
POINT
  5
510E
  8
DEFPOINTS
 62
     0
 10
475.129174
 20
-150.090472
 30
0.0
  0
POINT
  5
510F
  8
DEFPOINTS
 62
     0
 10
418.607992
 20
-150.090472
 30
0.0
  0
ENDBLK
  5
49F7
  8
0
  0
BLOCK
  8
0
  2
*D8
 70
     1
 10
0.0
 20
0.0
 30
0.0
  3
*D8
  1

  0
LINE
  5
50F6
  8
COTATION1
 62
     0
 10
474.568055
 20
-103.601802
 30
0.0
 11
408.427992
 21
-103.601802
 31
0.0
1001
ACAD
1000
RTLwPs
1070
   158
  0
LINE
  5
50F7
  8
COTATION1
 62
     0
 10
474.568055
 20
-163.601802
 30
0.0
 11
408.427992
 21
-163.601802
 31
0.0
1001
ACAD
1000
RTLwPs
1070
   158
  0
LINE
  5
50F8
  8
COTATION1
 62
     0
 10
408.607992
 20
-105.601802
 30
0.0
 11
408.607992
 21
-161.601802
 31
0.0
1001
ACAD
1000
RTLwPs
1070
   158
  0
INSERT
  5
50F9
  8
COTATION1
 62
     0
  2
_OPEN30
 10
408.607992
 20
-103.601802
 30
0.0
 41
2.0
 42
2.0
 43
2.0
 50
90.0
1001
ACAD
1000
RTLwPs
1070
   158
  0
INSERT
  5
50FA
  8
COTATION1
 62
     0
  2
_OPEN30
 10
408.607992
 20
-163.601802
 30
0.0
 41
2.0
 42
2.0
 43
2.0
 50
270.0
1001
ACAD
1000
RTLwPs
1070
   158
  0
TEXT
  5
50FB
  8
COTATION1
 62
     0
 10
408.107992
 20
-135.554183
 30
0.0
 40
2.0
  1
60
 50
90.0
1001
ACAD
1000
MTEXTBEGIN
1070
    73
1070
     1
1070
    44
1040
1.0
1070
    74
1070
     0
1000
MTEXTEND
  0
POINT
  5
50FC
  8
DEFPOINTS
 62
     0
 10
475.068055
 20
-103.601802
 30
0.0
  0
POINT
  5
50FD
  8
DEFPOINTS
 62
     0
 10
475.068055
 20
-163.601802
 30
0.0
  0
POINT
  5
50FE
  8
DEFPOINTS
 62
     0
 10
408.607992
 20
-163.601802
 30
0.0
  0
ENDBLK
  5
4A04
  8
0
  0
BLOCK
  8
0
  2
*D9
 70
     1
 10
0.0
 20
0.0
 30
0.0
  3
*D9
  1

  0
LINE
  5
50D4
  8
COTATION1
 62
     0
 10
461.508024
 20
-78.229448
 30
0.0
 11
461.508024
 21
-68.549448
 31
0.0
1001
ACAD
1000
RTLwPs
1070
   158
  0
LINE
  5
50D5
  8
COTATION1
 62
     0
 10
484.60799
 20
-83.229448
 30
0.0
 11
484.60799
 21
-68.549448
 31
0.0
1001
ACAD
1000
RTLwPs
1070
   158
  0
LINE
  5
50D6
  8
COTATION1
 62
     0
 10
463.508024
 20
-68.729448
 30
0.0
 11
482.60799
 21
-68.729448
 31
0.0
1001
ACAD
1000
RTLwPs
1070
   158
  0
INSERT
  5
50D7
  8
COTATION1
 62
     0
  2
_OPEN30
 10
461.508024
 20
-68.729448
 30
0.0
 41
2.0
 42
2.0
 43
2.0
 50
180.0
1001
ACAD
1000
RTLwPs
1070
   158
  0
INSERT
  5
50D8
  8
COTATION1
 62
     0
  2
_OPEN30
 10
484.60799
 20
-68.729448
 30
0.0
 41
2.0
 42
2.0
 43
2.0
1001
ACAD
1000
RTLwPs
1070
   158
  0
TEXT
  5
50D9
  8
COTATION1
 62
     0
 10
470.010388
 20
-68.229448
 30
0.0
 40
2.0
  1
23.1
1001
ACAD
1000
MTEXTBEGIN
1070
    73
1070
     1
1070
    44
1040
1.0
1070
    74
1070
     0
1000
MTEXTEND
  0
POINT
  5
50DA
  8
DEFPOINTS
 62
     0
 10
461.508024
 20
-78.729448
 30
0.0
  0
POINT
  5
50DB
  8
DEFPOINTS
 62
     0
 10
484.60799
 20
-83.729448
 30
0.0
  0
POINT
  5
50DC
  8
DEFPOINTS
 62
     0
 10
484.60799
 20
-68.729448
 30
0.0
  0
ENDBLK
  5
4A5E
  8
0
  0
BLOCK
  8
0
  2
*D10
 70
     1
 10
0.0
 20
0.0
 30
0.0
  3
*D10
  1

  0
LINE
  5
50DD
  8
COTATION1
 62
     0
 10
500.389905
 20
-158.773412
 30
0.0
 11
493.889905
 21
-158.773412
 31
0.0
1001
ACAD
1000
RTLwPs
1070
   158
  0
LINE
  5
50DE
  8
COTATION1
 62
     0
 10
493.889905
 20
-158.773412
 30
0.0
 11
478.986111
 21
-151.87556
 31
0.0
1001
ACAD
1000
RTLwPs
1070
   158
  0
TEXT
  5
50DF
  8
COTATION1
 62
     0
 10
494.199429
 20
-158.273412
 30
0.0
 40
2.0
  1
%%c4.5
1001
ACAD
1000
MTEXTBEGIN
1070
    73
1070
     1
1070
    44
1040
1.0
1070
    74
1070
     0
1000
MTEXTEND
  0
INSERT
  5
50E0
  8
COTATION1
 62
     0
  2
_OPEN30
 10
477.171082
 20
-151.035518
 30
0.0
 41
2.0
 42
2.0
 43
2.0
 50
155.164108
1001
ACAD
1000
RTLwPs
1070
   158
  0
LINE
  5
50E1
  8
COTATION1
 62
     0
 10
475.039174
 20
-150.090472
 30
0.0
 11
475.219174
 21
-150.090472
 31
0.0
1001
ACAD
1000
RTLwPs
1070
   158
  0
LINE
  5
50E2
  8
COTATION1
 62
     0
 10
475.129174
 20
-150.180472
 30
0.0
 11
475.129174
 21
-150.000472
 31
0.0
1001
ACAD
1000
RTLwPs
1070
   158
  0
POINT
  5
50E3
  8
DEFPOINTS
 62
     0
 10
477.171082
 20
-151.035518
 30
0.0
  0
POINT
  5
50E4
  8
DEFPOINTS
 62
     0
 10
473.087266
 20
-149.145425
 30
0.0
  0
ENDBLK
  5
50CA
  8
0
  0
ENDSEC
  0
SECTION
  2
ENTITIES
  0
INSERT
  5
32
  8
0
  2
COTE
 10
0.0
 20
0.0
 30
0.0
  0
INSERT
  5
36
  8
0
  2
FOND
 10
0.0
 20
0.0
 30
0.0
  0
INSERT
  5
24AE
  8
ALPHA
  2
SCH_ISO
 10
-66.27012
 20
-238.940658
 30
0.0
  0
TEXT
  5
2C8F
  8
AXE
 10
453.485241
 20
-198.473031
 30
0.0
 40
8.0
  1
Y
 72
     2
 11
459.961431
 21
-198.473031
 31
0.0
  0
LINE
  5
3C69
  8
AXE
 10
461.508024
 20
-198.473031
 30
0.0
 11
461.508024
 21
-78.729448
 31
0.0
  0
TEXT
  5
415C
  8
AXE
 10
493.1318
 20
-132.511805
 30
0.0
 40
8.0
  1
X
 72
     2
 11
499.60799
 21
-132.511805
 31
0.0
  0
LINE
  5
4327
  8
AXE
 10
428.607992
 20
-133.601239
 30
0.0
 11
499.60799
 21
-133.601239
 31
0.0
  0
POLYLINE
  5
45A0
  8
ALPHA
 66
     1
 10
0.0
 20
0.0
 30
0.0
 70
   128
  0
VERTEX
  5
537F
  8
ALPHA
 10
433.607992
 20
-128.427708
 30
0.0
  0
VERTEX
  5
5380
  8
ALPHA
 10
433.607992
 20
-128.872308
 30
0.0
  0
VERTEX
  5
5381
  8
ALPHA
 10
433.607992
 20
-130.044436
 30
0.0
  0
VERTEX
  5
5382
  8
ALPHA
 10
433.607992
 20
-131.701583
 30
0.0
  0
VERTEX
  5
5383
  8
ALPHA
 10
433.607992
 20
-133.601239
 30
0.0
  0
VERTEX
  5
5384
  8
ALPHA
 10
433.607992
 20
-135.500895
 30
0.0
  0
VERTEX
  5
5385
  8
ALPHA
 10
433.607992
 20
-137.158042
 30
0.0
  0
VERTEX
  5
5386
  8
ALPHA
 10
433.607992
 20
-138.330171
 30
0.0
  0
VERTEX
  5
5387
  8
ALPHA
 10
433.607992
 20
-138.774771
 30
0.0
  0
VERTEX
  5
5388
  8
ALPHA
 10
433.738746
 20
-140.222416
 30
0.0
  0
VERTEX
  5
5389
  8
ALPHA
 10
434.101372
 20
-141.42876
 30
0.0
  0
VERTEX
  5
538A
  8
ALPHA
 10
434.651412
 20
-142.417087
 30
0.0
  0
VERTEX
  5
538B
  8
ALPHA
 10
435.344412
 20
-143.210682
 30
0.0
  0
VERTEX
  5
538C
  8
ALPHA
 10
436.981467
 20
-144.306814
 30
0.0
  0
VERTEX
  5
538D
  8
ALPHA
 10
438.656889
 20
-144.903435
 30
0.0
  0
VERTEX
  5
538E
  8
ALPHA
 10
439.788369
 20
-145.180576
 30
0.0
  0
VERTEX
  5
538F
  8
ALPHA
 10
441.204513
 20
-145.517545
 30
0.0
  0
VERTEX
  5
5390
  8
ALPHA
 10
442.889109
 20
-145.88451
 30
0.0
  0
VERTEX
  5
5391
  8
ALPHA
 10
444.825946
 20
-146.251645
 30
0.0
  0
VERTEX
  5
5392
  8
ALPHA
 10
446.998812
 20
-146.589119
 30
0.0
  0
VERTEX
  5
5393
  8
ALPHA
 10
449.391495
 20
-146.867103
 30
0.0
  0
VERTEX
  5
5394
  8
ALPHA
 10
451.987784
 20
-147.055768
 30
0.0
  0
VERTEX
  5
5395
  8
ALPHA
 10
454.771467
 20
-147.125285
 30
0.0
  0
VERTEX
  5
5396
  8
ALPHA
 10
456.66477
 20
-146.793073
 30
0.0
  0
VERTEX
  5
5397
  8
ALPHA
 10
458.302163
 20
-146.510801
 30
0.0
  0
VERTEX
  5
5398
  8
ALPHA
 10
461.183222
 20
-146.213595
 30
0.0
  0
VERTEX
  5
5399
  8
ALPHA
 10
464.162649
 20
-146.468707
 30
0.0
  0
VERTEX
  5
539A
  8
ALPHA
 10
465.923004
 20
-146.876831
 30
0.0
  0
VERTEX
  5
539B
  8
ALPHA
 10
467.988454
 20
-147.511173
 30
0.0
  0
SEQEND
  5
539C
  8
ALPHA
  0
POLYLINE
  5
45A1
  8
ALPHA
 66
     1
 10
0.0
 20
0.0
 30
0.0
 70
   128
  0
VERTEX
  5
539D
  8
ALPHA
 10
449.462944
 20
-120.405557
 30
0.0
  0
VERTEX
  5
539E
  8
ALPHA
 10
449.303879
 20
-120.426916
 30
0.0
  0
VERTEX
  5
539F
  8
ALPHA
 10
448.869102
 20
-120.485297
 30
0.0
  0
VERTEX
  5
53A0
  8
ALPHA
 10
447.426915
 20
-120.678949
 30
0.0
  0
VERTEX
  5
53A1
  8
ALPHA
 10
444.033533
 20
-121.134602
 30
0.0
  0
VERTEX
  5
53A2
  8
ALPHA
 10
443.450295
 20
-121.212917
 30
0.0
  0
VERTEX
  5
53A3
  8
ALPHA
 10
443.100353
 20
-121.259907
 30
0.0
  0
VERTEX
  5
53A4
  8
ALPHA
 10
442.695087
 20
-121.351147
 30
0.0
  0
VERTEX
  5
53A5
  8
ALPHA
 10
440.918662
 20
-121.779983
 30
0.0
  0
VERTEX
  5
53A6
  8
ALPHA
 10
439.056541
 20
-122.212358
 30
0.0
  0
VERTEX
  5
53A7
  8
ALPHA
 10
438.386186
 20
-122.354495
 30
0.0
  0
VERTEX
  5
53A8
  8
ALPHA
 10
437.343208
 20
-122.691073
 30
0.0
  0
VERTEX
  5
53A9
  8
ALPHA
 10
436.124542
 20
-123.357289
 30
0.0
  0
VERTEX
  5
53AA
  8
ALPHA
 10
434.949546
 20
-124.462537
 30
0.0
  0
VERTEX
  5
53AB
  8
ALPHA
 10
434.037576
 20
-126.116212
 30
0.0
  0
VERTEX
  5
53AC
  8
ALPHA
 10
433.748776
 20
-127.182895
 30
0.0
  0
VERTEX
  5
53AD
  8
ALPHA
 10
433.607992
 20
-128.427708
 30
0.0
  0
SEQEND
  5
53AE
  8
ALPHA
  0
POLYLINE
  5
45A5
  8
ALPHA
 66
     1
 10
0.0
 20
0.0
 30
0.0
 70
   128
210
0.0
220
0.0
230
-1.0
  0
VERTEX
  5
53AF
  8
ALPHA
 10
-443.672231
 20
-126.474301
 30
0.0
  0
VERTEX
  5
53B0
  8
ALPHA
 10
-443.960595
 20
-125.881503
 30
0.0
  0
VERTEX
  5
53B1
  8
ALPHA
 10
-444.609134
 20
-125.050984
 30
0.0
  0
VERTEX
  5
53B2
  8
ALPHA
 10
-446.515232
 20
-123.057487
 30
0.0
  0
VERTEX
  5
53B3
  8
ALPHA
 10
-448.447507
 20
-121.255211
 30
0.0
  0
VERTEX
  5
53B4
  8
ALPHA
 10
-449.128769
 20
-120.663719
 30
0.0
  0
VERTEX
  5
53B5
  8
ALPHA
 10
-449.462944
 20
-120.405557
 30
0.0
  0
SEQEND
  5
53B6
  8
ALPHA
  0
POLYLINE
  5
45A6
  8
ALPHA
 66
     1
 10
0.0
 20
0.0
 30
0.0
 70
   128
210
0.0
220
0.0
230
-1.0
  0
VERTEX
  5
53B7
  8
ALPHA
 10
-443.377423
 20
-133.293248
 30
0.0
  0
VERTEX
  5
53B8
  8
ALPHA
 10
-443.755848
 20
-130.895438
 30
0.0
  0
VERTEX
  5
53B9
  8
ALPHA
 10
-444.180292
 20
-129.594118
 30
0.0
  0
VERTEX
  5
53BA
  8
ALPHA
 10
-444.811244
 20
-128.205852
 30
0.0
  0
VERTEX
  5
53BB
  8
ALPHA
 10
-445.685969
 20
-126.716639
 30
0.0
  0
VERTEX
  5
53BC
  8
ALPHA
 10
-446.841733
 20
-125.112477
 30
0.0
  0
VERTEX
  5
53BD
  8
ALPHA
 10
-448.3158
 20
-123.379365
 30
0.0
  0
VERTEX
  5
53BE
  8
ALPHA
 10
-450.145438
 20
-121.5033
 30
0.0
  0
SEQEND
  5
53BF
  8
ALPHA
  0
POLYLINE
  5
45AC
  8
ALPHA
 66
     1
 10
0.0
 20
0.0
 30
0.0
 70
   128
210
0.0
220
0.0
230
-1.0
  0
VERTEX
  5
53C0
  8
ALPHA
 10
-443.377423
 20
-133.293248
 30
0.0
  0
VERTEX
  5
53C1
  8
ALPHA
 10
-443.144781
 20
-133.752538
 30
0.0
  0
VERTEX
  5
53C2
  8
ALPHA
 10
-442.668564
 20
-133.911627
 30
0.0
  0
SEQEND
  5
53C3
  8
ALPHA
  0
POLYLINE
  5
45AD
  8
ALPHA
 66
     1
 10
0.0
 20
0.0
 30
0.0
 70
   128
210
0.0
220
0.0
230
-1.0
  0
VERTEX
  5
53C4
  8
ALPHA
 10
-434.844151
 20
-133.890056
 30
0.0
  0
VERTEX
  5
53C5
  8
ALPHA
 10
-435.158593
 20
-130.957512
 30
0.0
  0
VERTEX
  5
53C6
  8
ALPHA
 10
-435.566444
 20
-129.610542
 30
0.0
  0
VERTEX
  5
53C7
  8
ALPHA
 10
-436.246514
 20
-128.26742
 30
0.0
  0
VERTEX
  5
53C8
  8
ALPHA
 10
-437.277653
 20
-126.871381
 30
0.0
  0
VERTEX
  5
53C9
  8
ALPHA
 10
-438.738709
 20
-125.36566
 30
0.0
  0
VERTEX
  5
53CA
  8
ALPHA
 10
-440.708532
 20
-123.693491
 30
0.0
  0
VERTEX
  5
53CB
  8
ALPHA
 10
-443.265971
 20
-121.798109
 30
0.0
  0
SEQEND
  5
53CC
  8
ALPHA
  0
POLYLINE
  5
45AE
  8
ALPHA
 66
     1
 10
0.0
 20
0.0
 30
0.0
 70
   128
  0
VERTEX
  5
53CD
  8
ALPHA
 10
439.071539
 20
-133.890056
 30
0.0
  0
VERTEX
  5
53CE
  8
ALPHA
 10
440.663625
 20
-133.72842
 30
0.0
  0
VERTEX
  5
53CF
  8
ALPHA
 10
441.321028
 20
-133.575754
 30
0.0
  0
VERTEX
  5
53D0
  8
ALPHA
 10
441.67688
 20
-133.283661
 30
0.0
  0
SEQEND
  5
53D1
  8
ALPHA
  0
POLYLINE
  5
45AF
  8
ALPHA
 66
     1
 10
0.0
 20
0.0
 30
0.0
 70
   128
  0
VERTEX
  5
53D2
  8
ALPHA
 10
434.323442
 20
-133.295645
 30
0.0
  0
VERTEX
  5
53D3
  8
ALPHA
 10
434.442609
 20
-133.744
 30
0.0
  0
VERTEX
  5
53D4
  8
ALPHA
 10
434.678171
 20
-133.90923
 30
0.0
  0
SEQEND
  5
53D5
  8
ALPHA
  0
POLYLINE
  5
45B0
  8
ALPHA
 66
     1
 10
0.0
 20
0.0
 30
0.0
 70
   128
210
0.0
220
0.0
230
-1.0
  0
VERTEX
  5
53D6
  8
ALPHA
 10
-438.315343
 20
-144.80876
 30
0.0
  0
VERTEX
  5
53D7
  8
ALPHA
 10
-437.633194
 20
-141.992321
 30
0.0
  0
VERTEX
  5
53D8
  8
ALPHA
 10
-437.187593
 20
-139.140211
 30
0.0
  0
VERTEX
  5
53D9
  8
ALPHA
 10
-436.925563
 20
-133.406498
 30
0.0
  0
VERTEX
  5
53DA
  8
ALPHA
 10
-437.368309
 20
-127.762665
 30
0.0
  0
VERTEX
  5
53DB
  8
ALPHA
 10
-438.35489
 20
-122.363758
 30
0.0
  0
SEQEND
  5
53DC
  8
ALPHA
  0
POLYLINE
  5
45B1
  8
ALPHA
 66
     1
 10
0.0
 20
0.0
 30
0.0
 70
   128
  0
VERTEX
  5
53DD
  8
ALPHA
 10
442.668564
 20
-133.911627
 30
0.0
  0
VERTEX
  5
53DE
  8
ALPHA
 10
442.325226
 20
-133.911627
 30
0.0
  0
VERTEX
  5
53DF
  8
ALPHA
 10
441.420065
 20
-133.911627
 30
0.0
  0
VERTEX
  5
53E0
  8
ALPHA
 10
438.673368
 20
-133.911627
 30
0.0
  0
VERTEX
  5
53E1
  8
ALPHA
 10
435.92667
 20
-133.911627
 30
0.0
  0
VERTEX
  5
53E2
  8
ALPHA
 10
435.021509
 20
-133.911627
 30
0.0
  0
VERTEX
  5
53E3
  8
ALPHA
 10
434.678171
 20
-133.911627
 30
0.0
  0
SEQEND
  5
53E4
  8
ALPHA
  0
POLYLINE
  5
45B2
  8
ALPHA
 66
     1
 10
0.0
 20
0.0
 30
0.0
 70
   128
210
0.0
220
0.0
230
-1.0
  0
VERTEX
  5
53E5
  8
ALPHA
 10
-434.323442
 20
-133.295645
 30
0.0
  0
VERTEX
  5
53E6
  8
ALPHA
 10
-434.442731
 20
-131.711667
 30
0.0
  0
VERTEX
  5
53E7
  8
ALPHA
 10
-434.923171
 20
-129.695474
 30
0.0
  0
VERTEX
  5
53E8
  8
ALPHA
 10
-435.948625
 20
-127.551427
 30
0.0
  0
VERTEX
  5
53E9
  8
ALPHA
 10
-436.72319
 20
-126.52657
 30
0.0
  0
VERTEX
  5
53EA
  8
ALPHA
 10
-437.702956
 20
-125.583883
 30
0.0
  0
SEQEND
  5
53EB
  8
ALPHA
  0
POLYLINE
  5
45B3
  8
ALPHA
 66
     1
 10
0.0
 20
0.0
 30
0.0
 70
   128
  0
VERTEX
  5
53EC
  8
ALPHA
 10
437.702956
 20
-125.583883
 30
0.0
  0
VERTEX
  5
53ED
  8
ALPHA
 10
440.680478
 20
-123.202045
 30
0.0
  0
VERTEX
  5
53EE
  8
ALPHA
 10
441.876088
 20
-122.196842
 30
0.0
  0
VERTEX
  5
53EF
  8
ALPHA
 10
442.205441
 20
-121.773995
 30
0.0
  0
VERTEX
  5
53F0
  8
ALPHA
 10
442.281477
 20
-121.417015
 30
0.0
  0
SEQEND
  5
53F1
  8
ALPHA
  0
POLYLINE
  5
45B4
  8
ALPHA
 66
     1
 10
0.0
 20
0.0
 30
0.0
 70
   128
210
0.0
220
0.0
230
-1.0
  0
VERTEX
  5
53F2
  8
ALPHA
 10
-441.67688
 20
-133.283661
 30
0.0
  0
VERTEX
  5
53F3
  8
ALPHA
 10
-442.308367
 20
-132.512784
 30
0.0
  0
VERTEX
  5
53F4
  8
ALPHA
 10
-442.800988
 20
-132.081657
 30
0.0
  0
SEQEND
  5
53F5
  8
ALPHA
  0
POLYLINE
  5
45B5
  8
ALPHA
 66
     1
 10
0.0
 20
0.0
 30
0.0
 70
   128
  0
VERTEX
  5
53F6
  8
ALPHA
 10
443.265971
 20
-121.798109
 30
0.0
  0
VERTEX
  5
53F7
  8
ALPHA
 10
443.674328
 20
-121.380313
 30
0.0
  0
VERTEX
  5
53F8
  8
ALPHA
 10
443.588361
 20
-121.265397
 30
0.0
  0
VERTEX
  5
53F9
  8
ALPHA
 10
443.164106
 20
-121.234857
 30
0.0
  0
SEQEND
  5
53FA
  8
ALPHA
  0
POLYLINE
  5
45B6
  8
ALPHA
 66
     1
 10
0.0
 20
0.0
 30
0.0
 70
   128
  0
VERTEX
  5
53FB
  8
ALPHA
 10
442.800988
 20
-132.081657
 30
0.0
  0
VERTEX
  5
53FC
  8
ALPHA
 10
443.014052
 20
-131.296511
 30
0.0
  0
VERTEX
  5
53FD
  8
ALPHA
 10
443.076397
 20
-130.218131
 30
0.0
  0
VERTEX
  5
53FE
  8
ALPHA
 10
443.218849
 20
-128.669674
 30
0.0
  0
VERTEX
  5
53FF
  8
ALPHA
 10
443.672231
 20
-126.474301
 30
0.0
  0
SEQEND
  5
5400
  8
ALPHA
  0
LINE
  5
45C4
  8
ALPHA
 10
484.60799
 20
-133.876873
 30
0.0
 11
484.60799
 21
-83.729448
 31
0.0
  0
LINE
  5
45C5
  8
ALPHA
 10
484.60799
 20
-133.582065
 30
0.0
 11
484.60799
 21
-133.876873
 31
0.0
  0
LINE
  5
45C6
  8
ALPHA
 10
484.60799
 20
-183.72949
 30
0.0
 11
484.60799
 21
-133.582065
 31
0.0
  0
POLYLINE
  5
45C7
  8
ALPHA
 66
     1
 10
0.0
 20
0.0
 30
0.0
 70
   128
  0
VERTEX
  5
5401
  8
ALPHA
 10
479.6292
 20
-98.442315
 30
0.0
  0
VERTEX
  5
5402
  8
ALPHA
 10
479.6292
 20
-98.643978
 30
0.0
  0
VERTEX
  5
5403
  8
ALPHA
 10
479.6292
 20
-99.231802
 30
0.0
  0
VERTEX
  5
5404
  8
ALPHA
 10
479.6292
 20
-100.180045
 30
0.0
  0
VERTEX
  5
5405
  8
ALPHA
 10
479.6292
 20
-101.462961
 30
0.0
  0
VERTEX
  5
5406
  8
ALPHA
 10
479.6292
 20
-103.054808
 30
0.0
  0
VERTEX
  5
5407
  8
ALPHA
 10
479.6292
 20
-104.929839
 30
0.0
  0
VERTEX
  5
5408
  8
ALPHA
 10
479.6292
 20
-107.062313
 30
0.0
  0
VERTEX
  5
5409
  8
ALPHA
 10
479.6292
 20
-109.426483
 30
0.0
  0
VERTEX
  5
540A
  8
ALPHA
 10
479.6292
 20
-114.746939
 30
0.0
  0
VERTEX
  5
540B
  8
ALPHA
 10
479.6292
 20
-120.685255
 30
0.0
  0
VERTEX
  5
540C
  8
ALPHA
 10
479.6292
 20
-133.591652
 30
0.0
  0
VERTEX
  5
540D
  8
ALPHA
 10
479.6292
 20
-146.498049
 30
0.0
  0
VERTEX
  5
540E
  8
ALPHA
 10
479.6292
 20
-152.436365
 30
0.0
  0
VERTEX
  5
540F
  8
ALPHA
 10
479.6292
 20
-157.756821
 30
0.0
  0
VERTEX
  5
5410
  8
ALPHA
 10
479.6292
 20
-160.120991
 30
0.0
  0
VERTEX
  5
5411
  8
ALPHA
 10
479.6292
 20
-162.253465
 30
0.0
  0
VERTEX
  5
5412
  8
ALPHA
 10
479.6292
 20
-164.128496
 30
0.0
  0
VERTEX
  5
5413
  8
ALPHA
 10
479.6292
 20
-165.720343
 30
0.0
  0
VERTEX
  5
5414
  8
ALPHA
 10
479.6292
 20
-167.003259
 30
0.0
  0
VERTEX
  5
5415
  8
ALPHA
 10
479.6292
 20
-167.951502
 30
0.0
  0
VERTEX
  5
5416
  8
ALPHA
 10
479.6292
 20
-168.539326
 30
0.0
  0
VERTEX
  5
5417
  8
ALPHA
 10
479.6292
 20
-168.740989
 30
0.0
  0
SEQEND
  5
5418
  8
ALPHA
  0
POLYLINE
  5
45C8
  8
ALPHA
 66
     1
 10
0.0
 20
0.0
 30
0.0
 70
   128
  0
VERTEX
  5
5419
  8
ALPHA
 10
470.226483
 20
-166.030187
 30
0.0
  0
VERTEX
  5
541A
  8
ALPHA
 10
470.226483
 20
-165.846732
 30
0.0
  0
VERTEX
  5
541B
  8
ALPHA
 10
470.226483
 20
-165.311815
 30
0.0
  0
VERTEX
  5
541C
  8
ALPHA
 10
470.226483
 20
-164.448607
 30
0.0
  0
VERTEX
  5
541D
  8
ALPHA
 10
470.226483
 20
-163.280279
 30
0.0
  0
VERTEX
  5
541E
  8
ALPHA
 10
470.226483
 20
-161.830003
 30
0.0
  0
VERTEX
  5
541F
  8
ALPHA
 10
470.226483
 20
-160.120951
 30
0.0
  0
VERTEX
  5
5420
  8
ALPHA
 10
470.226483
 20
-156.019203
 30
0.0
  0
VERTEX
  5
5421
  8
ALPHA
 10
470.226483
 20
-151.160407
 30
0.0
  0
VERTEX
  5
5422
  8
ALPHA
 10
470.226483
 20
-145.729934
 30
0.0
  0
VERTEX
  5
5423
  8
ALPHA
 10
470.226483
 20
-133.895449
 30
0.0
  0
VERTEX
  5
5424
  8
ALPHA
 10
470.226483
 20
-121.998721
 30
0.0
  0
VERTEX
  5
5425
  8
ALPHA
 10
470.226483
 20
-116.490445
 30
0.0
  0
VERTEX
  5
5426
  8
ALPHA
 10
470.226483
 20
-111.522725
 30
0.0
  0
VERTEX
  5
5427
  8
ALPHA
 10
470.226483
 20
-107.280932
 30
0.0
  0
VERTEX
  5
5428
  8
ALPHA
 10
470.226483
 20
-105.490186
 30
0.0
  0
VERTEX
  5
5429
  8
ALPHA
 10
470.226483
 20
-103.950437
 30
0.0
  0
VERTEX
  5
542A
  8
ALPHA
 10
470.226483
 20
-102.684856
 30
0.0
  0
VERTEX
  5
542B
  8
ALPHA
 10
470.226483
 20
-101.716613
 30
0.0
  0
VERTEX
  5
542C
  8
ALPHA
 10
470.226483
 20
-101.068882
 30
0.0
  0
VERTEX
  5
542D
  8
ALPHA
 10
470.226483
 20
-100.764832
 30
0.0
  0
VERTEX
  5
542E
  8
ALPHA
 10
470.421786
 20
-99.841757
 30
0.0
  0
VERTEX
  5
542F
  8
ALPHA
 10
470.95931
 20
-99.105635
 30
0.0
  0
VERTEX
  5
5430
  8
ALPHA
 10
471.766476
 20
-98.618481
 30
0.0
  0
VERTEX
  5
5431
  8
ALPHA
 10
472.770705
 20
-98.442315
 30
0.0
  0
SEQEND
  5
5432
  8
ALPHA
  0
LINE
  5
45C9
  8
POINTILLE_COURT2
  6
AI9-LTYPE2
 10
451.766456
 20
-139.770649
 30
0.0
 11
451.766456
 21
-127.430631
 31
0.0
  0
LINE
  5
45CA
  8
ALPHA
 10
459.418897
 20
-134.804442
 30
0.0
 11
459.378151
 21
-132.412418
 31
0.0
  0
LINE
  5
45CB
  8
ALPHA
 10
463.586365
 20
-132.398037
 30
0.0
 11
463.636698
 21
-134.811632
 31
0.0
  0
CIRCLE
  5
45CC
  8
ALPHA
 10
461.508024
 20
-133.601239
 30
0.0
 40
4.27862
  0
CIRCLE
  5
45CD
  8
ALPHA
 10
461.508024
 20
-133.601239
 30
0.0
 40
2.028008
  0
LINE
  5
45D1
  8
POINTILLE_COURT2
  6
AI9-LTYPE2
 10
470.226483
 20
-139.770649
 30
0.0
 11
451.766456
 21
-139.770649
 31
0.0
  0
POLYLINE
  5
45D2
  8
ALPHA
 66
     1
 10
0.0
 20
0.0
 30
0.0
 70
   128
  0
VERTEX
  5
5433
  8
ALPHA
 10
467.988454
 20
-147.511173
 30
0.0
  0
VERTEX
  5
5434
  8
ALPHA
 10
468.338146
 20
-147.496567
 30
0.0
  0
VERTEX
  5
5435
  8
ALPHA
 10
469.107468
 20
-147.464435
 30
0.0
  0
VERTEX
  5
5436
  8
ALPHA
 10
469.876791
 20
-147.432303
 30
0.0
  0
VERTEX
  5
5437
  8
ALPHA
 10
470.226483
 20
-147.417697
 30
0.0
  0
SEQEND
  5
5438
  8
ALPHA
  0
LINE
  5
45D4
  8
POINTILLE_COURT2
  6
AI9-LTYPE2
 10
454.651027
 20
-139.770649
 30
0.0
 11
454.651027
 21
-147.125285
 31
0.0
  0
LINE
  5
45D5
  8
ALPHA
 10
461.511319
 20
-136.01124
 30
0.0
 11
459.418897
 21
-134.804442
 31
0.0
  0
LINE
  5
45D6
  8
ALPHA
 10
463.636698
 20
-134.811632
 30
0.0
 11
461.511319
 21
-136.01124
 31
0.0
  0
LINE
  5
45D7
  8
POINTILLE_COURT2
  6
AI9-LTYPE2
 10
468.108894
 20
-139.770649
 30
0.0
 11
468.108894
 21
-147.511173
 31
0.0
  0
POLYLINE
  5
45D8
  8
ALPHA
 66
     1
 10
0.0
 20
0.0
 30
0.0
 70
   128
  0
VERTEX
  5
5439
  8
ALPHA
 10
474.135094
 20
-168.740989
 30
0.0
  0
VERTEX
  5
543A
  8
ALPHA
 10
474.135094
 20
-173.152474
 30
0.0
  0
VERTEX
  5
543B
  8
ALPHA
 10
474.135094
 20
-175.034256
 30
0.0
  0
VERTEX
  5
543C
  8
ALPHA
 10
474.135094
 20
-176.653058
 30
0.0
  0
VERTEX
  5
543D
  8
ALPHA
 10
474.135094
 20
-177.973628
 30
0.0
  0
VERTEX
  5
543E
  8
ALPHA
 10
474.135094
 20
-178.96071
 30
0.0
  0
VERTEX
  5
543F
  8
ALPHA
 10
474.135094
 20
-179.579051
 30
0.0
  0
VERTEX
  5
5440
  8
ALPHA
 10
474.142072
 20
-179.87296
 30
0.0
  0
VERTEX
  5
5441
  8
ALPHA
 10
474.32412
 20
-180.354357
 30
0.0
  0
VERTEX
  5
5442
  8
ALPHA
 10
474.722183
 20
-180.743742
 30
0.0
  0
VERTEX
  5
5443
  8
ALPHA
 10
476.001373
 20
-181.32198
 30
0.0
  0
VERTEX
  5
5444
  8
ALPHA
 10
479.337106
 20
-182.204823
 30
0.0
  0
VERTEX
  5
5445
  8
ALPHA
 10
480.733707
 20
-182.811429
 30
0.0
  0
VERTEX
  5
5446
  8
ALPHA
 10
481.219829
 20
-183.22209
 30
0.0
  0
VERTEX
  5
5447
  8
ALPHA
 10
481.509504
 20
-183.72949
 30
0.0
  0
SEQEND
  5
5448
  8
ALPHA
  0
POLYLINE
  5
45DC
  8
ALPHA
 66
     1
 10
0.0
 20
0.0
 30
0.0
 70
   128
  0
VERTEX
  5
5449
  8
ALPHA
 10
483.395799
 20
-168.740989
 30
0.0
  0
VERTEX
  5
544A
  8
ALPHA
 10
482.671101
 20
-168.740989
 30
0.0
  0
VERTEX
  5
544B
  8
ALPHA
 10
481.437917
 20
-168.740989
 30
0.0
  0
VERTEX
  5
544C
  8
ALPHA
 10
478.13014
 20
-168.740989
 30
0.0
  0
VERTEX
  5
544D
  8
ALPHA
 10
474.840563
 20
-168.740989
 30
0.0
  0
VERTEX
  5
544E
  8
ALPHA
 10
473.63013
 20
-168.740989
 30
0.0
  0
VERTEX
  5
544F
  8
ALPHA
 10
472.937284
 20
-168.740989
 30
0.0
  0
VERTEX
  5
5450
  8
ALPHA
 10
472.023562
 20
-168.550666
 30
0.0
  0
VERTEX
  5
5451
  8
ALPHA
 10
471.146187
 20
-168.007562
 30
0.0
  0
VERTEX
  5
5452
  8
ALPHA
 10
470.486659
 20
-167.153471
 30
0.0
  0
VERTEX
  5
5453
  8
ALPHA
 10
470.226483
 20
-166.030187
 30
0.0
  0
SEQEND
  5
5454
  8
ALPHA
  0
POLYLINE
  5
45DE
  8
ALPHA
 66
     1
 10
0.0
 20
0.0
 30
0.0
 70
   128
  0
VERTEX
  5
5455
  8
ALPHA
 10
481.509504
 20
-183.72949
 30
0.0
  0
VERTEX
  5
5456
  8
ALPHA
 10
481.509504
 20
-183.580624
 30
0.0
  0
VERTEX
  5
5457
  8
ALPHA
 10
481.509504
 20
-183.159914
 30
0.0
  0
VERTEX
  5
5458
  8
ALPHA
 10
481.509504
 20
-181.658303
 30
0.0
  0
VERTEX
  5
5459
  8
ALPHA
 10
481.509504
 20
-179.535335
 30
0.0
  0
VERTEX
  5
545A
  8
ALPHA
 10
481.509504
 20
-177.101689
 30
0.0
  0
VERTEX
  5
545B
  8
ALPHA
 10
481.509504
 20
-174.668044
 30
0.0
  0
VERTEX
  5
545C
  8
ALPHA
 10
481.509504
 20
-172.545076
 30
0.0
  0
VERTEX
  5
545D
  8
ALPHA
 10
481.509504
 20
-171.043465
 30
0.0
  0
VERTEX
  5
545E
  8
ALPHA
 10
481.509504
 20
-170.622755
 30
0.0
  0
VERTEX
  5
545F
  8
ALPHA
 10
481.509504
 20
-170.473888
 30
0.0
  0
VERTEX
  5
5460
  8
ALPHA
 10
481.501161
 20
-169.728384
 30
0.0
  0
VERTEX
  5
5461
  8
ALPHA
 10
481.408612
 20
-169.185449
 30
0.0
  0
VERTEX
  5
5462
  8
ALPHA
 10
481.130572
 20
-168.853508
 30
0.0
  0
VERTEX
  5
5463
  8
ALPHA
 10
480.565756
 20
-168.740989
 30
0.0
  0
SEQEND
  5
5464
  8
ALPHA
  0
LINE
  5
45DF
  8
ALPHA
 10
481.509504
 20
-183.72949
 30
0.0
 11
484.60799
 21
-183.72949
 31
0.0
  0
POLYLINE
  5
45E0
  8
ALPHA
 66
     1
 10
0.0
 20
0.0
 30
0.0
 70
   128
  0
VERTEX
  5
5465
  8
ALPHA
 10
484.60799
 20
-170.784276
 30
0.0
  0
VERTEX
  5
5466
  8
ALPHA
 10
484.415645
 20
-169.340643
 30
0.0
  0
VERTEX
  5
5467
  8
ALPHA
 10
484.055392
 20
-168.902006
 30
0.0
  0
VERTEX
  5
5468
  8
ALPHA
 10
483.412577
 20
-168.740989
 30
0.0
  0
SEQEND
  5
5469
  8
ALPHA
  0
LINE
  5
45E5
  8
POINTILLE_COURT2
  6
AI9-LTYPE2
 10
451.766456
 20
-127.430631
 30
0.0
 11
470.226483
 21
-127.430631
 31
0.0
  0
POLYLINE
  5
45E6
  8
ALPHA
 66
     1
 10
0.0
 20
0.0
 30
0.0
 70
   128
  0
VERTEX
  5
546A
  8
ALPHA
 10
470.226483
 20
-119.783583
 30
0.0
  0
VERTEX
  5
546B
  8
ALPHA
 10
469.876791
 20
-119.769352
 30
0.0
  0
VERTEX
  5
546C
  8
ALPHA
 10
469.107468
 20
-119.738044
 30
0.0
  0
VERTEX
  5
546D
  8
ALPHA
 10
468.338146
 20
-119.706735
 30
0.0
  0
VERTEX
  5
546E
  8
ALPHA
 10
467.988454
 20
-119.692504
 30
0.0
  0
VERTEX
  5
546F
  8
ALPHA
 10
466.180234
 20
-120.142568
 30
0.0
  0
VERTEX
  5
5470
  8
ALPHA
 10
464.64499
 20
-120.517047
 30
0.0
  0
VERTEX
  5
5471
  8
ALPHA
 10
461.93792
 20
-120.96072
 30
0.0
  0
VERTEX
  5
5472
  8
ALPHA
 10
460.538335
 20
-120.990648
 30
0.0
  0
VERTEX
  5
5473
  8
ALPHA
 10
458.956214
 20
-120.866458
 30
0.0
  0
VERTEX
  5
5474
  8
ALPHA
 10
457.077676
 20
-120.568518
 30
0.0
  0
VERTEX
  5
5475
  8
ALPHA
 10
454.788844
 20
-120.077193
 30
0.0
  0
SEQEND
  5
5476
  8
ALPHA
  0
POLYLINE
  5
45E7
  8
ALPHA
 66
     1
 10
0.0
 20
0.0
 30
0.0
 70
   128
210
0.0
220
0.0
230
-1.0
  0
VERTEX
  5
5477
  8
ALPHA
 10
-454.788844
 20
-120.077193
 30
0.0
  0
VERTEX
  5
5478
  8
ALPHA
 10
-454.629174
 20
-120.095427
 30
0.0
  0
VERTEX
  5
5479
  8
ALPHA
 10
-454.19641
 20
-120.143743
 30
0.0
  0
VERTEX
  5
547A
  8
ALPHA
 10
-452.789063
 20
-120.292308
 30
0.0
  0
VERTEX
  5
547B
  8
ALPHA
 10
-451.121737
 20
-120.446266
 30
0.0
  0
VERTEX
  5
547C
  8
ALPHA
 10
-449.749363
 20
-120.528994
 30
0.0
  0
VERTEX
  5
547D
  8
ALPHA
 10
-449.462944
 20
-120.405557
 30
0.0
  0
SEQEND
  5
547E
  8
ALPHA
  0
LINE
  5
45E8
  8
ALPHA
 10
450.013013
 20
-121.178531
 30
0.0
 11
449.509682
 21
-121.128198
 31
0.0
  0
LINE
  5
45E9
  8
ALPHA
 10
449.558816
 20
-121.083857
 30
0.0
 11
450.345572
 21
-120.487049
 31
0.0
  0
LINE
  5
45EA
  8
ALPHA
 10
449.400626
 20
-121.371475
 30
0.0
 11
449.558816
 21
-121.083857
 31
0.0
  0
POLYLINE
  5
45EB
  8
ALPHA
 66
     1
 10
0.0
 20
0.0
 30
0.0
 70
   128
  0
VERTEX
  5
547F
  8
ALPHA
 10
450.145438
 20
-121.5033
 30
0.0
  0
VERTEX
  5
5480
  8
ALPHA
 10
450.216293
 20
-121.342713
 30
0.0
  0
VERTEX
  5
5481
  8
ALPHA
 10
450.013013
 20
-121.178531
 30
0.0
  0
SEQEND
  5
5482
  8
ALPHA
  0
LINE
  5
45EC
  8
ALPHA
 10
449.400626
 20
-122.120481
 30
0.0
 11
449.400626
 21
-121.371475
 31
0.0
  0
LINE
  5
45ED
  8
ALPHA
 10
449.806887
 20
-120.87054
 30
0.0
 11
449.769736
 21
-120.57693
 31
0.0
  0
LINE
  5
45EE
  8
POINTILLE_COURT2
  6
AI9-LTYPE2
 10
454.651027
 20
-120.105955
 30
0.0
 11
454.651027
 21
-127.430631
 31
0.0
  0
LINE
  5
45EF
  8
ALPHA
 10
461.492744
 20
-131.191239
 30
0.0
 11
463.586365
 21
-132.398037
 31
0.0
  0
LINE
  5
45F0
  8
ALPHA
 10
459.378151
 20
-132.412418
 30
0.0
 11
461.492744
 21
-131.191239
 31
0.0
  0
LINE
  5
45F1
  8
POINTILLE_COURT2
  6
AI9-LTYPE2
 10
468.108894
 20
-119.692504
 30
0.0
 11
468.108894
 21
-127.430631
 31
0.0
  0
POLYLINE
  5
45F2
  8
ALPHA
 66
     1
 10
0.0
 20
0.0
 30
0.0
 70
   128
210
0.0
220
0.0
230
-1.0
  0
VERTEX
  5
5483
  8
ALPHA
 10
-481.509504
 20
-83.729448
 30
0.0
  0
VERTEX
  5
5484
  8
ALPHA
 10
-480.517715
 20
-84.572336
 30
0.0
  0
VERTEX
  5
5485
  8
ALPHA
 10
-479.05422
 20
-85.140138
 30
0.0
  0
VERTEX
  5
5486
  8
ALPHA
 10
-475.843385
 20
-86.029277
 30
0.0
  0
VERTEX
  5
5487
  8
ALPHA
 10
-474.661685
 20
-86.640012
 30
0.0
  0
VERTEX
  5
5488
  8
ALPHA
 10
-474.300497
 20
-87.050226
 30
0.0
  0
VERTEX
  5
5489
  8
ALPHA
 10
-474.139554
 20
-87.554456
 30
0.0
  0
VERTEX
  5
548A
  8
ALPHA
 10
-474.137638
 20
-87.843303
 30
0.0
  0
VERTEX
  5
548B
  8
ALPHA
 10
-474.142618
 20
-88.423696
 30
0.0
  0
VERTEX
  5
548C
  8
ALPHA
 10
-474.146727
 20
-89.373459
 30
0.0
  0
VERTEX
  5
548D
  8
ALPHA
 10
-474.150025
 20
-90.657721
 30
0.0
  0
VERTEX
  5
548E
  8
ALPHA
 10
-474.152569
 20
-92.24161
 30
0.0
  0
VERTEX
  5
548F
  8
ALPHA
 10
-474.154419
 20
-94.090254
 30
0.0
  0
VERTEX
  5
5490
  8
ALPHA
 10
-474.156267
 20
-98.442315
 30
0.0
  0
SEQEND
  5
5491
  8
ALPHA
  0
POLYLINE
  5
45F3
  8
ALPHA
 66
     1
 10
0.0
 20
0.0
 30
0.0
 70
   128
  0
VERTEX
  5
5492
  8
ALPHA
 10
474.217784
 20
-105.926116
 30
0.0
  0
VERTEX
  5
5493
  8
ALPHA
 10
474.737722
 20
-106.054431
 30
0.0
  0
VERTEX
  5
5494
  8
ALPHA
 10
475.01224
 20
-106.075315
 30
0.0
  0
VERTEX
  5
5495
  8
ALPHA
 10
475.44526
 20
-106.047447
 30
0.0
  0
VERTEX
  5
5496
  8
ALPHA
 10
476.032128
 20
-105.8817
 30
0.0
  0
VERTEX
  5
5497
  8
ALPHA
 10
476.979131
 20
-105.176114
 30
0.0
  0
VERTEX
  5
5498
  8
ALPHA
 10
477.494263
 20
-104.100471
 30
0.0
  0
VERTEX
  5
5499
  8
ALPHA
 10
477.433249
 20
-102.864841
 30
0.0
  0
VERTEX
  5
549A
  8
ALPHA
 10
476.819305
 20
-101.849878
 30
0.0
  0
VERTEX
  5
549B
  8
ALPHA
 10
475.804585
 20
-101.235516
 30
0.0
  0
VERTEX
  5
549C
  8
ALPHA
 10
474.568761
 20
-101.174446
 30
0.0
  0
VERTEX
  5
549D
  8
ALPHA
 10
473.492901
 20
-101.689965
 30
0.0
  0
VERTEX
  5
549E
  8
ALPHA
 10
472.787052
 20
-102.637289
 30
0.0
  0
VERTEX
  5
549F
  8
ALPHA
 10
472.621226
 20
-103.224122
 30
0.0
  0
VERTEX
  5
54A0
  8
ALPHA
 10
472.593549
 20
-103.537299
 30
0.0
  0
VERTEX
  5
54A1
  8
ALPHA
 10
472.592944
 20
-103.633082
 30
0.0
  0
VERTEX
  5
54A2
  8
ALPHA
 10
472.599914
 20
-103.791448
 30
0.0
  0
VERTEX
  5
54A3
  8
ALPHA
 10
472.641876
 20
-104.10094
 30
0.0
  0
SEQEND
  5
54A4
  8
ALPHA
  0
CIRCLE
  5
45F4
  8
ALPHA
 10
475.068055
 20
-103.601802
 30
0.0
 40
2.046283
  0
CIRCLE
  5
45F5
  8
ALPHA
 10
475.068055
 20
-103.601203
 30
0.0
 40
2.75
  0
CIRCLE
  5
45F7
  8
ALPHA
 10
475.129174
 20
-117.090472
 30
0.0
 40
2.25
  0
LINE
  5
45FA
  8
ALPHA
 10
483.412577
 20
-98.442315
 30
0.0
 11
479.6292
 21
-98.442315
 31
0.0
  0
POLYLINE
  5
45FB
  8
ALPHA
 66
     1
 10
0.0
 20
0.0
 30
0.0
 70
   128
210
0.0
220
0.0
230
-1.0
  0
VERTEX
  5
54A5
  8
ALPHA
 10
-481.509504
 20
-96.746567
 30
0.0
  0
VERTEX
  5
54A6
  8
ALPHA
 10
-481.426289
 20
-97.924752
 30
0.0
  0
VERTEX
  5
54A7
  8
ALPHA
 10
-481.123494
 20
-98.317063
 30
0.0
  0
VERTEX
  5
54A8
  8
ALPHA
 10
-480.453705
 20
-98.442315
 30
0.0
  0
SEQEND
  5
54A9
  8
ALPHA
  0
POLYLINE
  5
45FD
  8
ALPHA
 66
     1
 10
0.0
 20
0.0
 30
0.0
 70
   128
  0
VERTEX
  5
54AA
  8
ALPHA
 10
472.770705
 20
-98.442315
 30
0.0
  0
VERTEX
  5
54AB
  8
ALPHA
 10
473.065406
 20
-98.442315
 30
0.0
  0
VERTEX
  5
54AC
  8
ALPHA
 10
473.842345
 20
-98.442315
 30
0.0
  0
VERTEX
  5
54AD
  8
ALPHA
 10
476.199952
 20
-98.442315
 30
0.0
  0
VERTEX
  5
54AE
  8
ALPHA
 10
478.55756
 20
-98.442315
 30
0.0
  0
VERTEX
  5
54AF
  8
ALPHA
 10
479.334499
 20
-98.442315
 30
0.0
  0
VERTEX
  5
54B0
  8
ALPHA
 10
479.6292
 20
-98.442315
 30
0.0
  0
SEQEND
  5
54B1
  8
ALPHA
  0
LINE
  5
45FF
  8
ALPHA
 10
477.603289
 20
-102.061247
 30
0.0
 11
477.603289
 21
-102.061247
 31
0.0
  0
LINE
  5
4600
  8
ALPHA
 10
481.509504
 20
-83.729448
 30
0.0
 11
481.509504
 21
-96.746567
 31
0.0
  0
POLYLINE
  5
4601
  8
ALPHA
 66
     1
 10
0.0
 20
0.0
 30
0.0
 70
   128
210
0.0
220
0.0
230
-1.0
  0
VERTEX
  5
54B2
  8
ALPHA
 10
-484.60799
 20
-96.746567
 30
0.0
  0
VERTEX
  5
54B3
  8
ALPHA
 10
-484.454294
 20
-97.924752
 30
0.0
  0
VERTEX
  5
54B4
  8
ALPHA
 10
-484.103759
 20
-98.317063
 30
0.0
  0
VERTEX
  5
54B5
  8
ALPHA
 10
-483.412577
 20
-98.442315
 30
0.0
  0
SEQEND
  5
54B6
  8
ALPHA
  0
LINE
  5
4602
  8
ALPHA
 10
484.60799
 20
-83.729448
 30
0.0
 11
481.509504
 21
-83.729448
 31
0.0
  0
DIMENSION
  5
46A8
  8
COTATION1
  2
*D4
 10
398.607992
 20
-183.72949
 30
0.0
 11
398.607992
 21
-133.729469
 31
0.0
 70
   128
 13
481.509504
 23
-83.729448
 33
0.0
 14
481.509504
 24
-183.72949
 34
0.0
 50
90.0
  0
DIMENSION
  5
4709
  8
COTATION1
  2
*D5
 10
433.607992
 20
-58.729448
 30
0.0
 11
459.107991
 21
-58.729448
 31
0.0
 70
   128
 13
484.60799
 23
-83.729448
 33
0.0
 14
433.607992
 24
-128.427708
 34
0.0
  0
DIMENSION
  5
47AC
  8
COTATION1
  2
*D6
 10
472.738082
 20
-104.95913
 30
0.0
 11
494.934089
 21
-93.300758
 31
0.0
 70
   131
 15
477.398028
 25
-102.037676
 35
0.0
 40
0.0
  0
CIRCLE
  5
49BD
  8
ALPHA
 10
475.068055
 20
-163.601802
 30
0.0
 40
2.046283
  0
CIRCLE
  5
49BE
  8
ALPHA
 10
475.068055
 20
-163.601203
 30
0.0
 40
2.75
  0
POLYLINE
  5
49BF
  8
ALPHA
 66
     1
 10
0.0
 20
0.0
 30
0.0
 70
   128
  0
VERTEX
  5
54B7
  8
ALPHA
 10
474.217784
 20
-165.926116
 30
0.0
  0
VERTEX
  5
54B8
  8
ALPHA
 10
474.737722
 20
-166.054431
 30
0.0
  0
VERTEX
  5
54B9
  8
ALPHA
 10
475.01224
 20
-166.075315
 30
0.0
  0
VERTEX
  5
54BA
  8
ALPHA
 10
475.44526
 20
-166.047447
 30
0.0
  0
VERTEX
  5
54BB
  8
ALPHA
 10
476.032128
 20
-165.8817
 30
0.0
  0
VERTEX
  5
54BC
  8
ALPHA
 10
476.979131
 20
-165.176114
 30
0.0
  0
VERTEX
  5
54BD
  8
ALPHA
 10
477.494263
 20
-164.100471
 30
0.0
  0
VERTEX
  5
54BE
  8
ALPHA
 10
477.433249
 20
-162.864841
 30
0.0
  0
VERTEX
  5
54BF
  8
ALPHA
 10
476.819305
 20
-161.849878
 30
0.0
  0
VERTEX
  5
54C0
  8
ALPHA
 10
475.804585
 20
-161.235516
 30
0.0
  0
VERTEX
  5
54C1
  8
ALPHA
 10
474.568761
 20
-161.174446
 30
0.0
  0
VERTEX
  5
54C2
  8
ALPHA
 10
473.492901
 20
-161.689965
 30
0.0
  0
VERTEX
  5
54C3
  8
ALPHA
 10
472.787052
 20
-162.637289
 30
0.0
  0
VERTEX
  5
54C4
  8
ALPHA
 10
472.621226
 20
-163.224122
 30
0.0
  0
VERTEX
  5
54C5
  8
ALPHA
 10
472.593549
 20
-163.537299
 30
0.0
  0
VERTEX
  5
54C6
  8
ALPHA
 10
472.592944
 20
-163.633082
 30
0.0
  0
VERTEX
  5
54C7
  8
ALPHA
 10
472.599914
 20
-163.791448
 30
0.0
  0
VERTEX
  5
54C8
  8
ALPHA
 10
472.641876
 20
-164.10094
 30
0.0
  0
SEQEND
  5
54C9
  8
ALPHA
  0
LINE
  5
49C0
  8
ALPHA
 10
477.603289
 20
-162.061247
 30
0.0
 11
477.603289
 21
-162.061247
 31
0.0
  0
CIRCLE
  5
49EA
  8
ALPHA
 10
475.129174
 20
-150.090472
 30
0.0
 40
2.25
  0
DIMENSION
  5
49EB
  8
COTATION1
  2
*D7
 10
418.607992
 20
-150.090472
 30
0.0
 11
417.107992
 21
-133.590472
 31
0.0
 13
475.129174
 23
-117.090472
 33
0.0
 14
475.129174
 24
-150.090472
 34
0.0
 50
90.0
  0
DIMENSION
  5
49F8
  8
COTATION1
  2
*D8
 10
408.607992
 20
-163.601802
 30
0.0
 11
407.107992
 21
-133.601802
 31
0.0
 13
475.068055
 23
-103.601802
 33
0.0
 14
475.068055
 24
-163.601802
 34
0.0
 50
90.0
  0
DIMENSION
  5
4A52
  8
COTATION1
  2
*D9
 10
484.60799
 20
-68.729448
 30
0.0
 11
473.058007
 21
-67.229448
 31
0.0
 13
461.508024
 23
-78.729448
 33
0.0
 14
484.60799
 24
-83.729448
 34
0.0
  0
DIMENSION
  5
50C0
  8
COTATION1
  2
*D10
 10
473.087266
 20
-149.145425
 30
0.0
 11
497.389905
 21
-158.773412
 31
0.0
 70
   131
 15
477.171082
 25
-151.035518
 35
0.0
 40
0.0
  0
ENDSEC
  0
EOF
