  0
SECTION
  2
HEADER
  9
$ACADVER
  1
AC1009
  9
$INSBASE
 10
402.590624
 20
-1.041018
 30
0.0
  9
$EXTMIN
 10
-7.672906
 20
1.712546
 30
0.0
  9
$EXTMAX
 10
89.545591
 20
60.462546
 30
0.0
  9
$LIMMIN
 10
-407.970438
 20
-367.832444
  9
$LIMMAX
 10
429.804077
 20
234.370848
  9
$ORTHOMODE
 70
     1
  9
$REGENMODE
 70
     1
  9
$FILLMODE
 70
     1
  9
$QTEXTMODE
 70
     0
  9
$MIRRTEXT
 70
     1
  9
$DRAGMODE
 70
     2
  9
$LTSCALE
 40
10.0
  9
$OSMODE
 70
    39
  9
$ATTMODE
 70
     1
  9
$TEXTSIZE
 40
6.0
  9
$TRACEWID
 40
1.0
  9
$TEXTSTYLE
  7
ROMANS
  9
$CLAYER
  8
ALPHA
  9
$CELTYPE
  6
BYLAYER
  9
$CECOLOR
 62
   256
  9
$DIMSCALE
 40
1.0
  9
$DIMASZ
 40
5.0
  9
$DIMEXO
 40
2.0
  9
$DIMDLI
 40
0.38
  9
$DIMRND
 40
0.0
  9
$DIMDLE
 40
0.0
  9
$DIMEXE
 40
2.5
  9
$DIMTP
 40
0.0
  9
$DIMTM
 40
0.0
  9
$DIMTXT
 40
2.5
  9
$DIMCEN
 40
0.0
  9
$DIMTSZ
 40
0.0
  9
$DIMTOL
 70
     0
  9
$DIMLIM
 70
     0
  9
$DIMTIH
 70
     1
  9
$DIMTOH
 70
     1
  9
$DIMSE1
 70
     0
  9
$DIMSE2
 70
     0
  9
$DIMTAD
 70
     1
  9
$DIMZIN
 70
    12
  9
$DIMBLK
  1
OPEN30
  9
$DIMASO
 70
     1
  9
$DIMSHO
 70
     1
  9
$DIMPOST
  1

  9
$DIMAPOST
  1

  9
$DIMALT
 70
     0
  9
$DIMALTD
 70
     2
  9
$DIMALTF
 40
25.4
  9
$DIMLFAC
 40
1.0
  9
$DIMTOFL
 70
     0
  9
$DIMTVP
 40
0.0
  9
$DIMTIX
 70
     0
  9
$DIMSOXD
 70
     0
  9
$DIMSAH
 70
     0
  9
$DIMBLK1
  1

  9
$DIMBLK2
  1

  9
$DIMSTYLE
  2
SC_DEFAUT
  9
$DIMCLRD
 70
     0
  9
$DIMCLRE
 70
     0
  9
$DIMCLRT
 70
     0
  9
$DIMTFAC
 40
1.0
  9
$DIMGAP
 40
2.0
  9
$LUNITS
 70
     2
  9
$LUPREC
 70
     1
  9
$SKETCHINC
 40
0.1
  9
$FILLETRAD
 40
0.0
  9
$AUNITS
 70
     0
  9
$AUPREC
 70
     0
  9
$MENU
  1
acad
  9
$ELEVATION
 40
0.0
  9
$PELEVATION
 40
0.0
  9
$THICKNESS
 40
0.0
  9
$LIMCHECK
 70
     0
  9
$BLIPMODE
 70
     0
  9
$CHAMFERA
 40
0.0
  9
$CHAMFERB
 40
0.0
  9
$SKPOLY
 70
     0
  9
$TDCREATE
 40
2450373.687919
  9
$TDUPDATE
 40
2452996.479662
  9
$TDINDWG
 40
0.876829
  9
$TDUSRTIMER
 40
0.876829
  9
$USRTIMER
 70
     1
  9
$ANGBASE
 50
0.0
  9
$ANGDIR
 70
     0
  9
$PDMODE
 70
    32
  9
$PDSIZE
 40
0.0
  9
$PLINEWID
 40
0.0
  9
$COORDS
 70
     1
  9
$SPLFRAME
 70
     0
  9
$SPLINETYPE
 70
     6
  9
$SPLINESEGS
 70
     8
  9
$ATTDIA
 70
     0
  9
$ATTREQ
 70
     1
  9
$HANDLING
 70
     1
  9
$HANDSEED
  5
9849
  9
$SURFTAB1
 70
     6
  9
$SURFTAB2
 70
     6
  9
$SURFTYPE
 70
     6
  9
$SURFU
 70
     6
  9
$SURFV
 70
     6
  9
$UCSNAME
  2

  9
$UCSORG
 10
0.0
 20
0.0
 30
0.0
  9
$UCSXDIR
 10
1.0
 20
0.0
 30
0.0
  9
$UCSYDIR
 10
0.0
 20
1.0
 30
0.0
  9
$PUCSNAME
  2

  9
$PUCSORG
 10
0.0
 20
0.0
 30
0.0
  9
$PUCSXDIR
 10
1.0
 20
0.0
 30
0.0
  9
$PUCSYDIR
 10
0.0
 20
1.0
 30
0.0
  9
$USERI1
 70
     0
  9
$USERI2
 70
     0
  9
$USERI3
 70
     0
  9
$USERI4
 70
     0
  9
$USERI5
 70
     0
  9
$USERR1
 40
0.0
  9
$USERR2
 40
0.0
  9
$USERR3
 40
0.0
  9
$USERR4
 40
0.0
  9
$USERR5
 40
0.0
  9
$WORLDVIEW
 70
     1
  9
$SHADEDGE
 70
     3
  9
$SHADEDIF
 70
    70
  9
$TILEMODE
 70
     1
  9
$MAXACTVP
 70
    16
  9
$PLIMCHECK
 70
     0
  9
$PEXTMIN
 10
-1.452248
 20
-0.437698
 30
0.0
  9
$PEXTMAX
 10
12.749749
 20
8.310198
 30
0.0
  9
$PLIMMIN
 10
0.0
 20
0.0
  9
$PLIMMAX
 10
12.0
 20
9.0
  9
$UNITMODE
 70
     0
  9
$VISRETAIN
 70
     0
  9
$PLINEGEN
 70
     0
  9
$PSLTSCALE
 70
     0
  0
ENDSEC
  0
SECTION
  2
TABLES
  0
TABLE
  2
VPORT
 70
     2
  0
VPORT
  2
*ACTIVE
 70
     0
 10
0.0
 20
0.0
 11
1.0
 21
1.0
 12
40.957869
 22
31.08497
 13
0.0
 23
0.0
 14
1.0
 24
1.0
 15
10.0
 25
10.0
 16
0.0
 26
0.0
 36
1.0
 17
0.0
 27
0.0
 37
0.0
 40
66.668925
 41
1.466346
 42
50.0
 43
0.0
 44
0.0
 50
0.0
 51
0.0
 71
     0
 72
   100
 73
     1
 74
     0
 75
     0
 76
     0
 77
     0
 78
     0
  0
ENDTAB
  0
TABLE
  2
LTYPE
 70
     2
  0
LTYPE
  2
CONTINUOUS
 70
     0
  3
Solid line
 72
    65
 73
     0
 40
0.0
  0
LTYPE
  2
AXES2
 70
     0
  3
___ _ ___ _ ___ _ ___ _ ___ _ ___ _ ___ _ ___ _
 72
    65
 73
     4
 40
1.125
 49
0.75
 49
-0.125
 49
0.125
 49
-0.125
  0
ENDTAB
  0
TABLE
  2
LAYER
 70
     5
  0
LAYER
  2
0
 70
     0
 62
   255
  6
CONTINUOUS
  0
LAYER
  2
COTATION1
 70
     0
 62
     2
  6
CONTINUOUS
  0
LAYER
  2
AXE
 70
     0
 62
    80
  6
AXES2
  0
LAYER
  2
DEFPOINTS
 70
     0
 62
     7
  6
CONTINUOUS
  0
LAYER
  2
ALPHA
 70
     0
 62
   254
  6
CONTINUOUS
  0
ENDTAB
  0
TABLE
  2
STYLE
 70
     2
  0
STYLE
  2
ROMANS
 70
     0
 40
0.0
 41
1.0
 50
0.0
 71
     0
 42
6.0
  3
romans
  4

  0
STYLE
  2
STANDARD
 70
     0
 40
0.0
 41
1.0
 50
0.0
 71
     0
 42
0.2
  3
txt
  4

  0
ENDTAB
  0
TABLE
  2
VIEW
 70
     0
  0
ENDTAB
  0
TABLE
  2
UCS
 70
     0
  0
ENDTAB
  0
TABLE
  2
APPID
 70
     1
  0
APPID
  2
ACAD
 70
     0
  0
ENDTAB
  0
TABLE
  2
DIMSTYLE
 70
     1
  0
DIMSTYLE
  2
SC_DEFAUT
 70
     0
  3

  4

  5
OPEN30
  6

  7

 40
1.0
 41
5.0
 42
2.0
 43
0.38
 44
2.5
 45
0.0
 46
0.0
 47
0.0
 48
0.0
140
2.5
141
0.0
142
0.0
143
25.4
144
1.0
145
0.0
146
1.0
147
2.0
 71
     0
 72
     0
 73
     1
 74
     1
 75
     0
 76
     0
 77
     1
 78
    12
170
     0
171
     2
172
     0
173
     0
174
     0
175
     0
176
     0
177
     0
178
     0
  0
ENDTAB
  0
ENDSEC
  0
SECTION
  2
BLOCKS
  0
BLOCK
  8
0
  2
$MODEL_SPACE
 70
     0
 10
0.0
 20
0.0
 30
0.0
  3
$MODEL_SPACE
  1

  0
ENDBLK
  5
9779
  8
0
  0
BLOCK
 67
     1
  8
0
  2
$PAPER_SPACE
 70
     0
 10
0.0
 20
0.0
 30
0.0
  3
$PAPER_SPACE
  1

  0
ENDBLK
  5
9777
 67
     1
  8
0
  0
BLOCK
  8
0
  2
COTE
 70
     0
 10
0.0
 20
0.0
 30
0.0
  3
COTE
  1

  0
ENDBLK
  5
F
  8
0
  0
BLOCK
  8
0
  2
FOND
 70
     0
 10
0.0
 20
0.0
 30
0.0
  3
FOND
  1

  0
ENDBLK
  5
75
  8
0
  0
BLOCK
  8
0
  2
_OPEN30
 70
     0
 10
0.0
 20
0.0
 30
0.0
  3
_OPEN30
  1

  0
LINE
  5
4B05
  8
COTATION1
 62
     0
 10
-1.0
 20
0.267949
 30
0.0
 11
0.0
 21
0.0
 31
0.0
1001
ACAD
1000
RTLwPs
1070
   158
  0
LINE
  5
4B06
  8
COTATION1
 62
     0
 10
0.0
 20
0.0
 30
0.0
 11
-1.0
 21
-0.267949
 31
0.0
1001
ACAD
1000
RTLwPs
1070
   158
  0
LINE
  5
4B07
  8
COTATION1
 62
     0
 10
0.0
 20
0.0
 30
0.0
 11
-1.0
 21
0.0
 31
0.0
1001
ACAD
1000
RTLwPs
1070
   158
  0
ENDBLK
  5
4B09
  8
0
  0
BLOCK
  8
0
  2
*D3
 70
     1
 10
0.0
 20
0.0
 30
0.0
  3
*D3
  1

  0
LINE
  5
95ED
  8
COTATION1
 62
     0
 10
38.023255
 20
31.015123
 30
0.0
 11
38.023255
 21
58.462546
 31
0.0
1001
ACAD
1000
RTLwPs
1070
   158
  0
LINE
  5
95EE
  8
COTATION1
 62
     0
 10
65.736068
 20
31.015123
 30
0.0
 11
65.736068
 21
58.462546
 31
0.0
1001
ACAD
1000
RTLwPs
1070
   158
  0
LINE
  5
95EF
  8
COTATION1
 62
     0
 10
43.023255
 20
55.962546
 30
0.0
 11
60.736068
 21
55.962546
 31
0.0
1001
ACAD
1000
RTLwPs
1070
   158
  0
INSERT
  5
95F0
  8
COTATION1
 62
     0
  2
_OPEN30
 10
38.023255
 20
55.962546
 30
0.0
 41
5.0
 42
5.0
 43
5.0
 50
180.0
1001
ACAD
1000
RTLwPs
1070
   158
  0
INSERT
  5
95F1
  8
COTATION1
 62
     0
  2
_OPEN30
 10
65.736068
 20
55.962546
 30
0.0
 41
5.0
 42
5.0
 43
5.0
1001
ACAD
1000
RTLwPs
1070
   158
  0
TEXT
  5
95F2
  8
COTATION1
 62
     0
 10
47.712994
 20
57.962546
 30
0.0
 40
2.5
  1
27.7
1001
ACAD
1000
MTEXTBEGIN
1070
    73
1070
     1
1070
    44
1040
1.0
1070
    74
1070
     0
1000
MTEXTEND
  0
POINT
  5
95F3
  8
DEFPOINTS
 62
     0
 10
38.023255
 20
29.015123
 30
0.0
  0
POINT
  5
95F4
  8
DEFPOINTS
 62
     0
 10
65.736068
 20
29.015123
 30
0.0
  0
POINT
  5
95F5
  8
DEFPOINTS
 62
     0
 10
65.736068
 20
55.962546
 30
0.0
  0
ENDBLK
  5
7F3E
  8
0
  0
BLOCK
  8
0
  2
*D4
 70
     1
 10
0.0
 20
0.0
 30
0.0
  3
*D4
  1

  0
LINE
  5
9600
  8
COTATION1
 62
     0
 10
49.879661
 20
45.962546
 30
0.0
 11
25.737846
 21
45.962546
 31
0.0
1001
ACAD
1000
RTLwPs
1070
   158
  0
LINE
  5
9601
  8
COTATION1
 62
     0
 10
41.879661
 20
20.012546
 30
0.0
 11
25.737846
 21
20.012546
 31
0.0
1001
ACAD
1000
RTLwPs
1070
   158
  0
LINE
  5
9602
  8
COTATION1
 62
     0
 10
28.237846
 20
40.962546
 30
0.0
 11
28.237846
 21
36.237546
 31
0.0
1001
ACAD
1000
RTLwPs
1070
   158
  0
LINE
  5
9603
  8
COTATION1
 62
     0
 10
28.237846
 20
25.012546
 30
0.0
 11
28.237846
 21
29.737546
 31
0.0
1001
ACAD
1000
RTLwPs
1070
   158
  0
INSERT
  5
9604
  8
COTATION1
 62
     0
  2
_OPEN30
 10
28.237846
 20
45.962546
 30
0.0
 41
5.0
 42
5.0
 43
5.0
 50
90.0
1001
ACAD
1000
RTLwPs
1070
   158
  0
INSERT
  5
9605
  8
COTATION1
 62
     0
  2
_OPEN30
 10
28.237846
 20
20.012546
 30
0.0
 41
5.0
 42
5.0
 43
5.0
 50
270.0
1001
ACAD
1000
RTLwPs
1070
   158
  0
TEXT
  5
9606
  8
COTATION1
 62
     0
 10
24.130703
 20
31.737546
 30
0.0
 40
2.5
  1
25.9
1001
ACAD
1000
MTEXTBEGIN
1070
    73
1070
     1
1070
    44
1040
1.0
1070
    74
1070
     0
1000
MTEXTEND
  0
POINT
  5
9607
  8
DEFPOINTS
 62
     0
 10
51.879661
 20
45.962546
 30
0.0
  0
POINT
  5
9608
  8
DEFPOINTS
 62
     0
 10
43.879661
 20
20.012546
 30
0.0
  0
POINT
  5
9609
  8
DEFPOINTS
 62
     0
 10
28.237846
 20
20.012546
 30
0.0
  0
ENDBLK
  5
7F4B
  8
0
  0
BLOCK
  8
0
  2
*D5
 70
     1
 10
0.0
 20
0.0
 30
0.0
  3
*D5
  1

  0
LINE
  5
95F6
  8
COTATION1
 62
     0
 10
53.879661
 20
45.962546
 30
0.0
 11
88.236068
 21
45.962546
 31
0.0
1001
ACAD
1000
RTLwPs
1070
   158
  0
LINE
  5
95F7
  8
COTATION1
 62
     0
 10
59.729661
 20
11.712546
 30
0.0
 11
88.236068
 21
11.712546
 31
0.0
1001
ACAD
1000
RTLwPs
1070
   158
  0
LINE
  5
95F8
  8
COTATION1
 62
     0
 10
85.736068
 20
40.962546
 30
0.0
 11
85.736068
 21
32.087546
 31
0.0
1001
ACAD
1000
RTLwPs
1070
   158
  0
LINE
  5
95F9
  8
COTATION1
 62
     0
 10
85.736068
 20
16.712546
 30
0.0
 11
85.736068
 21
25.587546
 31
0.0
1001
ACAD
1000
RTLwPs
1070
   158
  0
TEXT
  5
95FA
  8
COTATION1
 62
     0
 10
81.569401
 20
27.587546
 30
0.0
 40
2.5
  1
34.2
1001
ACAD
1000
MTEXTBEGIN
1070
    73
1070
     1
1070
    44
1040
1.0
1070
    74
1070
     0
1000
MTEXTEND
  0
INSERT
  5
95FB
  8
COTATION1
 62
     0
  2
_OPEN30
 10
85.736068
 20
45.962546
 30
0.0
 41
5.0
 42
5.0
 43
5.0
 50
90.0
1001
ACAD
1000
RTLwPs
1070
   158
  0
INSERT
  5
95FC
  8
COTATION1
 62
     0
  2
_OPEN30
 10
85.736068
 20
11.712546
 30
0.0
 41
5.0
 42
5.0
 43
5.0
 50
270.0
1001
ACAD
1000
RTLwPs
1070
   158
  0
POINT
  5
95FD
  8
DEFPOINTS
 62
     0
 10
51.879661
 20
45.962546
 30
0.0
  0
POINT
  5
95FE
  8
DEFPOINTS
 62
     0
 10
57.729661
 20
11.712546
 30
0.0
  0
POINT
  5
95FF
  8
DEFPOINTS
 62
     0
 10
85.736068
 20
11.712546
 30
0.0
  0
ENDBLK
  5
8EB4
  8
0
  0
ENDSEC
  0
SECTION
  2
ENTITIES
  0
INSERT
  5
A
  8
0
  2
COTE
 10
0.0
 20
0.0
 30
0.0
  0
INSERT
  5
17
  8
0
  2
COTE
 10
284.010391
 20
6.373258
 30
0.0
  0
INSERT
  5
72
  8
0
  2
FOND
 10
0.0
 20
0.0
 30
0.0
  0
DIMENSION
  5
7F30
  8
COTATION1
  2
*D3
 10
65.736068
 20
55.962546
 30
0.0
 11
51.879661
 21
59.212546
 31
0.0
 13
38.023255
 23
29.015123
 33
0.0
 14
65.736068
 24
29.015123
 34
0.0
  0
DIMENSION
  5
7F31
  8
COTATION1
  2
*D4
 10
28.237846
 20
20.012546
 30
0.0
 11
28.237846
 21
32.987546
 31
0.0
 13
51.879661
 23
45.962546
 33
0.0
 14
43.879661
 24
20.012546
 34
0.0
 50
90.0
  0
LINE
  5
8AD3
  8
AXE
 10
51.879661
 20
1.712546
 30
0.0
 11
51.879661
 21
50.962546
 31
0.0
  0
TEXT
  5
8AD4
  8
AXE
 10
46.832042
 20
1.712546
 30
0.0
 40
5.0
  1
Y
 72
     2
 11
50.879661
 21
1.712546
 31
0.0
  0
LINE
  5
8AD5
  8
AXE
 10
38.879661
 20
18.957546
 30
0.0
 11
75.736068
 21
18.957546
 31
0.0
  0
TEXT
  5
8AD6
  8
AXE
 10
71.688449
 20
19.957546
 30
0.0
 40
5.0
  1
X
 72
     2
 11
75.736068
 21
19.957546
 31
0.0
  0
LINE
  5
8B73
  8
COTATION1
 10
5.577094
 20
22.512546
 30
0.0
 11
5.577094
 21
47.471468
 31
0.0
  0
LINE
  5
8B74
  8
COTATION1
 10
-2.523259
 20
20.012546
 30
0.0
 11
42.879661
 21
20.012546
 31
0.0
  0
SOLID
  5
8B75
  8
COTATION1
 10
7.020469
 20
20.012546
 30
0.0
 11
4.133718
 21
20.012546
 31
0.0
 12
5.577094
 22
22.512546
 32
0.0
 13
5.577094
 23
22.512546
 33
0.0
  0
LINE
  5
8B76
  8
COTATION1
 10
-7.672906
 20
52.471468
 30
0.0
 11
18.827094
 21
52.471468
 31
0.0
  0
LINE
  5
8B77
  8
COTATION1
 10
18.827094
 20
47.471468
 30
0.0
 11
-7.672906
 21
47.471468
 31
0.0
  0
TEXT
  5
8B78
  8
COTATION1
 10
-6.422906
 20
48.721468
 30
0.0
 40
2.5
  1
PLANE_TO_LINE_UP
 41
0.626087
  7
STANDARD
 72
     5
 11
17.577094
 21
48.721468
 31
0.0
  0
LINE
  5
8B79
  8
COTATION1
 10
18.827094
 20
52.471468
 30
0.0
 11
18.827094
 21
47.471468
 31
0.0
  0
LINE
  5
8B7A
  8
COTATION1
 10
-7.672906
 20
47.471468
 30
0.0
 11
-7.672906
 21
52.471468
 31
0.0
  0
DIMENSION
  5
8EA7
  8
COTATION1
  2
*D5
 10
85.736068
 20
11.712546
 30
0.0
 11
85.736068
 21
28.837546
 31
0.0
 70
   128
 13
51.879661
 23
45.962546
 33
0.0
 14
57.729661
 24
11.712546
 34
0.0
 50
90.0
  0
LINE
  5
927B
  8
ALPHA
 10
65.736068
 20
26.509968
 30
0.0
 11
65.736068
 21
29.015123
 31
0.0
  0
LINE
  5
927C
  8
ALPHA
 10
58.807864
 20
26.509968
 30
0.0
 11
58.807864
 21
29.015123
 31
0.0
  0
LINE
  5
927D
  8
ALPHA
 10
44.951458
 20
26.509968
 30
0.0
 11
44.951458
 21
29.015123
 31
0.0
  0
LINE
  5
927E
  8
ALPHA
 10
38.023255
 20
26.509968
 30
0.0
 11
38.023255
 21
29.015123
 31
0.0
  0
POLYLINE
  5
9281
  8
ALPHA
 66
     1
 10
0.0
 20
0.0
 30
0.0
 70
   128
  0
VERTEX
  5
977F
  8
ALPHA
 10
50.475478
 20
26.01261
 30
0.0
  0
VERTEX
  5
9780
  8
ALPHA
 10
46.675766
 20
25.939398
 30
0.0
  0
VERTEX
  5
9781
  8
ALPHA
 10
42.879931
 20
25.791606
 30
0.0
  0
SEQEND
  5
9782
  8
ALPHA
  0
LINE
  5
9282
  8
ALPHA
 10
42.971018
 20
25.760242
 30
0.0
 11
51.879661
 21
25.987546
 31
0.0
  0
POLYLINE
  5
9283
  8
ALPHA
 66
     1
 10
0.0
 20
0.0
 30
0.0
 70
   128
  0
VERTEX
  5
9783
  8
ALPHA
 10
51.879661
 20
21.987546
 30
0.0
  0
VERTEX
  5
9784
  8
ALPHA
 10
50.247943
 20
21.878271
 30
0.0
  0
VERTEX
  5
9785
  8
ALPHA
 10
48.648562
 20
21.537546
 30
0.0
  0
SEQEND
  5
9786
  8
ALPHA
  0
POLYLINE
  5
9284
  8
ALPHA
 66
     1
 10
0.0
 20
0.0
 30
0.0
 70
   128
210
0.0
220
0.0
230
-1.0
  0
VERTEX
  5
9787
  8
ALPHA
 10
-51.879661
 20
21.037546
 30
0.0
  0
VERTEX
  5
9788
  8
ALPHA
 10
-50.247943
 20
21.14682
 30
0.0
  0
VERTEX
  5
9789
  8
ALPHA
 10
-48.648562
 20
21.487546
 30
0.0
  0
SEQEND
  5
978A
  8
ALPHA
  0
POLYLINE
  5
9285
  8
ALPHA
 66
     1
 10
0.0
 20
0.0
 30
0.0
 70
   128
  0
VERTEX
  5
978B
  8
ALPHA
 10
50.475478
 20
22.01261
 30
0.0
  0
VERTEX
  5
978C
  8
ALPHA
 10
46.675766
 20
21.939398
 30
0.0
  0
VERTEX
  5
978D
  8
ALPHA
 10
42.879931
 20
21.791606
 30
0.0
  0
SEQEND
  5
978E
  8
ALPHA
  0
POLYLINE
  5
9286
  8
ALPHA
 66
     1
 10
0.0
 20
0.0
 30
0.0
 70
   128
210
0.0
220
0.0
230
-1.0
  0
VERTEX
  5
978F
  8
ALPHA
 10
-44.951458
 20
25.015123
 30
0.0
  0
VERTEX
  5
9790
  8
ALPHA
 10
-48.407316
 20
25.380407
 30
0.0
  0
VERTEX
  5
9791
  8
ALPHA
 10
-51.879661
 20
25.512546
 30
0.0
  0
SEQEND
  5
9792
  8
ALPHA
  0
POLYLINE
  5
9287
  8
ALPHA
 66
     1
 10
0.0
 20
0.0
 30
0.0
 70
   128
  0
VERTEX
  5
9793
  8
ALPHA
 10
44.951458
 20
22.509968
 30
0.0
  0
VERTEX
  5
9794
  8
ALPHA
 10
48.407316
 20
22.144684
 30
0.0
  0
VERTEX
  5
9795
  8
ALPHA
 10
51.879661
 20
22.012546
 30
0.0
  0
SEQEND
  5
9796
  8
ALPHA
  0
POLYLINE
  5
9288
  8
ALPHA
 66
     1
 10
0.0
 20
0.0
 30
0.0
 70
   128
  0
VERTEX
  5
9797
  8
ALPHA
 10
44.951458
 20
26.509968
 30
0.0
  0
VERTEX
  5
9798
  8
ALPHA
 10
48.407316
 20
26.144684
 30
0.0
  0
VERTEX
  5
9799
  8
ALPHA
 10
51.879661
 20
26.012546
 30
0.0
  0
SEQEND
  5
979A
  8
ALPHA
  0
LINE
  5
9289
  8
ALPHA
 10
39.879661
 20
26.012546
 30
0.0
 11
63.879661
 21
26.012546
 31
0.0
  0
LINE
  5
928A
  8
ALPHA
 10
39.879661
 20
25.512546
 30
0.0
 11
63.879661
 21
25.512546
 31
0.0
  0
LINE
  5
928B
  8
ALPHA
 10
39.879661
 20
22.012546
 30
0.0
 11
63.879661
 21
22.012546
 31
0.0
  0
LINE
  5
928C
  8
ALPHA
 10
51.879661
 20
21.537546
 30
0.0
 11
48.648562
 21
21.537546
 31
0.0
  0
LINE
  5
928D
  8
ALPHA
 10
51.879661
 20
21.487546
 30
0.0
 11
48.648562
 21
21.487546
 31
0.0
  0
LINE
  5
928E
  8
ALPHA
 10
60.879661
 20
21.012546
 30
0.0
 11
42.879661
 21
21.012546
 31
0.0
  0
LINE
  5
928F
  8
ALPHA
 10
59.879661
 20
20.012546
 30
0.0
 11
43.879661
 21
20.012546
 31
0.0
  0
LINE
  5
9290
  8
ALPHA
 10
58.579661
 20
18.012546
 30
0.0
 11
45.179661
 21
18.012546
 31
0.0
  0
LINE
  5
9291
  8
ALPHA
 10
45.529683
 20
16.562546
 30
0.0
 11
58.22964
 21
16.562546
 31
0.0
  0
LINE
  5
9292
  8
ALPHA
 10
58.22964
 20
15.412546
 30
0.0
 11
45.529683
 21
15.412546
 31
0.0
  0
LINE
  5
9293
  8
ALPHA
 10
57.879661
 20
15.312546
 30
0.0
 11
45.879661
 21
15.312546
 31
0.0
  0
LINE
  5
9294
  8
ALPHA
 10
57.879661
 20
14.312546
 30
0.0
 11
45.879661
 21
14.312546
 31
0.0
  0
LINE
  5
9295
  8
ALPHA
 10
45.529683
 20
14.212546
 30
0.0
 11
58.22964
 21
14.212546
 31
0.0
  0
LINE
  5
9296
  8
ALPHA
 10
45.529661
 20
12.212546
 30
0.0
 11
51.671154
 21
12.212546
 31
0.0
  0
LINE
  5
9297
  8
ALPHA
 10
57.729661
 20
11.712546
 30
0.0
 11
46.029661
 21
11.712546
 31
0.0
  0
POLYLINE
  5
9298
  8
ALPHA
 66
     1
 10
0.0
 20
0.0
 30
0.0
 70
   128
  0
VERTEX
  5
979B
  8
ALPHA
 10
38.023255
 20
22.509968
 30
0.0
  0
VERTEX
  5
979C
  8
ALPHA
 10
39.739122
 20
22.146481
 30
0.0
  0
VERTEX
  5
979D
  8
ALPHA
 10
41.487356
 20
22.012546
 30
0.0
  0
SEQEND
  5
979E
  8
ALPHA
  0
POLYLINE
  5
9299
  8
ALPHA
 66
     1
 10
0.0
 20
0.0
 30
0.0
 70
   128
210
0.0
220
0.0
230
-1.0
  0
VERTEX
  5
979F
  8
ALPHA
 10
-38.023255
 20
25.015123
 30
0.0
  0
VERTEX
  5
97A0
  8
ALPHA
 10
-39.739122
 20
25.37861
 30
0.0
  0
VERTEX
  5
97A1
  8
ALPHA
 10
-41.487356
 20
25.512546
 30
0.0
  0
SEQEND
  5
97A2
  8
ALPHA
  0
POLYLINE
  5
929A
  8
ALPHA
 66
     1
 10
0.0
 20
0.0
 30
0.0
 70
   128
  0
VERTEX
  5
97A3
  8
ALPHA
 10
38.023255
 20
26.509968
 30
0.0
  0
VERTEX
  5
97A4
  8
ALPHA
 10
39.739122
 20
26.146481
 30
0.0
  0
VERTEX
  5
97A5
  8
ALPHA
 10
41.487356
 20
26.012546
 30
0.0
  0
SEQEND
  5
97A6
  8
ALPHA
  0
LINE
  5
929B
  8
ALPHA
 10
38.023255
 20
25.015123
 30
0.0
 11
39.879661
 21
25.512546
 31
0.0
  0
LINE
  5
929C
  8
ALPHA
 10
39.879661
 20
26.012546
 30
0.0
 11
38.023255
 21
26.509968
 31
0.0
  0
LINE
  5
929D
  8
ALPHA
 10
39.879661
 20
22.012546
 30
0.0
 11
38.023255
 21
22.509968
 31
0.0
  0
LINE
  5
929E
  8
ALPHA
 10
38.023255
 20
22.509968
 30
0.0
 11
38.023255
 21
25.015123
 31
0.0
  0
LINE
  5
929F
  8
ALPHA
 10
45.529661
 20
16.562546
 30
0.0
 11
45.529661
 21
15.412546
 31
0.0
  0
ARC
  5
92A0
  8
ALPHA
 10
46.029661
 20
12.212546
 30
0.0
 40
0.5
 50
180.0
 51
270.0
  0
ARC
  5
92A1
  8
ALPHA
 10
45.879661
 20
14.812546
 30
0.0
 40
0.5
 50
90.0
 51
270.0
  0
LINE
  5
92A2
  8
ALPHA
 10
46.279661
 20
14.312546
 30
0.0
 11
46.279661
 21
14.212546
 31
0.0
  0
LINE
  5
92A3
  8
ALPHA
 10
46.279661
 20
15.412546
 30
0.0
 11
46.279661
 21
15.312546
 31
0.0
  0
LINE
  5
92A4
  8
ALPHA
 10
45.529661
 20
14.212546
 30
0.0
 11
45.529661
 21
12.212546
 31
0.0
  0
LINE
  5
92A5
  8
ALPHA
 10
42.879661
 20
21.787545
 30
0.0
 11
42.879661
 21
21.012546
 31
0.0
  0
LINE
  5
92A6
  8
ALPHA
 10
42.879661
 20
21.012546
 30
0.0
 11
43.879661
 21
20.012546
 31
0.0
  0
LINE
  5
92A7
  8
ALPHA
 10
45.179661
 20
20.012546
 30
0.0
 11
45.179661
 21
18.012546
 31
0.0
  0
POLYLINE
  5
92A8
  8
ALPHA
 66
     1
 10
0.0
 20
0.0
 30
0.0
 70
   128
  0
VERTEX
  5
97A7
  8
ALPHA
 10
41.487356
 20
22.012546
 30
0.0
  0
VERTEX
  5
97A8
  8
ALPHA
 10
43.23559
 20
22.146481
 30
0.0
  0
VERTEX
  5
97A9
  8
ALPHA
 10
44.951458
 20
22.509968
 30
0.0
  0
SEQEND
  5
97AA
  8
ALPHA
  0
POLYLINE
  5
92A9
  8
ALPHA
 66
     1
 10
0.0
 20
0.0
 30
0.0
 70
   128
210
0.0
220
0.0
230
-1.0
  0
VERTEX
  5
97AB
  8
ALPHA
 10
-41.487356
 20
25.512546
 30
0.0
  0
VERTEX
  5
97AC
  8
ALPHA
 10
-43.23559
 20
25.37861
 30
0.0
  0
VERTEX
  5
97AD
  8
ALPHA
 10
-44.951458
 20
25.015123
 30
0.0
  0
SEQEND
  5
97AE
  8
ALPHA
  0
POLYLINE
  5
92AA
  8
ALPHA
 66
     1
 10
0.0
 20
0.0
 30
0.0
 70
   128
  0
VERTEX
  5
97AF
  8
ALPHA
 10
41.487356
 20
26.012546
 30
0.0
  0
VERTEX
  5
97B0
  8
ALPHA
 10
43.23559
 20
26.146481
 30
0.0
  0
VERTEX
  5
97B1
  8
ALPHA
 10
44.951458
 20
26.509968
 30
0.0
  0
SEQEND
  5
97B2
  8
ALPHA
  0
LINE
  5
92AB
  8
ALPHA
 10
42.880176
 20
25.742794
 30
0.0
 11
42.971018
 21
25.760242
 31
0.0
  0
LINE
  5
92AC
  8
ALPHA
 10
42.879664
 20
25.737932
 30
0.0
 11
42.880176
 21
25.742794
 31
0.0
  0
LINE
  5
92AD
  8
ALPHA
 10
42.879661
 20
25.737546
 30
0.0
 11
42.879664
 21
25.737932
 31
0.0
  0
LINE
  5
92AE
  8
ALPHA
 10
43.177075
 20
22.012546
 30
0.0
 11
42.882162
 21
21.791297
 31
0.0
  0
LINE
  5
92AF
  8
ALPHA
 10
42.882162
 20
25.733794
 30
0.0
 11
43.177075
 21
25.512546
 31
0.0
  0
LINE
  5
92B0
  8
ALPHA
 10
43.177075
 20
26.012546
 30
0.0
 11
42.882162
 21
25.791297
 31
0.0
  0
LINE
  5
92B1
  8
ALPHA
 10
42.882162
 20
21.791297
 30
0.0
 11
42.879661
 21
21.787545
 31
0.0
  0
LINE
  5
92B2
  8
ALPHA
 10
42.882162
 20
25.791297
 30
0.0
 11
42.879661
 21
25.787545
 31
0.0
  0
LINE
  5
92B3
  8
ALPHA
 10
42.879661
 20
25.787545
 30
0.0
 11
42.879661
 21
25.737546
 31
0.0
  0
LINE
  5
92B4
  8
ALPHA
 10
44.951458
 20
22.509968
 30
0.0
 11
44.951458
 21
25.015123
 31
0.0
  0
LINE
  5
92B5
  8
ALPHA
 10
48.648562
 20
21.537546
 30
0.0
 11
48.648562
 21
21.487546
 31
0.0
  0
LINE
  5
92B6
  8
ALPHA
 10
46.379661
 20
18.012546
 30
0.0
 11
46.379661
 21
16.562546
 31
0.0
  0
POLYLINE
  5
92B7
  8
ALPHA
 66
     1
 10
0.0
 20
0.0
 30
0.0
 70
   128
  0
VERTEX
  5
97B3
  8
ALPHA
 10
51.879661
 20
25.537546
 30
0.0
  0
VERTEX
  5
97B4
  8
ALPHA
 10
56.078685
 20
25.62087
 30
0.0
  0
VERTEX
  5
97B5
  8
ALPHA
 10
60.273955
 20
25.780938
 30
0.0
  0
SEQEND
  5
97B6
  8
ALPHA
  0
POLYLINE
  5
92B8
  8
ALPHA
 66
     1
 10
0.0
 20
0.0
 30
0.0
 70
   128
  0
VERTEX
  5
97B7
  8
ALPHA
 10
53.193223
 20
25.512536
 30
0.0
  0
VERTEX
  5
97B8
  8
ALPHA
 10
56.735195
 20
25.585634
 30
0.0
  0
VERTEX
  5
97B9
  8
ALPHA
 10
60.273396
 20
25.731555
 30
0.0
  0
SEQEND
  5
97BA
  8
ALPHA
  0
POLYLINE
  5
92B9
  8
ALPHA
 66
     1
 10
0.0
 20
0.0
 30
0.0
 70
   128
  0
VERTEX
  5
97BB
  8
ALPHA
 10
51.879661
 20
21.537546
 30
0.0
  0
VERTEX
  5
97BC
  8
ALPHA
 10
56.078685
 20
21.62087
 30
0.0
  0
VERTEX
  5
97BD
  8
ALPHA
 10
60.273955
 20
21.780938
 30
0.0
  0
SEQEND
  5
97BE
  8
ALPHA
  0
POLYLINE
  5
92BA
  8
ALPHA
 66
     1
 10
0.0
 20
0.0
 30
0.0
 70
   128
  0
VERTEX
  5
97BF
  8
ALPHA
 10
51.879661
 20
21.487546
 30
0.0
  0
VERTEX
  5
97C0
  8
ALPHA
 10
56.078459
 20
21.570866
 30
0.0
  0
VERTEX
  5
97C1
  8
ALPHA
 10
60.273396
 20
21.731555
 30
0.0
  0
SEQEND
  5
97C2
  8
ALPHA
  0
POLYLINE
  5
92BB
  8
ALPHA
 66
     1
 10
0.0
 20
0.0
 30
0.0
 70
   128
210
0.0
220
0.0
230
-1.0
  0
VERTEX
  5
97C3
  8
ALPHA
 10
-60.879661
 20
21.287545
 30
0.0
  0
VERTEX
  5
97C4
  8
ALPHA
 10
-56.38211
 20
21.120917
 30
0.0
  0
VERTEX
  5
97C5
  8
ALPHA
 10
-51.879661
 20
21.037546
 30
0.0
  0
SEQEND
  5
97C6
  8
ALPHA
  0
POLYLINE
  5
92BC
  8
ALPHA
 66
     1
 10
0.0
 20
0.0
 30
0.0
 70
   128
  0
VERTEX
  5
97C7
  8
ALPHA
 10
51.879661
 20
22.012546
 30
0.0
  0
VERTEX
  5
97C8
  8
ALPHA
 10
55.352007
 20
22.144685
 30
0.0
  0
VERTEX
  5
97C9
  8
ALPHA
 10
58.807864
 20
22.509968
 30
0.0
  0
SEQEND
  5
97CA
  8
ALPHA
  0
POLYLINE
  5
92BD
  8
ALPHA
 66
     1
 10
0.0
 20
0.0
 30
0.0
 70
   128
210
0.0
220
0.0
230
-1.0
  0
VERTEX
  5
97CB
  8
ALPHA
 10
-51.879661
 20
25.512546
 30
0.0
  0
VERTEX
  5
97CC
  8
ALPHA
 10
-55.352007
 20
25.380406
 30
0.0
  0
VERTEX
  5
97CD
  8
ALPHA
 10
-58.807864
 20
25.015123
 30
0.0
  0
SEQEND
  5
97CE
  8
ALPHA
  0
POLYLINE
  5
92BE
  8
ALPHA
 66
     1
 10
0.0
 20
0.0
 30
0.0
 70
   128
  0
VERTEX
  5
97CF
  8
ALPHA
 10
51.879661
 20
26.012546
 30
0.0
  0
VERTEX
  5
97D0
  8
ALPHA
 10
55.352007
 20
26.144685
 30
0.0
  0
VERTEX
  5
97D1
  8
ALPHA
 10
58.807864
 20
26.509968
 30
0.0
  0
SEQEND
  5
97D2
  8
ALPHA
  0
LINE
  5
92BF
  8
ALPHA
 10
52.088168
 20
12.212546
 30
0.0
 11
58.229661
 21
12.212546
 31
0.0
  0
LINE
  5
92C0
  8
ALPHA
 10
52.088168
 20
16.562546
 30
0.0
 11
52.088168
 21
15.412546
 31
0.0
  0
LINE
  5
92C1
  8
ALPHA
 10
51.671154
 20
16.562546
 30
0.0
 11
51.671154
 21
15.412546
 31
0.0
  0
POLYLINE
  5
92C2
  8
ALPHA
 66
     1
 10
0.0
 20
0.0
 30
0.0
 70
   128
210
0.0
220
0.0
230
-1.0
  0
VERTEX
  5
97D3
  8
ALPHA
 10
-52.088168
 20
12.212546
 30
0.0
  0
VERTEX
  5
97D4
  8
ALPHA
 10
-52.030534
 20
12.058357
 30
0.0
  0
VERTEX
  5
97D5
  8
ALPHA
 10
-51.879661
 20
11.994591
 30
0.0
  0
VERTEX
  5
97D6
  8
ALPHA
 10
-51.728789
 20
12.058357
 30
0.0
  0
VERTEX
  5
97D7
  8
ALPHA
 10
-51.671154
 20
12.212546
 30
0.0
  0
SEQEND
  5
97D8
  8
ALPHA
  0
LINE
  5
92C3
  8
ALPHA
 10
52.088168
 20
14.212546
 30
0.0
 11
52.088168
 21
12.212546
 31
0.0
  0
LINE
  5
92C4
  8
ALPHA
 10
51.671154
 20
14.212546
 30
0.0
 11
51.671154
 21
12.212546
 31
0.0
  0
LINE
  5
92C5
  8
ALPHA
 10
57.479661
 20
14.312546
 30
0.0
 11
57.479661
 21
14.212546
 31
0.0
  0
LINE
  5
92C6
  8
ALPHA
 10
57.479661
 20
15.412546
 30
0.0
 11
57.479661
 21
15.312546
 31
0.0
  0
LINE
  5
92C7
  8
ALPHA
 10
51.879661
 20
21.037546
 30
0.0
 11
51.879661
 21
21.987546
 31
0.0
  0
LINE
  5
92C8
  8
ALPHA
 10
51.374661
 20
18.212546
 30
0.0
 11
51.428251
 21
18.012546
 31
0.0
  0
LINE
  5
92C9
  8
ALPHA
 10
52.384661
 20
18.212546
 30
0.0
 11
51.374661
 21
18.212546
 31
0.0
  0
LINE
  5
92CA
  8
ALPHA
 10
51.374661
 20
20.012546
 30
0.0
 11
51.374661
 21
18.212546
 31
0.0
  0
LINE
  5
92CB
  8
ALPHA
 10
52.384661
 20
18.212546
 30
0.0
 11
52.331071
 21
18.012546
 31
0.0
  0
LINE
  5
92CC
  8
ALPHA
 10
52.384661
 20
20.012546
 30
0.0
 11
52.384661
 21
18.212546
 31
0.0
  0
LINE
  5
92CD
  8
ALPHA
 10
52.357817
 20
18.112362
 30
0.0
 11
52.357817
 21
18.012546
 31
0.0
  0
LINE
  5
92CE
  8
ALPHA
 10
51.401505
 20
18.112362
 30
0.0
 11
51.401505
 21
18.012546
 31
0.0
  0
LINE
  5
92CF
  8
ALPHA
 10
50.566099
 20
25.512555
 30
0.0
 11
51.879661
 21
25.537546
 31
0.0
  0
LINE
  5
92D0
  8
ALPHA
 10
51.879661
 20
25.987546
 30
0.0
 11
53.285969
 21
26.012517
 31
0.0
  0
LINE
  5
92D1
  8
ALPHA
 10
51.879661
 20
21.987546
 30
0.0
 11
53.285969
 21
22.012517
 31
0.0
  0
LINE
  5
92D2
  8
ALPHA
 10
57.379661
 20
18.012546
 30
0.0
 11
57.379661
 21
16.562546
 31
0.0
  0
LINE
  5
92D3
  8
ALPHA
 10
58.229661
 20
16.562546
 30
0.0
 11
58.229661
 21
15.412546
 31
0.0
  0
ARC
  5
92D4
  8
ALPHA
 10
57.729661
 20
12.212546
 30
0.0
 40
0.5
 50
270.0
 51
0.0
  0
ARC
  5
92D5
  8
ALPHA
 10
57.879661
 20
14.812546
 30
0.0
 40
0.5
 50
270.0
 51
90.0
  0
LINE
  5
92D6
  8
ALPHA
 10
58.229661
 20
14.212546
 30
0.0
 11
58.229661
 21
12.212546
 31
0.0
  0
POLYLINE
  5
92D7
  8
ALPHA
 66
     1
 10
0.0
 20
0.0
 30
0.0
 70
   128
  0
VERTEX
  5
97D9
  8
ALPHA
 10
58.807864
 20
22.509968
 30
0.0
  0
VERTEX
  5
97DA
  8
ALPHA
 10
60.523732
 20
22.146481
 30
0.0
  0
VERTEX
  5
97DB
  8
ALPHA
 10
62.271966
 20
22.012546
 30
0.0
  0
SEQEND
  5
97DC
  8
ALPHA
  0
POLYLINE
  5
92D8
  8
ALPHA
 66
     1
 10
0.0
 20
0.0
 30
0.0
 70
   128
210
0.0
220
0.0
230
-1.0
  0
VERTEX
  5
97DD
  8
ALPHA
 10
-58.807864
 20
25.015123
 30
0.0
  0
VERTEX
  5
97DE
  8
ALPHA
 10
-60.523732
 20
25.37861
 30
0.0
  0
VERTEX
  5
97DF
  8
ALPHA
 10
-62.271966
 20
25.512546
 30
0.0
  0
SEQEND
  5
97E0
  8
ALPHA
  0
POLYLINE
  5
92D9
  8
ALPHA
 66
     1
 10
0.0
 20
0.0
 30
0.0
 70
   128
  0
VERTEX
  5
97E1
  8
ALPHA
 10
58.807864
 20
26.509968
 30
0.0
  0
VERTEX
  5
97E2
  8
ALPHA
 10
60.523732
 20
26.146481
 30
0.0
  0
VERTEX
  5
97E3
  8
ALPHA
 10
62.271966
 20
26.012546
 30
0.0
  0
SEQEND
  5
97E4
  8
ALPHA
  0
LINE
  5
92DA
  8
ALPHA
 10
60.87716
 20
21.291297
 30
0.0
 11
60.280626
 21
21.738831
 31
0.0
  0
LINE
  5
92DB
  8
ALPHA
 10
58.579661
 20
20.012546
 30
0.0
 11
58.579661
 21
18.012546
 31
0.0
  0
LINE
  5
92DC
  8
ALPHA
 10
60.879661
 20
21.012546
 30
0.0
 11
59.879661
 21
20.012546
 31
0.0
  0
LINE
  5
92DD
  8
ALPHA
 10
60.879661
 20
21.287545
 30
0.0
 11
60.879661
 21
21.012546
 31
0.0
  0
LINE
  5
92DE
  8
ALPHA
 10
58.807864
 20
22.509968
 30
0.0
 11
58.807864
 21
25.015123
 31
0.0
  0
LINE
  5
92DF
  8
ALPHA
 10
60.276982
 20
21.783526
 30
0.0
 11
60.582249
 21
22.012546
 31
0.0
  0
LINE
  5
92E0
  8
ALPHA
 10
60.582247
 20
25.512546
 30
0.0
 11
60.280626
 21
25.738831
 31
0.0
  0
LINE
  5
92E1
  8
ALPHA
 10
60.276982
 20
25.783526
 30
0.0
 11
60.582249
 21
26.012546
 31
0.0
  0
LINE
  5
92E2
  8
ALPHA
 10
60.279661
 20
25.737545
 30
0.0
 11
60.279661
 21
25.787545
 31
0.0
  0
LINE
  5
92E3
  8
ALPHA
 10
60.279661
 20
21.737545
 30
0.0
 11
60.279661
 21
21.787545
 31
0.0
  0
POLYLINE
  5
92E4
  8
ALPHA
 66
     1
 10
0.0
 20
0.0
 30
0.0
 70
   128
  0
VERTEX
  5
97E5
  8
ALPHA
 10
62.271966
 20
22.012546
 30
0.0
  0
VERTEX
  5
97E6
  8
ALPHA
 10
64.0202
 20
22.146481
 30
0.0
  0
VERTEX
  5
97E7
  8
ALPHA
 10
65.736068
 20
22.509968
 30
0.0
  0
SEQEND
  5
97E8
  8
ALPHA
  0
POLYLINE
  5
92E5
  8
ALPHA
 66
     1
 10
0.0
 20
0.0
 30
0.0
 70
   128
210
0.0
220
0.0
230
-1.0
  0
VERTEX
  5
97E9
  8
ALPHA
 10
-62.271966
 20
25.512546
 30
0.0
  0
VERTEX
  5
97EA
  8
ALPHA
 10
-64.0202
 20
25.37861
 30
0.0
  0
VERTEX
  5
97EB
  8
ALPHA
 10
-65.736068
 20
25.015123
 30
0.0
  0
SEQEND
  5
97EC
  8
ALPHA
  0
POLYLINE
  5
92E6
  8
ALPHA
 66
     1
 10
0.0
 20
0.0
 30
0.0
 70
   128
  0
VERTEX
  5
97ED
  8
ALPHA
 10
62.271966
 20
26.012546
 30
0.0
  0
VERTEX
  5
97EE
  8
ALPHA
 10
64.0202
 20
26.146481
 30
0.0
  0
VERTEX
  5
97EF
  8
ALPHA
 10
65.736068
 20
26.509968
 30
0.0
  0
SEQEND
  5
97F0
  8
ALPHA
  0
LINE
  5
92E7
  8
ALPHA
 10
65.736068
 20
22.509968
 30
0.0
 11
65.736068
 21
25.015123
 31
0.0
  0
LINE
  5
92E8
  8
ALPHA
 10
65.736068
 20
25.015123
 30
0.0
 11
63.879661
 21
25.512546
 31
0.0
  0
LINE
  5
92E9
  8
ALPHA
 10
63.879661
 20
26.012546
 30
0.0
 11
65.736068
 21
26.509968
 31
0.0
  0
LINE
  5
92EA
  8
ALPHA
 10
63.879661
 20
22.012546
 30
0.0
 11
65.736068
 21
22.509968
 31
0.0
  0
LINE
  5
9315
  8
ALPHA
 10
60.878808
 20
32.280563
 30
0.0
 11
42.879934
 21
31.791612
 31
0.0
  0
LINE
  5
9316
  8
ALPHA
 10
42.880566
 20
31.74469
 30
0.0
 11
60.879389
 21
32.233482
 31
0.0
  0
LINE
  5
9317
  8
ALPHA
 10
60.878757
 20
31.280402
 30
0.0
 11
42.879933
 21
30.79161
 31
0.0
  0
LINE
  5
9318
  8
ALPHA
 10
42.880514
 20
30.744528
 30
0.0
 11
60.879388
 21
31.23348
 31
0.0
  0
LINE
  5
9319
  8
ALPHA
 10
60.878734
 20
30.28033
 30
0.0
 11
42.879931
 21
29.791606
 31
0.0
  0
LINE
  5
931A
  8
ALPHA
 10
42.971018
 20
29.760242
 30
0.0
 11
51.879661
 21
29.987546
 31
0.0
  0
LINE
  5
931B
  8
ALPHA
 10
43.487328
 20
34.242211
 30
0.0
 11
60.273397
 21
34.731555
 31
0.0
  0
LINE
  5
931C
  8
ALPHA
 10
43.487327
 20
35.242211
 30
0.0
 11
60.273395
 21
35.731555
 31
0.0
  0
POLYLINE
  5
931D
  8
ALPHA
 66
     1
 10
0.0
 20
0.0
 30
0.0
 70
   128
210
0.0
220
0.0
230
-1.0
  0
VERTEX
  5
97F1
  8
ALPHA
 10
-43.485926
 20
37.293536
 30
0.0
  0
VERTEX
  5
97F2
  8
ALPHA
 10
-47.680864
 20
37.454226
 30
0.0
  0
VERTEX
  5
97F3
  8
ALPHA
 10
-51.879661
 20
37.537546
 30
0.0
  0
SEQEND
  5
97F4
  8
ALPHA
  0
POLYLINE
  5
931E
  8
ALPHA
 66
     1
 10
0.0
 20
0.0
 30
0.0
 70
   128
210
0.0
220
0.0
230
-1.0
  0
VERTEX
  5
97F5
  8
ALPHA
 10
-43.487326
 20
36.24221
 30
0.0
  0
VERTEX
  5
97F6
  8
ALPHA
 10
-46.455785
 20
36.375606
 30
0.0
  0
VERTEX
  5
97F7
  8
ALPHA
 10
-49.429736
 20
36.440445
 30
0.0
  0
VERTEX
  5
97F8
  8
ALPHA
 10
-55.379668
 20
36.555953
 30
0.0
  0
SEQEND
  5
97F9
  8
ALPHA
  0
POLYLINE
  5
931F
  8
ALPHA
 66
     1
 10
0.0
 20
0.0
 30
0.0
 70
   128
210
0.0
220
0.0
230
-1.0
  0
VERTEX
  5
97FA
  8
ALPHA
 10
-43.485367
 20
37.244153
 30
0.0
  0
VERTEX
  5
97FB
  8
ALPHA
 10
-47.680637
 20
37.404222
 30
0.0
  0
VERTEX
  5
97FC
  8
ALPHA
 10
-51.879661
 20
37.487546
 30
0.0
  0
SEQEND
  5
97FD
  8
ALPHA
  0
LINE
  5
9320
  8
ALPHA
 10
43.293947
 20
37.426832
 30
0.0
 11
51.879661
 21
37.569689
 31
0.0
  0
POLYLINE
  5
9321
  8
ALPHA
 66
     1
 10
0.0
 20
0.0
 30
0.0
 70
   128
210
0.0
220
0.0
230
-1.0
  0
VERTEX
  5
97FE
  8
ALPHA
 10
-42.895443
 20
36.781387
 30
0.0
  0
VERTEX
  5
97FF
  8
ALPHA
 10
-44.781819
 20
36.892471
 30
0.0
  0
VERTEX
  5
9800
  8
ALPHA
 10
-46.678186
 20
36.93942
 30
0.0
  0
VERTEX
  5
9801
  8
ALPHA
 10
-50.471748
 20
37.012546
 30
0.0
  0
SEQEND
  5
9802
  8
ALPHA
  0
POLYLINE
  5
9322
  8
ALPHA
 66
     1
 10
0.0
 20
0.0
 30
0.0
 70
   128
  0
VERTEX
  5
9803
  8
ALPHA
 10
53.287527
 20
37.012546
 30
0.0
  0
VERTEX
  5
9804
  8
ALPHA
 10
48.106995
 20
36.918705
 30
0.0
  0
VERTEX
  5
9805
  8
ALPHA
 10
42.929039
 20
36.754226
 30
0.0
  0
SEQEND
  5
9806
  8
ALPHA
  0
LINE
  5
9323
  8
ALPHA
 10
43.485928
 20
34.293537
 30
0.0
 11
60.271996
 21
34.782881
 31
0.0
  0
LINE
  5
9324
  8
ALPHA
 10
43.485927
 20
35.293536
 30
0.0
 11
60.271995
 21
35.782881
 31
0.0
  0
LINE
  5
9325
  8
ALPHA
 10
43.487328
 20
30.242211
 30
0.0
 11
60.273397
 21
30.731555
 31
0.0
  0
POLYLINE
  5
9326
  8
ALPHA
 66
     1
 10
0.0
 20
0.0
 30
0.0
 70
   128
210
0.0
220
0.0
230
-1.0
  0
VERTEX
  5
9807
  8
ALPHA
 10
-43.485925
 20
36.293536
 30
0.0
  0
VERTEX
  5
9808
  8
ALPHA
 10
-46.456282
 20
36.4259
 30
0.0
  0
VERTEX
  5
9809
  8
ALPHA
 10
-49.430313
 20
36.490454
 30
0.0
  0
VERTEX
  5
980A
  8
ALPHA
 10
-55.378646
 20
36.605931
 30
0.0
  0
SEQEND
  5
980B
  8
ALPHA
  0
LINE
  5
9327
  8
ALPHA
 10
43.487327
 20
31.242211
 30
0.0
 11
60.273395
 21
31.731555
 31
0.0
  0
LINE
  5
9328
  8
ALPHA
 10
43.487326
 20
32.24221
 30
0.0
 11
60.273394
 21
32.731555
 31
0.0
  0
LINE
  5
9329
  8
ALPHA
 10
60.878808
 20
36.280563
 30
0.0
 11
42.879934
 21
35.791612
 31
0.0
  0
POLYLINE
  5
932A
  8
ALPHA
 66
     1
 10
0.0
 20
0.0
 30
0.0
 70
   128
210
0.0
220
0.0
230
-1.0
  0
VERTEX
  5
980C
  8
ALPHA
 10
-43.485367
 20
33.244153
 30
0.0
  0
VERTEX
  5
980D
  8
ALPHA
 10
-47.680637
 20
33.404222
 30
0.0
  0
VERTEX
  5
980E
  8
ALPHA
 10
-51.879661
 20
33.487546
 30
0.0
  0
SEQEND
  5
980F
  8
ALPHA
  0
LINE
  5
932B
  8
ALPHA
 10
42.880566
 20
35.74469
 30
0.0
 11
60.879389
 21
36.233482
 31
0.0
  0
LINE
  5
932C
  8
ALPHA
 10
60.878757
 20
35.280402
 30
0.0
 11
42.879933
 21
34.79161
 31
0.0
  0
LINE
  5
932D
  8
ALPHA
 10
42.880514
 20
34.744528
 30
0.0
 11
60.879388
 21
35.23348
 31
0.0
  0
LINE
  5
932E
  8
ALPHA
 10
60.878734
 20
34.28033
 30
0.0
 11
42.879931
 21
33.791606
 31
0.0
  0
LINE
  5
932F
  8
ALPHA
 10
42.971018
 20
33.760242
 30
0.0
 11
51.879661
 21
33.987546
 31
0.0
  0
LINE
  5
9330
  8
ALPHA
 10
43.485928
 20
30.293537
 30
0.0
 11
60.271996
 21
30.782881
 31
0.0
  0
LINE
  5
9331
  8
ALPHA
 10
43.485927
 20
31.293536
 30
0.0
 11
60.271995
 21
31.782881
 31
0.0
  0
POLYLINE
  5
9332
  8
ALPHA
 66
     1
 10
0.0
 20
0.0
 30
0.0
 70
   128
  0
VERTEX
  5
9810
  8
ALPHA
 10
51.879661
 20
33.037546
 30
0.0
  0
VERTEX
  5
9811
  8
ALPHA
 10
47.377813
 20
32.954183
 30
0.0
  0
VERTEX
  5
9812
  8
ALPHA
 10
42.879966
 20
32.791641
 30
0.0
  0
SEQEND
  5
9813
  8
ALPHA
  0
LINE
  5
9333
  8
ALPHA
 10
43.485925
 20
32.293536
 30
0.0
 11
60.271994
 21
32.782881
 31
0.0
  0
LINE
  5
9334
  8
ALPHA
 10
42.880588
 20
32.74476
 30
0.0
 11
60.879392
 21
33.233485
 31
0.0
  0
POLYLINE
  5
9335
  8
ALPHA
 66
     1
 10
0.0
 20
0.0
 30
0.0
 70
   128
210
0.0
220
0.0
230
-1.0
  0
VERTEX
  5
9814
  8
ALPHA
 10
-43.485926
 20
33.293536
 30
0.0
  0
VERTEX
  5
9815
  8
ALPHA
 10
-47.680864
 20
33.454226
 30
0.0
  0
VERTEX
  5
9816
  8
ALPHA
 10
-51.879661
 20
33.537546
 30
0.0
  0
SEQEND
  5
9817
  8
ALPHA
  0
POLYLINE
  5
9336
  8
ALPHA
 66
     1
 10
0.0
 20
0.0
 30
0.0
 70
   128
210
0.0
220
0.0
230
-1.0
  0
VERTEX
  5
9818
  8
ALPHA
 10
-44.951458
 20
29.015123
 30
0.0
  0
VERTEX
  5
9819
  8
ALPHA
 10
-48.407316
 20
29.380407
 30
0.0
  0
VERTEX
  5
981A
  8
ALPHA
 10
-51.879661
 20
29.512546
 30
0.0
  0
SEQEND
  5
981B
  8
ALPHA
  0
ARC
  5
9337
  8
ALPHA
 10
51.879661
 20
39.53993
 30
0.0
 40
6.5
 50
98.849883
 51
121.588136
  0
LINE
  5
9338
  8
ALPHA
 10
48.474899
 20
45.07686
 30
0.0
 11
55.284423
 21
45.07686
 31
0.0
  0
LINE
  5
9339
  8
ALPHA
 10
48.379661
 20
44.906493
 30
0.0
 11
55.379661
 21
44.906493
 31
0.0
  0
LINE
  5
933A
  8
ALPHA
 10
43.879661
 20
38.012546
 30
0.0
 11
59.879661
 21
38.012546
 31
0.0
  0
LINE
  5
933B
  8
ALPHA
 10
39.879661
 20
29.512546
 30
0.0
 11
63.879661
 21
29.512546
 31
0.0
  0
POLYLINE
  5
933C
  8
ALPHA
 66
     1
 10
0.0
 20
0.0
 30
0.0
 70
   128
210
0.0
220
0.0
230
-1.0
  0
VERTEX
  5
981C
  8
ALPHA
 10
-38.023255
 20
29.015123
 30
0.0
  0
VERTEX
  5
981D
  8
ALPHA
 10
-39.739122
 20
29.37861
 30
0.0
  0
VERTEX
  5
981E
  8
ALPHA
 10
-41.487356
 20
29.512546
 30
0.0
  0
SEQEND
  5
981F
  8
ALPHA
  0
LINE
  5
933D
  8
ALPHA
 10
38.023255
 20
29.015123
 30
0.0
 11
39.879661
 21
29.512546
 31
0.0
  0
LINE
  5
933E
  8
ALPHA
 10
48.379661
 20
44.906493
 30
0.0
 11
48.379661
 21
38.012546
 31
0.0
  0
LINE
  5
933F
  8
ALPHA
 10
43.48234
 20
33.241566
 30
0.0
 11
42.882162
 21
32.791298
 31
0.0
  0
LINE
  5
9340
  8
ALPHA
 10
43.48234
 20
30.241565
 30
0.0
 11
42.882162
 21
29.791297
 31
0.0
  0
LINE
  5
9341
  8
ALPHA
 10
43.48234
 20
31.241565
 30
0.0
 11
42.882162
 21
30.791297
 31
0.0
  0
LINE
  5
9342
  8
ALPHA
 10
43.48234
 20
32.241566
 30
0.0
 11
42.882162
 21
31.791298
 31
0.0
  0
LINE
  5
9343
  8
ALPHA
 10
42.882162
 20
30.733793
 30
0.0
 11
43.478696
 21
30.286259
 31
0.0
  0
LINE
  5
9344
  8
ALPHA
 10
42.882162
 20
31.733794
 30
0.0
 11
43.478696
 21
31.28626
 31
0.0
  0
LINE
  5
9345
  8
ALPHA
 10
42.882162
 20
32.733795
 30
0.0
 11
43.478696
 21
32.286261
 31
0.0
  0
POLYLINE
  5
9346
  8
ALPHA
 66
     1
 10
0.0
 20
0.0
 30
0.0
 70
   128
210
0.0
220
0.0
230
-1.0
  0
VERTEX
  5
9820
  8
ALPHA
 10
-41.487356
 20
29.512546
 30
0.0
  0
VERTEX
  5
9821
  8
ALPHA
 10
-43.23559
 20
29.37861
 30
0.0
  0
VERTEX
  5
9822
  8
ALPHA
 10
-44.951458
 20
29.015123
 30
0.0
  0
SEQEND
  5
9823
  8
ALPHA
  0
LINE
  5
9347
  8
ALPHA
 10
42.879964
 20
31.741822
 30
0.0
 11
42.880566
 21
31.74469
 31
0.0
  0
LINE
  5
9348
  8
ALPHA
 10
42.879663
 20
31.737925
 30
0.0
 11
42.879964
 21
31.741822
 31
0.0
  0
LINE
  5
9349
  8
ALPHA
 10
42.879661
 20
31.737546
 30
0.0
 11
42.879663
 21
31.737925
 31
0.0
  0
LINE
  5
934A
  8
ALPHA
 10
42.879952
 20
30.741756
 30
0.0
 11
42.880514
 21
30.744528
 31
0.0
  0
LINE
  5
934B
  8
ALPHA
 10
42.879663
 20
30.737924
 30
0.0
 11
42.879952
 21
30.741756
 31
0.0
  0
LINE
  5
934C
  8
ALPHA
 10
42.879661
 20
30.737545
 30
0.0
 11
42.879663
 21
30.737924
 31
0.0
  0
LINE
  5
934D
  8
ALPHA
 10
42.880176
 20
29.742794
 30
0.0
 11
42.971018
 21
29.760242
 31
0.0
  0
LINE
  5
934E
  8
ALPHA
 10
42.879664
 20
29.737932
 30
0.0
 11
42.880176
 21
29.742794
 31
0.0
  0
LINE
  5
934F
  8
ALPHA
 10
42.879661
 20
29.737546
 30
0.0
 11
42.879664
 21
29.737932
 31
0.0
  0
LINE
  5
9350
  8
ALPHA
 10
42.879969
 20
32.741851
 30
0.0
 11
42.880588
 21
32.74476
 31
0.0
  0
LINE
  5
9351
  8
ALPHA
 10
42.879663
 20
32.737926
 30
0.0
 11
42.879969
 21
32.741851
 31
0.0
  0
LINE
  5
9352
  8
ALPHA
 10
42.879661
 20
32.737546
 30
0.0
 11
42.879663
 21
32.737926
 31
0.0
  0
LINE
  5
9353
  8
ALPHA
 10
42.882162
 20
29.733794
 30
0.0
 11
43.177075
 21
29.512546
 31
0.0
  0
LINE
  5
9354
  8
ALPHA
 10
42.882162
 20
29.791297
 30
0.0
 11
42.879661
 21
29.787545
 31
0.0
  0
LINE
  5
9355
  8
ALPHA
 10
42.882162
 20
30.791297
 30
0.0
 11
42.879661
 21
30.787546
 31
0.0
  0
LINE
  5
9356
  8
ALPHA
 10
42.882162
 20
31.791298
 30
0.0
 11
42.879661
 21
31.787546
 31
0.0
  0
LINE
  5
9357
  8
ALPHA
 10
42.882162
 20
32.791298
 30
0.0
 11
42.879661
 21
32.787546
 31
0.0
  0
LINE
  5
9358
  8
ALPHA
 10
42.879661
 20
29.787545
 30
0.0
 11
42.879661
 21
29.737546
 31
0.0
  0
LINE
  5
9359
  8
ALPHA
 10
42.879661
 20
30.787546
 30
0.0
 11
42.879661
 21
30.737545
 31
0.0
  0
LINE
  5
935A
  8
ALPHA
 10
42.879661
 20
31.787546
 30
0.0
 11
42.879661
 21
31.737546
 31
0.0
  0
LINE
  5
935B
  8
ALPHA
 10
42.879661
 20
32.787546
 30
0.0
 11
42.879661
 21
32.737546
 31
0.0
  0
LINE
  5
935C
  8
ALPHA
 10
43.487328
 20
30.242211
 30
0.0
 11
43.485369
 21
30.244154
 31
0.0
  0
LINE
  5
935D
  8
ALPHA
 10
43.487327
 20
31.242211
 30
0.0
 11
43.485368
 21
31.244154
 31
0.0
  0
LINE
  5
935E
  8
ALPHA
 10
43.487326
 20
32.24221
 30
0.0
 11
43.485366
 21
32.244153
 31
0.0
  0
LINE
  5
935F
  8
ALPHA
 10
43.479661
 20
30.287545
 30
0.0
 11
43.479661
 21
30.237545
 31
0.0
  0
LINE
  5
9360
  8
ALPHA
 10
43.479661
 20
31.287546
 30
0.0
 11
43.479661
 21
31.237546
 31
0.0
  0
LINE
  5
9361
  8
ALPHA
 10
43.479661
 20
32.287546
 30
0.0
 11
43.479661
 21
32.237546
 31
0.0
  0
LINE
  5
9362
  8
ALPHA
 10
42.882162
 20
33.733794
 30
0.0
 11
43.478696
 21
33.28626
 31
0.0
  0
LINE
  5
9363
  8
ALPHA
 10
43.48234
 20
34.241565
 30
0.0
 11
42.882162
 21
33.791297
 31
0.0
  0
LINE
  5
9364
  8
ALPHA
 10
43.48234
 20
35.241565
 30
0.0
 11
42.882162
 21
34.791297
 31
0.0
  0
LINE
  5
9365
  8
ALPHA
 10
43.48234
 20
36.241566
 30
0.0
 11
42.882162
 21
35.791298
 31
0.0
  0
LINE
  5
9366
  8
ALPHA
 10
43.48234
 20
37.241566
 30
0.0
 11
42.882162
 21
36.791298
 31
0.0
  0
LINE
  5
9367
  8
ALPHA
 10
42.882162
 20
34.733793
 30
0.0
 11
43.478696
 21
34.286259
 31
0.0
  0
LINE
  5
9368
  8
ALPHA
 10
42.882162
 20
35.733794
 30
0.0
 11
43.478696
 21
35.28626
 31
0.0
  0
LINE
  5
9369
  8
ALPHA
 10
42.882162
 20
36.733795
 30
0.0
 11
43.478696
 21
36.286261
 31
0.0
  0
LINE
  5
936A
  8
ALPHA
 10
42.897612
 20
36.738278
 30
0.0
 11
42.887599
 21
36.730429
 31
0.0
  0
LINE
  5
936B
  8
ALPHA
 10
42.900459
 20
36.740031
 30
0.0
 11
42.897612
 21
36.738278
 31
0.0
  0
LINE
  5
936C
  8
ALPHA
 10
42.929039
 20
36.754226
 30
0.0
 11
42.900459
 21
36.740031
 31
0.0
  0
LINE
  5
936D
  8
ALPHA
 10
42.879964
 20
35.741822
 30
0.0
 11
42.880566
 21
35.74469
 31
0.0
  0
LINE
  5
936E
  8
ALPHA
 10
42.879663
 20
35.737925
 30
0.0
 11
42.879964
 21
35.741822
 31
0.0
  0
LINE
  5
936F
  8
ALPHA
 10
42.879661
 20
35.737546
 30
0.0
 11
42.879663
 21
35.737925
 31
0.0
  0
LINE
  5
9370
  8
ALPHA
 10
42.879952
 20
34.741756
 30
0.0
 11
42.880514
 21
34.744528
 31
0.0
  0
LINE
  5
9371
  8
ALPHA
 10
42.879663
 20
34.737924
 30
0.0
 11
42.879952
 21
34.741756
 31
0.0
  0
LINE
  5
9372
  8
ALPHA
 10
42.879661
 20
34.737545
 30
0.0
 11
42.879663
 21
34.737924
 31
0.0
  0
LINE
  5
9373
  8
ALPHA
 10
42.880176
 20
33.742794
 30
0.0
 11
42.971018
 21
33.760242
 31
0.0
  0
LINE
  5
9374
  8
ALPHA
 10
42.879664
 20
33.737932
 30
0.0
 11
42.880176
 21
33.742794
 31
0.0
  0
LINE
  5
9375
  8
ALPHA
 10
42.879661
 20
33.737546
 30
0.0
 11
42.879664
 21
33.737932
 31
0.0
  0
LINE
  5
9376
  8
ALPHA
 10
42.879661
 20
36.737547
 30
0.0
 11
42.882162
 21
36.733795
 31
0.0
  0
LINE
  5
9377
  8
ALPHA
 10
42.879661
 20
33.787545
 30
0.0
 11
42.879661
 21
33.737546
 31
0.0
  0
LINE
  5
9378
  8
ALPHA
 10
42.879661
 20
34.787546
 30
0.0
 11
42.879661
 21
34.737545
 31
0.0
  0
LINE
  5
9379
  8
ALPHA
 10
42.879661
 20
35.787546
 30
0.0
 11
42.879661
 21
35.737546
 31
0.0
  0
LINE
  5
937A
  8
ALPHA
 10
42.879661
 20
36.787546
 30
0.0
 11
42.879661
 21
36.737546
 31
0.0
  0
LINE
  5
937B
  8
ALPHA
 10
42.882162
 20
33.791297
 30
0.0
 11
42.879661
 21
33.787545
 31
0.0
  0
LINE
  5
937C
  8
ALPHA
 10
42.882162
 20
34.791297
 30
0.0
 11
42.879661
 21
34.787546
 31
0.0
  0
LINE
  5
937D
  8
ALPHA
 10
42.882162
 20
35.791298
 30
0.0
 11
42.879661
 21
35.787546
 31
0.0
  0
LINE
  5
937E
  8
ALPHA
 10
42.879661
 20
36.787546
 30
0.0
 11
42.882162
 21
36.791298
 31
0.0
  0
LINE
  5
937F
  8
ALPHA
 10
43.487328
 20
34.242211
 30
0.0
 11
43.485369
 21
34.244154
 31
0.0
  0
LINE
  5
9380
  8
ALPHA
 10
43.487327
 20
35.242211
 30
0.0
 11
43.485368
 21
35.244154
 31
0.0
  0
LINE
  5
9381
  8
ALPHA
 10
43.487326
 20
36.24221
 30
0.0
 11
43.485366
 21
36.244153
 31
0.0
  0
LINE
  5
9382
  8
ALPHA
 10
43.294321
 20
37.424585
 30
0.0
 11
43.478696
 21
37.28626
 31
0.0
  0
LINE
  5
9383
  8
ALPHA
 10
43.479661
 20
33.287546
 30
0.0
 11
43.479661
 21
33.237546
 31
0.0
  0
LINE
  5
9384
  8
ALPHA
 10
43.479661
 20
34.287545
 30
0.0
 11
43.479661
 21
34.237545
 31
0.0
  0
LINE
  5
9385
  8
ALPHA
 10
43.479661
 20
35.287546
 30
0.0
 11
43.479661
 21
35.237546
 31
0.0
  0
LINE
  5
9386
  8
ALPHA
 10
43.479661
 20
36.287546
 30
0.0
 11
43.479661
 21
36.237546
 31
0.0
  0
LINE
  5
9387
  8
ALPHA
 10
43.479661
 20
37.287546
 30
0.0
 11
43.479661
 21
37.237546
 31
0.0
  0
LINE
  5
9388
  8
ALPHA
 10
43.293947
 20
37.426832
 30
0.0
 11
43.879661
 21
38.012546
 31
0.0
  0
ARC
  5
9389
  8
ALPHA
 10
48.579661
 20
44.906493
 30
0.0
 40
0.2
 50
121.588136
 51
180.0
  0
POLYLINE
  5
938A
  8
ALPHA
 66
     1
 10
0.0
 20
0.0
 30
0.0
 70
   128
  0
VERTEX
  5
9824
  8
ALPHA
 10
51.879661
 20
29.987546
 30
0.0
  0
VERTEX
  5
9825
  8
ALPHA
 10
56.381509
 20
30.070909
 30
0.0
  0
VERTEX
  5
9826
  8
ALPHA
 10
60.879356
 20
30.23345
 30
0.0
  0
SEQEND
  5
9827
  8
ALPHA
  0
LINE
  5
938B
  8
ALPHA
 10
55.379668
 20
36.555953
 30
0.0
 11
60.273394
 21
36.731555
 31
0.0
  0
LINE
  5
938C
  8
ALPHA
 10
51.879661
 20
37.487546
 30
0.0
 11
57.819367
 21
37.612546
 31
0.0
  0
POLYLINE
  5
938D
  8
ALPHA
 66
     1
 10
0.0
 20
0.0
 30
0.0
 70
   128
  0
VERTEX
  5
9828
  8
ALPHA
 10
51.879661
 20
33.537546
 30
0.0
  0
VERTEX
  5
9829
  8
ALPHA
 10
56.078685
 20
33.62087
 30
0.0
  0
VERTEX
  5
982A
  8
ALPHA
 10
60.273955
 20
33.780938
 30
0.0
  0
SEQEND
  5
982B
  8
ALPHA
  0
POLYLINE
  5
938E
  8
ALPHA
 66
     1
 10
0.0
 20
0.0
 30
0.0
 70
   128
  0
VERTEX
  5
982C
  8
ALPHA
 10
51.879661
 20
33.487546
 30
0.0
  0
VERTEX
  5
982D
  8
ALPHA
 10
56.078459
 20
33.570866
 30
0.0
  0
VERTEX
  5
982E
  8
ALPHA
 10
60.273396
 20
33.731555
 30
0.0
  0
SEQEND
  5
982F
  8
ALPHA
  0
POLYLINE
  5
938F
  8
ALPHA
 66
     1
 10
0.0
 20
0.0
 30
0.0
 70
   128
  0
VERTEX
  5
9830
  8
ALPHA
 10
51.879661
 20
29.537546
 30
0.0
  0
VERTEX
  5
9831
  8
ALPHA
 10
56.078685
 20
29.62087
 30
0.0
  0
VERTEX
  5
9832
  8
ALPHA
 10
60.273955
 20
29.780938
 30
0.0
  0
SEQEND
  5
9833
  8
ALPHA
  0
POLYLINE
  5
9390
  8
ALPHA
 66
     1
 10
0.0
 20
0.0
 30
0.0
 70
   128
  0
VERTEX
  5
9834
  8
ALPHA
 10
53.193223
 20
29.512536
 30
0.0
  0
VERTEX
  5
9835
  8
ALPHA
 10
56.735195
 20
29.585634
 30
0.0
  0
VERTEX
  5
9836
  8
ALPHA
 10
60.273396
 20
29.731555
 30
0.0
  0
SEQEND
  5
9837
  8
ALPHA
  0
LINE
  5
9391
  8
ALPHA
 10
53.287527
 20
37.012546
 30
0.0
 11
60.752037
 21
37.14012
 31
0.0
  0
LINE
  5
9392
  8
ALPHA
 10
57.819367
 20
37.612546
 30
0.0
 11
51.879661
 21
37.112546
 31
0.0
  0
LINE
  5
9393
  8
ALPHA
 10
55.378646
 20
36.605931
 30
0.0
 11
60.271994
 21
36.782881
 31
0.0
  0
POLYLINE
  5
9394
  8
ALPHA
 66
     1
 10
0.0
 20
0.0
 30
0.0
 70
   128
  0
VERTEX
  5
9838
  8
ALPHA
 10
51.879661
 20
33.987546
 30
0.0
  0
VERTEX
  5
9839
  8
ALPHA
 10
56.381509
 20
34.070909
 30
0.0
  0
VERTEX
  5
983A
  8
ALPHA
 10
60.879356
 20
34.23345
 30
0.0
  0
SEQEND
  5
983B
  8
ALPHA
  0
LINE
  5
9395
  8
ALPHA
 10
60.788316
 20
33.264851
 30
0.0
 11
51.879661
 21
33.037546
 31
0.0
  0
POLYLINE
  5
9396
  8
ALPHA
 66
     1
 10
0.0
 20
0.0
 30
0.0
 70
   128
210
0.0
220
0.0
230
-1.0
  0
VERTEX
  5
983C
  8
ALPHA
 10
-51.879661
 20
29.512546
 30
0.0
  0
VERTEX
  5
983D
  8
ALPHA
 10
-55.352007
 20
29.380406
 30
0.0
  0
VERTEX
  5
983E
  8
ALPHA
 10
-58.807864
 20
29.015123
 30
0.0
  0
SEQEND
  5
983F
  8
ALPHA
  0
LINE
  5
9397
  8
ALPHA
 10
55.693188
 20
37.612546
 30
0.0
 11
57.819367
 21
37.612546
 31
0.0
  0
LINE
  5
9398
  8
ALPHA
 10
55.379661
 20
44.906493
 30
0.0
 11
55.379661
 21
38.012546
 31
0.0
  0
LINE
  5
9399
  8
ALPHA
 10
51.879661
 20
37.537546
 30
0.0
 11
55.693188
 21
37.612546
 31
0.0
  0
LINE
  5
939A
  8
ALPHA
 10
51.879661
 20
37.569689
 30
0.0
 11
55.693188
 21
37.612546
 31
0.0
  0
LINE
  5
939B
  8
ALPHA
 10
50.566099
 20
29.512555
 30
0.0
 11
51.879661
 21
29.537546
 31
0.0
  0
LINE
  5
939C
  8
ALPHA
 10
51.879661
 20
37.112546
 30
0.0
 11
50.471748
 21
37.012546
 31
0.0
  0
LINE
  5
939D
  8
ALPHA
 10
53.287527
 20
37.012546
 30
0.0
 11
50.471748
 21
37.012546
 31
0.0
  0
ARC
  5
939E
  8
ALPHA
 10
51.879661
 20
39.53993
 30
0.0
 40
6.5
 50
58.411864
 51
81.150117
  0
LINE
  5
939F
  8
ALPHA
 10
52.879661
 20
45.962546
 30
0.0
 11
50.879661
 21
45.962546
 31
0.0
  0
ARC
  5
93A0
  8
ALPHA
 10
55.179661
 20
44.906493
 30
0.0
 40
0.2
 50
0.0
 51
58.411865
  0
POLYLINE
  5
93A1
  8
ALPHA
 66
     1
 10
0.0
 20
0.0
 30
0.0
 70
   128
210
0.0
220
0.0
230
-1.0
  0
VERTEX
  5
9840
  8
ALPHA
 10
-58.807864
 20
29.015123
 30
0.0
  0
VERTEX
  5
9841
  8
ALPHA
 10
-60.523732
 20
29.37861
 30
0.0
  0
VERTEX
  5
9842
  8
ALPHA
 10
-62.271966
 20
29.512546
 30
0.0
  0
SEQEND
  5
9843
  8
ALPHA
  0
LINE
  5
93A2
  8
ALPHA
 10
60.276982
 20
32.783527
 30
0.0
 11
60.87716
 21
33.233795
 31
0.0
  0
LINE
  5
93A3
  8
ALPHA
 10
60.87937
 20
32.283335
 30
0.0
 11
60.878808
 21
32.280563
 31
0.0
  0
LINE
  5
93A4
  8
ALPHA
 10
60.879661
 20
32.287547
 30
0.0
 11
60.87937
 21
32.283335
 31
0.0
  0
LINE
  5
93A5
  8
ALPHA
 10
60.879358
 20
31.28327
 30
0.0
 11
60.878757
 21
31.280402
 31
0.0
  0
LINE
  5
93A6
  8
ALPHA
 10
60.879661
 20
31.287546
 30
0.0
 11
60.879358
 21
31.28327
 31
0.0
  0
LINE
  5
93A7
  8
ALPHA
 10
60.879353
 20
30.28324
 30
0.0
 11
60.878734
 21
30.28033
 31
0.0
  0
LINE
  5
93A8
  8
ALPHA
 10
60.879661
 20
30.287545
 30
0.0
 11
60.879353
 21
30.28324
 31
0.0
  0
LINE
  5
93A9
  8
ALPHA
 10
60.273956
 20
30.780938
 30
0.0
 11
60.271996
 21
30.782881
 31
0.0
  0
LINE
  5
93AA
  8
ALPHA
 10
60.273954
 20
31.780938
 30
0.0
 11
60.271995
 21
31.782881
 31
0.0
  0
LINE
  5
93AB
  8
ALPHA
 10
60.273953
 20
32.780938
 30
0.0
 11
60.271994
 21
32.782881
 31
0.0
  0
LINE
  5
93AC
  8
ALPHA
 10
60.582247
 20
29.512546
 30
0.0
 11
60.280626
 21
29.738831
 31
0.0
  0
LINE
  5
93AD
  8
ALPHA
 10
60.87716
 20
30.291297
 30
0.0
 11
60.280626
 21
30.738831
 31
0.0
  0
LINE
  5
93AE
  8
ALPHA
 10
60.87716
 20
31.291298
 30
0.0
 11
60.280626
 21
31.738832
 31
0.0
  0
LINE
  5
93AF
  8
ALPHA
 10
60.87716
 20
32.291299
 30
0.0
 11
60.280626
 21
32.738833
 31
0.0
  0
LINE
  5
93B0
  8
ALPHA
 10
60.276982
 20
29.783526
 30
0.0
 11
60.87716
 21
30.233793
 31
0.0
  0
LINE
  5
93B1
  8
ALPHA
 10
60.276982
 20
30.783525
 30
0.0
 11
60.87716
 21
31.233793
 31
0.0
  0
LINE
  5
93B2
  8
ALPHA
 10
60.276982
 20
31.783526
 30
0.0
 11
60.87716
 21
32.233794
 31
0.0
  0
LINE
  5
93B3
  8
ALPHA
 10
60.879661
 20
30.287545
 30
0.0
 11
60.879661
 21
30.237545
 31
0.0
  0
LINE
  5
93B4
  8
ALPHA
 10
60.879661
 20
31.287546
 30
0.0
 11
60.879661
 21
31.237545
 31
0.0
  0
LINE
  5
93B5
  8
ALPHA
 10
60.879661
 20
32.287547
 30
0.0
 11
60.879661
 21
32.237546
 31
0.0
  0
LINE
  5
93B6
  8
ALPHA
 10
60.279661
 20
32.737547
 30
0.0
 11
60.279661
 21
32.787547
 31
0.0
  0
LINE
  5
93B7
  8
ALPHA
 10
60.279661
 20
31.737546
 30
0.0
 11
60.279661
 21
31.787546
 31
0.0
  0
LINE
  5
93B8
  8
ALPHA
 10
60.279661
 20
30.737545
 30
0.0
 11
60.279661
 21
30.787545
 31
0.0
  0
LINE
  5
93B9
  8
ALPHA
 10
60.279661
 20
29.737545
 30
0.0
 11
60.279661
 21
29.787545
 31
0.0
  0
LINE
  5
93BA
  8
ALPHA
 10
60.87716
 20
30.233793
 30
0.0
 11
60.879661
 21
30.237545
 31
0.0
  0
LINE
  5
93BB
  8
ALPHA
 10
60.87716
 20
31.233793
 30
0.0
 11
60.879661
 21
31.237545
 31
0.0
  0
LINE
  5
93BC
  8
ALPHA
 10
60.87716
 20
32.233794
 30
0.0
 11
60.879661
 21
32.237546
 31
0.0
  0
LINE
  5
93BD
  8
ALPHA
 10
60.273956
 20
34.780938
 30
0.0
 11
60.271996
 21
34.782881
 31
0.0
  0
LINE
  5
93BE
  8
ALPHA
 10
60.273954
 20
35.780938
 30
0.0
 11
60.271995
 21
35.782881
 31
0.0
  0
LINE
  5
93BF
  8
ALPHA
 10
60.273953
 20
36.780938
 30
0.0
 11
60.271994
 21
36.782881
 31
0.0
  0
LINE
  5
93C0
  8
ALPHA
 10
60.87937
 20
36.283335
 30
0.0
 11
60.878808
 21
36.280563
 31
0.0
  0
LINE
  5
93C1
  8
ALPHA
 10
60.879661
 20
36.287547
 30
0.0
 11
60.87937
 21
36.283335
 31
0.0
  0
LINE
  5
93C2
  8
ALPHA
 10
60.879358
 20
35.28327
 30
0.0
 11
60.878757
 21
35.280402
 31
0.0
  0
LINE
  5
93C3
  8
ALPHA
 10
60.879661
 20
35.287546
 30
0.0
 11
60.879358
 21
35.28327
 31
0.0
  0
LINE
  5
93C4
  8
ALPHA
 10
60.879353
 20
34.28324
 30
0.0
 11
60.878734
 21
34.28033
 31
0.0
  0
LINE
  5
93C5
  8
ALPHA
 10
60.879661
 20
34.287545
 30
0.0
 11
60.879353
 21
34.28324
 31
0.0
  0
LINE
  5
93C6
  8
ALPHA
 10
60.879146
 20
33.282296
 30
0.0
 11
60.788316
 21
33.264851
 31
0.0
  0
LINE
  5
93C7
  8
ALPHA
 10
60.879661
 20
33.287545
 30
0.0
 11
60.879146
 21
33.282296
 31
0.0
  0
LINE
  5
93C8
  8
ALPHA
 10
60.87716
 20
33.291297
 30
0.0
 11
60.280626
 21
33.738831
 31
0.0
  0
LINE
  5
93C9
  8
ALPHA
 10
60.87716
 20
34.291297
 30
0.0
 11
60.280626
 21
34.738831
 31
0.0
  0
LINE
  5
93CA
  8
ALPHA
 10
60.87716
 20
35.291298
 30
0.0
 11
60.280626
 21
35.738832
 31
0.0
  0
LINE
  5
93CB
  8
ALPHA
 10
60.87716
 20
36.291299
 30
0.0
 11
60.280626
 21
36.738833
 31
0.0
  0
LINE
  5
93CC
  8
ALPHA
 10
60.276982
 20
33.783526
 30
0.0
 11
60.87716
 21
34.233793
 31
0.0
  0
LINE
  5
93CD
  8
ALPHA
 10
60.276982
 20
34.783525
 30
0.0
 11
60.87716
 21
35.233793
 31
0.0
  0
LINE
  5
93CE
  8
ALPHA
 10
60.276982
 20
35.783526
 30
0.0
 11
60.87716
 21
36.233794
 31
0.0
  0
LINE
  5
93CF
  8
ALPHA
 10
60.276982
 20
36.783527
 30
0.0
 11
60.750727
 21
37.138943
 31
0.0
  0
LINE
  5
93D0
  8
ALPHA
 10
60.751089
 20
37.141118
 30
0.0
 11
59.879661
 21
38.012546
 31
0.0
  0
LINE
  5
93D1
  8
ALPHA
 10
60.879661
 20
36.287547
 30
0.0
 11
60.87716
 21
36.291299
 31
0.0
  0
LINE
  5
93D2
  8
ALPHA
 10
60.879661
 20
33.287545
 30
0.0
 11
60.879661
 21
33.237547
 31
0.0
  0
LINE
  5
93D3
  8
ALPHA
 10
60.879661
 20
34.287545
 30
0.0
 11
60.879661
 21
34.237545
 31
0.0
  0
LINE
  5
93D4
  8
ALPHA
 10
60.879661
 20
35.287546
 30
0.0
 11
60.879661
 21
35.237545
 31
0.0
  0
LINE
  5
93D5
  8
ALPHA
 10
60.879661
 20
36.287547
 30
0.0
 11
60.879661
 21
36.237546
 31
0.0
  0
LINE
  5
93D6
  8
ALPHA
 10
60.279661
 20
36.737547
 30
0.0
 11
60.279661
 21
36.787547
 31
0.0
  0
LINE
  5
93D7
  8
ALPHA
 10
60.279661
 20
35.737546
 30
0.0
 11
60.279661
 21
35.787546
 31
0.0
  0
LINE
  5
93D8
  8
ALPHA
 10
60.279661
 20
34.737545
 30
0.0
 11
60.279661
 21
34.787545
 31
0.0
  0
LINE
  5
93D9
  8
ALPHA
 10
60.279661
 20
33.737545
 30
0.0
 11
60.279661
 21
33.787545
 31
0.0
  0
LINE
  5
93DA
  8
ALPHA
 10
60.750727
 20
37.138943
 30
0.0
 11
60.751089
 21
37.141118
 31
0.0
  0
LINE
  5
93DB
  8
ALPHA
 10
60.87716
 20
33.233795
 30
0.0
 11
60.879661
 21
33.237547
 31
0.0
  0
LINE
  5
93DC
  8
ALPHA
 10
60.87716
 20
34.233793
 30
0.0
 11
60.879661
 21
34.237545
 31
0.0
  0
LINE
  5
93DD
  8
ALPHA
 10
60.87716
 20
35.233793
 30
0.0
 11
60.879661
 21
35.237545
 31
0.0
  0
LINE
  5
93DE
  8
ALPHA
 10
60.87716
 20
36.233794
 30
0.0
 11
60.879661
 21
36.237546
 31
0.0
  0
POLYLINE
  5
93DF
  8
ALPHA
 66
     1
 10
0.0
 20
0.0
 30
0.0
 70
   128
210
0.0
220
0.0
230
-1.0
  0
VERTEX
  5
9844
  8
ALPHA
 10
-62.271966
 20
29.512546
 30
0.0
  0
VERTEX
  5
9845
  8
ALPHA
 10
-64.0202
 20
29.37861
 30
0.0
  0
VERTEX
  5
9846
  8
ALPHA
 10
-65.736068
 20
29.015123
 30
0.0
  0
SEQEND
  5
9847
  8
ALPHA
  0
LINE
  5
93E0
  8
ALPHA
 10
65.736068
 20
29.015123
 30
0.0
 11
63.879661
 21
29.512546
 31
0.0
  0
VIEWPORT
  5
494D
 67
     1
  8
0
 10
4.995325
 20
6.556512
 30
0.0
 40
22.70986
 41
13.988421
 68
    -1
 69
     1
1001
ACAD
1000
MVIEW
1002
{
1070
    16
1010
0.0
1020
0.0
1030
0.0
1010
0.0
1020
0.0
1030
1.0
1040
0.0
1040
13.988421
1040
4.995325
1040
6.556512
1040
50.0
1040
0.0
1040
0.0
1070
     0
1070
   100
1070
     1
1070
     1
1070
     0
1070
     0
1070
     0
1070
     0
1040
0.0
1040
0.0
1040
0.0
1040
10.0
1040
10.0
1040
10.0
1040
10.0
1070
     0
1002
{
1002
}
1002
}
  0
ENDSEC
  0
EOF
