  0
SECTION
  2
HEADER
  9
$ACADVER
  1
AC1009
  9
$INSBASE
 10
402.590624
 20
-1.041018
 30
0.0
  9
$EXTMIN
 10
-5.172906
 20
0.773739
 30
0.0
  9
$EXTMAX
 10
82.989242
 20
70.823739
 30
0.0
  9
$LIMMIN
 10
-407.970438
 20
-367.832444
  9
$LIMMAX
 10
429.804077
 20
234.370848
  9
$ORTHOMODE
 70
     1
  9
$REGENMODE
 70
     1
  9
$FILLMODE
 70
     1
  9
$QTEXTMODE
 70
     0
  9
$MIRRTEXT
 70
     1
  9
$DRAGMODE
 70
     2
  9
$LTSCALE
 40
10.0
  9
$OSMODE
 70
    39
  9
$ATTMODE
 70
     1
  9
$TEXTSIZE
 40
6.0
  9
$TRACEWID
 40
1.0
  9
$TEXTSTYLE
  7
ROMANS
  9
$CLAYER
  8
ALPHA
  9
$CELTYPE
  6
BYLAYER
  9
$CECOLOR
 62
   256
  9
$DIMSCALE
 40
1.0
  9
$DIMASZ
 40
5.0
  9
$DIMEXO
 40
2.0
  9
$DIMDLI
 40
0.38
  9
$DIMRND
 40
0.0
  9
$DIMDLE
 40
0.0
  9
$DIMEXE
 40
2.5
  9
$DIMTP
 40
0.0
  9
$DIMTM
 40
0.0
  9
$DIMTXT
 40
2.5
  9
$DIMCEN
 40
0.0
  9
$DIMTSZ
 40
0.0
  9
$DIMTOL
 70
     0
  9
$DIMLIM
 70
     0
  9
$DIMTIH
 70
     1
  9
$DIMTOH
 70
     1
  9
$DIMSE1
 70
     0
  9
$DIMSE2
 70
     0
  9
$DIMTAD
 70
     1
  9
$DIMZIN
 70
    12
  9
$DIMBLK
  1
OPEN30
  9
$DIMASO
 70
     1
  9
$DIMSHO
 70
     1
  9
$DIMPOST
  1

  9
$DIMAPOST
  1

  9
$DIMALT
 70
     0
  9
$DIMALTD
 70
     2
  9
$DIMALTF
 40
25.4
  9
$DIMLFAC
 40
1.0
  9
$DIMTOFL
 70
     0
  9
$DIMTVP
 40
0.0
  9
$DIMTIX
 70
     0
  9
$DIMSOXD
 70
     0
  9
$DIMSAH
 70
     0
  9
$DIMBLK1
  1

  9
$DIMBLK2
  1

  9
$DIMSTYLE
  2
SC_DEFAUT
  9
$DIMCLRD
 70
     0
  9
$DIMCLRE
 70
     0
  9
$DIMCLRT
 70
     0
  9
$DIMTFAC
 40
1.0
  9
$DIMGAP
 40
2.0
  9
$LUNITS
 70
     2
  9
$LUPREC
 70
     1
  9
$SKETCHINC
 40
0.1
  9
$FILLETRAD
 40
0.0
  9
$AUNITS
 70
     0
  9
$AUPREC
 70
     0
  9
$MENU
  1
acad
  9
$ELEVATION
 40
0.0
  9
$PELEVATION
 40
0.0
  9
$THICKNESS
 40
0.0
  9
$LIMCHECK
 70
     0
  9
$BLIPMODE
 70
     0
  9
$CHAMFERA
 40
0.0
  9
$CHAMFERB
 40
0.0
  9
$SKPOLY
 70
     0
  9
$TDCREATE
 40
2450373.687919
  9
$TDUPDATE
 40
2452996.480221
  9
$TDINDWG
 40
0.88077
  9
$TDUSRTIMER
 40
0.88077
  9
$USRTIMER
 70
     1
  9
$ANGBASE
 50
0.0
  9
$ANGDIR
 70
     0
  9
$PDMODE
 70
    32
  9
$PDSIZE
 40
0.0
  9
$PLINEWID
 40
0.0
  9
$COORDS
 70
     1
  9
$SPLFRAME
 70
     0
  9
$SPLINETYPE
 70
     6
  9
$SPLINESEGS
 70
     8
  9
$ATTDIA
 70
     0
  9
$ATTREQ
 70
     1
  9
$HANDLING
 70
     1
  9
$HANDSEED
  5
9F28
  9
$SURFTAB1
 70
     6
  9
$SURFTAB2
 70
     6
  9
$SURFTYPE
 70
     6
  9
$SURFU
 70
     6
  9
$SURFV
 70
     6
  9
$UCSNAME
  2

  9
$UCSORG
 10
0.0
 20
0.0
 30
0.0
  9
$UCSXDIR
 10
1.0
 20
0.0
 30
0.0
  9
$UCSYDIR
 10
0.0
 20
1.0
 30
0.0
  9
$PUCSNAME
  2

  9
$PUCSORG
 10
0.0
 20
0.0
 30
0.0
  9
$PUCSXDIR
 10
1.0
 20
0.0
 30
0.0
  9
$PUCSYDIR
 10
0.0
 20
1.0
 30
0.0
  9
$USERI1
 70
     0
  9
$USERI2
 70
     0
  9
$USERI3
 70
     0
  9
$USERI4
 70
     0
  9
$USERI5
 70
     0
  9
$USERR1
 40
0.0
  9
$USERR2
 40
0.0
  9
$USERR3
 40
0.0
  9
$USERR4
 40
0.0
  9
$USERR5
 40
0.0
  9
$WORLDVIEW
 70
     1
  9
$SHADEDGE
 70
     3
  9
$SHADEDIF
 70
    70
  9
$TILEMODE
 70
     1
  9
$MAXACTVP
 70
    16
  9
$PLIMCHECK
 70
     0
  9
$PEXTMIN
 10
-1.452248
 20
-0.437698
 30
0.0
  9
$PEXTMAX
 10
12.749749
 20
8.310198
 30
0.0
  9
$PLIMMIN
 10
0.0
 20
0.0
  9
$PLIMMAX
 10
12.0
 20
9.0
  9
$UNITMODE
 70
     0
  9
$VISRETAIN
 70
     0
  9
$PLINEGEN
 70
     0
  9
$PSLTSCALE
 70
     0
  0
ENDSEC
  0
SECTION
  2
TABLES
  0
TABLE
  2
VPORT
 70
     2
  0
VPORT
  2
*ACTIVE
 70
     0
 10
0.0
 20
0.0
 11
1.0
 21
1.0
 12
38.912521
 22
35.794277
 13
0.0
 23
0.0
 14
1.0
 24
1.0
 15
10.0
 25
10.0
 16
0.0
 26
0.0
 36
1.0
 17
0.0
 27
0.0
 37
0.0
 40
70.569981
 41
1.466346
 42
50.0
 43
0.0
 44
0.0
 50
0.0
 51
0.0
 71
     0
 72
   100
 73
     1
 74
     0
 75
     0
 76
     0
 77
     0
 78
     0
  0
ENDTAB
  0
TABLE
  2
LTYPE
 70
     2
  0
LTYPE
  2
CONTINUOUS
 70
     0
  3
Solid line
 72
    65
 73
     0
 40
0.0
  0
LTYPE
  2
AXES2
 70
     0
  3
___ _ ___ _ ___ _ ___ _ ___ _ ___ _ ___ _ ___ _
 72
    65
 73
     4
 40
1.125
 49
0.75
 49
-0.125
 49
0.125
 49
-0.125
  0
ENDTAB
  0
TABLE
  2
LAYER
 70
     5
  0
LAYER
  2
0
 70
     0
 62
   255
  6
CONTINUOUS
  0
LAYER
  2
COTATION1
 70
     0
 62
     2
  6
CONTINUOUS
  0
LAYER
  2
AXE
 70
     0
 62
    80
  6
AXES2
  0
LAYER
  2
DEFPOINTS
 70
     0
 62
     7
  6
CONTINUOUS
  0
LAYER
  2
ALPHA
 70
     0
 62
   254
  6
CONTINUOUS
  0
ENDTAB
  0
TABLE
  2
STYLE
 70
     2
  0
STYLE
  2
ROMANS
 70
     0
 40
0.0
 41
1.0
 50
0.0
 71
     0
 42
6.0
  3
romans
  4

  0
STYLE
  2
STANDARD
 70
     0
 40
0.0
 41
1.0
 50
0.0
 71
     0
 42
0.2
  3
txt
  4

  0
ENDTAB
  0
TABLE
  2
VIEW
 70
     0
  0
ENDTAB
  0
TABLE
  2
UCS
 70
     0
  0
ENDTAB
  0
TABLE
  2
APPID
 70
     1
  0
APPID
  2
ACAD
 70
     0
  0
ENDTAB
  0
TABLE
  2
DIMSTYLE
 70
     1
  0
DIMSTYLE
  2
SC_DEFAUT
 70
     0
  3

  4

  5
OPEN30
  6

  7

 40
1.0
 41
5.0
 42
2.0
 43
0.38
 44
2.5
 45
0.0
 46
0.0
 47
0.0
 48
0.0
140
2.5
141
0.0
142
0.0
143
25.4
144
1.0
145
0.0
146
1.0
147
2.0
 71
     0
 72
     0
 73
     1
 74
     1
 75
     0
 76
     0
 77
     1
 78
    12
170
     0
171
     2
172
     0
173
     0
174
     0
175
     0
176
     0
177
     0
178
     0
  0
ENDTAB
  0
ENDSEC
  0
SECTION
  2
BLOCKS
  0
BLOCK
  8
0
  2
$MODEL_SPACE
 70
     0
 10
0.0
 20
0.0
 30
0.0
  3
$MODEL_SPACE
  1

  0
ENDBLK
  5
9EAB
  8
0
  0
BLOCK
 67
     1
  8
0
  2
$PAPER_SPACE
 70
     0
 10
0.0
 20
0.0
 30
0.0
  3
$PAPER_SPACE
  1

  0
ENDBLK
  5
9EA9
 67
     1
  8
0
  0
BLOCK
  8
0
  2
COTE
 70
     0
 10
0.0
 20
0.0
 30
0.0
  3
COTE
  1

  0
ENDBLK
  5
F
  8
0
  0
BLOCK
  8
0
  2
FOND
 70
     0
 10
0.0
 20
0.0
 30
0.0
  3
FOND
  1

  0
ENDBLK
  5
75
  8
0
  0
BLOCK
  8
0
  2
_OPEN30
 70
     0
 10
0.0
 20
0.0
 30
0.0
  3
_OPEN30
  1

  0
LINE
  5
4B05
  8
COTATION1
 62
     0
 10
-1.0
 20
0.267949
 30
0.0
 11
0.0
 21
0.0
 31
0.0
1001
ACAD
1000
RTLwPs
1070
   158
  0
LINE
  5
4B06
  8
COTATION1
 62
     0
 10
0.0
 20
0.0
 30
0.0
 11
-1.0
 21
-0.267949
 31
0.0
1001
ACAD
1000
RTLwPs
1070
   158
  0
LINE
  5
4B07
  8
COTATION1
 62
     0
 10
0.0
 20
0.0
 30
0.0
 11
-1.0
 21
0.0
 31
0.0
1001
ACAD
1000
RTLwPs
1070
   158
  0
ENDBLK
  5
4B09
  8
0
  0
BLOCK
  8
0
  2
*D3
 70
     1
 10
0.0
 20
0.0
 30
0.0
  3
*D3
  1

  0
LINE
  5
9CC0
  8
COTATION1
 62
     0
 10
41.379661
 20
32.573739
 30
0.0
 11
41.379661
 21
68.823739
 31
0.0
1001
ACAD
1000
RTLwPs
1070
   158
  0
LINE
  5
9CC1
  8
COTATION1
 62
     0
 10
62.379661
 20
32.573739
 30
0.0
 11
62.379661
 21
68.823739
 31
0.0
1001
ACAD
1000
RTLwPs
1070
   158
  0
LINE
  5
9CC2
  8
COTATION1
 62
     0
 10
46.379661
 20
66.323739
 30
0.0
 11
57.379661
 21
66.323739
 31
0.0
1001
ACAD
1000
RTLwPs
1070
   158
  0
INSERT
  5
9CC3
  8
COTATION1
 62
     0
  2
_OPEN30
 10
41.379661
 20
66.323739
 30
0.0
 41
5.0
 42
5.0
 43
5.0
 50
180.0
1001
ACAD
1000
RTLwPs
1070
   158
  0
INSERT
  5
9CC4
  8
COTATION1
 62
     0
  2
_OPEN30
 10
62.379661
 20
66.323739
 30
0.0
 41
5.0
 42
5.0
 43
5.0
1001
ACAD
1000
RTLwPs
1070
   158
  0
TEXT
  5
9CC5
  8
COTATION1
 62
     0
 10
49.855852
 20
68.323739
 30
0.0
 40
2.5
  1
21
1001
ACAD
1000
MTEXTBEGIN
1070
    73
1070
     1
1070
    44
1040
1.0
1070
    74
1070
     0
1000
MTEXTEND
  0
POINT
  5
9CC6
  8
DEFPOINTS
 62
     0
 10
41.379661
 20
30.573739
 30
0.0
  0
POINT
  5
9CC7
  8
DEFPOINTS
 62
     0
 10
62.379661
 20
30.573739
 30
0.0
  0
POINT
  5
9CC8
  8
DEFPOINTS
 62
     0
 10
62.379661
 20
66.323739
 30
0.0
  0
ENDBLK
  5
7F3E
  8
0
  0
BLOCK
  8
0
  2
*D4
 70
     1
 10
0.0
 20
0.0
 30
0.0
  3
*D4
  1

  0
LINE
  5
9CE9
  8
COTATION1
 62
     0
 10
49.879661
 20
56.323739
 30
0.0
 11
28.237846
 21
56.323739
 31
0.0
1001
ACAD
1000
RTLwPs
1070
   158
  0
LINE
  5
9CEA
  8
COTATION1
 62
     0
 10
41.929661
 20
19.073739
 30
0.0
 11
28.237846
 21
19.073739
 31
0.0
1001
ACAD
1000
RTLwPs
1070
   158
  0
LINE
  5
9CEB
  8
COTATION1
 62
     0
 10
30.737846
 20
51.323739
 30
0.0
 11
30.737846
 21
40.948739
 31
0.0
1001
ACAD
1000
RTLwPs
1070
   158
  0
LINE
  5
9CEC
  8
COTATION1
 62
     0
 10
30.737846
 20
24.073739
 30
0.0
 11
30.737846
 21
34.448739
 31
0.0
1001
ACAD
1000
RTLwPs
1070
   158
  0
INSERT
  5
9CED
  8
COTATION1
 62
     0
  2
_OPEN30
 10
30.737846
 20
56.323739
 30
0.0
 41
5.0
 42
5.0
 43
5.0
 50
90.0
1001
ACAD
1000
RTLwPs
1070
   158
  0
INSERT
  5
9CEE
  8
COTATION1
 62
     0
  2
_OPEN30
 10
30.737846
 20
19.073739
 30
0.0
 41
5.0
 42
5.0
 43
5.0
 50
270.0
1001
ACAD
1000
RTLwPs
1070
   158
  0
TEXT
  5
9CEF
  8
COTATION1
 62
     0
 10
26.571179
 20
36.448739
 30
0.0
 40
2.5
  1
37.2
1001
ACAD
1000
MTEXTBEGIN
1070
    73
1070
     1
1070
    44
1040
1.0
1070
    74
1070
     0
1000
MTEXTEND
  0
POINT
  5
9CF0
  8
DEFPOINTS
 62
     0
 10
51.879661
 20
56.323739
 30
0.0
  0
POINT
  5
9CF1
  8
DEFPOINTS
 62
     0
 10
43.929661
 20
19.073739
 30
0.0
  0
POINT
  5
9CF2
  8
DEFPOINTS
 62
     0
 10
30.737846
 20
19.073739
 30
0.0
  0
ENDBLK
  5
7F4B
  8
0
  0
BLOCK
  8
0
  2
*D5
 70
     1
 10
0.0
 20
0.0
 30
0.0
  3
*D5
  1

  0
LINE
  5
9CDF
  8
COTATION1
 62
     0
 10
53.879661
 20
56.323739
 30
0.0
 11
81.679718
 21
56.323739
 31
0.0
1001
ACAD
1000
RTLwPs
1070
   158
  0
LINE
  5
9CE0
  8
COTATION1
 62
     0
 10
59.729661
 20
10.773739
 30
0.0
 11
81.679718
 21
10.773739
 31
0.0
1001
ACAD
1000
RTLwPs
1070
   158
  0
LINE
  5
9CE1
  8
COTATION1
 62
     0
 10
79.179718
 20
51.323739
 30
0.0
 11
79.179718
 21
36.798739
 31
0.0
1001
ACAD
1000
RTLwPs
1070
   158
  0
LINE
  5
9CE2
  8
COTATION1
 62
     0
 10
79.179718
 20
15.773739
 30
0.0
 11
79.179718
 21
30.298739
 31
0.0
1001
ACAD
1000
RTLwPs
1070
   158
  0
TEXT
  5
9CE3
  8
COTATION1
 62
     0
 10
75.013051
 20
32.298739
 30
0.0
 40
2.5
  1
45.6
1001
ACAD
1000
MTEXTBEGIN
1070
    73
1070
     1
1070
    44
1040
1.0
1070
    74
1070
     0
1000
MTEXTEND
  0
INSERT
  5
9CE4
  8
COTATION1
 62
     0
  2
_OPEN30
 10
79.179718
 20
56.323739
 30
0.0
 41
5.0
 42
5.0
 43
5.0
 50
90.0
1001
ACAD
1000
RTLwPs
1070
   158
  0
INSERT
  5
9CE5
  8
COTATION1
 62
     0
  2
_OPEN30
 10
79.179718
 20
10.773739
 30
0.0
 41
5.0
 42
5.0
 43
5.0
 50
270.0
1001
ACAD
1000
RTLwPs
1070
   158
  0
POINT
  5
9CE6
  8
DEFPOINTS
 62
     0
 10
51.879661
 20
56.323739
 30
0.0
  0
POINT
  5
9CE7
  8
DEFPOINTS
 62
     0
 10
57.729661
 20
10.773739
 30
0.0
  0
POINT
  5
9CE8
  8
DEFPOINTS
 62
     0
 10
79.179718
 20
10.773739
 30
0.0
  0
ENDBLK
  5
8EB4
  8
0
  0
ENDSEC
  0
SECTION
  2
ENTITIES
  0
INSERT
  5
A
  8
0
  2
COTE
 10
0.0
 20
0.0
 30
0.0
  0
INSERT
  5
17
  8
0
  2
COTE
 10
284.010391
 20
6.373258
 30
0.0
  0
INSERT
  5
72
  8
0
  2
FOND
 10
0.0
 20
0.0
 30
0.0
  0
DIMENSION
  5
7F30
  8
COTATION1
  2
*D3
 10
62.379661
 20
66.323739
 30
0.0
 11
51.879661
 21
69.573739
 31
0.0
 13
41.379661
 23
30.573739
 33
0.0
 14
62.379661
 24
30.573739
 34
0.0
  0
DIMENSION
  5
7F31
  8
COTATION1
  2
*D4
 10
30.737846
 20
19.073739
 30
0.0
 11
30.737846
 21
37.698739
 31
0.0
 13
51.879661
 23
56.323739
 33
0.0
 14
43.929661
 24
19.073739
 34
0.0
 50
90.0
  0
LINE
  5
8AD3
  8
AXE
 10
51.879661
 20
0.773739
 30
0.0
 11
51.879661
 21
61.323739
 31
0.0
  0
TEXT
  5
8AD4
  8
AXE
 10
46.832042
 20
0.773739
 30
0.0
 40
5.0
  1
Y
 72
     2
 11
50.879661
 21
0.773739
 31
0.0
  0
LINE
  5
8AD5
  8
AXE
 10
38.879661
 20
18.018739
 30
0.0
 11
69.879661
 21
18.018739
 31
0.0
  0
TEXT
  5
8AD6
  8
AXE
 10
65.832042
 20
19.018739
 30
0.0
 40
5.0
  1
X
 72
     2
 11
69.879661
 21
19.018739
 31
0.0
  0
LINE
  5
8B73
  8
COTATION1
 10
8.077094
 20
21.573739
 30
0.0
 11
8.077094
 21
46.532661
 31
0.0
  0
LINE
  5
8B74
  8
COTATION1
 10
-0.023259
 20
19.073739
 30
0.0
 11
42.879661
 21
19.073739
 31
0.0
  0
SOLID
  5
8B75
  8
COTATION1
 10
9.520469
 20
19.073739
 30
0.0
 11
6.633718
 21
19.073739
 31
0.0
 12
8.077094
 22
21.573739
 32
0.0
 13
8.077094
 23
21.573739
 33
0.0
  0
LINE
  5
8B76
  8
COTATION1
 10
-5.172906
 20
51.532661
 30
0.0
 11
21.327094
 21
51.532661
 31
0.0
  0
LINE
  5
8B77
  8
COTATION1
 10
21.327094
 20
46.532661
 30
0.0
 11
-5.172906
 21
46.532661
 31
0.0
  0
TEXT
  5
8B78
  8
COTATION1
 10
-3.922906
 20
47.782661
 30
0.0
 40
2.5
  1
PLANE_TO_LINE_UP
 41
0.626087
  7
STANDARD
 72
     5
 11
20.077094
 21
47.782661
 31
0.0
  0
LINE
  5
8B79
  8
COTATION1
 10
21.327094
 20
51.532661
 30
0.0
 11
21.327094
 21
46.532661
 31
0.0
  0
LINE
  5
8B7A
  8
COTATION1
 10
-5.172906
 20
46.532661
 30
0.0
 11
-5.172906
 21
51.532661
 31
0.0
  0
DIMENSION
  5
8EA7
  8
COTATION1
  2
*D5
 10
79.179718
 20
10.773739
 30
0.0
 11
79.179718
 21
33.548739
 31
0.0
 70
   128
 13
51.879661
 23
56.323739
 33
0.0
 14
57.729661
 24
10.773739
 34
0.0
 50
90.0
  0
LINE
  5
999C
  8
ALPHA
 10
62.379661
 20
23.073739
 30
0.0
 11
62.379661
 21
26.573739
 31
0.0
  0
LINE
  5
999D
  8
ALPHA
 10
51.879661
 20
23.508983
 30
0.0
 11
51.879661
 21
26.138494
 31
0.0
  0
LINE
  5
999E
  8
ALPHA
 10
41.379661
 20
23.073739
 30
0.0
 11
41.379661
 21
26.573739
 31
0.0
  0
LINE
  5
99A1
  8
ALPHA
 10
59.780234
 20
23.073621
 30
0.0
 11
43.880019
 21
22.603359
 31
0.0
  0
LINE
  5
99A2
  8
ALPHA
 10
43.977268
 20
22.573625
 30
0.0
 11
59.879306
 21
23.044121
 31
0.0
  0
LINE
  5
99A3
  8
ALPHA
 10
59.879658
 20
21.0983
 30
0.0
 11
43.880023
 21
20.603363
 31
0.0
  0
LINE
  5
99A4
  8
ALPHA
 10
59.878044
 20
22.089422
 30
0.0
 11
43.880026
 21
21.603365
 31
0.0
  0
LINE
  5
99A5
  8
ALPHA
 10
44.481413
 20
21.058263
 30
0.0
 11
59.259283
 21
21.542654
 31
0.0
  0
POLYLINE
  5
99A6
  8
ALPHA
 66
     1
 10
0.0
 20
0.0
 30
0.0
 70
   128
210
0.0
220
0.0
230
-1.0
  0
VERTEX
  5
9EB1
  8
ALPHA
 10
-55.233521
 20
11.273739
 30
0.0
  0
VERTEX
  5
9EB2
  8
ALPHA
 10
-55.180287
 20
11.128359
 30
0.0
  0
VERTEX
  5
9EB3
  8
ALPHA
 10
-55.043895
 20
11.056383
 30
0.0
  0
VERTEX
  5
9EB4
  8
ALPHA
 10
-54.909119
 20
11.122323
 30
0.0
  0
VERTEX
  5
9EB5
  8
ALPHA
 10
-54.872377
 20
11.273739
 30
0.0
  0
SEQEND
  5
9EB6
  8
ALPHA
  0
LINE
  5
99A7
  8
ALPHA
 10
43.977962
 20
21.573714
 30
0.0
 11
59.879298
 21
22.044113
 31
0.0
  0
LINE
  5
99A8
  8
ALPHA
 10
44.486698
 20
22.059237
 30
0.0
 11
59.268609
 21
22.540617
 31
0.0
  0
LINE
  5
99A9
  8
ALPHA
 10
44.481646
 20
22.100523
 30
0.0
 11
59.268933
 21
22.590167
 31
0.0
  0
LINE
  5
99AA
  8
ALPHA
 10
44.479661
 20
21.098739
 30
0.0
 11
59.260592
 21
21.58731
 31
0.0
  0
POLYLINE
  5
99AB
  8
ALPHA
 66
     1
 10
0.0
 20
0.0
 30
0.0
 70
   128
  0
VERTEX
  5
9EB7
  8
ALPHA
 10
51.879661
 20
23.508983
 30
0.0
  0
VERTEX
  5
9EB8
  8
ALPHA
 10
54.49635
 20
23.189536
 30
0.0
  0
VERTEX
  5
9EB9
  8
ALPHA
 10
57.129661
 20
23.073739
 30
0.0
  0
SEQEND
  5
9EBA
  8
ALPHA
  0
LINE
  5
99AC
  8
ALPHA
 10
41.379661
 20
23.073739
 30
0.0
 11
62.379661
 21
23.073739
 31
0.0
  0
LINE
  5
99AD
  8
ALPHA
 10
43.879661
 20
19.073739
 30
0.0
 11
59.879661
 21
19.073739
 31
0.0
  0
LINE
  5
99B0
  8
ALPHA
 10
58.579582
 20
16.973739
 30
0.0
 11
45.196745
 21
16.973739
 31
0.0
  0
LINE
  5
99B1
  8
ALPHA
 10
45.533085
 20
15.623739
 30
0.0
 11
58.229572
 21
15.623739
 31
0.0
  0
LINE
  5
99B2
  8
ALPHA
 10
58.229572
 20
14.473739
 30
0.0
 11
45.533085
 21
14.473739
 31
0.0
  0
LINE
  5
99B3
  8
ALPHA
 10
57.879661
 20
13.473739
 30
0.0
 11
45.879661
 21
13.473739
 31
0.0
  0
LINE
  5
99B4
  8
ALPHA
 10
45.533085
 20
13.273739
 30
0.0
 11
58.229573
 21
13.273739
 31
0.0
  0
LINE
  5
99B5
  8
ALPHA
 10
46.029661
 20
10.773739
 30
0.0
 11
57.729661
 21
10.773739
 31
0.0
  0
POLYLINE
  5
99B6
  8
ALPHA
 66
     1
 10
0.0
 20
0.0
 30
0.0
 70
   128
  0
VERTEX
  5
9EBB
  8
ALPHA
 10
46.629661
 20
23.073739
 30
0.0
  0
VERTEX
  5
9EBC
  8
ALPHA
 10
49.262972
 20
23.189536
 30
0.0
  0
VERTEX
  5
9EBD
  8
ALPHA
 10
51.879661
 20
23.508983
 30
0.0
  0
SEQEND
  5
9EBE
  8
ALPHA
  0
LINE
  5
99B7
  8
ALPHA
 10
45.533085
 20
11.273739
 30
0.0
 11
54.872377
 21
11.273739
 31
0.0
  0
ARC
  5
99B8
  8
ALPHA
 10
45.879661
 20
13.973739
 30
0.0
 40
0.5
 50
90.0
 51
270.0
  0
LINE
  5
99B9
  8
ALPHA
 10
45.533085
 20
11.273739
 30
0.0
 11
45.579661
 21
11.055794
 31
0.0
  0
ARC
  5
99BA
  8
ALPHA
 10
46.029661
 20
11.273739
 30
0.0
 40
0.5
 50
205.841933
 51
270.0
  0
LINE
  5
99BB
  8
ALPHA
 10
46.279661
 20
13.273739
 30
0.0
 11
46.279661
 21
13.473739
 31
0.0
  0
LINE
  5
99BC
  8
ALPHA
 10
45.533085
 20
13.273739
 30
0.0
 11
45.533085
 21
11.273739
 31
0.0
  0
POLYLINE
  5
99BD
  8
ALPHA
 66
     1
 10
0.0
 20
0.0
 30
0.0
 70
   128
  0
VERTEX
  5
9EBF
  8
ALPHA
 10
41.379661
 20
23.508983
 30
0.0
  0
VERTEX
  5
9EC0
  8
ALPHA
 10
43.99635
 20
23.189536
 30
0.0
  0
VERTEX
  5
9EC1
  8
ALPHA
 10
46.629661
 20
23.073739
 30
0.0
  0
SEQEND
  5
9EC2
  8
ALPHA
  0
LINE
  5
99BE
  8
ALPHA
 10
43.879661
 20
19.073739
 30
0.0
 11
43.879661
 21
20.598739
 31
0.0
  0
LINE
  5
99C0
  8
ALPHA
 10
44.638251
 20
17.073739
 30
0.0
 11
45.196745
 21
17.073739
 31
0.0
  0
LINE
  5
99C1
  8
ALPHA
 10
44.584661
 20
19.073739
 30
0.0
 11
44.584661
 21
17.273739
 31
0.0
  0
LINE
  5
99C2
  8
ALPHA
 10
44.584661
 20
17.273739
 30
0.0
 11
44.638251
 21
17.073739
 31
0.0
  0
LINE
  5
99C3
  8
ALPHA
 10
46.379661
 20
16.973739
 30
0.0
 11
46.379661
 21
15.623739
 31
0.0
  0
LINE
  5
99C4
  8
ALPHA
 10
45.533085
 20
15.623739
 30
0.0
 11
45.533085
 21
14.473739
 31
0.0
  0
LINE
  5
99C5
  8
ALPHA
 10
45.196745
 20
16.973739
 30
0.0
 11
45.196745
 21
17.073739
 31
0.0
  0
LINE
  5
99C6
  8
ALPHA
 10
43.881678
 20
22.558892
 30
0.0
 11
43.977268
 21
22.573625
 31
0.0
  0
LINE
  5
99C7
  8
ALPHA
 10
43.880142
 20
22.554013
 30
0.0
 11
43.881678
 21
22.558892
 31
0.0
  0
LINE
  5
99C8
  8
ALPHA
 10
43.879661
 20
22.548738
 30
0.0
 11
43.880142
 21
22.554013
 31
0.0
  0
LINE
  5
99C9
  8
ALPHA
 10
44.480101
 20
21.053781
 30
0.0
 11
44.481413
 21
21.058263
 31
0.0
  0
LINE
  5
99CA
  8
ALPHA
 10
43.881538
 20
21.558613
 30
0.0
 11
43.977962
 21
21.573714
 31
0.0
  0
LINE
  5
99CB
  8
ALPHA
 10
43.880123
 20
21.553933
 30
0.0
 11
43.881538
 21
21.558613
 31
0.0
  0
LINE
  5
99CC
  8
ALPHA
 10
43.879661
 20
21.548739
 30
0.0
 11
43.880123
 21
21.553933
 31
0.0
  0
LINE
  5
99CD
  8
ALPHA
 10
44.480359
 20
22.053232
 30
0.0
 11
44.486698
 21
22.059237
 31
0.0
  0
LINE
  5
99CE
  8
ALPHA
 10
44.48649
 20
23.052419
 30
0.0
 11
44.589523
 21
23.078282
 31
0.0
  0
LINE
  5
99CF
  8
ALPHA
 10
44.48649
 20
23.052419
 30
0.0
 11
44.484301
 21
23.054608
 31
0.0
  0
LINE
  5
99D0
  8
ALPHA
 10
43.882474
 20
22.544517
 30
0.0
 11
44.478566
 21
22.097279
 31
0.0
  0
LINE
  5
99D1
  8
ALPHA
 10
44.482702
 20
21.053301
 30
0.0
 11
43.882474
 21
20.602959
 31
0.0
  0
LINE
  5
99D2
  8
ALPHA
 10
44.482702
 20
22.053301
 30
0.0
 11
43.882474
 21
21.602959
 31
0.0
  0
LINE
  5
99D3
  8
ALPHA
 10
44.482702
 20
23.053302
 30
0.0
 11
43.882474
 21
22.60296
 31
0.0
  0
LINE
  5
99D4
  8
ALPHA
 10
43.882474
 20
20.602959
 30
0.0
 11
43.879661
 21
20.598739
 31
0.0
  0
LINE
  5
99D5
  8
ALPHA
 10
43.882474
 20
21.602959
 30
0.0
 11
43.879661
 21
21.598738
 31
0.0
  0
LINE
  5
99D6
  8
ALPHA
 10
43.882474
 20
22.60296
 30
0.0
 11
43.879661
 21
22.598739
 31
0.0
  0
LINE
  5
99D7
  8
ALPHA
 10
44.479661
 20
21.048739
 30
0.0
 11
44.479661
 21
21.098739
 31
0.0
  0
LINE
  5
99D8
  8
ALPHA
 10
44.479661
 20
22.098738
 30
0.0
 11
44.479661
 21
22.048738
 31
0.0
  0
LINE
  5
99D9
  8
ALPHA
 10
44.479661
 20
23.073739
 30
0.0
 11
44.479661
 21
23.048739
 31
0.0
  0
LINE
  5
99DA
  8
ALPHA
 10
43.879661
 20
22.548738
 30
0.0
 11
43.879661
 21
22.598739
 31
0.0
  0
LINE
  5
99DB
  8
ALPHA
 10
43.879661
 20
21.548739
 30
0.0
 11
43.879661
 21
21.598738
 31
0.0
  0
LINE
  5
99DC
  8
ALPHA
 10
44.479661
 20
21.098739
 30
0.0
 11
43.879661
 21
21.548739
 31
0.0
  0
LINE
  5
99DD
  8
ALPHA
 10
54.872377
 20
13.273739
 30
0.0
 11
54.872377
 21
11.273739
 31
0.0
  0
LINE
  5
99DE
  8
ALPHA
 10
54.872377
 20
15.623739
 30
0.0
 11
54.872377
 21
14.473739
 31
0.0
  0
ARC
  5
99E0
  8
ALPHA
 10
57.879661
 20
13.973739
 30
0.0
 40
0.5
 50
270.0
 51
90.0
  0
LINE
  5
99E1
  8
ALPHA
 10
55.233521
 20
11.273739
 30
0.0
 11
58.229661
 21
11.273739
 31
0.0
  0
LINE
  5
99E2
  8
ALPHA
 10
55.233521
 20
13.273739
 30
0.0
 11
55.233521
 21
11.273739
 31
0.0
  0
ARC
  5
99E3
  8
ALPHA
 10
57.729661
 20
11.273739
 30
0.0
 40
0.5
 50
270.0
 51
0.0
  0
LINE
  5
99E4
  8
ALPHA
 10
58.229661
 20
13.273739
 30
0.0
 11
58.229661
 21
11.273739
 31
0.0
  0
LINE
  5
99E5
  8
ALPHA
 10
57.479661
 20
13.273739
 30
0.0
 11
57.479661
 21
13.473739
 31
0.0
  0
POLYLINE
  5
99E6
  8
ALPHA
 66
     1
 10
0.0
 20
0.0
 30
0.0
 70
   128
  0
VERTEX
  5
9EC3
  8
ALPHA
 10
57.129661
 20
23.073739
 30
0.0
  0
VERTEX
  5
9EC4
  8
ALPHA
 10
59.762972
 20
23.189536
 30
0.0
  0
VERTEX
  5
9EC5
  8
ALPHA
 10
62.379661
 20
23.508983
 30
0.0
  0
SEQEND
  5
9EC6
  8
ALPHA
  0
LINE
  5
99EA
  8
ALPHA
 10
55.233521
 20
15.623739
 30
0.0
 11
55.233521
 21
14.473739
 31
0.0
  0
LINE
  5
99EB
  8
ALPHA
 10
58.579661
 20
16.973739
 30
0.0
 11
58.579661
 21
19.073739
 31
0.0
  0
LINE
  5
99EC
  8
ALPHA
 10
58.229661
 20
15.623739
 30
0.0
 11
58.229661
 21
14.473739
 31
0.0
  0
LINE
  5
99ED
  8
ALPHA
 10
57.379661
 20
16.973739
 30
0.0
 11
57.379661
 21
15.623739
 31
0.0
  0
LINE
  5
99EE
  8
ALPHA
 10
59.879661
 20
19.073739
 30
0.0
 11
59.879661
 21
21.098738
 31
0.0
  0
LINE
  5
99EF
  8
ALPHA
 10
59.879661
 20
21.098738
 30
0.0
 11
59.879658
 21
21.0983
 31
0.0
  0
LINE
  5
99F0
  8
ALPHA
 10
59.879237
 20
22.093713
 30
0.0
 11
59.878044
 21
22.089422
 31
0.0
  0
LINE
  5
99F1
  8
ALPHA
 10
59.879658
 20
22.098302
 30
0.0
 11
59.879237
 21
22.093713
 31
0.0
  0
LINE
  5
99F2
  8
ALPHA
 10
59.879661
 20
22.098738
 30
0.0
 11
59.879658
 21
22.098302
 31
0.0
  0
LINE
  5
99F3
  8
ALPHA
 10
59.269409
 20
22.589466
 30
0.0
 11
59.268933
 21
22.590167
 31
0.0
  0
LINE
  5
99F4
  8
ALPHA
 10
59.260592
 20
21.58731
 30
0.0
 11
59.259995
 21
21.590054
 31
0.0
  0
LINE
  5
99F5
  8
ALPHA
 10
59.27662
 20
21.594175
 30
0.0
 11
59.876848
 21
22.044517
 31
0.0
  0
LINE
  5
99F6
  8
ALPHA
 10
59.27662
 20
22.594176
 30
0.0
 11
59.876848
 21
23.044518
 31
0.0
  0
LINE
  5
99F7
  8
ALPHA
 10
59.876848
 20
21.102959
 30
0.0
 11
59.280756
 21
21.550198
 31
0.0
  0
LINE
  5
99F8
  8
ALPHA
 10
59.876848
 20
22.102959
 30
0.0
 11
59.280756
 21
22.550198
 31
0.0
  0
LINE
  5
99F9
  8
ALPHA
 10
59.876848
 20
22.044517
 30
0.0
 11
59.879661
 21
22.048738
 31
0.0
  0
LINE
  5
99FA
  8
ALPHA
 10
59.876848
 20
23.044518
 30
0.0
 11
59.879661
 21
23.048738
 31
0.0
  0
LINE
  5
99FB
  8
ALPHA
 10
59.879661
 20
23.048738
 30
0.0
 11
59.879661
 21
23.073739
 31
0.0
  0
LINE
  5
99FC
  8
ALPHA
 10
59.879661
 20
22.048738
 30
0.0
 11
59.879661
 21
22.098738
 31
0.0
  0
LINE
  5
99FD
  8
ALPHA
 10
59.279661
 20
22.548738
 30
0.0
 11
59.279661
 21
22.598738
 31
0.0
  0
LINE
  5
99FE
  8
ALPHA
 10
59.279661
 20
21.548738
 30
0.0
 11
59.279661
 21
21.598738
 31
0.0
  0
LINE
  5
9A35
  8
ALPHA
 10
59.693011
 20
37.907918
 30
0.0
 11
48.247736
 21
37.723739
 31
0.0
  0
LINE
  5
9A36
  8
ALPHA
 10
44.492864
 20
36.090267
 30
0.0
 11
59.266326
 21
36.595819
 31
0.0
  0
POLYLINE
  5
9A37
  8
ALPHA
 66
     1
 10
0.0
 20
0.0
 30
0.0
 70
   128
  0
VERTEX
  5
9EC7
  8
ALPHA
 10
48.078764
 20
37.262788
 30
0.0
  0
VERTEX
  5
9EC8
  8
ALPHA
 10
53.674888
 20
37.387746
 30
0.0
  0
VERTEX
  5
9EC9
  8
ALPHA
 10
56.472866
 20
37.455207
 30
0.0
  0
VERTEX
  5
9ECA
  8
ALPHA
 10
59.264424
 20
37.597085
 30
0.0
  0
SEQEND
  5
9ECB
  8
ALPHA
  0
LINE
  5
9A38
  8
ALPHA
 10
44.48649
 20
32.052419
 30
0.0
 11
59.274327
 21
32.543653
 31
0.0
  0
LINE
  5
9A39
  8
ALPHA
 10
59.781435
 20
37.073773
 30
0.0
 11
51.879661
 21
36.848739
 31
0.0
  0
LINE
  5
9A3A
  8
ALPHA
 10
44.490391
 20
33.05731
 30
0.0
 11
59.277677
 21
33.546955
 31
0.0
  0
LINE
  5
9A3B
  8
ALPHA
 10
59.78147
 20
36.073777
 30
0.0
 11
51.879661
 21
35.848738
 31
0.0
  0
LINE
  5
9A3C
  8
ALPHA
 10
44.49873
 20
34.060167
 30
0.0
 11
59.279661
 21
34.548739
 31
0.0
  0
POLYLINE
  5
9A3D
  8
ALPHA
 66
     1
 10
0.0
 20
0.0
 30
0.0
 70
   128
210
0.0
220
0.0
230
-1.0
  0
VERTEX
  5
9ECC
  8
ALPHA
 10
-44.501324
 20
35.046516
 30
0.0
  0
VERTEX
  5
9ECD
  8
ALPHA
 10
-46.161805
 20
35.15644
 30
0.0
  0
VERTEX
  5
9ECE
  8
ALPHA
 10
-47.832751
 20
35.206398
 30
0.0
  0
VERTEX
  5
9ECF
  8
ALPHA
 10
-51.177267
 20
35.283616
 30
0.0
  0
VERTEX
  5
9ED0
  8
ALPHA
 10
-57.866387
 20
35.448739
 30
0.0
  0
SEQEND
  5
9ED1
  8
ALPHA
  0
POLYLINE
  5
9A3E
  8
ALPHA
 66
     1
 10
0.0
 20
0.0
 30
0.0
 70
   128
  0
VERTEX
  5
9ED2
  8
ALPHA
 10
51.879661
 20
36.798738
 30
0.0
  0
VERTEX
  5
9ED3
  8
ALPHA
 10
55.880413
 20
36.882107
 30
0.0
  0
VERTEX
  5
9ED4
  8
ALPHA
 10
59.876638
 20
37.044838
 30
0.0
  0
SEQEND
  5
9ED5
  8
ALPHA
  0
LINE
  5
9A3F
  8
ALPHA
 10
43.977251
 20
33.573623
 30
0.0
 11
59.879301
 21
34.044116
 31
0.0
  0
LINE
  5
9A40
  8
ALPHA
 10
44.51736
 20
36.06481
 30
0.0
 11
59.276735
 21
36.551548
 31
0.0
  0
LINE
  5
9A41
  8
ALPHA
 10
59.878127
 20
34.089615
 30
0.0
 11
43.88002
 21
33.60336
 31
0.0
  0
LINE
  5
9A42
  8
ALPHA
 10
51.879661
 20
35.798739
 30
0.0
 11
58.351797
 21
35.948739
 31
0.0
  0
LINE
  5
9A43
  8
ALPHA
 10
43.978058
 20
32.573726
 30
0.0
 11
59.879299
 21
33.044113
 31
0.0
  0
LINE
  5
9A44
  8
ALPHA
 10
44.4867
 20
31.059236
 30
0.0
 11
59.268607
 21
31.540617
 31
0.0
  0
LINE
  5
9A45
  8
ALPHA
 10
44.484997
 20
32.103824
 30
0.0
 11
59.272833
 21
32.595059
 31
0.0
  0
LINE
  5
9A46
  8
ALPHA
 10
59.781054
 20
33.073724
 30
0.0
 11
43.880026
 21
32.603365
 31
0.0
  0
POLYLINE
  5
9A47
  8
ALPHA
 66
     1
 10
0.0
 20
0.0
 30
0.0
 70
   128
210
0.0
220
0.0
230
-1.0
  0
VERTEX
  5
9ED6
  8
ALPHA
 10
-58.351797
 20
34.998739
 30
0.0
  0
VERTEX
  5
9ED7
  8
ALPHA
 10
-51.113921
 20
34.833482
 30
0.0
  0
VERTEX
  5
9ED8
  8
ALPHA
 10
-47.494845
 20
34.756392
 30
0.0
  0
VERTEX
  5
9ED9
  8
ALPHA
 10
-43.880027
 20
34.603367
 30
0.0
  0
SEQEND
  5
9EDA
  8
ALPHA
  0
LINE
  5
9A48
  8
ALPHA
 10
44.490715
 20
33.10686
 30
0.0
 11
59.272623
 21
33.588241
 31
0.0
  0
LINE
  5
9A49
  8
ALPHA
 10
43.978533
 20
34.573787
 30
0.0
 11
59.879309
 21
35.044124
 31
0.0
  0
LINE
  5
9A4A
  8
ALPHA
 10
44.50004
 20
34.104822
 30
0.0
 11
59.27017
 21
34.591484
 31
0.0
  0
POLYLINE
  5
9A4B
  8
ALPHA
 66
     1
 10
0.0
 20
0.0
 30
0.0
 70
   128
  0
VERTEX
  5
9EDB
  8
ALPHA
 10
48.080044
 20
37.212816
 30
0.0
  0
VERTEX
  5
9EDC
  8
ALPHA
 10
53.681642
 20
37.337895
 30
0.0
  0
VERTEX
  5
9EDD
  8
ALPHA
 10
56.48236
 20
37.405449
 30
0.0
  0
VERTEX
  5
9EDE
  8
ALPHA
 10
59.27543
 20
37.552855
 30
0.0
  0
SEQEND
  5
9EDF
  8
ALPHA
  0
LINE
  5
9A4C
  8
ALPHA
 10
59.781564
 20
32.073789
 30
0.0
 11
43.880022
 21
31.603362
 31
0.0
  0
LINE
  5
9A4D
  8
ALPHA
 10
44.481645
 20
31.100522
 30
0.0
 11
59.268931
 21
31.590167
 31
0.0
  0
POLYLINE
  5
9A4E
  8
ALPHA
 66
     1
 10
0.0
 20
0.0
 30
0.0
 70
   128
210
0.0
220
0.0
230
-1.0
  0
VERTEX
  5
9EE0
  8
ALPHA
 10
-44.500042
 20
35.092658
 30
0.0
  0
VERTEX
  5
9EE1
  8
ALPHA
 10
-46.158324
 20
35.206306
 30
0.0
  0
VERTEX
  5
9EE2
  8
ALPHA
 10
-47.829731
 20
35.256321
 30
0.0
  0
VERTEX
  5
9EE3
  8
ALPHA
 10
-51.17525
 20
35.333573
 30
0.0
  0
VERTEX
  5
9EE4
  8
ALPHA
 10
-57.866387
 20
35.498739
 30
0.0
  0
SEQEND
  5
9EE5
  8
ALPHA
  0
LINE
  5
9A4F
  8
ALPHA
 10
43.977163
 20
31.573613
 30
0.0
 11
59.879296
 21
32.044112
 31
0.0
  0
LINE
  5
9A50
  8
ALPHA
 10
59.782202
 20
31.073871
 30
0.0
 11
43.880026
 21
30.603366
 31
0.0
  0
LINE
  5
9A51
  8
ALPHA
 10
43.978871
 20
30.57383
 30
0.0
 11
59.879299
 21
31.044115
 31
0.0
  0
LINE
  5
9A52
  8
ALPHA
 10
59.779702
 20
27.073283
 30
0.0
 11
43.880022
 21
26.603362
 31
0.0
  0
LINE
  5
9A53
  8
ALPHA
 10
43.978532
 20
26.57357
 30
0.0
 11
59.879297
 21
27.044112
 31
0.0
  0
POLYLINE
  5
9A54
  8
ALPHA
 66
     1
 10
0.0
 20
0.0
 30
0.0
 70
   128
210
0.0
220
0.0
230
-1.0
  0
VERTEX
  5
9EE6
  8
ALPHA
 10
-51.879661
 20
26.138494
 30
0.0
  0
VERTEX
  5
9EE7
  8
ALPHA
 10
-54.49635
 20
26.457941
 30
0.0
  0
VERTEX
  5
9EE8
  8
ALPHA
 10
-57.129661
 20
26.573739
 30
0.0
  0
SEQEND
  5
9EE9
  8
ALPHA
  0
POLYLINE
  5
9A55
  8
ALPHA
 66
     1
 10
0.0
 20
0.0
 30
0.0
 70
   128
  0
VERTEX
  5
9EEA
  8
ALPHA
 10
51.879661
 20
27.508983
 30
0.0
  0
VERTEX
  5
9EEB
  8
ALPHA
 10
54.49635
 20
27.189536
 30
0.0
  0
VERTEX
  5
9EEC
  8
ALPHA
 10
57.129661
 20
27.073739
 30
0.0
  0
SEQEND
  5
9EED
  8
ALPHA
  0
POLYLINE
  5
9A56
  8
ALPHA
 66
     1
 10
0.0
 20
0.0
 30
0.0
 70
   128
210
0.0
220
0.0
230
-1.0
  0
VERTEX
  5
9EEE
  8
ALPHA
 10
-51.879661
 20
30.138494
 30
0.0
  0
VERTEX
  5
9EEF
  8
ALPHA
 10
-54.49635
 20
30.457941
 30
0.0
  0
VERTEX
  5
9EF0
  8
ALPHA
 10
-57.129661
 20
30.573739
 30
0.0
  0
SEQEND
  5
9EF1
  8
ALPHA
  0
ARC
  5
9A57
  8
ALPHA
 10
51.879661
 20
49.901122
 30
0.0
 40
6.5
 50
58.411865
 51
81.150117
  0
ARC
  5
9A58
  8
ALPHA
 10
54.909681
 20
52.223739
 30
0.0
 40
0.5
 50
34.215186
 51
90.0
  0
LINE
  5
9A59
  8
ALPHA
 10
48.474899
 20
55.438053
 30
0.0
 11
55.284423
 21
55.438053
 31
0.0
  0
LINE
  5
9A5A
  8
ALPHA
 10
48.379661
 20
55.267686
 30
0.0
 11
55.379661
 21
55.267686
 31
0.0
  0
LINE
  5
9A5B
  8
ALPHA
 10
55.379566
 20
52.723739
 30
0.0
 11
48.379757
 21
52.723739
 31
0.0
  0
LINE
  5
9A5C
  8
ALPHA
 10
48.436176
 20
52.50489
 30
0.0
 11
55.323147
 21
52.50489
 31
0.0
  0
LINE
  5
9A5D
  8
ALPHA
 10
45.335676
 20
47.945243
 30
0.0
 11
58.423646
 21
47.945243
 31
0.0
  0
LINE
  5
9A5E
  8
ALPHA
 10
45.106708
 20
46.800184
 30
0.0
 11
58.652614
 21
46.800184
 31
0.0
  0
LINE
  5
9A5F
  8
ALPHA
 10
46.029661
 20
42.303725
 30
0.0
 11
57.729661
 21
42.303725
 31
0.0
  0
LINE
  5
9A60
  8
ALPHA
 10
46.029661
 20
41.123739
 30
0.0
 11
57.729661
 21
41.123739
 31
0.0
  0
LINE
  5
9A61
  8
ALPHA
 10
57.93918
 20
40.673739
 30
0.0
 11
45.820143
 21
40.673739
 31
0.0
  0
LINE
  5
9A62
  8
ALPHA
 10
57.93918
 20
39.973739
 30
0.0
 11
45.820143
 21
39.973739
 31
0.0
  0
LINE
  5
9A63
  8
ALPHA
 10
46.029661
 20
39.523739
 30
0.0
 11
57.729661
 21
39.523739
 31
0.0
  0
LINE
  5
9A64
  8
ALPHA
 10
46.029661
 20
38.823739
 30
0.0
 11
57.729661
 21
38.823739
 31
0.0
  0
LINE
  5
9A65
  8
ALPHA
 10
44.879661
 20
38.723739
 30
0.0
 11
58.879661
 21
38.723739
 31
0.0
  0
LINE
  5
9A66
  8
ALPHA
 10
41.379661
 20
30.573739
 30
0.0
 11
62.379661
 21
30.573739
 31
0.0
  0
LINE
  5
9A67
  8
ALPHA
 10
41.379661
 20
27.073739
 30
0.0
 11
62.379661
 21
27.073739
 31
0.0
  0
LINE
  5
9A68
  8
ALPHA
 10
41.379661
 20
26.573739
 30
0.0
 11
62.379661
 21
26.573739
 31
0.0
  0
LINE
  5
9A69
  8
ALPHA
 10
48.436176
 20
52.50489
 30
0.0
 11
45.335676
 21
47.945243
 31
0.0
  0
LINE
  5
9A6A
  8
ALPHA
 10
44.350649
 20
38.195135
 30
0.0
 11
50.722022
 21
38.323739
 31
0.0
  0
LINE
  5
9A6B
  8
ALPHA
 10
44.488664
 20
37.091364
 30
0.0
 11
47.229169
 21
37.240769
 31
0.0
  0
POLYLINE
  5
9A6C
  8
ALPHA
 66
     1
 10
0.0
 20
0.0
 30
0.0
 70
   128
210
0.0
220
0.0
230
-1.0
  0
VERTEX
  5
9EF2
  8
ALPHA
 10
-44.48565
 20
38.09315
 30
0.0
  0
VERTEX
  5
9EF3
  8
ALPHA
 10
-47.599521
 20
38.250512
 30
0.0
  0
VERTEX
  5
9EF4
  8
ALPHA
 10
-50.722022
 20
38.323739
 30
0.0
  0
SEQEND
  5
9EF5
  8
ALPHA
  0
POLYLINE
  5
9A6D
  8
ALPHA
 66
     1
 10
0.0
 20
0.0
 30
0.0
 70
   128
  0
VERTEX
  5
9EF6
  8
ALPHA
 10
51.879661
 20
36.848739
 30
0.0
  0
VERTEX
  5
9EF7
  8
ALPHA
 10
47.878731
 20
36.765368
 30
0.0
  0
VERTEX
  5
9EF8
  8
ALPHA
 10
43.882129
 20
36.603439
 30
0.0
  0
SEQEND
  5
9EF9
  8
ALPHA
  0
POLYLINE
  5
9A6E
  8
ALPHA
 66
     1
 10
0.0
 20
0.0
 30
0.0
 70
   128
210
0.0
220
0.0
230
-1.0
  0
VERTEX
  5
9EFA
  8
ALPHA
 10
-43.882704
 20
35.602606
 30
0.0
  0
VERTEX
  5
9EFB
  8
ALPHA
 10
-47.878916
 20
35.765369
 30
0.0
  0
VERTEX
  5
9EFC
  8
ALPHA
 10
-51.879661
 20
35.848738
 30
0.0
  0
SEQEND
  5
9EFD
  8
ALPHA
  0
LINE
  5
9A6F
  8
ALPHA
 10
51.879661
 20
35.798739
 30
0.0
 11
43.978154
 21
35.573739
 31
0.0
  0
LINE
  5
9A70
  8
ALPHA
 10
46.222788
 20
37.723739
 30
0.0
 11
53.037252
 21
38.323739
 31
0.0
  0
LINE
  5
9A71
  8
ALPHA
 10
43.893376
 20
37.557903
 30
0.0
 11
48.247736
 21
37.723739
 31
0.0
  0
LINE
  5
9A72
  8
ALPHA
 10
43.974934
 20
36.573325
 30
0.0
 11
51.879661
 21
36.798738
 31
0.0
  0
LINE
  5
9A73
  8
ALPHA
 10
44.499029
 20
37.049414
 30
0.0
 11
47.23062
 21
37.190794
 31
0.0
  0
POLYLINE
  5
9A74
  8
ALPHA
 66
     1
 10
0.0
 20
0.0
 30
0.0
 70
   128
210
0.0
220
0.0
230
-1.0
  0
VERTEX
  5
9EFE
  8
ALPHA
 10
-44.490652
 20
38.044553
 30
0.0
  0
VERTEX
  5
9EFF
  8
ALPHA
 10
-46.620598
 20
38.17315
 30
0.0
  0
VERTEX
  5
9F00
  8
ALPHA
 10
-48.75937
 20
38.229501
 30
0.0
  0
VERTEX
  5
9F01
  8
ALPHA
 10
-53.037252
 20
38.323739
 30
0.0
  0
SEQEND
  5
9F02
  8
ALPHA
  0
POLYLINE
  5
9A75
  8
ALPHA
 66
     1
 10
0.0
 20
0.0
 30
0.0
 70
   128
210
0.0
220
0.0
230
-1.0
  0
VERTEX
  5
9F03
  8
ALPHA
 10
-46.629661
 20
26.573739
 30
0.0
  0
VERTEX
  5
9F04
  8
ALPHA
 10
-49.262972
 20
26.457941
 30
0.0
  0
VERTEX
  5
9F05
  8
ALPHA
 10
-51.879661
 20
26.138494
 30
0.0
  0
SEQEND
  5
9F06
  8
ALPHA
  0
POLYLINE
  5
9A76
  8
ALPHA
 66
     1
 10
0.0
 20
0.0
 30
0.0
 70
   128
  0
VERTEX
  5
9F07
  8
ALPHA
 10
46.629661
 20
27.073739
 30
0.0
  0
VERTEX
  5
9F08
  8
ALPHA
 10
49.262972
 20
27.189536
 30
0.0
  0
VERTEX
  5
9F09
  8
ALPHA
 10
51.879661
 20
27.508983
 30
0.0
  0
SEQEND
  5
9F0A
  8
ALPHA
  0
POLYLINE
  5
9A77
  8
ALPHA
 66
     1
 10
0.0
 20
0.0
 30
0.0
 70
   128
210
0.0
220
0.0
230
-1.0
  0
VERTEX
  5
9F0B
  8
ALPHA
 10
-46.629661
 20
30.573739
 30
0.0
  0
VERTEX
  5
9F0C
  8
ALPHA
 10
-49.262972
 20
30.457941
 30
0.0
  0
VERTEX
  5
9F0D
  8
ALPHA
 10
-51.879661
 20
30.138494
 30
0.0
  0
SEQEND
  5
9F0E
  8
ALPHA
  0
LINE
  5
9A78
  8
ALPHA
 10
48.247736
 20
37.723739
 30
0.0
 11
46.222788
 21
37.723739
 31
0.0
  0
LINE
  5
9A79
  8
ALPHA
 10
43.882474
 20
37.544518
 30
0.0
 11
44.478566
 21
37.097279
 31
0.0
  0
POLYLINE
  5
9A7A
  8
ALPHA
 66
     1
 10
0.0
 20
0.0
 30
0.0
 70
   128
210
0.0
220
0.0
230
-1.0
  0
VERTEX
  5
9F0F
  8
ALPHA
 10
-41.379661
 20
26.138494
 30
0.0
  0
VERTEX
  5
9F10
  8
ALPHA
 10
-43.99635
 20
26.457941
 30
0.0
  0
VERTEX
  5
9F11
  8
ALPHA
 10
-46.629661
 20
26.573739
 30
0.0
  0
SEQEND
  5
9F12
  8
ALPHA
  0
POLYLINE
  5
9A7B
  8
ALPHA
 66
     1
 10
0.0
 20
0.0
 30
0.0
 70
   128
  0
VERTEX
  5
9F13
  8
ALPHA
 10
41.379661
 20
27.508983
 30
0.0
  0
VERTEX
  5
9F14
  8
ALPHA
 10
43.99635
 20
27.189536
 30
0.0
  0
VERTEX
  5
9F15
  8
ALPHA
 10
46.629661
 20
27.073739
 30
0.0
  0
SEQEND
  5
9F16
  8
ALPHA
  0
POLYLINE
  5
9A7C
  8
ALPHA
 66
     1
 10
0.0
 20
0.0
 30
0.0
 70
   128
210
0.0
220
0.0
230
-1.0
  0
VERTEX
  5
9F17
  8
ALPHA
 10
-41.379661
 20
30.138494
 30
0.0
  0
VERTEX
  5
9F18
  8
ALPHA
 10
-43.99635
 20
30.457941
 30
0.0
  0
VERTEX
  5
9F19
  8
ALPHA
 10
-46.629661
 20
30.573739
 30
0.0
  0
SEQEND
  5
9F1A
  8
ALPHA
  0
LINE
  5
9A7D
  8
ALPHA
 10
41.379661
 20
27.073739
 30
0.0
 11
41.379661
 21
30.573739
 31
0.0
  0
LINE
  5
9A7E
  8
ALPHA
 10
44.482702
 20
32.053301
 30
0.0
 11
43.882474
 21
31.602959
 31
0.0
  0
LINE
  5
9A7F
  8
ALPHA
 10
44.480358
 20
31.05324
 30
0.0
 11
44.4867
 21
31.059236
 31
0.0
  0
LINE
  5
9A80
  8
ALPHA
 10
43.8817
 20
31.558937
 30
0.0
 11
43.977163
 21
31.573613
 31
0.0
  0
LINE
  5
9A81
  8
ALPHA
 10
43.880145
 20
31.554027
 30
0.0
 11
43.8817
 21
31.558937
 31
0.0
  0
LINE
  5
9A82
  8
ALPHA
 10
43.879661
 20
31.548739
 30
0.0
 11
43.880145
 21
31.554027
 31
0.0
  0
LINE
  5
9A83
  8
ALPHA
 10
44.499187
 20
27.049377
 30
0.0
 11
44.587129
 21
27.091305
 31
0.0
  0
LINE
  5
9A84
  8
ALPHA
 10
44.493245
 20
27.043673
 30
0.0
 11
44.499187
 21
27.049377
 31
0.0
  0
LINE
  5
9A85
  8
ALPHA
 10
44.482702
 20
27.053302
 30
0.0
 11
43.882474
 21
26.60296
 31
0.0
  0
LINE
  5
9A86
  8
ALPHA
 10
43.882474
 20
31.544519
 30
0.0
 11
44.478566
 21
31.09728
 31
0.0
  0
LINE
  5
9A87
  8
ALPHA
 10
44.482702
 20
31.053302
 30
0.0
 11
43.882474
 21
30.60296
 31
0.0
  0
LINE
  5
9A88
  8
ALPHA
 10
43.882474
 20
26.60296
 30
0.0
 11
43.879661
 21
26.598739
 31
0.0
  0
LINE
  5
9A89
  8
ALPHA
 10
43.882474
 20
30.60296
 30
0.0
 11
43.879661
 21
30.598739
 31
0.0
  0
LINE
  5
9A8A
  8
ALPHA
 10
43.882474
 20
31.602959
 30
0.0
 11
43.879661
 21
31.598738
 31
0.0
  0
LINE
  5
9A8B
  8
ALPHA
 10
44.479661
 20
27.073739
 30
0.0
 11
44.479661
 21
27.048739
 31
0.0
  0
LINE
  5
9A8C
  8
ALPHA
 10
44.479661
 20
31.098739
 30
0.0
 11
44.479661
 21
31.048739
 31
0.0
  0
LINE
  5
9A8D
  8
ALPHA
 10
43.879661
 20
31.548739
 30
0.0
 11
43.879661
 21
31.598738
 31
0.0
  0
LINE
  5
9A8E
  8
ALPHA
 10
43.879661
 20
30.573739
 30
0.0
 11
43.879661
 21
30.598739
 31
0.0
  0
LINE
  5
9A8F
  8
ALPHA
 10
43.879661
 20
26.573739
 30
0.0
 11
43.879661
 21
26.598739
 31
0.0
  0
LINE
  5
9A90
  8
ALPHA
 10
44.48649
 20
32.052419
 30
0.0
 11
44.484301
 21
32.054608
 31
0.0
  0
LINE
  5
9A91
  8
ALPHA
 10
44.490391
 20
33.05731
 30
0.0
 11
44.489915
 21
33.058012
 31
0.0
  0
LINE
  5
9A92
  8
ALPHA
 10
44.499328
 20
34.057423
 30
0.0
 11
44.49873
 21
34.060167
 31
0.0
  0
LINE
  5
9A93
  8
ALPHA
 10
43.881681
 20
33.558899
 30
0.0
 11
43.977251
 21
33.573623
 31
0.0
  0
LINE
  5
9A94
  8
ALPHA
 10
43.880143
 20
33.554015
 30
0.0
 11
43.881681
 21
33.558899
 31
0.0
  0
LINE
  5
9A95
  8
ALPHA
 10
43.879661
 20
33.548738
 30
0.0
 11
43.880143
 21
33.554015
 31
0.0
  0
LINE
  5
9A96
  8
ALPHA
 10
44.495995
 20
36.043603
 30
0.0
 11
44.51736
 21
36.06481
 31
0.0
  0
LINE
  5
9A97
  8
ALPHA
 10
43.881521
 20
32.558576
 30
0.0
 11
43.978058
 21
32.573726
 31
0.0
  0
LINE
  5
9A98
  8
ALPHA
 10
43.880121
 20
32.553922
 30
0.0
 11
43.881521
 21
32.558576
 31
0.0
  0
LINE
  5
9A99
  8
ALPHA
 10
43.879661
 20
32.548738
 30
0.0
 11
43.880121
 21
32.553922
 31
0.0
  0
LINE
  5
9A9A
  8
ALPHA
 10
43.890008
 20
35.556033
 30
0.0
 11
43.879661
 21
35.548739
 31
0.0
  0
LINE
  5
9A9B
  8
ALPHA
 10
43.893746
 20
35.557317
 30
0.0
 11
43.890008
 21
35.556033
 31
0.0
  0
LINE
  5
9A9C
  8
ALPHA
 10
43.978154
 20
35.573739
 30
0.0
 11
43.893746
 21
35.557317
 31
0.0
  0
LINE
  5
9A9D
  8
ALPHA
 10
43.881432
 20
34.558392
 30
0.0
 11
43.978533
 21
34.573787
 31
0.0
  0
LINE
  5
9A9E
  8
ALPHA
 10
43.880108
 20
34.553868
 30
0.0
 11
43.881432
 21
34.558392
 31
0.0
  0
LINE
  5
9A9F
  8
ALPHA
 10
43.879661
 20
34.548739
 30
0.0
 11
43.880108
 21
34.553868
 31
0.0
  0
LINE
  5
9AA0
  8
ALPHA
 10
43.894118
 20
36.556778
 30
0.0
 11
43.974934
 21
36.573325
 31
0.0
  0
LINE
  5
9AA1
  8
ALPHA
 10
43.890408
 20
36.555486
 30
0.0
 11
43.894118
 21
36.556778
 31
0.0
  0
LINE
  5
9AA2
  8
ALPHA
 10
43.879797
 20
36.548696
 30
0.0
 11
43.890408
 21
36.555486
 31
0.0
  0
LINE
  5
9AA3
  8
ALPHA
 10
44.493037
 20
37.043741
 30
0.0
 11
44.499029
 21
37.049414
 31
0.0
  0
LINE
  5
9AA4
  8
ALPHA
 10
43.882474
 20
32.544518
 30
0.0
 11
44.478566
 21
32.097279
 31
0.0
  0
LINE
  5
9AA5
  8
ALPHA
 10
43.882474
 20
33.544518
 30
0.0
 11
44.478566
 21
33.097279
 31
0.0
  0
LINE
  5
9AA6
  8
ALPHA
 10
43.882474
 20
34.544518
 30
0.0
 11
44.478566
 21
34.097279
 31
0.0
  0
LINE
  5
9AA7
  8
ALPHA
 10
43.882474
 20
35.544518
 30
0.0
 11
44.478566
 21
35.09728
 31
0.0
  0
LINE
  5
9AA8
  8
ALPHA
 10
44.482702
 20
33.053301
 30
0.0
 11
43.882474
 21
32.602959
 31
0.0
  0
LINE
  5
9AA9
  8
ALPHA
 10
44.482702
 20
34.053302
 30
0.0
 11
43.882474
 21
33.60296
 31
0.0
  0
LINE
  5
9AAA
  8
ALPHA
 10
44.482702
 20
35.053302
 30
0.0
 11
43.882474
 21
34.60296
 31
0.0
  0
LINE
  5
9AAB
  8
ALPHA
 10
43.882474
 20
36.544517
 30
0.0
 11
44.478566
 21
36.097279
 31
0.0
  0
LINE
  5
9AAC
  8
ALPHA
 10
44.482702
 20
36.053301
 30
0.0
 11
43.882474
 21
35.602959
 31
0.0
  0
LINE
  5
9AAD
  8
ALPHA
 10
44.482702
 20
37.053301
 30
0.0
 11
43.882474
 21
36.602959
 31
0.0
  0
LINE
  5
9AAE
  8
ALPHA
 10
43.882474
 20
36.544517
 30
0.0
 11
43.879661
 21
36.548738
 31
0.0
  0
LINE
  5
9AAF
  8
ALPHA
 10
43.879661
 20
35.548739
 30
0.0
 11
43.882474
 21
35.544518
 31
0.0
  0
LINE
  5
9AB0
  8
ALPHA
 10
43.882474
 20
32.602959
 30
0.0
 11
43.879661
 21
32.598738
 31
0.0
  0
LINE
  5
9AB1
  8
ALPHA
 10
43.882474
 20
33.60296
 30
0.0
 11
43.879661
 21
33.598739
 31
0.0
  0
LINE
  5
9AB2
  8
ALPHA
 10
43.882474
 20
34.60296
 30
0.0
 11
43.879661
 21
34.598739
 31
0.0
  0
LINE
  5
9AB3
  8
ALPHA
 10
43.879661
 20
35.598738
 30
0.0
 11
43.882474
 21
35.602959
 31
0.0
  0
LINE
  5
9AB4
  8
ALPHA
 10
44.479661
 20
32.098738
 30
0.0
 11
44.479661
 21
32.048738
 31
0.0
  0
LINE
  5
9AB5
  8
ALPHA
 10
44.479661
 20
33.098738
 30
0.0
 11
44.479661
 21
33.048738
 31
0.0
  0
LINE
  5
9AB6
  8
ALPHA
 10
44.479661
 20
34.098739
 30
0.0
 11
44.479661
 21
34.048739
 31
0.0
  0
LINE
  5
9AB7
  8
ALPHA
 10
44.479661
 20
35.098739
 30
0.0
 11
44.479661
 21
35.048739
 31
0.0
  0
LINE
  5
9AB8
  8
ALPHA
 10
44.479661
 20
36.098738
 30
0.0
 11
44.479661
 21
36.048738
 31
0.0
  0
LINE
  5
9AB9
  8
ALPHA
 10
44.479661
 20
37.098738
 30
0.0
 11
44.479661
 21
37.048738
 31
0.0
  0
LINE
  5
9ABA
  8
ALPHA
 10
43.879661
 20
36.548738
 30
0.0
 11
43.879661
 21
36.598738
 31
0.0
  0
LINE
  5
9ABB
  8
ALPHA
 10
43.879661
 20
35.548739
 30
0.0
 11
43.879661
 21
35.598738
 31
0.0
  0
LINE
  5
9ABC
  8
ALPHA
 10
43.879661
 20
34.548739
 30
0.0
 11
43.879661
 21
34.598739
 31
0.0
  0
LINE
  5
9ABD
  8
ALPHA
 10
43.879661
 20
33.548738
 30
0.0
 11
43.879661
 21
33.598739
 31
0.0
  0
LINE
  5
9ABE
  8
ALPHA
 10
43.879661
 20
32.548738
 30
0.0
 11
43.879661
 21
32.598738
 31
0.0
  0
LINE
  5
9ABF
  8
ALPHA
 10
43.882474
 20
36.602959
 30
0.0
 11
43.879661
 21
36.598737
 31
0.0
  0
LINE
  5
9AC0
  8
ALPHA
 10
45.106708
 20
46.800184
 30
0.0
 11
46.029661
 21
42.303725
 31
0.0
  0
LINE
  5
9AC1
  8
ALPHA
 10
46.222788
 20
37.723739
 30
0.0
 11
43.887911
 21
37.606682
 31
0.0
  0
LINE
  5
9AC2
  8
ALPHA
 10
44.35109
 20
38.195168
 30
0.0
 11
44.879661
 21
38.723739
 31
0.0
  0
LINE
  5
9AC3
  8
ALPHA
 10
43.889602
 20
37.556618
 30
0.0
 11
43.893376
 21
37.557903
 31
0.0
  0
LINE
  5
9AC4
  8
ALPHA
 10
43.879805
 20
37.548784
 30
0.0
 11
43.889602
 21
37.556618
 31
0.0
  0
LINE
  5
9AC5
  8
ALPHA
 10
44.351516
 20
38.192606
 30
0.0
 11
44.478566
 21
38.09728
 31
0.0
  0
LINE
  5
9AC6
  8
ALPHA
 10
44.482702
 20
38.053302
 30
0.0
 11
43.882474
 21
37.60296
 31
0.0
  0
LINE
  5
9AC7
  8
ALPHA
 10
43.882474
 20
37.544518
 30
0.0
 11
43.879661
 21
37.548738
 31
0.0
  0
LINE
  5
9AC8
  8
ALPHA
 10
44.351516
 20
38.192606
 30
0.0
 11
44.35109
 21
38.195168
 31
0.0
  0
LINE
  5
9AC9
  8
ALPHA
 10
44.479661
 20
38.098739
 30
0.0
 11
44.479661
 21
38.048739
 31
0.0
  0
LINE
  5
9ACA
  8
ALPHA
 10
43.879661
 20
37.548739
 30
0.0
 11
43.879661
 21
37.598739
 31
0.0
  0
LINE
  5
9ACB
  8
ALPHA
 10
43.882474
 20
37.60296
 30
0.0
 11
43.879661
 21
37.598739
 31
0.0
  0
ARC
  5
9ACC
  8
ALPHA
 10
45.819661
 20
40.323739
 30
0.0
 40
0.35
 50
90.0
 51
270.0
  0
LINE
  5
9ACD
  8
ALPHA
 10
46.029661
 20
41.123739
 30
0.0
 11
46.467954
 21
40.673739
 31
0.0
  0
LINE
  5
9ACE
  8
ALPHA
 10
46.029661
 20
38.823739
 30
0.0
 11
46.029661
 21
39.523739
 31
0.0
  0
LINE
  5
9ACF
  8
ALPHA
 10
46.029661
 20
42.303725
 30
0.0
 11
46.029661
 21
41.123739
 31
0.0
  0
LINE
  5
9AD0
  8
ALPHA
 10
46.467954
 20
39.973739
 30
0.0
 11
46.029661
 21
39.523739
 31
0.0
  0
ARC
  5
9AD1
  8
ALPHA
 10
46.576073
 20
47.101789
 30
0.0
 40
1.5
 50
145.784815
 51
191.599544
  0
LINE
  5
9AD2
  8
ALPHA
 10
47.838819
 20
37.256649
 30
0.0
 11
48.078764
 21
37.262788
 31
0.0
  0
LINE
  5
9AD3
  8
ALPHA
 10
47.245039
 20
37.241188
 30
0.0
 11
47.838819
 21
37.256649
 31
0.0
  0
LINE
  5
9AD4
  8
ALPHA
 10
47.229169
 20
37.240769
 30
0.0
 11
47.245039
 21
37.241188
 31
0.0
  0
LINE
  5
9AD5
  8
ALPHA
 10
47.840099
 20
37.206661
 30
0.0
 11
48.080044
 21
37.212816
 31
0.0
  0
LINE
  5
9AD6
  8
ALPHA
 10
47.24649
 20
37.191211
 30
0.0
 11
47.840099
 21
37.206661
 31
0.0
  0
LINE
  5
9AD7
  8
ALPHA
 10
47.23062
 20
37.190794
 30
0.0
 11
47.24649
 21
37.191211
 31
0.0
  0
LINE
  5
9AD8
  8
ALPHA
 10
51.879661
 20
27.508983
 30
0.0
 11
51.879661
 21
30.138494
 31
0.0
  0
LINE
  5
9AD9
  8
ALPHA
 10
50.722022
 20
38.323739
 30
0.0
 11
53.037252
 21
38.323739
 31
0.0
  0
LINE
  5
9ADA
  8
ALPHA
 10
47.479661
 20
38.823739
 30
0.0
 11
47.479661
 21
38.723739
 31
0.0
  0
LINE
  5
9ADB
  8
ALPHA
 10
50.879816
 20
56.323739
 30
0.0
 11
52.879506
 21
56.323739
 31
0.0
  0
LINE
  5
9ADC
  8
ALPHA
 10
48.379661
 20
55.267686
 30
0.0
 11
48.379661
 21
52.723739
 31
0.0
  0
ARC
  5
9ADD
  8
ALPHA
 10
48.849641
 20
52.223739
 30
0.0
 40
0.5
 50
90.0
 51
145.784814
  0
ARC
  5
9ADE
  8
ALPHA
 10
51.879661
 20
49.901122
 30
0.0
 40
6.5
 50
98.849883
 51
121.588135
  0
ARC
  5
9ADF
  8
ALPHA
 10
48.579661
 20
55.267686
 30
0.0
 40
0.2
 50
121.588128
 51
180.0
  0
LINE
  5
9AE0
  8
ALPHA
 10
55.323147
 20
52.50489
 30
0.0
 11
58.423646
 21
47.945243
 31
0.0
  0
LINE
  5
9AE1
  8
ALPHA
 10
59.876848
 20
37.10296
 30
0.0
 11
59.280756
 21
37.550198
 31
0.0
  0
LINE
  5
9AE2
  8
ALPHA
 10
58.351797
 20
35.948739
 30
0.0
 11
59.876668
 21
36.044792
 31
0.0
  0
LINE
  5
9AE3
  8
ALPHA
 10
57.866387
 20
35.448739
 30
0.0
 11
59.277843
 21
35.550338
 31
0.0
  0
LINE
  5
9AE4
  8
ALPHA
 10
57.866387
 20
35.498739
 30
0.0
 11
59.274414
 21
35.597685
 31
0.0
  0
LINE
  5
9AE5
  8
ALPHA
 10
59.781279
 20
35.073753
 30
0.0
 11
58.351797
 21
34.998739
 31
0.0
  0
LINE
  5
9AE6
  8
ALPHA
 10
59.163201
 20
30.553188
 30
0.0
 11
59.260589
 21
30.58731
 31
0.0
  0
POLYLINE
  5
9AE7
  8
ALPHA
 66
     1
 10
0.0
 20
0.0
 30
0.0
 70
   128
210
0.0
220
0.0
230
-1.0
  0
VERTEX
  5
9F1B
  8
ALPHA
 10
-57.129661
 20
26.573739
 30
0.0
  0
VERTEX
  5
9F1C
  8
ALPHA
 10
-59.762972
 20
26.457941
 30
0.0
  0
VERTEX
  5
9F1D
  8
ALPHA
 10
-62.379661
 20
26.138494
 30
0.0
  0
SEQEND
  5
9F1E
  8
ALPHA
  0
POLYLINE
  5
9AE8
  8
ALPHA
 66
     1
 10
0.0
 20
0.0
 30
0.0
 70
   128
  0
VERTEX
  5
9F1F
  8
ALPHA
 10
57.129661
 20
27.073739
 30
0.0
  0
VERTEX
  5
9F20
  8
ALPHA
 10
59.762972
 20
27.189536
 30
0.0
  0
VERTEX
  5
9F21
  8
ALPHA
 10
62.379661
 20
27.508983
 30
0.0
  0
SEQEND
  5
9F22
  8
ALPHA
  0
POLYLINE
  5
9AE9
  8
ALPHA
 66
     1
 10
0.0
 20
0.0
 30
0.0
 70
   128
210
0.0
220
0.0
230
-1.0
  0
VERTEX
  5
9F23
  8
ALPHA
 10
-57.129661
 20
30.573739
 30
0.0
  0
VERTEX
  5
9F24
  8
ALPHA
 10
-59.762972
 20
30.457941
 30
0.0
  0
VERTEX
  5
9F25
  8
ALPHA
 10
-62.379661
 20
30.138494
 30
0.0
  0
SEQEND
  5
9F26
  8
ALPHA
  0
LINE
  5
9AEA
  8
ALPHA
 10
59.27662
 20
31.594176
 30
0.0
 11
59.876848
 21
32.044518
 31
0.0
  0
LINE
  5
9AEB
  8
ALPHA
 10
59.267788
 20
26.594472
 30
0.0
 11
59.274308
 21
26.59784
 31
0.0
  0
LINE
  5
9AEC
  8
ALPHA
 10
59.260589
 20
30.58731
 30
0.0
 11
59.259992
 21
30.590057
 31
0.0
  0
LINE
  5
9AED
  8
ALPHA
 10
59.269407
 20
31.589466
 30
0.0
 11
59.268931
 21
31.590167
 31
0.0
  0
LINE
  5
9AEE
  8
ALPHA
 10
59.877615
 20
31.088528
 30
0.0
 11
59.782202
 21
31.073871
 31
0.0
  0
LINE
  5
9AEF
  8
ALPHA
 10
59.879176
 20
31.093447
 30
0.0
 11
59.877615
 21
31.088528
 31
0.0
  0
LINE
  5
9AF0
  8
ALPHA
 10
59.879658
 20
31.098301
 30
0.0
 11
59.879176
 21
31.093447
 31
0.0
  0
LINE
  5
9AF1
  8
ALPHA
 10
59.879661
 20
31.098739
 30
0.0
 11
59.879658
 21
31.098301
 31
0.0
  0
LINE
  5
9AF2
  8
ALPHA
 10
59.27662
 20
26.594176
 30
0.0
 11
59.876848
 21
27.044518
 31
0.0
  0
LINE
  5
9AF3
  8
ALPHA
 10
59.27662
 20
30.594176
 30
0.0
 11
59.876848
 21
31.044518
 31
0.0
  0
LINE
  5
9AF4
  8
ALPHA
 10
59.876848
 20
31.10296
 30
0.0
 11
59.280756
 21
31.550199
 31
0.0
  0
LINE
  5
9AF5
  8
ALPHA
 10
59.876848
 20
27.044518
 30
0.0
 11
59.879661
 21
27.048739
 31
0.0
  0
LINE
  5
9AF6
  8
ALPHA
 10
59.876848
 20
31.044518
 30
0.0
 11
59.879661
 21
31.048739
 31
0.0
  0
LINE
  5
9AF7
  8
ALPHA
 10
59.879661
 20
31.048739
 30
0.0
 11
59.879661
 21
31.098739
 31
0.0
  0
LINE
  5
9AF8
  8
ALPHA
 10
59.879661
 20
27.048739
 30
0.0
 11
59.879661
 21
27.073739
 31
0.0
  0
LINE
  5
9AF9
  8
ALPHA
 10
59.279661
 20
31.548739
 30
0.0
 11
59.279661
 21
31.598739
 31
0.0
  0
LINE
  5
9AFA
  8
ALPHA
 10
59.279661
 20
30.573739
 30
0.0
 11
59.279661
 21
30.598739
 31
0.0
  0
LINE
  5
9AFB
  8
ALPHA
 10
59.279661
 20
26.573739
 30
0.0
 11
59.279661
 21
26.598739
 31
0.0
  0
LINE
  5
9AFC
  8
ALPHA
 10
62.379661
 20
27.073739
 30
0.0
 11
62.379661
 21
30.573739
 31
0.0
  0
LINE
  5
9AFD
  8
ALPHA
 10
59.266326
 20
36.595819
 30
0.0
 11
59.272965
 21
36.599576
 31
0.0
  0
LINE
  5
9AFE
  8
ALPHA
 10
59.865566
 20
37.090126
 30
0.0
 11
59.781435
 21
37.073773
 31
0.0
  0
LINE
  5
9AFF
  8
ALPHA
 10
59.869308
 20
37.091409
 30
0.0
 11
59.865566
 21
37.090126
 31
0.0
  0
LINE
  5
9B00
  8
ALPHA
 10
59.879661
 20
37.098739
 30
0.0
 11
59.869308
 21
37.091409
 31
0.0
  0
LINE
  5
9B01
  8
ALPHA
 10
59.865566
 20
36.090119
 30
0.0
 11
59.78147
 21
36.073777
 31
0.0
  0
LINE
  5
9B02
  8
ALPHA
 10
59.869308
 20
36.091402
 30
0.0
 11
59.865566
 21
36.090119
 31
0.0
  0
LINE
  5
9B03
  8
ALPHA
 10
59.87966
 20
36.098738
 30
0.0
 11
59.869308
 21
36.091402
 31
0.0
  0
LINE
  5
9B04
  8
ALPHA
 10
59.87925
 20
34.093776
 30
0.0
 11
59.878127
 21
34.089615
 31
0.0
  0
LINE
  5
9B05
  8
ALPHA
 10
59.879658
 20
34.098303
 30
0.0
 11
59.87925
 21
34.093776
 31
0.0
  0
LINE
  5
9B06
  8
ALPHA
 10
59.879661
 20
34.098739
 30
0.0
 11
59.879658
 21
34.098303
 31
0.0
  0
LINE
  5
9B07
  8
ALPHA
 10
59.275022
 20
32.592869
 30
0.0
 11
59.272833
 21
32.595059
 31
0.0
  0
LINE
  5
9B08
  8
ALPHA
 10
59.877842
 20
33.088984
 30
0.0
 11
59.781054
 21
33.073724
 31
0.0
  0
LINE
  5
9B09
  8
ALPHA
 10
59.879207
 20
33.093579
 30
0.0
 11
59.877842
 21
33.088984
 31
0.0
  0
LINE
  5
9B0A
  8
ALPHA
 10
59.879658
 20
33.098301
 30
0.0
 11
59.879207
 21
33.093579
 31
0.0
  0
LINE
  5
9B0B
  8
ALPHA
 10
59.879661
 20
33.098739
 30
0.0
 11
59.879658
 21
33.098301
 31
0.0
  0
LINE
  5
9B0C
  8
ALPHA
 10
59.8778
 20
35.088898
 30
0.0
 11
59.781279
 21
35.073753
 31
0.0
  0
LINE
  5
9B0D
  8
ALPHA
 10
59.879201
 20
35.093554
 30
0.0
 11
59.8778
 21
35.088898
 31
0.0
  0
LINE
  5
9B0E
  8
ALPHA
 10
59.879658
 20
35.098301
 30
0.0
 11
59.879201
 21
35.093554
 31
0.0
  0
LINE
  5
9B0F
  8
ALPHA
 10
59.879661
 20
35.098739
 30
0.0
 11
59.879658
 21
35.098301
 31
0.0
  0
LINE
  5
9B10
  8
ALPHA
 10
59.272623
 20
33.588241
 30
0.0
 11
59.278964
 21
33.594241
 31
0.0
  0
LINE
  5
9B11
  8
ALPHA
 10
59.27017
 20
34.591484
 30
0.0
 11
59.276375
 21
34.594551
 31
0.0
  0
LINE
  5
9B12
  8
ALPHA
 10
59.877746
 20
32.088787
 30
0.0
 11
59.781564
 21
32.073789
 31
0.0
  0
LINE
  5
9B13
  8
ALPHA
 10
59.879194
 20
32.093521
 30
0.0
 11
59.877746
 21
32.088787
 31
0.0
  0
LINE
  5
9B14
  8
ALPHA
 10
59.879658
 20
32.0983
 30
0.0
 11
59.879194
 21
32.093521
 31
0.0
  0
LINE
  5
9B15
  8
ALPHA
 10
59.879661
 20
32.098738
 30
0.0
 11
59.879658
 21
32.0983
 31
0.0
  0
LINE
  5
9B16
  8
ALPHA
 10
59.27662
 20
32.594175
 30
0.0
 11
59.876848
 21
33.044517
 31
0.0
  0
LINE
  5
9B17
  8
ALPHA
 10
59.27662
 20
33.594176
 30
0.0
 11
59.876848
 21
34.044518
 31
0.0
  0
LINE
  5
9B18
  8
ALPHA
 10
59.27662
 20
34.594176
 30
0.0
 11
59.876848
 21
35.044519
 31
0.0
  0
LINE
  5
9B19
  8
ALPHA
 10
59.876848
 20
32.102959
 30
0.0
 11
59.280756
 21
32.550198
 31
0.0
  0
LINE
  5
9B1A
  8
ALPHA
 10
59.876848
 20
33.102959
 30
0.0
 11
59.280756
 21
33.550198
 31
0.0
  0
LINE
  5
9B1B
  8
ALPHA
 10
59.876848
 20
34.10296
 30
0.0
 11
59.280756
 21
34.550199
 31
0.0
  0
LINE
  5
9B1C
  8
ALPHA
 10
59.27662
 20
35.594176
 30
0.0
 11
59.876848
 21
36.044518
 31
0.0
  0
LINE
  5
9B1D
  8
ALPHA
 10
59.27662
 20
36.594175
 30
0.0
 11
59.876848
 21
37.044517
 31
0.0
  0
LINE
  5
9B1E
  8
ALPHA
 10
59.876848
 20
35.102959
 30
0.0
 11
59.280756
 21
35.550198
 31
0.0
  0
LINE
  5
9B1F
  8
ALPHA
 10
59.876848
 20
36.102959
 30
0.0
 11
59.280756
 21
36.550198
 31
0.0
  0
LINE
  5
9B20
  8
ALPHA
 10
59.876848
 20
37.10296
 30
0.0
 11
59.879661
 21
37.098739
 31
0.0
  0
LINE
  5
9B21
  8
ALPHA
 10
59.876848
 20
36.102959
 30
0.0
 11
59.879661
 21
36.098738
 31
0.0
  0
LINE
  5
9B22
  8
ALPHA
 10
59.879661
 20
35.098739
 30
0.0
 11
59.876848
 21
35.102959
 31
0.0
  0
LINE
  5
9B23
  8
ALPHA
 10
59.876848
 20
32.044518
 30
0.0
 11
59.879661
 21
32.048739
 31
0.0
  0
LINE
  5
9B24
  8
ALPHA
 10
59.876848
 20
33.044517
 30
0.0
 11
59.879661
 21
33.048738
 31
0.0
  0
LINE
  5
9B25
  8
ALPHA
 10
59.879661
 20
37.048738
 30
0.0
 11
59.879661
 21
37.098739
 31
0.0
  0
LINE
  5
9B26
  8
ALPHA
 10
59.879661
 20
36.048739
 30
0.0
 11
59.879661
 21
36.098738
 31
0.0
  0
LINE
  5
9B27
  8
ALPHA
 10
59.879661
 20
35.048739
 30
0.0
 11
59.879661
 21
35.098739
 31
0.0
  0
LINE
  5
9B28
  8
ALPHA
 10
59.879661
 20
34.048739
 30
0.0
 11
59.879661
 21
34.098739
 31
0.0
  0
LINE
  5
9B29
  8
ALPHA
 10
59.879661
 20
33.048738
 30
0.0
 11
59.879661
 21
33.098739
 31
0.0
  0
LINE
  5
9B2A
  8
ALPHA
 10
59.879661
 20
32.048739
 30
0.0
 11
59.879661
 21
32.098738
 31
0.0
  0
LINE
  5
9B2B
  8
ALPHA
 10
59.279661
 20
36.548738
 30
0.0
 11
59.279661
 21
36.598738
 31
0.0
  0
LINE
  5
9B2C
  8
ALPHA
 10
59.279661
 20
35.548739
 30
0.0
 11
59.279661
 21
35.598739
 31
0.0
  0
LINE
  5
9B2D
  8
ALPHA
 10
59.279661
 20
34.548739
 30
0.0
 11
59.279661
 21
34.598739
 31
0.0
  0
LINE
  5
9B2E
  8
ALPHA
 10
59.279661
 20
33.548739
 30
0.0
 11
59.279661
 21
33.598739
 31
0.0
  0
LINE
  5
9B2F
  8
ALPHA
 10
59.279661
 20
32.548738
 30
0.0
 11
59.279661
 21
32.598738
 31
0.0
  0
LINE
  5
9B30
  8
ALPHA
 10
59.876848
 20
36.044518
 30
0.0
 11
59.879661
 21
36.048738
 31
0.0
  0
LINE
  5
9B31
  8
ALPHA
 10
59.876848
 20
34.044518
 30
0.0
 11
59.879661
 21
34.048739
 31
0.0
  0
LINE
  5
9B32
  8
ALPHA
 10
59.876848
 20
35.044519
 30
0.0
 11
59.879661
 21
35.048739
 31
0.0
  0
LINE
  5
9B33
  8
ALPHA
 10
59.876848
 20
37.044517
 30
0.0
 11
59.879661
 21
37.048738
 31
0.0
  0
LINE
  5
9B34
  8
ALPHA
 10
59.693947
 20
37.909453
 30
0.0
 11
58.879661
 21
38.723739
 31
0.0
  0
LINE
  5
9B35
  8
ALPHA
 10
58.652614
 20
46.800184
 30
0.0
 11
57.729661
 21
42.303725
 31
0.0
  0
LINE
  5
9B36
  8
ALPHA
 10
56.279661
 20
38.823739
 30
0.0
 11
56.279661
 21
38.723739
 31
0.0
  0
ARC
  5
9B37
  8
ALPHA
 10
57.939661
 20
40.323739
 30
0.0
 40
0.35
 50
270.0
 51
90.0
  0
LINE
  5
9B38
  8
ALPHA
 10
57.291368
 20
39.973739
 30
0.0
 11
57.729661
 21
39.523739
 31
0.0
  0
LINE
  5
9B39
  8
ALPHA
 10
57.729661
 20
38.823739
 30
0.0
 11
57.729661
 21
39.523739
 31
0.0
  0
LINE
  5
9B3A
  8
ALPHA
 10
57.729661
 20
42.303725
 30
0.0
 11
57.729661
 21
41.123739
 31
0.0
  0
LINE
  5
9B3B
  8
ALPHA
 10
57.729661
 20
41.123739
 30
0.0
 11
57.291368
 21
40.673739
 31
0.0
  0
ARC
  5
9B3C
  8
ALPHA
 10
57.183249
 20
47.101789
 30
0.0
 40
1.5
 50
348.400456
 51
34.215185
  0
LINE
  5
9B3D
  8
ALPHA
 10
59.264424
 20
37.597085
 30
0.0
 11
59.271053
 21
37.601423
 31
0.0
  0
LINE
  5
9B3E
  8
ALPHA
 10
59.27662
 20
37.594176
 30
0.0
 11
59.693536
 21
37.906985
 31
0.0
  0
LINE
  5
9B3F
  8
ALPHA
 10
59.693947
 20
37.909453
 30
0.0
 11
59.693536
 21
37.906985
 31
0.0
  0
LINE
  5
9B40
  8
ALPHA
 10
59.279661
 20
37.548739
 30
0.0
 11
59.279661
 21
37.598739
 31
0.0
  0
LINE
  5
9B41
  8
ALPHA
 10
55.379661
 20
55.267686
 30
0.0
 11
55.379661
 21
52.723739
 31
0.0
  0
ARC
  5
9B42
  8
ALPHA
 10
55.179661
 20
55.267686
 30
0.0
 40
0.2
 50
0.0
 51
58.411872
  0
VIEWPORT
  5
494D
 67
     1
  8
0
 10
4.995325
 20
6.556512
 30
0.0
 40
22.70986
 41
13.988421
 68
    -1
 69
     1
1001
ACAD
1000
MVIEW
1002
{
1070
    16
1010
0.0
1020
0.0
1030
0.0
1010
0.0
1020
0.0
1030
1.0
1040
0.0
1040
13.988421
1040
4.995325
1040
6.556512
1040
50.0
1040
0.0
1040
0.0
1070
     0
1070
   100
1070
     1
1070
     1
1070
     0
1070
     0
1070
     0
1070
     0
1040
0.0
1040
0.0
1040
0.0
1040
10.0
1040
10.0
1040
10.0
1040
10.0
1070
     0
1002
{
1002
}
1002
}
  0
ENDSEC
  0
EOF
