  0
SECTION
  2
HEADER
  9
$ACADVER
  1
AC1009
  9
$INSBASE
 10
-146.27124
 20
-153.796096
 30
0.0
  9
$EXTMIN
 10
397.253248
 20
-188.259568
 30
0.0
  9
$EXTMAX
 10
511.753493
 20
-36.759554
 30
0.0
  9
$LIMMIN
 10
-407.970438
 20
-367.832444
  9
$LIMMAX
 10
429.804077
 20
234.370848
  9
$ORTHOMODE
 70
     1
  9
$REGENMODE
 70
     1
  9
$FILLMODE
 70
     1
  9
$QTEXTMODE
 70
     0
  9
$MIRRTEXT
 70
     1
  9
$DRAGMODE
 70
     2
  9
$LTSCALE
 40
10.0
  9
$OSMODE
 70
    37
  9
$ATTMODE
 70
     1
  9
$TEXTSIZE
 40
6.0
  9
$TRACEWID
 40
1.0
  9
$TEXTSTYLE
  7
ROMANS
  9
$CLAYER
  8
COTATION1
  9
$CELTYPE
  6
BYLAYER
  9
$CECOLOR
 62
   256
  9
$DIMSCALE
 40
1.0
  9
$DIMASZ
 40
2.0
  9
$DIMEXO
 40
0.5
  9
$DIMDLI
 40
0.38
  9
$DIMRND
 40
0.0
  9
$DIMDLE
 40
0.0
  9
$DIMEXE
 40
0.18
  9
$DIMTP
 40
0.0
  9
$DIMTM
 40
0.0
  9
$DIMTXT
 40
2.0
  9
$DIMCEN
 40
0.09
  9
$DIMTSZ
 40
0.0
  9
$DIMTOL
 70
     0
  9
$DIMLIM
 70
     0
  9
$DIMTIH
 70
     0
  9
$DIMTOH
 70
     1
  9
$DIMSE1
 70
     0
  9
$DIMSE2
 70
     0
  9
$DIMTAD
 70
     1
  9
$DIMZIN
 70
    12
  9
$DIMBLK
  1
OPEN30
  9
$DIMASO
 70
     1
  9
$DIMSHO
 70
     1
  9
$DIMPOST
  1

  9
$DIMAPOST
  1

  9
$DIMALT
 70
     0
  9
$DIMALTD
 70
     2
  9
$DIMALTF
 40
25.4
  9
$DIMLFAC
 40
1.0
  9
$DIMTOFL
 70
     0
  9
$DIMTVP
 40
0.0
  9
$DIMTIX
 70
     0
  9
$DIMSOXD
 70
     0
  9
$DIMSAH
 70
     0
  9
$DIMBLK1
  1

  9
$DIMBLK2
  1

  9
$DIMSTYLE
  2
ROMANS
  9
$DIMCLRD
 70
     0
  9
$DIMCLRE
 70
     0
  9
$DIMCLRT
 70
     0
  9
$DIMTFAC
 40
1.0
  9
$DIMGAP
 40
0.5
  9
$LUNITS
 70
     2
  9
$LUPREC
 70
     1
  9
$SKETCHINC
 40
0.1
  9
$FILLETRAD
 40
0.0
  9
$AUNITS
 70
     0
  9
$AUPREC
 70
     0
  9
$MENU
  1
acad
  9
$ELEVATION
 40
0.0
  9
$PELEVATION
 40
0.0
  9
$THICKNESS
 40
0.0
  9
$LIMCHECK
 70
     0
  9
$BLIPMODE
 70
     0
  9
$CHAMFERA
 40
0.0
  9
$CHAMFERB
 40
0.0
  9
$SKPOLY
 70
     0
  9
$TDCREATE
 40
2450365.355314
  9
$TDUPDATE
 40
2452608.385831
  9
$TDINDWG
 40
0.621985
  9
$TDUSRTIMER
 40
0.621985
  9
$USRTIMER
 70
     1
  9
$ANGBASE
 50
0.0
  9
$ANGDIR
 70
     0
  9
$PDMODE
 70
    32
  9
$PDSIZE
 40
0.0
  9
$PLINEWID
 40
0.0
  9
$COORDS
 70
     2
  9
$SPLFRAME
 70
     0
  9
$SPLINETYPE
 70
     6
  9
$SPLINESEGS
 70
     8
  9
$ATTDIA
 70
     0
  9
$ATTREQ
 70
     1
  9
$HANDLING
 70
     1
  9
$HANDSEED
  5
5BE3
  9
$SURFTAB1
 70
     6
  9
$SURFTAB2
 70
     6
  9
$SURFTYPE
 70
     6
  9
$SURFU
 70
     6
  9
$SURFV
 70
     6
  9
$UCSNAME
  2

  9
$UCSORG
 10
0.0
 20
0.0
 30
0.0
  9
$UCSXDIR
 10
1.0
 20
0.0
 30
0.0
  9
$UCSYDIR
 10
0.0
 20
1.0
 30
0.0
  9
$PUCSNAME
  2

  9
$PUCSORG
 10
0.0
 20
0.0
 30
0.0
  9
$PUCSXDIR
 10
1.0
 20
0.0
 30
0.0
  9
$PUCSYDIR
 10
0.0
 20
1.0
 30
0.0
  9
$USERI1
 70
     0
  9
$USERI2
 70
     0
  9
$USERI3
 70
     0
  9
$USERI4
 70
     0
  9
$USERI5
 70
     0
  9
$USERR1
 40
0.0
  9
$USERR2
 40
0.0
  9
$USERR3
 40
0.0
  9
$USERR4
 40
0.0
  9
$USERR5
 40
0.0
  9
$WORLDVIEW
 70
     1
  9
$SHADEDGE
 70
     3
  9
$SHADEDIF
 70
    70
  9
$TILEMODE
 70
     1
  9
$MAXACTVP
 70
    16
  9
$PLIMCHECK
 70
     0
  9
$PEXTMIN
 10
1.000000E+020
 20
1.000000E+020
 30
1.000000E+020
  9
$PEXTMAX
 10
-1.000000E+020
 20
-1.000000E+020
 30
-1.000000E+020
  9
$PLIMMIN
 10
0.0
 20
0.0
  9
$PLIMMAX
 10
12.0
 20
9.0
  9
$UNITMODE
 70
     0
  9
$VISRETAIN
 70
     0
  9
$PLINEGEN
 70
     0
  9
$PSLTSCALE
 70
     0
  0
ENDSEC
  0
SECTION
  2
TABLES
  0
TABLE
  2
VPORT
 70
     2
  0
VPORT
  2
*ACTIVE
 70
     0
 10
0.0
 20
0.0
 11
1.0
 21
1.0
 12
454.517623
 22
-112.514456
 13
0.0
 23
0.0
 14
1.0
 24
1.0
 15
10.0
 25
10.0
 16
0.0
 26
0.0
 36
1.0
 17
0.0
 27
0.0
 37
0.0
 40
152.942471
 41
1.63142
 42
50.0
 43
0.0
 44
0.0
 50
0.0
 51
0.0
 71
     0
 72
   100
 73
     1
 74
     0
 75
     0
 76
     0
 77
     0
 78
     0
  0
ENDTAB
  0
TABLE
  2
LTYPE
 70
    26
  0
LTYPE
  2
CONTINUOUS
 70
     0
  3
Solid line
 72
    65
 73
     0
 40
0.0
  0
LTYPE
  2
AXES2
 70
     0
  3
___ _ ___ _ ___ _ ___ _ ___ _ ___ _ ___ _ ___ _
 72
    65
 73
     4
 40
1.125
 49
0.75
 49
-0.125
 49
0.125
 49
-0.125
  0
LTYPE
  2
ACAD_ISO04W100
 70
     0
  3
ISO Lang gestrichelt punktiert ____ . ____ . __
 72
    65
 73
     4
 40
30.5
 49
24.0
 49
-3.0
 49
0.5
 49
-3.0
  0
LTYPE
  2
AXES
 70
     0
  3
____ _ ____ _ ____ _ ____ _ ____ _ ____ _ ____ 
 72
    65
 73
     4
 40
2.0
 49
1.25
 49
-0.25
 49
0.25
 49
-0.25
  0
LTYPE
  2
AXESX2
 70
     0
  3
________  __  ________  __  ________  __  _____
 72
    65
 73
     4
 40
4.0
 49
2.5
 49
-0.5
 49
0.5
 49
-0.5
  0
LTYPE
  2
TIRETPT
 70
     0
  3
__ . __ . __ . __ . __ . __ . __ . __ . __ . __
 72
    65
 73
     4
 40
1.0
 49
0.5
 49
-0.25
 49
0.0
 49
-0.25
  0
LTYPE
  2
TIRETPT2
 70
     0
  3
_._._._._._._._._._._._._._._._._._._._._._._._
 72
    65
 73
     4
 40
0.5
 49
0.25
 49
-0.125
 49
0.0
 49
-0.125
  0
LTYPE
  2
TIRETPTX2
 70
     0
  3
____  .  ____  .  ____  .  ____  .  ____  .  __
 72
    65
 73
     4
 40
2.0
 49
1.0
 49
-0.5
 49
0.0
 49
-0.5
  0
LTYPE
  2
DISCONTINU
 70
     0
  3
__ __ __ __ __ __ __ __ __ __ __ __ __ __ __ __
 72
    65
 73
     2
 40
0.75
 49
0.5
 49
-0.25
  0
LTYPE
  2
DISCONTINU2
 70
     0
  3
_ _ _ _ _ _ _ _ _ _ _ _ _ _ _ _ _ _ _ _ _ _ _ _
 72
    65
 73
     2
 40
0.375
 49
0.25
 49
-0.125
  0
LTYPE
  2
DISCONTINUX2
 70
     0
  3
____  ____  ____  ____  ____  ____  ____  ____ 
 72
    65
 73
     2
 40
1.5
 49
1.0
 49
-0.5
  0
LTYPE
  2
DIVISE
 70
     0
  3
____ . . ____ . . ____ . . ____ . . ____ . . __
 72
    65
 73
     6
 40
1.25
 49
0.5
 49
-0.25
 49
0.0
 49
-0.25
 49
0.0
 49
-0.25
  0
LTYPE
  2
DIVISE2
 70
     0
  3
__..__..__..__..__..__..__..__..__..__..__..__.
 72
    65
 73
     6
 40
0.625
 49
0.25
 49
-0.125
 49
0.0
 49
-0.125
 49
0.0
 49
-0.125
  0
LTYPE
  2
DIVISEX2
 70
     0
  3
________  .  .  ________  .  .  ________  .  . 
 72
    65
 73
     6
 40
2.5
 49
1.0
 49
-0.5
 49
0.0
 49
-0.5
 49
0.0
 49
-0.5
  0
LTYPE
  2
POINTILLE
 70
     0
  3
. . . . . . . . . . . . . . . . . . . . . . . .
 72
    65
 73
     2
 40
0.25
 49
0.0
 49
-0.25
  0
LTYPE
  2
POINTILLE2
 70
     0
  3
...............................................
 72
    65
 73
     2
 40
0.125
 49
0.0
 49
-0.125
  0
LTYPE
  2
POINTILLEX2
 70
     0
  3
.  .  .  .  .  .  .  .  .  .  .  .  .  .  .  . 
 72
    65
 73
     2
 40
0.5
 49
0.0
 49
-0.5
  0
LTYPE
  2
CACHE
 70
     0
  3
__ __ __ __ __ __ __ __ __ __ __ __ __ __ __ __
 72
    65
 73
     2
 40
0.375
 49
0.25
 49
-0.125
  0
LTYPE
  2
CACHE2
 70
     0
  3
_ _ _ _ _ _ _ _ _ _ _ _ _ _ _ _ _ _ _ _ _ _ _ _
 72
    65
 73
     2
 40
0.1875
 49
0.125
 49
-0.0625
  0
LTYPE
  2
CACHEX2
 70
     0
  3
____ ____ ____ ____ ____ ____ ____ ____ ____ __
 72
    65
 73
     2
 40
0.75
 49
0.5
 49
-0.25
  0
LTYPE
  2
FANTOME
 70
     0
  3
______  __  __  ______  __  __  ______  __  __ 
 72
    65
 73
     6
 40
2.5
 49
1.25
 49
-0.25
 49
0.25
 49
-0.25
 49
0.25
 49
-0.25
  0
LTYPE
  2
FANTOME2
 70
     0
  3
___ _ _ ___ _ _ ___ _ _ ___ _ _ ___ _ _ ___ _ _
 72
    65
 73
     6
 40
1.25
 49
0.625
 49
-0.125
 49
0.125
 49
-0.125
 49
0.125
 49
-0.125
  0
LTYPE
  2
FANTOMEX2
 70
     0
  3
____________    ____    ____    ____________   
 72
    65
 73
     6
 40
5.0
 49
2.5
 49
-0.5
 49
0.5
 49
-0.5
 49
0.5
 49
-0.5
  0
LTYPE
  2
0
 70
     0
  3
MEDUSA PEN 0
 72
    65
 73
     0
 40
0.0
  0
LTYPE
  2
AI9-LTYPE1
 70
     0
  3
Illustrator Dash Style No.1
 72
    65
 73
     4
 40
5.64621
 49
4.106333
 49
-0.307975
 49
0.923926
 49
-0.307975
  0
LTYPE
  2
AI9-LTYPE2
 70
     0
  3
Illustrator Dash Style No.2
 72
    65
 73
     2
 40
1.33456
 49
1.026585
 49
-0.307975
  0
ENDTAB
  0
TABLE
  2
LAYER
 70
    17
  0
LAYER
  2
0
 70
     0
 62
     7
  6
CONTINUOUS
  0
LAYER
  2
TEXTE_MOYEN
 70
     0
 62
   131
  6
CONTINUOUS
  0
LAYER
  2
ALPHA
 70
     0
 62
   254
  6
CONTINUOUS
  0
LAYER
  2
COTATION1
 70
     0
 62
    50
  6
CONTINUOUS
  0
LAYER
  2
AXE
 70
     0
 62
    80
  6
AXES2
  0
LAYER
  2
DEFPOINTS
 70
     0
 62
     7
  6
CONTINUOUS
  0
LAYER
  2
HACHURES1
 70
     0
 62
   130
  6
CONTINUOUS
  0
LAYER
  2
FMULT
 70
     0
 62
   210
  6
CONTINUOUS
  0
LAYER
  2
FDP_CARTOUCHE
 70
     0
 62
   136
  6
CONTINUOUS
  0
LAYER
  2
FDP_TEXTES
 70
     0
 62
   171
  6
CONTINUOUS
  0
LAYER
  2
FDP_LOGO_MG
 70
     0
 62
    30
  6
CONTINUOUS
  0
LAYER
  2
FDP_LOGO_SCH
 70
     0
 62
    90
  6
CONTINUOUS
  0
LAYER
  2
FDP_FDP
 70
     0
 62
   170
  6
CONTINUOUS
  0
LAYER
  2
POINTILLE_COURT2
 70
     0
 62
    41
  6
CACHE2
  0
LAYER
  2
POINTILLE_MOYEN2
 70
     0
 62
   141
  6
CACHE
  0
LAYER
  2
POINTILLE_LONG2
 70
     0
 62
   241
  6
CACHEX2
  0
LAYER
  2
ALPHA_FIN
 70
     0
 62
   255
  6
CONTINUOUS
  0
ENDTAB
  0
TABLE
  2
STYLE
 70
     5
  0
STYLE
  2
ROMANS
 70
     0
 40
0.0
 41
1.0
 50
0.0
 71
     0
 42
6.0
  3
romans
  4

  0
STYLE
  2
STANDARD
 70
     0
 40
0.2
 41
1.0
 50
0.0
 71
     0
 42
0.2
  3
txt
  4

  0
STYLE
  2
STD
 70
     0
 40
0.0
 41
1.0
 50
0.0
 71
     0
 42
0.0
  3
txt
  4

  0
STYLE
  2
INFOCAR
 70
     0
 40
0.0
 41
1.34
 50
0.0
 71
     0
 42
2.0
  3
ROMANS.SHX
  4

  0
STYLE
  2
CARTOUCHE
 70
     0
 40
0.0
 41
1.0
 50
0.0
 71
     0
 42
0.2
  3
ROMANS.SHX
  4

  0
ENDTAB
  0
TABLE
  2
VIEW
 70
     0
  0
ENDTAB
  0
TABLE
  2
UCS
 70
     0
  0
ENDTAB
  0
TABLE
  2
APPID
 70
     3
  0
APPID
  2
ACAD
 70
     0
  0
APPID
  2
AVE_RENDER
 70
     0
  0
APPID
  2
AVE_MATERIAL
 70
     0
  0
ENDTAB
  0
TABLE
  2
DIMSTYLE
 70
     1
  0
DIMSTYLE
  2
ROMANS
 70
     0
  3

  4

  5
OPEN30
  6

  7

 40
1.0
 41
2.0
 42
0.5
 43
0.38
 44
0.18
 45
0.0
 46
0.0
 47
0.0
 48
0.0
140
2.0
141
0.09
142
0.0
143
25.4
144
1.0
145
0.0
146
1.0
147
0.5
 71
     0
 72
     0
 73
     0
 74
     1
 75
     0
 76
     0
 77
     1
 78
    12
170
     0
171
     2
172
     0
173
     0
174
     0
175
     0
176
     0
177
     0
178
     0
  0
ENDTAB
  0
ENDSEC
  0
SECTION
  2
BLOCKS
  0
BLOCK
  8
0
  2
$MODEL_SPACE
 70
     0
 10
0.0
 20
0.0
 30
0.0
  3
$MODEL_SPACE
  1

  0
ENDBLK
  5
59F1
  8
0
  0
BLOCK
 67
     1
  8
0
  2
$PAPER_SPACE
 70
     0
 10
0.0
 20
0.0
 30
0.0
  3
$PAPER_SPACE
  1

  0
ENDBLK
  5
59EF
 67
     1
  8
0
  0
BLOCK
  8
0
  2
COTE
 70
     0
 10
0.0
 20
0.0
 30
0.0
  3
COTE
  1

  0
ENDBLK
  5
35
  8
0
  0
BLOCK
  8
0
  2
FOND
 70
     0
 10
0.0
 20
0.0
 30
0.0
  3
FOND
  1

  0
ENDBLK
  5
39
  8
0
  0
BLOCK
  8
0
  2
SCH_ISO
 70
     0
 10
0.0
 20
0.0
 30
0.0
  3
SCH_ISO
  1

  0
ENDBLK
  5
24AD
  8
0
  0
BLOCK
  8
0
  2
_OPEN30
 70
     0
 10
0.0
 20
0.0
 30
0.0
  3
_OPEN30
  1

  0
LINE
  5
27E1
  8
COTATION1
 62
     0
 10
-1.0
 20
0.267949
 30
0.0
 11
0.0
 21
0.0
 31
0.0
1001
ACAD
1000
RTLwPs
1070
   158
  0
LINE
  5
27E2
  8
COTATION1
 62
     0
 10
0.0
 20
0.0
 30
0.0
 11
-1.0
 21
-0.267949
 31
0.0
1001
ACAD
1000
RTLwPs
1070
   158
  0
LINE
  5
27E3
  8
COTATION1
 62
     0
 10
0.0
 20
0.0
 30
0.0
 11
-1.0
 21
0.0
 31
0.0
1001
ACAD
1000
RTLwPs
1070
   158
  0
ENDBLK
  5
27E5
  8
0
  0
BLOCK
  8
0
  2
*D4
 70
     1
 10
0.0
 20
0.0
 30
0.0
  3
*D4
  1

  0
LINE
  5
56F1
  8
COTATION1
 62
     0
 10
456.755463
 20
-74.259554
 30
0.0
 11
399.573248
 21
-74.259554
 31
0.0
1001
ACAD
1000
RTLwPs
1070
   158
  0
LINE
  5
56F2
  8
COTATION1
 62
     0
 10
462.754104
 20
-173.259568
 30
0.0
 11
399.573248
 21
-173.259568
 31
0.0
1001
ACAD
1000
RTLwPs
1070
   158
  0
LINE
  5
56F3
  8
COTATION1
 62
     0
 10
399.753248
 20
-76.259554
 30
0.0
 11
399.753248
 21
-171.259568
 31
0.0
1001
ACAD
1000
RTLwPs
1070
   158
  0
INSERT
  5
56F4
  8
COTATION1
 62
     0
  2
_OPEN30
 10
399.753248
 20
-74.259554
 30
0.0
 41
2.0
 42
2.0
 43
2.0
 50
90.0
1001
ACAD
1000
RTLwPs
1070
   158
  0
INSERT
  5
56F5
  8
COTATION1
 62
     0
  2
_OPEN30
 10
399.753248
 20
-173.259568
 30
0.0
 41
2.0
 42
2.0
 43
2.0
 50
270.0
1001
ACAD
1000
RTLwPs
1070
   158
  0
TEXT
  5
56F6
  8
COTATION1
 62
     0
 10
399.253248
 20
-125.616704
 30
0.0
 40
2.0
  1
99
 50
90.0
1001
ACAD
1000
MTEXTBEGIN
1070
    73
1070
     1
1070
    44
1040
1.0
1070
    74
1070
     0
1000
MTEXTEND
  0
POINT
  5
56F7
  8
DEFPOINTS
 62
     0
 10
457.255463
 20
-74.259554
 30
0.0
  0
POINT
  5
56F8
  8
DEFPOINTS
 62
     0
 10
463.254104
 20
-173.259568
 30
0.0
  0
POINT
  5
56F9
  8
DEFPOINTS
 62
     0
 10
399.753248
 20
-173.259568
 30
0.0
  0
ENDBLK
  5
51DD
  8
0
  0
BLOCK
  8
0
  2
*D5
 70
     1
 10
0.0
 20
0.0
 30
0.0
  3
*D5
  1

  0
LINE
  5
56E8
  8
COTATION1
 62
     0
 10
455.253206
 20
-101.530303
 30
0.0
 11
455.253206
 21
-49.079554
 31
0.0
1001
ACAD
1000
RTLwPs
1070
   158
  0
LINE
  5
56E9
  8
COTATION1
 62
     0
 10
496.753202
 20
-101.530303
 30
0.0
 11
496.753202
 21
-49.079554
 31
0.0
1001
ACAD
1000
RTLwPs
1070
   158
  0
LINE
  5
56EA
  8
COTATION1
 62
     0
 10
457.253206
 20
-49.259554
 30
0.0
 11
494.753202
 21
-49.259554
 31
0.0
1001
ACAD
1000
RTLwPs
1070
   158
  0
INSERT
  5
56EB
  8
COTATION1
 62
     0
  2
_OPEN30
 10
455.253206
 20
-49.259554
 30
0.0
 41
2.0
 42
2.0
 43
2.0
 50
180.0
1001
ACAD
1000
RTLwPs
1070
   158
  0
INSERT
  5
56EC
  8
COTATION1
 62
     0
  2
_OPEN30
 10
496.753202
 20
-49.259554
 30
0.0
 41
2.0
 42
2.0
 43
2.0
1001
ACAD
1000
RTLwPs
1070
   158
  0
TEXT
  5
56ED
  8
COTATION1
 62
     0
 10
472.669871
 20
-48.759554
 30
0.0
 40
2.0
  1
41.5
1001
ACAD
1000
MTEXTBEGIN
1070
    73
1070
     1
1070
    44
1040
1.0
1070
    74
1070
     0
1000
MTEXTEND
  0
POINT
  5
56EE
  8
DEFPOINTS
 62
     0
 10
455.253206
 20
-102.030303
 30
0.0
  0
POINT
  5
56EF
  8
DEFPOINTS
 62
     0
 10
496.753202
 20
-102.030303
 30
0.0
  0
POINT
  5
56F0
  8
DEFPOINTS
 62
     0
 10
496.753202
 20
-49.259554
 30
0.0
  0
ENDBLK
  5
51F9
  8
0
  0
BLOCK
  8
0
  2
*D6
 70
     1
 10
0.0
 20
0.0
 30
0.0
  3
*D6
  1

  0
LINE
  5
56CD
  8
COTATION1
 62
     0
 10
414.753248
 20
-124.820759
 30
0.0
 11
414.753248
 21
-49.079554
 31
0.0
1001
ACAD
1000
RTLwPs
1070
   158
  0
LINE
  5
56CE
  8
COTATION1
 62
     0
 10
455.253206
 20
-101.230303
 30
0.0
 11
455.253206
 21
-49.079554
 31
0.0
1001
ACAD
1000
RTLwPs
1070
   158
  0
LINE
  5
56CF
  8
COTATION1
 62
     0
 10
416.753248
 20
-49.259554
 30
0.0
 11
453.253206
 21
-49.259554
 31
0.0
1001
ACAD
1000
RTLwPs
1070
   158
  0
INSERT
  5
56D0
  8
COTATION1
 62
     0
  2
_OPEN30
 10
414.753248
 20
-49.259554
 30
0.0
 41
2.0
 42
2.0
 43
2.0
 50
180.0
1001
ACAD
1000
RTLwPs
1070
   158
  0
INSERT
  5
56D1
  8
COTATION1
 62
     0
  2
_OPEN30
 10
455.253206
 20
-49.259554
 30
0.0
 41
2.0
 42
2.0
 43
2.0
1001
ACAD
1000
RTLwPs
1070
   158
  0
TEXT
  5
56D2
  8
COTATION1
 62
     0
 10
431.669894
 20
-48.759554
 30
0.0
 40
2.0
  1
40.5
1001
ACAD
1000
MTEXTBEGIN
1070
    73
1070
     1
1070
    44
1040
1.0
1070
    74
1070
     0
1000
MTEXTEND
  0
POINT
  5
56D3
  8
DEFPOINTS
 62
     0
 10
414.753248
 20
-125.320759
 30
0.0
  0
POINT
  5
56D4
  8
DEFPOINTS
 62
     0
 10
455.253206
 20
-101.730303
 30
0.0
  0
POINT
  5
56D5
  8
DEFPOINTS
 62
     0
 10
455.253206
 20
-49.259554
 30
0.0
  0
ENDBLK
  5
5218
  8
0
  0
BLOCK
  8
0
  2
*D7
 70
     1
 10
0.0
 20
0.0
 30
0.0
  3
*D7
  1

  0
LINE
  5
56D6
  8
COTATION1
 62
     0
 10
442.250423
 20
-68.759554
 30
0.0
 11
442.250423
 21
-59.079554
 31
0.0
1001
ACAD
1000
RTLwPs
1070
   158
  0
LINE
  5
56D7
  8
COTATION1
 62
     0
 10
460.254784
 20
-73.759554
 30
0.0
 11
460.254784
 21
-59.079554
 31
0.0
1001
ACAD
1000
RTLwPs
1070
   158
  0
LINE
  5
56D8
  8
COTATION1
 62
     0
 10
444.250423
 20
-59.259554
 30
0.0
 11
458.254784
 21
-59.259554
 31
0.0
1001
ACAD
1000
RTLwPs
1070
   158
  0
INSERT
  5
56D9
  8
COTATION1
 62
     0
  2
_OPEN30
 10
442.250423
 20
-59.259554
 30
0.0
 41
2.0
 42
2.0
 43
2.0
 50
180.0
1001
ACAD
1000
RTLwPs
1070
   158
  0
INSERT
  5
56DA
  8
COTATION1
 62
     0
  2
_OPEN30
 10
460.254784
 20
-59.259554
 30
0.0
 41
2.0
 42
2.0
 43
2.0
1001
ACAD
1000
RTLwPs
1070
   158
  0
TEXT
  5
56DB
  8
COTATION1
 62
     0
 10
449.202811
 20
-58.759554
 30
0.0
 40
2.0
  1
18
1001
ACAD
1000
MTEXTBEGIN
1070
    73
1070
     1
1070
    44
1040
1.0
1070
    74
1070
     0
1000
MTEXTEND
  0
POINT
  5
56DC
  8
DEFPOINTS
 62
     0
 10
442.250423
 20
-69.259554
 30
0.0
  0
POINT
  5
56DD
  8
DEFPOINTS
 62
     0
 10
460.254784
 20
-74.259554
 30
0.0
  0
POINT
  5
56DE
  8
DEFPOINTS
 62
     0
 10
460.254784
 20
-59.259554
 30
0.0
  0
ENDBLK
  5
522E
  8
0
  0
BLOCK
  8
0
  2
*D8
 70
     1
 10
0.0
 20
0.0
 30
0.0
  3
*D8
  1

  0
LINE
  5
56DF
  8
COTATION1
 62
     0
 10
442.250423
 20
-68.759554
 30
0.0
 11
442.250423
 21
-39.079554
 31
0.0
1001
ACAD
1000
RTLwPs
1070
   158
  0
LINE
  5
56E0
  8
COTATION1
 62
     0
 10
491.754625
 20
-73.759554
 30
0.0
 11
491.754625
 21
-39.079554
 31
0.0
1001
ACAD
1000
RTLwPs
1070
   158
  0
LINE
  5
56E1
  8
COTATION1
 62
     0
 10
444.250423
 20
-39.259554
 30
0.0
 11
489.754625
 21
-39.259554
 31
0.0
1001
ACAD
1000
RTLwPs
1070
   158
  0
INSERT
  5
56E2
  8
COTATION1
 62
     0
  2
_OPEN30
 10
442.250423
 20
-39.259554
 30
0.0
 41
2.0
 42
2.0
 43
2.0
 50
180.0
1001
ACAD
1000
RTLwPs
1070
   158
  0
INSERT
  5
56E3
  8
COTATION1
 62
     0
  2
_OPEN30
 10
491.754625
 20
-39.259554
 30
0.0
 41
2.0
 42
2.0
 43
2.0
1001
ACAD
1000
RTLwPs
1070
   158
  0
TEXT
  5
56E4
  8
COTATION1
 62
     0
 10
460.812048
 20
-38.759554
 30
0.0
 40
2.0
  1
49.5042
1001
ACAD
1000
MTEXTBEGIN
1070
    73
1070
     1
1070
    44
1040
1.0
1070
    74
1070
     0
1000
MTEXTEND
  0
POINT
  5
56E5
  8
DEFPOINTS
 62
     0
 10
442.250423
 20
-69.259554
 30
0.0
  0
POINT
  5
56E6
  8
DEFPOINTS
 62
     0
 10
491.754625
 20
-74.259554
 30
0.0
  0
POINT
  5
56E7
  8
DEFPOINTS
 62
     0
 10
491.754625
 20
-39.259554
 30
0.0
  0
ENDBLK
  5
527A
  8
0
  0
ENDSEC
  0
SECTION
  2
ENTITIES
  0
INSERT
  5
32
  8
0
  2
COTE
 10
0.0
 20
0.0
 30
0.0
  0
INSERT
  5
36
  8
0
  2
FOND
 10
0.0
 20
0.0
 30
0.0
  0
INSERT
  5
24AE
  8
ALPHA
  2
SCH_ISO
 10
-66.27012
 20
-238.940658
 30
0.0
  0
POLYLINE
  5
511C
  8
ALPHA
 66
     1
 10
0.0
 20
0.0
 30
0.0
 70
   128
  0
VERTEX
  5
59F7
  8
ALPHA
 10
488.753643
 20
-173.259568
 30
0.0
  0
VERTEX
  5
59F8
  8
ALPHA
 10
488.467271
 20
-173.259568
 30
0.0
  0
VERTEX
  5
59F9
  8
ALPHA
 10
487.65796
 20
-173.259568
 30
0.0
  0
VERTEX
  5
59FA
  8
ALPHA
 10
486.400414
 20
-173.259568
 30
0.0
  0
VERTEX
  5
59FB
  8
ALPHA
 10
484.76934
 20
-173.259568
 30
0.0
  0
VERTEX
  5
59FC
  8
ALPHA
 10
480.68543
 20
-173.259568
 30
0.0
  0
VERTEX
  5
59FD
  8
ALPHA
 10
476.003874
 20
-173.259568
 30
0.0
  0
VERTEX
  5
59FE
  8
ALPHA
 10
471.322318
 20
-173.259568
 30
0.0
  0
VERTEX
  5
59FF
  8
ALPHA
 10
467.238407
 20
-173.259568
 30
0.0
  0
VERTEX
  5
5A00
  8
ALPHA
 10
465.607333
 20
-173.259568
 30
0.0
  0
VERTEX
  5
5A01
  8
ALPHA
 10
464.349788
 20
-173.259568
 30
0.0
  0
VERTEX
  5
5A02
  8
ALPHA
 10
463.540476
 20
-173.259568
 30
0.0
  0
VERTEX
  5
5A03
  8
ALPHA
 10
463.254104
 20
-173.259568
 30
0.0
  0
VERTEX
  5
5A04
  8
ALPHA
 10
462.045359
 20
-173.137661
 30
0.0
  0
VERTEX
  5
5A05
  8
ALPHA
 10
460.919332
 20
-172.788029
 30
0.0
  0
VERTEX
  5
5A06
  8
ALPHA
 10
459.012149
 20
-171.502145
 30
0.0
  0
VERTEX
  5
5A07
  8
ALPHA
 10
457.725988
 20
-169.595017
 30
0.0
  0
VERTEX
  5
5A08
  8
ALPHA
 10
457.376239
 20
-168.46883
 30
0.0
  0
VERTEX
  5
5A09
  8
ALPHA
 10
457.254282
 20
-167.259746
 30
0.0
  0
SEQEND
  5
5A0A
  8
ALPHA
  0
POLYLINE
  5
511D
  8
ALPHA
 66
     1
 10
0.0
 20
0.0
 30
0.0
 70
   128
  0
VERTEX
  5
5A0B
  8
ALPHA
 10
463.254104
 20
-170.259067
 30
0.0
  0
VERTEX
  5
5A0C
  8
ALPHA
 10
463.540476
 20
-170.259067
 30
0.0
  0
VERTEX
  5
5A0D
  8
ALPHA
 10
464.349788
 20
-170.259067
 30
0.0
  0
VERTEX
  5
5A0E
  8
ALPHA
 10
465.607333
 20
-170.259067
 30
0.0
  0
VERTEX
  5
5A0F
  8
ALPHA
 10
467.238407
 20
-170.259067
 30
0.0
  0
VERTEX
  5
5A10
  8
ALPHA
 10
471.322318
 20
-170.259067
 30
0.0
  0
VERTEX
  5
5A11
  8
ALPHA
 10
476.003874
 20
-170.259067
 30
0.0
  0
VERTEX
  5
5A12
  8
ALPHA
 10
480.68543
 20
-170.259067
 30
0.0
  0
VERTEX
  5
5A13
  8
ALPHA
 10
484.76934
 20
-170.259067
 30
0.0
  0
VERTEX
  5
5A14
  8
ALPHA
 10
486.400414
 20
-170.259067
 30
0.0
  0
VERTEX
  5
5A15
  8
ALPHA
 10
487.65796
 20
-170.259067
 30
0.0
  0
VERTEX
  5
5A16
  8
ALPHA
 10
488.467271
 20
-170.259067
 30
0.0
  0
VERTEX
  5
5A17
  8
ALPHA
 10
488.753643
 20
-170.259067
 30
0.0
  0
VERTEX
  5
5A18
  8
ALPHA
 10
489.921619
 20
-170.023307
 30
0.0
  0
VERTEX
  5
5A19
  8
ALPHA
 10
490.875359
 20
-169.380429
 30
0.0
  0
VERTEX
  5
5A1A
  8
ALPHA
 10
491.518365
 20
-168.42704
 30
0.0
  0
VERTEX
  5
5A1B
  8
ALPHA
 10
491.754144
 20
-167.259746
 30
0.0
  0
SEQEND
  5
5A1C
  8
ALPHA
  0
POLYLINE
  5
511E
  8
ALPHA
 66
     1
 10
0.0
 20
0.0
 30
0.0
 70
   128
  0
VERTEX
  5
5A1D
  8
ALPHA
 10
491.255328
 20
-74.259554
 30
0.0
  0
VERTEX
  5
5A1E
  8
ALPHA
 10
490.940861
 20
-74.259541
 30
0.0
  0
VERTEX
  5
5A1F
  8
ALPHA
 10
490.05215
 20
-74.259503
 30
0.0
  0
VERTEX
  5
5A20
  8
ALPHA
 10
488.671231
 20
-74.259445
 30
0.0
  0
VERTEX
  5
5A21
  8
ALPHA
 10
486.880137
 20
-74.259369
 30
0.0
  0
VERTEX
  5
5A22
  8
ALPHA
 10
484.760904
 20
-74.25928
 30
0.0
  0
VERTEX
  5
5A23
  8
ALPHA
 10
482.395566
 20
-74.25918
 30
0.0
  0
VERTEX
  5
5A24
  8
ALPHA
 10
477.254716
 20
-74.258964
 30
0.0
  0
VERTEX
  5
5A25
  8
ALPHA
 10
472.113867
 20
-74.258747
 30
0.0
  0
VERTEX
  5
5A26
  8
ALPHA
 10
469.748529
 20
-74.258647
 30
0.0
  0
VERTEX
  5
5A27
  8
ALPHA
 10
467.629296
 20
-74.258558
 30
0.0
  0
VERTEX
  5
5A28
  8
ALPHA
 10
465.838202
 20
-74.258482
 30
0.0
  0
VERTEX
  5
5A29
  8
ALPHA
 10
464.457282
 20
-74.258424
 30
0.0
  0
VERTEX
  5
5A2A
  8
ALPHA
 10
463.568571
 20
-74.258387
 30
0.0
  0
VERTEX
  5
5A2B
  8
ALPHA
 10
463.254104
 20
-74.258374
 30
0.0
  0
VERTEX
  5
5A2C
  8
ALPHA
 10
461.256918
 20
-74.640813
 30
0.0
  0
VERTEX
  5
5A2D
  8
ALPHA
 10
460.553122
 20
-74.903741
 30
0.0
  0
VERTEX
  5
5A2E
  8
ALPHA
 10
460.279571
 20
-75.023253
 30
0.0
  0
SEQEND
  5
5A2F
  8
ALPHA
  0
POLYLINE
  5
511F
  8
ALPHA
 66
     1
 10
0.0
 20
0.0
 30
0.0
 70
   128
  0
VERTEX
  5
5A30
  8
ALPHA
 10
463.254104
 20
-77.258875
 30
0.0
  0
VERTEX
  5
5A31
  8
ALPHA
 10
463.568571
 20
-77.258875
 30
0.0
  0
VERTEX
  5
5A32
  8
ALPHA
 10
464.457282
 20
-77.258875
 30
0.0
  0
VERTEX
  5
5A33
  8
ALPHA
 10
465.838202
 20
-77.258875
 30
0.0
  0
VERTEX
  5
5A34
  8
ALPHA
 10
467.629296
 20
-77.258875
 30
0.0
  0
VERTEX
  5
5A35
  8
ALPHA
 10
469.748529
 20
-77.258875
 30
0.0
  0
VERTEX
  5
5A36
  8
ALPHA
 10
472.113867
 20
-77.258875
 30
0.0
  0
VERTEX
  5
5A37
  8
ALPHA
 10
477.254716
 20
-77.258875
 30
0.0
  0
VERTEX
  5
5A38
  8
ALPHA
 10
482.395566
 20
-77.258875
 30
0.0
  0
VERTEX
  5
5A39
  8
ALPHA
 10
484.760904
 20
-77.258875
 30
0.0
  0
VERTEX
  5
5A3A
  8
ALPHA
 10
486.880137
 20
-77.258875
 30
0.0
  0
VERTEX
  5
5A3B
  8
ALPHA
 10
488.671231
 20
-77.258875
 30
0.0
  0
VERTEX
  5
5A3C
  8
ALPHA
 10
490.05215
 20
-77.258875
 30
0.0
  0
VERTEX
  5
5A3D
  8
ALPHA
 10
490.940861
 20
-77.258875
 30
0.0
  0
VERTEX
  5
5A3E
  8
ALPHA
 10
491.255328
 20
-77.258875
 30
0.0
  0
SEQEND
  5
5A3F
  8
ALPHA
  0
POLYLINE
  5
5170
  8
ALPHA
 66
     1
 10
0.0
 20
0.0
 30
0.0
 70
   128
  0
VERTEX
  5
5A40
  8
ALPHA
 10
414.753248
 20
-121.153304
 30
0.0
  0
VERTEX
  5
5A41
  8
ALPHA
 10
414.753248
 20
-121.595269
 30
0.0
  0
VERTEX
  5
5A42
  8
ALPHA
 10
414.753248
 20
-122.760451
 30
0.0
  0
VERTEX
  5
5A43
  8
ALPHA
 10
414.753248
 20
-124.407778
 30
0.0
  0
VERTEX
  5
5A44
  8
ALPHA
 10
414.753248
 20
-126.296177
 30
0.0
  0
VERTEX
  5
5A45
  8
ALPHA
 10
414.753248
 20
-128.184576
 30
0.0
  0
VERTEX
  5
5A46
  8
ALPHA
 10
414.753248
 20
-129.831902
 30
0.0
  0
VERTEX
  5
5A47
  8
ALPHA
 10
414.753248
 20
-130.997084
 30
0.0
  0
VERTEX
  5
5A48
  8
ALPHA
 10
414.753248
 20
-131.43905
 30
0.0
  0
VERTEX
  5
5A49
  8
ALPHA
 10
414.883264
 20
-132.878039
 30
0.0
  0
VERTEX
  5
5A4A
  8
ALPHA
 10
415.243839
 20
-134.07738
 30
0.0
  0
VERTEX
  5
5A4B
  8
ALPHA
 10
415.790766
 20
-135.060133
 30
0.0
  0
VERTEX
  5
5A4C
  8
ALPHA
 10
416.479834
 20
-135.849356
 30
0.0
  0
VERTEX
  5
5A4D
  8
ALPHA
 10
418.107565
 20
-136.939446
 30
0.0
  0
VERTEX
  5
5A4E
  8
ALPHA
 10
419.773363
 20
-137.532121
 30
0.0
  0
VERTEX
  5
5A4F
  8
ALPHA
 10
420.897658
 20
-137.808037
 30
0.0
  0
VERTEX
  5
5A50
  8
ALPHA
 10
422.302543
 20
-138.143295
 30
0.0
  0
VERTEX
  5
5A51
  8
ALPHA
 10
423.969385
 20
-138.508264
 30
0.0
  0
VERTEX
  5
5A52
  8
ALPHA
 10
425.879548
 20
-138.873317
 30
0.0
  0
VERTEX
  5
5A53
  8
ALPHA
 10
430.355304
 20
-139.485155
 30
0.0
  0
VERTEX
  5
5A54
  8
ALPHA
 10
435.580741
 20
-139.741774
 30
0.0
  0
VERTEX
  5
5A55
  8
ALPHA
 10
437.463847
 20
-139.411619
 30
0.0
  0
VERTEX
  5
5A56
  8
ALPHA
 10
439.094703
 20
-139.131136
 30
0.0
  0
VERTEX
  5
5A57
  8
ALPHA
 10
441.981004
 20
-138.835988
 30
0.0
  0
VERTEX
  5
5A58
  8
ALPHA
 10
445.002309
 20
-139.089933
 30
0.0
  0
VERTEX
  5
5A59
  8
ALPHA
 10
446.801922
 20
-139.495817
 30
0.0
  0
VERTEX
  5
5A5A
  8
ALPHA
 10
448.921286
 20
-140.126575
 30
0.0
  0
SEQEND
  5
5A5B
  8
ALPHA
  0
POLYLINE
  5
5171
  8
ALPHA
 66
     1
 10
0.0
 20
0.0
 30
0.0
 70
   128
  0
VERTEX
  5
5A5C
  8
ALPHA
 10
455.253555
 20
-112.72546
 30
0.0
  0
VERTEX
  5
5A5D
  8
ALPHA
 10
454.981465
 20
-112.714352
 30
0.0
  0
VERTEX
  5
5A5E
  8
ALPHA
 10
454.264138
 20
-112.685069
 30
0.0
  0
VERTEX
  5
5A5F
  8
ALPHA
 10
452.08742
 20
-112.596209
 30
0.0
  0
VERTEX
  5
5A60
  8
ALPHA
 10
449.910703
 20
-112.50735
 30
0.0
  0
VERTEX
  5
5A61
  8
ALPHA
 10
449.193375
 20
-112.478066
 30
0.0
  0
VERTEX
  5
5A62
  8
ALPHA
 10
448.921286
 20
-112.466959
 30
0.0
  0
VERTEX
  5
5A63
  8
ALPHA
 10
447.057725
 20
-112.914079
 30
0.0
  0
VERTEX
  5
5A64
  8
ALPHA
 10
445.481797
 20
-113.286283
 30
0.0
  0
VERTEX
  5
5A65
  8
ALPHA
 10
442.730834
 20
-113.727594
 30
0.0
  0
VERTEX
  5
5A66
  8
ALPHA
 10
441.324796
 20
-113.757528
 30
0.0
  0
VERTEX
  5
5A67
  8
ALPHA
 10
439.744386
 20
-113.634197
 30
0.0
  0
VERTEX
  5
5A68
  8
ALPHA
 10
437.874104
 20
-113.338017
 30
0.0
  0
VERTEX
  5
5A69
  8
ALPHA
 10
435.598447
 20
-112.849399
 30
0.0
  0
SEQEND
  5
5A6A
  8
ALPHA
  0
LINE
  5
5172
  8
ALPHA
 10
440.19953
 20
-125.122889
 30
0.0
 11
442.217963
 21
-123.913009
 31
0.0
  0
LINE
  5
5173
  8
ALPHA
 10
442.275801
 20
-128.69823
 30
0.0
 11
440.19953
 21
-127.48717
 31
0.0
  0
LINE
  5
5174
  8
POINTILLE_COURT2
  6
AI9-LTYPE2
 10
432.592044
 20
-132.429381
 30
0.0
 11
452.135434
 21
-132.429381
 31
0.0
  0
LINE
  5
5175
  8
POINTILLE_COURT2
  6
AI9-LTYPE2
 10
452.135434
 20
-120.160612
 30
0.0
 11
432.592044
 21
-120.160612
 31
0.0
  0
CIRCLE
  5
5176
  8
ALPHA
 10
442.235669
 20
-126.294996
 30
0.0
 40
4.190314
  0
CIRCLE
  5
5177
  8
ALPHA
 10
442.250423
 20
-126.298538
 30
0.0
 40
2.015482
  0
LINE
  5
5178
  8
POINTILLE_COURT2
  6
AI9-LTYPE2
 10
432.592044
 20
-120.160612
 30
0.0
 11
432.592044
 21
-132.429381
 31
0.0
  0
POLYLINE
  5
5179
  8
ALPHA
 66
     1
 10
0.0
 20
0.0
 30
0.0
 70
   128
210
0.0
220
0.0
230
-1.0
  0
VERTEX
  5
5A6B
  8
ALPHA
 10
-415.982013
 20
-126.581826
 30
0.0
  0
VERTEX
  5
5A6C
  8
ALPHA
 10
-416.294756
 20
-123.667105
 30
0.0
  0
VERTEX
  5
5A6D
  8
ALPHA
 10
-416.700312
 20
-122.328032
 30
0.0
  0
VERTEX
  5
5A6E
  8
ALPHA
 10
-417.376473
 20
-120.992626
 30
0.0
  0
VERTEX
  5
5A6F
  8
ALPHA
 10
-418.401599
 20
-119.604489
 30
0.0
  0
VERTEX
  5
5A70
  8
ALPHA
 10
-419.854052
 20
-118.107229
 30
0.0
  0
VERTEX
  5
5A71
  8
ALPHA
 10
-421.812192
 20
-116.444449
 30
0.0
  0
VERTEX
  5
5A72
  8
ALPHA
 10
-424.354379
 20
-114.559755
 30
0.0
  0
SEQEND
  5
5A73
  8
ALPHA
  0
POLYLINE
  5
517A
  8
ALPHA
 66
     1
 10
0.0
 20
0.0
 30
0.0
 70
   128
  0
VERTEX
  5
5A74
  8
ALPHA
 10
423.894035
 20
-124.784122
 30
0.0
  0
VERTEX
  5
5A75
  8
ALPHA
 10
424.105082
 20
-124.003012
 30
0.0
  0
VERTEX
  5
5A76
  8
ALPHA
 10
424.166848
 20
-122.930646
 30
0.0
  0
VERTEX
  5
5A77
  8
ALPHA
 10
424.308511
 20
-121.391296
 30
0.0
  0
VERTEX
  5
5A78
  8
ALPHA
 10
424.759246
 20
-119.209234
 30
0.0
  0
SEQEND
  5
5A79
  8
ALPHA
  0
POLYLINE
  5
517B
  8
ALPHA
 66
     1
 10
0.0
 20
0.0
 30
0.0
 70
   128
210
0.0
220
0.0
230
-1.0
  0
VERTEX
  5
5A7A
  8
ALPHA
 10
-424.465334
 20
-125.9881
 30
0.0
  0
VERTEX
  5
5A7B
  8
ALPHA
 10
-424.839595
 20
-123.604785
 30
0.0
  0
VERTEX
  5
5A7C
  8
ALPHA
 10
-425.873889
 20
-120.931099
 30
0.0
  0
VERTEX
  5
5A7D
  8
ALPHA
 10
-426.727371
 20
-119.450647
 30
0.0
  0
VERTEX
  5
5A7E
  8
ALPHA
 10
-427.852448
 20
-117.855939
 30
0.0
  0
VERTEX
  5
5A7F
  8
ALPHA
 10
-429.28465
 20
-116.133087
 30
0.0
  0
VERTEX
  5
5A80
  8
ALPHA
 10
-431.059506
 20
-114.268204
 30
0.0
  0
SEQEND
  5
5A81
  8
ALPHA
  0
POLYLINE
  5
517C
  8
ALPHA
 66
     1
 10
0.0
 20
0.0
 30
0.0
 70
   128
210
0.0
220
0.0
230
-1.0
  0
VERTEX
  5
5A82
  8
ALPHA
 10
-415.466191
 20
-125.990461
 30
0.0
  0
VERTEX
  5
5A83
  8
ALPHA
 10
-415.584394
 20
-124.415939
 30
0.0
  0
VERTEX
  5
5A84
  8
ALPHA
 10
-416.061246
 20
-122.411726
 30
0.0
  0
VERTEX
  5
5A85
  8
ALPHA
 10
-417.080108
 20
-120.280254
 30
0.0
  0
VERTEX
  5
5A86
  8
ALPHA
 10
-418.824345
 20
-118.323956
 30
0.0
  0
SEQEND
  5
5A87
  8
ALPHA
  0
POLYLINE
  5
517D
  8
ALPHA
 66
     1
 10
0.0
 20
0.0
 30
0.0
 70
   128
210
0.0
220
0.0
230
-1.0
  0
VERTEX
  5
5A88
  8
ALPHA
 10
-419.433416
 20
-137.438872
 30
0.0
  0
VERTEX
  5
5A89
  8
ALPHA
 10
-418.754779
 20
-134.638907
 30
0.0
  0
VERTEX
  5
5A8A
  8
ALPHA
 10
-418.311419
 20
-131.803434
 30
0.0
  0
VERTEX
  5
5A8B
  8
ALPHA
 10
-418.050465
 20
-126.103039
 30
0.0
  0
VERTEX
  5
5A8C
  8
ALPHA
 10
-418.490429
 20
-120.491835
 30
0.0
  0
VERTEX
  5
5A8D
  8
ALPHA
 10
-419.471188
 20
-115.123972
 30
0.0
  0
SEQEND
  5
5A8E
  8
ALPHA
  0
LINE
  5
517E
  8
ALPHA
 10
423.760653
 20
-126.603073
 30
0.0
 11
415.816761
 21
-126.603073
 31
0.0
  0
POLYLINE
  5
517F
  8
ALPHA
 66
     1
 10
0.0
 20
0.0
 30
0.0
 70
   128
  0
VERTEX
  5
5A8F
  8
ALPHA
 10
415.466191
 20
-125.990461
 30
0.0
  0
VERTEX
  5
5A90
  8
ALPHA
 10
415.582605
 20
-126.437674
 30
0.0
  0
VERTEX
  5
5A91
  8
ALPHA
 10
415.816761
 20
-126.600712
 30
0.0
  0
SEQEND
  5
5A92
  8
ALPHA
  0
POLYLINE
  5
5180
  8
ALPHA
 66
     1
 10
0.0
 20
0.0
 30
0.0
 70
   128
210
0.0
220
0.0
230
-1.0
  0
VERTEX
  5
5A93
  8
ALPHA
 10
-422.775044
 20
-125.981018
 30
0.0
  0
VERTEX
  5
5A94
  8
ALPHA
 10
-423.402706
 20
-125.21304
 30
0.0
  0
VERTEX
  5
5A95
  8
ALPHA
 10
-423.894035
 20
-124.784122
 30
0.0
  0
SEQEND
  5
5A96
  8
ALPHA
  0
POLYLINE
  5
5181
  8
ALPHA
 66
     1
 10
0.0
 20
0.0
 30
0.0
 70
   128
  0
VERTEX
  5
5A97
  8
ALPHA
 10
420.184131
 20
-126.581826
 30
0.0
  0
VERTEX
  5
5A98
  8
ALPHA
 10
421.767746
 20
-126.422181
 30
0.0
  0
VERTEX
  5
5A99
  8
ALPHA
 10
422.421505
 20
-126.271094
 30
0.0
  0
VERTEX
  5
5A9A
  8
ALPHA
 10
422.775044
 20
-125.981018
 30
0.0
  0
SEQEND
  5
5A9B
  8
ALPHA
  0
POLYLINE
  5
5182
  8
ALPHA
 66
     1
 10
0.0
 20
0.0
 30
0.0
 70
   128
210
0.0
220
0.0
230
-1.0
  0
VERTEX
  5
5A9C
  8
ALPHA
 10
-424.465334
 20
-125.9881
 30
0.0
  0
VERTEX
  5
5A9D
  8
ALPHA
 10
-424.234277
 20
-126.445199
 30
0.0
  0
VERTEX
  5
5A9E
  8
ALPHA
 10
-423.760653
 20
-126.603073
 30
0.0
  0
SEQEND
  5
5A9F
  8
ALPHA
  0
LINE
  5
5183
  8
POINTILLE_COURT2
  6
AI9-LTYPE2
 10
435.460343
 20
-132.429381
 30
0.0
 11
435.460343
 21
-139.741627
 31
0.0
  0
LINE
  5
5184
  8
ALPHA
 10
440.19953
 20
-127.48717
 30
0.0
 11
440.19953
 21
-125.122889
 31
0.0
  0
POLYLINE
  5
5185
  8
ALPHA
 66
     1
 10
0.0
 20
0.0
 30
0.0
 70
   128
  0
VERTEX
  5
5AA0
  8
ALPHA
 10
430.517093
 20
-113.176361
 30
0.0
  0
VERTEX
  5
5AA1
  8
ALPHA
 10
430.358919
 20
-113.197603
 30
0.0
  0
VERTEX
  5
5AA2
  8
ALPHA
 10
429.92658
 20
-113.255663
 30
0.0
  0
VERTEX
  5
5AA3
  8
ALPHA
 10
428.492476
 20
-113.448252
 30
0.0
  0
VERTEX
  5
5AA4
  8
ALPHA
 10
425.118116
 20
-113.901404
 30
0.0
  0
VERTEX
  5
5AA5
  8
ALPHA
 10
424.538148
 20
-113.979289
 30
0.0
  0
VERTEX
  5
5AA6
  8
ALPHA
 10
424.190167
 20
-114.02602
 30
0.0
  0
VERTEX
  5
5AA7
  8
ALPHA
 10
423.787046
 20
-114.116625
 30
0.0
  0
VERTEX
  5
5AA8
  8
ALPHA
 10
422.021083
 20
-114.542492
 30
0.0
  0
VERTEX
  5
5AA9
  8
ALPHA
 10
420.170465
 20
-114.971845
 30
0.0
  0
VERTEX
  5
5AAA
  8
ALPHA
 10
419.504077
 20
-115.113241
 30
0.0
  0
VERTEX
  5
5AAB
  8
ALPHA
 10
418.466766
 20
-115.448408
 30
0.0
  0
VERTEX
  5
5AAC
  8
ALPHA
 10
417.254918
 20
-116.111176
 30
0.0
  0
VERTEX
  5
5AAD
  8
ALPHA
 10
416.086642
 20
-117.210367
 30
0.0
  0
VERTEX
  5
5AAE
  8
ALPHA
 10
415.180048
 20
-118.854802
 30
0.0
  0
VERTEX
  5
5AAF
  8
ALPHA
 10
414.753248
 20
-121.153304
 30
0.0
  0
SEQEND
  5
5AB0
  8
ALPHA
  0
POLYLINE
  5
5186
  8
ALPHA
 66
     1
 10
0.0
 20
0.0
 30
0.0
 70
   128
210
0.0
220
0.0
230
-1.0
  0
VERTEX
  5
5AB1
  8
ALPHA
 10
-424.759246
 20
-119.209234
 30
0.0
  0
VERTEX
  5
5AB2
  8
ALPHA
 10
-425.045966
 20
-118.619586
 30
0.0
  0
VERTEX
  5
5AB3
  8
ALPHA
 10
-425.69078
 20
-117.793693
 30
0.0
  0
VERTEX
  5
5AB4
  8
ALPHA
 10
-427.585938
 20
-115.811686
 30
0.0
  0
VERTEX
  5
5AB5
  8
ALPHA
 10
-429.507212
 20
-114.020234
 30
0.0
  0
VERTEX
  5
5AB6
  8
ALPHA
 10
-430.184671
 20
-113.432536
 30
0.0
  0
VERTEX
  5
5AB7
  8
ALPHA
 10
-430.517093
 20
-113.176361
 30
0.0
  0
SEQEND
  5
5AB8
  8
ALPHA
  0
POLYLINE
  5
5187
  8
ALPHA
 66
     1
 10
0.0
 20
0.0
 30
0.0
 70
   128
  0
VERTEX
  5
5AB9
  8
ALPHA
 10
418.824345
 20
-118.323956
 30
0.0
  0
VERTEX
  5
5ABA
  8
ALPHA
 10
421.784418
 20
-115.956281
 30
0.0
  0
VERTEX
  5
5ABB
  8
ALPHA
 10
422.973088
 20
-114.956526
 30
0.0
  0
VERTEX
  5
5ABC
  8
ALPHA
 10
423.300443
 20
-114.535929
 30
0.0
  0
VERTEX
  5
5ABD
  8
ALPHA
 10
423.375853
 20
-114.180856
 30
0.0
  0
SEQEND
  5
5ABE
  8
ALPHA
  0
POLYLINE
  5
5188
  8
ALPHA
 66
     1
 10
0.0
 20
0.0
 30
0.0
 70
   128
  0
VERTEX
  5
5ABF
  8
ALPHA
 10
424.354379
 20
-114.559755
 30
0.0
  0
VERTEX
  5
5AC0
  8
ALPHA
 10
424.761902
 20
-114.145003
 30
0.0
  0
VERTEX
  5
5AC1
  8
ALPHA
 10
424.676399
 20
-114.030747
 30
0.0
  0
VERTEX
  5
5AC2
  8
ALPHA
 10
424.254048
 20
-114.00026
 30
0.0
  0
SEQEND
  5
5AC3
  8
ALPHA
  0
POLYLINE
  5
5189
  8
ALPHA
 66
     1
 10
0.0
 20
0.0
 30
0.0
 70
   128
210
0.0
220
0.0
230
-1.0
  0
VERTEX
  5
5AC4
  8
ALPHA
 10
-435.598447
 20
-112.849399
 30
0.0
  0
VERTEX
  5
5AC5
  8
ALPHA
 10
-435.442326
 20
-112.865839
 30
0.0
  0
VERTEX
  5
5AC6
  8
ALPHA
 10
-435.020156
 20
-112.909432
 30
0.0
  0
VERTEX
  5
5AC7
  8
ALPHA
 10
-433.654828
 20
-113.043717
 30
0.0
  0
VERTEX
  5
5AC8
  8
ALPHA
 10
-432.056776
 20
-113.183536
 30
0.0
  0
VERTEX
  5
5AC9
  8
ALPHA
 10
-430.780315
 20
-113.260168
 30
0.0
  0
VERTEX
  5
5ACA
  8
ALPHA
 10
-430.517093
 20
-113.176361
 30
0.0
  0
SEQEND
  5
5ACB
  8
ALPHA
  0
LINE
  5
518A
  8
ALPHA
 10
430.926124
 20
-113.943602
 30
0.0
 11
430.563127
 21
-113.894026
 31
0.0
  0
LINE
  5
518B
  8
ALPHA
 10
430.612703
 20
-113.850353
 30
0.0
 11
431.256627
 21
-113.255446
 31
0.0
  0
LINE
  5
518C
  8
ALPHA
 10
430.454533
 20
-114.137183
 30
0.0
 11
430.612703
 21
-113.850353
 31
0.0
  0
POLYLINE
  5
518D
  8
ALPHA
 66
     1
 10
0.0
 20
0.0
 30
0.0
 70
   128
  0
VERTEX
  5
5ACC
  8
ALPHA
 10
431.059506
 20
-114.268204
 30
0.0
  0
VERTEX
  5
5ACD
  8
ALPHA
 10
431.129147
 20
-114.108559
 30
0.0
  0
VERTEX
  5
5ACE
  8
ALPHA
 10
430.926124
 20
-113.943602
 30
0.0
  0
SEQEND
  5
5ACF
  8
ALPHA
  0
LINE
  5
518E
  8
ALPHA
 10
430.454533
 20
-114.881996
 30
0.0
 11
430.454533
 21
-114.137183
 31
0.0
  0
LINE
  5
518F
  8
ALPHA
 10
430.85822
 20
-113.637886
 30
0.0
 11
430.780315
 21
-113.26725
 31
0.0
  0
LINE
  5
5190
  8
POINTILLE_COURT2
  6
AI9-LTYPE2
 10
435.460343
 20
-112.864795
 30
0.0
 11
435.460343
 21
-120.160612
 31
0.0
  0
LINE
  5
5191
  8
ALPHA
 10
459.754307
 20
-116.409395
 30
0.0
 11
459.754307
 21
-136.106234
 31
0.0
  0
LINE
  5
5192
  8
POINTILLE_COURT2
  6
AI9-LTYPE2
 10
452.135434
 20
-132.429381
 30
0.0
 11
452.135434
 21
-120.160612
 31
0.0
  0
POLYLINE
  5
5193
  8
ALPHA
 66
     1
 10
0.0
 20
0.0
 30
0.0
 70
   128
  0
VERTEX
  5
5AD0
  8
ALPHA
 10
455.246473
 20
-149.951977
 30
0.0
  0
VERTEX
  5
5AD1
  8
ALPHA
 10
455.246493
 20
-149.807389
 30
0.0
  0
VERTEX
  5
5AD2
  8
ALPHA
 10
455.246552
 20
-149.385928
 30
0.0
  0
VERTEX
  5
5AD3
  8
ALPHA
 10
455.246648
 20
-148.706054
 30
0.0
  0
VERTEX
  5
5AD4
  8
ALPHA
 10
455.246777
 20
-147.786224
 30
0.0
  0
VERTEX
  5
5AD5
  8
ALPHA
 10
455.247126
 20
-145.300529
 30
0.0
  0
VERTEX
  5
5AD6
  8
ALPHA
 10
455.247579
 20
-142.07651
 30
0.0
  0
VERTEX
  5
5AD7
  8
ALPHA
 10
455.248115
 20
-138.26183
 30
0.0
  0
VERTEX
  5
5AD8
  8
ALPHA
 10
455.248713
 20
-134.004156
 30
0.0
  0
VERTEX
  5
5AD9
  8
ALPHA
 10
455.250014
 20
-124.750482
 30
0.0
  0
VERTEX
  5
5ADA
  8
ALPHA
 10
455.251314
 20
-115.496808
 30
0.0
  0
VERTEX
  5
5ADB
  8
ALPHA
 10
455.251912
 20
-111.239133
 30
0.0
  0
VERTEX
  5
5ADC
  8
ALPHA
 10
455.252448
 20
-107.424454
 30
0.0
  0
VERTEX
  5
5ADD
  8
ALPHA
 10
455.252901
 20
-104.200435
 30
0.0
  0
VERTEX
  5
5ADE
  8
ALPHA
 10
455.25325
 20
-101.71474
 30
0.0
  0
VERTEX
  5
5ADF
  8
ALPHA
 10
455.25338
 20
-100.79491
 30
0.0
  0
VERTEX
  5
5AE0
  8
ALPHA
 10
455.253475
 20
-100.115036
 30
0.0
  0
VERTEX
  5
5AE1
  8
ALPHA
 10
455.253534
 20
-99.693575
 30
0.0
  0
VERTEX
  5
5AE2
  8
ALPHA
 10
455.253555
 20
-99.548987
 30
0.0
  0
VERTEX
  5
5AE3
  8
ALPHA
 10
455.331293
 20
-98.682846
 30
0.0
  0
VERTEX
  5
5AE4
  8
ALPHA
 10
455.53795
 20
-98.033336
 30
0.0
  0
VERTEX
  5
5AE5
  8
ALPHA
 10
456.17867
 20
-97.067996
 30
0.0
  0
VERTEX
  5
5AE6
  8
ALPHA
 10
456.857014
 20
-96.020546
 30
0.0
  0
VERTEX
  5
5AE7
  8
ALPHA
 10
457.110701
 20
-95.268399
 30
0.0
  0
VERTEX
  5
5AE8
  8
ALPHA
 10
457.254282
 20
-94.258567
 30
0.0
  0
SEQEND
  5
5AE9
  8
ALPHA
  0
POLYLINE
  5
5194
  8
ALPHA
 66
     1
 10
0.0
 20
0.0
 30
0.0
 70
   128
  0
VERTEX
  5
5AEA
  8
ALPHA
 10
458.246974
 20
-99.917262
 30
0.0
  0
VERTEX
  5
5AEB
  8
ALPHA
 10
458.246953
 20
-100.060266
 30
0.0
  0
VERTEX
  5
5AEC
  8
ALPHA
 10
458.246894
 20
-100.477108
 30
0.0
  0
VERTEX
  5
5AED
  8
ALPHA
 10
458.246799
 20
-101.149531
 30
0.0
  0
VERTEX
  5
5AEE
  8
ALPHA
 10
458.246669
 20
-102.059279
 30
0.0
  0
VERTEX
  5
5AEF
  8
ALPHA
 10
458.24632
 20
-104.517731
 30
0.0
  0
VERTEX
  5
5AF0
  8
ALPHA
 10
458.245867
 20
-107.706415
 30
0.0
  0
VERTEX
  5
5AF1
  8
ALPHA
 10
458.245331
 20
-111.479286
 30
0.0
  0
VERTEX
  5
5AF2
  8
ALPHA
 10
458.244733
 20
-115.690296
 30
0.0
  0
VERTEX
  5
5AF3
  8
ALPHA
 10
458.243433
 20
-124.842551
 30
0.0
  0
VERTEX
  5
5AF4
  8
ALPHA
 10
458.242132
 20
-133.994805
 30
0.0
  0
VERTEX
  5
5AF5
  8
ALPHA
 10
458.241534
 20
-138.205816
 30
0.0
  0
VERTEX
  5
5AF6
  8
ALPHA
 10
458.240998
 20
-141.978687
 30
0.0
  0
VERTEX
  5
5AF7
  8
ALPHA
 10
458.240545
 20
-145.167371
 30
0.0
  0
VERTEX
  5
5AF8
  8
ALPHA
 10
458.240196
 20
-147.625822
 30
0.0
  0
VERTEX
  5
5AF9
  8
ALPHA
 10
458.240067
 20
-148.535571
 30
0.0
  0
VERTEX
  5
5AFA
  8
ALPHA
 10
458.239971
 20
-149.207994
 30
0.0
  0
VERTEX
  5
5AFB
  8
ALPHA
 10
458.239912
 20
-149.624835
 30
0.0
  0
VERTEX
  5
5AFC
  8
ALPHA
 10
458.239891
 20
-149.767839
 30
0.0
  0
VERTEX
  5
5AFD
  8
ALPHA
 10
458.31763
 20
-150.634127
 30
0.0
  0
VERTEX
  5
5AFE
  8
ALPHA
 10
458.524287
 20
-151.284007
 30
0.0
  0
VERTEX
  5
5AFF
  8
ALPHA
 10
459.165007
 20
-152.250306
 30
0.0
  0
VERTEX
  5
5B00
  8
ALPHA
 10
459.843351
 20
-153.298272
 30
0.0
  0
VERTEX
  5
5B01
  8
ALPHA
 10
460.097038
 20
-154.050234
 30
0.0
  0
VERTEX
  5
5B02
  8
ALPHA
 10
460.240619
 20
-155.059439
 30
0.0
  0
SEQEND
  5
5B03
  8
ALPHA
  0
POLYLINE
  5
5196
  8
ALPHA
 66
     1
 10
0.0
 20
0.0
 30
0.0
 70
   128
  0
VERTEX
  5
5B04
  8
ALPHA
 10
460.240619
 20
-155.059439
 30
0.0
  0
VERTEX
  5
5B05
  8
ALPHA
 10
460.240778
 20
-155.196454
 30
0.0
  0
VERTEX
  5
5B06
  8
ALPHA
 10
460.241228
 20
-155.583671
 30
0.0
  0
VERTEX
  5
5B07
  8
ALPHA
 10
460.242832
 20
-156.965737
 30
0.0
  0
VERTEX
  5
5B08
  8
ALPHA
 10
460.245101
 20
-158.919693
 30
0.0
  0
VERTEX
  5
5B09
  8
ALPHA
 10
460.247701
 20
-161.159593
 30
0.0
  0
VERTEX
  5
5B0A
  8
ALPHA
 10
460.250302
 20
-163.399493
 30
0.0
  0
VERTEX
  5
5B0B
  8
ALPHA
 10
460.25257
 20
-165.353448
 30
0.0
  0
VERTEX
  5
5B0C
  8
ALPHA
 10
460.254175
 20
-166.735514
 30
0.0
  0
VERTEX
  5
5B0D
  8
ALPHA
 10
460.254624
 20
-167.122731
 30
0.0
  0
VERTEX
  5
5B0E
  8
ALPHA
 10
460.254784
 20
-167.259746
 30
0.0
  0
VERTEX
  5
5B0F
  8
ALPHA
 10
460.490544
 20
-168.42704
 30
0.0
  0
VERTEX
  5
5B10
  8
ALPHA
 10
461.133422
 20
-169.380429
 30
0.0
  0
VERTEX
  5
5B11
  8
ALPHA
 10
462.08681
 20
-170.023307
 30
0.0
  0
VERTEX
  5
5B12
  8
ALPHA
 10
463.254104
 20
-170.259067
 30
0.0
  0
SEQEND
  5
5B13
  8
ALPHA
  0
POLYLINE
  5
5197
  8
ALPHA
 66
     1
 10
0.0
 20
0.0
 30
0.0
 70
   128
  0
VERTEX
  5
5B14
  8
ALPHA
 10
457.254282
 20
-167.259746
 30
0.0
  0
VERTEX
  5
5B15
  8
ALPHA
 10
457.254216
 20
-167.124799
 30
0.0
  0
VERTEX
  5
5B16
  8
ALPHA
 10
457.254029
 20
-166.743427
 30
0.0
  0
VERTEX
  5
5B17
  8
ALPHA
 10
457.25336
 20
-165.38222
 30
0.0
  0
VERTEX
  5
5B18
  8
ALPHA
 10
457.252415
 20
-163.457755
 30
0.0
  0
VERTEX
  5
5B19
  8
ALPHA
 10
457.251331
 20
-161.251662
 30
0.0
  0
VERTEX
  5
5B1A
  8
ALPHA
 10
457.250248
 20
-159.045568
 30
0.0
  0
VERTEX
  5
5B1B
  8
ALPHA
 10
457.249303
 20
-157.121103
 30
0.0
  0
VERTEX
  5
5B1C
  8
ALPHA
 10
457.248634
 20
-155.759897
 30
0.0
  0
VERTEX
  5
5B1D
  8
ALPHA
 10
457.248447
 20
-155.378524
 30
0.0
  0
VERTEX
  5
5B1E
  8
ALPHA
 10
457.24838
 20
-155.243577
 30
0.0
  0
VERTEX
  5
5B1F
  8
ALPHA
 10
457.104749
 20
-154.233694
 30
0.0
  0
VERTEX
  5
5B20
  8
ALPHA
 10
456.850928
 20
-153.481413
 30
0.0
  0
VERTEX
  5
5B21
  8
ALPHA
 10
456.172178
 20
-152.433558
 30
0.0
  0
VERTEX
  5
5B22
  8
ALPHA
 10
455.531052
 20
-151.467812
 30
0.0
  0
VERTEX
  5
5B23
  8
ALPHA
 10
455.324262
 20
-150.818168
 30
0.0
  0
VERTEX
  5
5B24
  8
ALPHA
 10
455.246473
 20
-149.951977
 30
0.0
  0
SEQEND
  5
5B25
  8
ALPHA
  0
POLYLINE
  5
5198
  8
ALPHA
 66
     1
 10
0.0
 20
0.0
 30
0.0
 70
   128
  0
VERTEX
  5
5B26
  8
ALPHA
 10
448.921286
 20
-140.126575
 30
0.0
  0
VERTEX
  5
5B27
  8
ALPHA
 10
449.193375
 20
-140.115113
 30
0.0
  0
VERTEX
  5
5B28
  8
ALPHA
 10
449.910703
 20
-140.084893
 30
0.0
  0
VERTEX
  5
5B29
  8
ALPHA
 10
452.08742
 20
-139.993193
 30
0.0
  0
VERTEX
  5
5B2A
  8
ALPHA
 10
454.264138
 20
-139.901493
 30
0.0
  0
VERTEX
  5
5B2B
  8
ALPHA
 10
454.981465
 20
-139.871274
 30
0.0
  0
VERTEX
  5
5B2C
  8
ALPHA
 10
455.253555
 20
-139.859811
 30
0.0
  0
SEQEND
  5
5B2D
  8
ALPHA
  0
LINE
  5
5199
  8
POINTILLE_COURT2
  6
AI9-LTYPE2
 10
449.026339
 20
-132.429381
 30
0.0
 11
449.026339
 21
-140.122285
 31
0.0
  0
LINE
  5
519A
  8
ALPHA
 10
444.293054
 20
-127.48717
 30
0.0
 11
442.275801
 21
-128.69823
 31
0.0
  0
LINE
  5
519B
  8
ALPHA
 10
444.293054
 20
-125.122889
 30
0.0
 11
444.293054
 21
-127.48717
 31
0.0
  0
LINE
  5
519C
  8
ALPHA
 10
442.217963
 20
-123.913009
 30
0.0
 11
444.293054
 21
-125.122889
 31
0.0
  0
LINE
  5
519D
  8
ALPHA
 10
459.754307
 20
-136.106234
 30
0.0
 11
458.252876
 21
-136.106234
 31
0.0
  0
POLYLINE
  5
519E
  8
ALPHA
 66
     1
 10
0.0
 20
0.0
 30
0.0
 70
   128
210
0.0
220
0.0
230
-1.0
  0
VERTEX
  5
5B2E
  8
ALPHA
 10
-460.251242
 20
-80.733885
 30
0.0
  0
VERTEX
  5
5B2F
  8
ALPHA
 10
-460.476933
 20
-79.36578
 30
0.0
  0
VERTEX
  5
5B30
  8
ALPHA
 10
-461.103322
 20
-78.262927
 30
0.0
  0
VERTEX
  5
5B31
  8
ALPHA
 10
-462.054387
 20
-77.5268
 30
0.0
  0
VERTEX
  5
5B32
  8
ALPHA
 10
-463.254104
 20
-77.258875
 30
0.0
  0
SEQEND
  5
5B33
  8
ALPHA
  0
POLYLINE
  5
519F
  8
ALPHA
 66
     1
 10
0.0
 20
0.0
 30
0.0
 70
   128
  0
VERTEX
  5
5B34
  8
ALPHA
 10
460.254784
 20
-74.259554
 30
0.0
  0
VERTEX
  5
5B35
  8
ALPHA
 10
460.254611
 20
-74.488262
 30
0.0
  0
VERTEX
  5
5B36
  8
ALPHA
 10
460.254124
 20
-75.134609
 30
0.0
  0
VERTEX
  5
5B37
  8
ALPHA
 10
460.253367
 20
-76.138934
 30
0.0
  0
VERTEX
  5
5B38
  8
ALPHA
 10
460.252386
 20
-77.441574
 30
0.0
  0
VERTEX
  5
5B39
  8
ALPHA
 10
460.249928
 20
-80.703144
 30
0.0
  0
VERTEX
  5
5B3A
  8
ALPHA
 10
460.247111
 20
-84.442018
 30
0.0
  0
VERTEX
  5
5B3B
  8
ALPHA
 10
460.244294
 20
-88.180891
 30
0.0
  0
VERTEX
  5
5B3C
  8
ALPHA
 10
460.241836
 20
-91.442462
 30
0.0
  0
VERTEX
  5
5B3D
  8
ALPHA
 10
460.240855
 20
-92.745101
 30
0.0
  0
VERTEX
  5
5B3E
  8
ALPHA
 10
460.240098
 20
-93.749426
 30
0.0
  0
VERTEX
  5
5B3F
  8
ALPHA
 10
460.239611
 20
-94.395774
 30
0.0
  0
VERTEX
  5
5B40
  8
ALPHA
 10
460.239439
 20
-94.624482
 30
0.0
  0
VERTEX
  5
5B41
  8
ALPHA
 10
460.096213
 20
-95.634754
 30
0.0
  0
VERTEX
  5
5B42
  8
ALPHA
 10
459.843461
 20
-96.387328
 30
0.0
  0
VERTEX
  5
5B43
  8
ALPHA
 10
459.167958
 20
-97.435534
 30
0.0
  0
VERTEX
  5
5B44
  8
ALPHA
 10
458.530078
 20
-98.401409
 30
0.0
  0
VERTEX
  5
5B45
  8
ALPHA
 10
458.324357
 20
-99.051069
 30
0.0
  0
VERTEX
  5
5B46
  8
ALPHA
 10
458.246974
 20
-99.917262
 30
0.0
  0
SEQEND
  5
5B47
  8
ALPHA
  0
POLYLINE
  5
51A0
  8
ALPHA
 66
     1
 10
0.0
 20
0.0
 30
0.0
 70
   128
  0
VERTEX
  5
5B48
  8
ALPHA
 10
457.254282
 20
-94.258567
 30
0.0
  0
VERTEX
  5
5B49
  8
ALPHA
 10
457.254296
 20
-94.033969
 30
0.0
  0
VERTEX
  5
5B4A
  8
ALPHA
 10
457.254333
 20
-93.399235
 30
0.0
  0
VERTEX
  5
5B4B
  8
ALPHA
 10
457.254391
 20
-92.412955
 30
0.0
  0
VERTEX
  5
5B4C
  8
ALPHA
 10
457.254467
 20
-91.133721
 30
0.0
  0
VERTEX
  5
5B4D
  8
ALPHA
 10
457.254656
 20
-87.930754
 30
0.0
  0
VERTEX
  5
5B4E
  8
ALPHA
 10
457.254873
 20
-84.259061
 30
0.0
  0
VERTEX
  5
5B4F
  8
ALPHA
 10
457.255089
 20
-80.587367
 30
0.0
  0
VERTEX
  5
5B50
  8
ALPHA
 10
457.255278
 20
-77.3844
 30
0.0
  0
VERTEX
  5
5B51
  8
ALPHA
 10
457.255354
 20
-76.105166
 30
0.0
  0
VERTEX
  5
5B52
  8
ALPHA
 10
457.255412
 20
-75.118886
 30
0.0
  0
VERTEX
  5
5B53
  8
ALPHA
 10
457.255449
 20
-74.484152
 30
0.0
  0
VERTEX
  5
5B54
  8
ALPHA
 10
457.255463
 20
-74.259554
 30
0.0
  0
SEQEND
  5
5B55
  8
ALPHA
  0
LINE
  5
51A1
  8
POINTILLE_COURT2
  6
AI9-LTYPE2
 10
449.026339
 20
-112.471116
 30
0.0
 11
449.026339
 21
-120.160612
 31
0.0
  0
LINE
  5
51A2
  8
ALPHA
 10
458.252876
 20
-116.410576
 30
0.0
 11
459.754307
 21
-116.409395
 31
0.0
  0
POLYLINE
  5
51A3
  8
ALPHA
 66
     1
 10
0.0
 20
0.0
 30
0.0
 70
   128
  0
VERTEX
  5
5B56
  8
ALPHA
 10
457.255463
 20
-74.259554
 30
0.0
  0
VERTEX
  5
5B57
  8
ALPHA
 10
457.724107
 20
-74.259554
 30
0.0
  0
VERTEX
  5
5B58
  8
ALPHA
 10
458.755123
 20
-74.259554
 30
0.0
  0
VERTEX
  5
5B59
  8
ALPHA
 10
459.78614
 20
-74.259554
 30
0.0
  0
VERTEX
  5
5B5A
  8
ALPHA
 10
460.254784
 20
-74.259554
 30
0.0
  0
SEQEND
  5
5B5B
  8
ALPHA
  0
POLYLINE
  5
51C5
  8
ALPHA
 66
     1
 10
0.0
 20
0.0
 30
0.0
 70
   128
  0
VERTEX
  5
5B5C
  8
ALPHA
 10
496.753493
 20
-99.548987
 30
0.0
  0
VERTEX
  5
5B5D
  8
ALPHA
 10
496.753476
 20
-99.693575
 30
0.0
  0
VERTEX
  5
5B5E
  8
ALPHA
 10
496.753426
 20
-100.115036
 30
0.0
  0
VERTEX
  5
5B5F
  8
ALPHA
 10
496.753347
 20
-100.79491
 30
0.0
  0
VERTEX
  5
5B60
  8
ALPHA
 10
496.753239
 20
-101.71474
 30
0.0
  0
VERTEX
  5
5B61
  8
ALPHA
 10
496.752948
 20
-104.200435
 30
0.0
  0
VERTEX
  5
5B62
  8
ALPHA
 10
496.752571
 20
-107.424454
 30
0.0
  0
VERTEX
  5
5B63
  8
ALPHA
 10
496.752124
 20
-111.239133
 30
0.0
  0
VERTEX
  5
5B64
  8
ALPHA
 10
496.751625
 20
-115.496808
 30
0.0
  0
VERTEX
  5
5B65
  8
ALPHA
 10
496.750542
 20
-124.750482
 30
0.0
  0
VERTEX
  5
5B66
  8
ALPHA
 10
496.749458
 20
-134.004156
 30
0.0
  0
VERTEX
  5
5B67
  8
ALPHA
 10
496.74896
 20
-138.26183
 30
0.0
  0
VERTEX
  5
5B68
  8
ALPHA
 10
496.748513
 20
-142.07651
 30
0.0
  0
VERTEX
  5
5B69
  8
ALPHA
 10
496.748136
 20
-145.300529
 30
0.0
  0
VERTEX
  5
5B6A
  8
ALPHA
 10
496.747844
 20
-147.786224
 30
0.0
  0
VERTEX
  5
5B6B
  8
ALPHA
 10
496.747737
 20
-148.706054
 30
0.0
  0
VERTEX
  5
5B6C
  8
ALPHA
 10
496.747657
 20
-149.385928
 30
0.0
  0
VERTEX
  5
5B6D
  8
ALPHA
 10
496.747608
 20
-149.807389
 30
0.0
  0
VERTEX
  5
5B6E
  8
ALPHA
 10
496.747591
 20
-149.951977
 30
0.0
  0
VERTEX
  5
5B6F
  8
ALPHA
 10
496.66985
 20
-150.818168
 30
0.0
  0
VERTEX
  5
5B70
  8
ALPHA
 10
496.463177
 20
-151.467812
 30
0.0
  0
VERTEX
  5
5B71
  8
ALPHA
 10
495.822328
 20
-152.433558
 30
0.0
  0
VERTEX
  5
5B72
  8
ALPHA
 10
495.143634
 20
-153.481413
 30
0.0
  0
VERTEX
  5
5B73
  8
ALPHA
 10
494.889653
 20
-154.233694
 30
0.0
  0
VERTEX
  5
5B74
  8
ALPHA
 10
494.745683
 20
-155.243577
 30
0.0
  0
SEQEND
  5
5B75
  8
ALPHA
  0
POLYLINE
  5
51C6
  8
ALPHA
 66
     1
 10
0.0
 20
0.0
 30
0.0
 70
   128
  0
VERTEX
  5
5B76
  8
ALPHA
 10
493.754172
 20
-149.767839
 30
0.0
  0
VERTEX
  5
5B77
  8
ALPHA
 10
493.754192
 20
-149.624835
 30
0.0
  0
VERTEX
  5
5B78
  8
ALPHA
 10
493.754251
 20
-149.207994
 30
0.0
  0
VERTEX
  5
5B79
  8
ALPHA
 10
493.754347
 20
-148.535571
 30
0.0
  0
VERTEX
  5
5B7A
  8
ALPHA
 10
493.754476
 20
-147.625822
 30
0.0
  0
VERTEX
  5
5B7B
  8
ALPHA
 10
493.754825
 20
-145.167371
 30
0.0
  0
VERTEX
  5
5B7C
  8
ALPHA
 10
493.755278
 20
-141.978687
 30
0.0
  0
VERTEX
  5
5B7D
  8
ALPHA
 10
493.755814
 20
-138.205816
 30
0.0
  0
VERTEX
  5
5B7E
  8
ALPHA
 10
493.756413
 20
-133.994805
 30
0.0
  0
VERTEX
  5
5B7F
  8
ALPHA
 10
493.757713
 20
-124.842551
 30
0.0
  0
VERTEX
  5
5B80
  8
ALPHA
 10
493.759013
 20
-115.690296
 30
0.0
  0
VERTEX
  5
5B81
  8
ALPHA
 10
493.759611
 20
-111.479286
 30
0.0
  0
VERTEX
  5
5B82
  8
ALPHA
 10
493.760147
 20
-107.706415
 30
0.0
  0
VERTEX
  5
5B83
  8
ALPHA
 10
493.760601
 20
-104.517731
 30
0.0
  0
VERTEX
  5
5B84
  8
ALPHA
 10
493.76095
 20
-102.059279
 30
0.0
  0
VERTEX
  5
5B85
  8
ALPHA
 10
493.761079
 20
-101.149531
 30
0.0
  0
VERTEX
  5
5B86
  8
ALPHA
 10
493.761175
 20
-100.477108
 30
0.0
  0
VERTEX
  5
5B87
  8
ALPHA
 10
493.761234
 20
-100.060266
 30
0.0
  0
VERTEX
  5
5B88
  8
ALPHA
 10
493.761254
 20
-99.917262
 30
0.0
  0
VERTEX
  5
5B89
  8
ALPHA
 10
493.683513
 20
-99.051069
 30
0.0
  0
VERTEX
  5
5B8A
  8
ALPHA
 10
493.47684
 20
-98.401409
 30
0.0
  0
VERTEX
  5
5B8B
  8
ALPHA
 10
492.835991
 20
-97.435534
 30
0.0
  0
VERTEX
  5
5B8C
  8
ALPHA
 10
492.157297
 20
-96.387328
 30
0.0
  0
VERTEX
  5
5B8D
  8
ALPHA
 10
491.903317
 20
-95.634754
 30
0.0
  0
VERTEX
  5
5B8E
  8
ALPHA
 10
491.759346
 20
-94.624482
 30
0.0
  0
SEQEND
  5
5B8F
  8
ALPHA
  0
POLYLINE
  5
51C7
  8
ALPHA
 66
     1
 10
0.0
 20
0.0
 30
0.0
 70
   128
  0
VERTEX
  5
5B90
  8
ALPHA
 10
491.754144
 20
-167.259746
 30
0.0
  0
VERTEX
  5
5B91
  8
ALPHA
 10
491.754144
 20
-167.122731
 30
0.0
  0
VERTEX
  5
5B92
  8
ALPHA
 10
491.754144
 20
-166.735514
 30
0.0
  0
VERTEX
  5
5B93
  8
ALPHA
 10
491.754144
 20
-165.353448
 30
0.0
  0
VERTEX
  5
5B94
  8
ALPHA
 10
491.754144
 20
-163.399493
 30
0.0
  0
VERTEX
  5
5B95
  8
ALPHA
 10
491.754144
 20
-161.159593
 30
0.0
  0
VERTEX
  5
5B96
  8
ALPHA
 10
491.754144
 20
-158.919693
 30
0.0
  0
VERTEX
  5
5B97
  8
ALPHA
 10
491.754144
 20
-156.965737
 30
0.0
  0
VERTEX
  5
5B98
  8
ALPHA
 10
491.754144
 20
-155.583671
 30
0.0
  0
VERTEX
  5
5B99
  8
ALPHA
 10
491.754144
 20
-155.196454
 30
0.0
  0
VERTEX
  5
5B9A
  8
ALPHA
 10
491.754144
 20
-155.059439
 30
0.0
  0
VERTEX
  5
5B9B
  8
ALPHA
 10
491.897725
 20
-154.050234
 30
0.0
  0
VERTEX
  5
5B9C
  8
ALPHA
 10
492.151413
 20
-153.298272
 30
0.0
  0
VERTEX
  5
5B9D
  8
ALPHA
 10
492.829757
 20
-152.250306
 30
0.0
  0
VERTEX
  5
5B9E
  8
ALPHA
 10
493.470476
 20
-151.284007
 30
0.0
  0
VERTEX
  5
5B9F
  8
ALPHA
 10
493.677133
 20
-150.634127
 30
0.0
  0
VERTEX
  5
5BA0
  8
ALPHA
 10
493.754872
 20
-149.767839
 30
0.0
  0
SEQEND
  5
5BA1
  8
ALPHA
  0
POLYLINE
  5
51C8
  8
ALPHA
 66
     1
 10
0.0
 20
0.0
 30
0.0
 70
   128
  0
VERTEX
  5
5BA2
  8
ALPHA
 10
494.746383
 20
-155.243577
 30
0.0
  0
VERTEX
  5
5BA3
  8
ALPHA
 10
494.746476
 20
-155.378524
 30
0.0
  0
VERTEX
  5
5BA4
  8
ALPHA
 10
494.746738
 20
-155.759897
 30
0.0
  0
VERTEX
  5
5BA5
  8
ALPHA
 10
494.747674
 20
-157.121103
 30
0.0
  0
VERTEX
  5
5BA6
  8
ALPHA
 10
494.748997
 20
-159.045568
 30
0.0
  0
VERTEX
  5
5BA7
  8
ALPHA
 10
494.750514
 20
-161.251662
 30
0.0
  0
VERTEX
  5
5BA8
  8
ALPHA
 10
494.752031
 20
-163.457755
 30
0.0
  0
VERTEX
  5
5BA9
  8
ALPHA
 10
494.753354
 20
-165.38222
 30
0.0
  0
VERTEX
  5
5BAA
  8
ALPHA
 10
494.75429
 20
-166.743427
 30
0.0
  0
VERTEX
  5
5BAB
  8
ALPHA
 10
494.754553
 20
-167.124799
 30
0.0
  0
VERTEX
  5
5BAC
  8
ALPHA
 10
494.754645
 20
-167.259746
 30
0.0
  0
VERTEX
  5
5BAD
  8
ALPHA
 10
494.632639
 20
-168.46883
 30
0.0
  0
VERTEX
  5
5BAE
  8
ALPHA
 10
494.282756
 20
-169.595017
 30
0.0
  0
VERTEX
  5
5BAF
  8
ALPHA
 10
492.996189
 20
-171.502145
 30
0.0
  0
VERTEX
  5
5BB0
  8
ALPHA
 10
491.0886
 20
-172.788029
 30
0.0
  0
VERTEX
  5
5BB1
  8
ALPHA
 10
489.962439
 20
-173.137661
 30
0.0
  0
VERTEX
  5
5BB2
  8
ALPHA
 10
488.753643
 20
-173.259568
 30
0.0
  0
SEQEND
  5
5BB3
  8
ALPHA
  0
POLYLINE
  5
51C9
  8
ALPHA
 66
     1
 10
0.0
 20
0.0
 30
0.0
 70
   128
  0
VERTEX
  5
5BB4
  8
ALPHA
 10
494.755126
 20
-74.259554
 30
0.0
  0
VERTEX
  5
5BB5
  8
ALPHA
 10
494.755113
 20
-74.484152
 30
0.0
  0
VERTEX
  5
5BB6
  8
ALPHA
 10
494.755075
 20
-75.118886
 30
0.0
  0
VERTEX
  5
5BB7
  8
ALPHA
 10
494.755017
 20
-76.105166
 30
0.0
  0
VERTEX
  5
5BB8
  8
ALPHA
 10
494.754941
 20
-77.3844
 30
0.0
  0
VERTEX
  5
5BB9
  8
ALPHA
 10
494.754752
 20
-80.587367
 30
0.0
  0
VERTEX
  5
5BBA
  8
ALPHA
 10
494.754536
 20
-84.259061
 30
0.0
  0
VERTEX
  5
5BBB
  8
ALPHA
 10
494.754319
 20
-87.930754
 30
0.0
  0
VERTEX
  5
5BBC
  8
ALPHA
 10
494.75413
 20
-91.133721
 30
0.0
  0
VERTEX
  5
5BBD
  8
ALPHA
 10
494.754054
 20
-92.412955
 30
0.0
  0
VERTEX
  5
5BBE
  8
ALPHA
 10
494.753996
 20
-93.399235
 30
0.0
  0
VERTEX
  5
5BBF
  8
ALPHA
 10
494.753959
 20
-94.033969
 30
0.0
  0
VERTEX
  5
5BC0
  8
ALPHA
 10
494.753945
 20
-94.258567
 30
0.0
  0
VERTEX
  5
5BC1
  8
ALPHA
 10
494.897815
 20
-95.268399
 30
0.0
  0
VERTEX
  5
5BC2
  8
ALPHA
 10
495.151527
 20
-96.020546
 30
0.0
  0
VERTEX
  5
5BC3
  8
ALPHA
 10
495.82941
 20
-97.067996
 30
0.0
  0
VERTEX
  5
5BC4
  8
ALPHA
 10
496.469448
 20
-98.033336
 30
0.0
  0
VERTEX
  5
5BC5
  8
ALPHA
 10
496.675853
 20
-98.682846
 30
0.0
  0
VERTEX
  5
5BC6
  8
ALPHA
 10
496.753493
 20
-99.548987
 30
0.0
  0
SEQEND
  5
5BC7
  8
ALPHA
  0
POLYLINE
  5
51CA
  8
ALPHA
 66
     1
 10
0.0
 20
0.0
 30
0.0
 70
   128
  0
VERTEX
  5
5BC8
  8
ALPHA
 10
491.759346
 20
-94.624482
 30
0.0
  0
VERTEX
  5
5BC9
  8
ALPHA
 10
491.759293
 20
-94.395774
 30
0.0
  0
VERTEX
  5
5BCA
  8
ALPHA
 10
491.759143
 20
-93.749426
 30
0.0
  0
VERTEX
  5
5BCB
  8
ALPHA
 10
491.75891
 20
-92.745101
 30
0.0
  0
VERTEX
  5
5BCC
  8
ALPHA
 10
491.758608
 20
-91.442462
 30
0.0
  0
VERTEX
  5
5BCD
  8
ALPHA
 10
491.757852
 20
-88.180891
 30
0.0
  0
VERTEX
  5
5BCE
  8
ALPHA
 10
491.756985
 20
-84.442018
 30
0.0
  0
VERTEX
  5
5BCF
  8
ALPHA
 10
491.756119
 20
-80.703144
 30
0.0
  0
VERTEX
  5
5BD0
  8
ALPHA
 10
491.755362
 20
-77.441574
 30
0.0
  0
VERTEX
  5
5BD1
  8
ALPHA
 10
491.75506
 20
-76.138934
 30
0.0
  0
VERTEX
  5
5BD2
  8
ALPHA
 10
491.754828
 20
-75.134609
 30
0.0
  0
VERTEX
  5
5BD3
  8
ALPHA
 10
491.754678
 20
-74.488262
 30
0.0
  0
VERTEX
  5
5BD4
  8
ALPHA
 10
491.754625
 20
-74.259554
 30
0.0
  0
SEQEND
  5
5BD5
  8
ALPHA
  0
POLYLINE
  5
51CB
  8
ALPHA
 66
     1
 10
0.0
 20
0.0
 30
0.0
 70
   128
  0
VERTEX
  5
5BD6
  8
ALPHA
 10
491.754625
 20
-74.259554
 30
0.0
  0
VERTEX
  5
5BD7
  8
ALPHA
 10
492.223453
 20
-74.259554
 30
0.0
  0
VERTEX
  5
5BD8
  8
ALPHA
 10
493.254875
 20
-74.259554
 30
0.0
  0
VERTEX
  5
5BD9
  8
ALPHA
 10
494.286298
 20
-74.259554
 30
0.0
  0
VERTEX
  5
5BDA
  8
ALPHA
 10
494.755126
 20
-74.259554
 30
0.0
  0
SEQEND
  5
5BDB
  8
ALPHA
  0
POLYLINE
  5
51CC
  8
ALPHA
 66
     1
 10
0.0
 20
0.0
 30
0.0
 70
   128
  0
VERTEX
  5
5BDC
  8
ALPHA
 10
491.255328
 20
-77.258875
 30
0.0
  0
VERTEX
  5
5BDD
  8
ALPHA
 10
491.255328
 20
-76.790231
 30
0.0
  0
VERTEX
  5
5BDE
  8
ALPHA
 10
491.255328
 20
-75.759214
 30
0.0
  0
VERTEX
  5
5BDF
  8
ALPHA
 10
491.255328
 20
-74.728198
 30
0.0
  0
VERTEX
  5
5BE0
  8
ALPHA
 10
491.255328
 20
-74.259554
 30
0.0
  0
SEQEND
  5
5BE1
  8
ALPHA
  0
DIMENSION
  5
51D1
  8
COTATION1
  2
*D4
 10
399.753248
 20
-173.259568
 30
0.0
 11
399.753248
 21
-123.759561
 31
0.0
 70
   128
 13
457.255463
 23
-74.259554
 33
0.0
 14
463.254104
 24
-173.259568
 34
0.0
 50
90.0
  0
TEXT
  5
51E7
  8
AXE
 10
505.277302
 20
-124.19227
 30
0.0
 40
8.0
  1
X
 72
     2
 11
511.753493
 21
-124.19227
 31
0.0
  0
LINE
  5
51E8
  8
AXE
 10
409.753248
 20
-126.298538
 30
0.0
 11
511.753493
 21
-126.298538
 31
0.0
  0
LINE
  5
51E9
  8
AXE
 10
442.250423
 20
-188.259568
 30
0.0
 11
442.250423
 21
-69.259554
 31
0.0
  0
TEXT
  5
51EA
  8
AXE
 10
434.252445
 20
-188.202199
 30
0.0
 40
8.0
  1
Y
 72
     2
 11
440.728635
 21
-188.202199
 31
0.0
  0
LINE
  5
51EB
  8
COTATION1
 10
440.250423
 20
-126.298538
 30
0.0
 11
444.250423
 21
-126.298538
 31
0.0
  0
LINE
  5
51EC
  8
COTATION1
 10
442.250423
 20
-128.298538
 30
0.0
 11
442.250423
 21
-124.298538
 31
0.0
  0
DIMENSION
  5
51ED
  8
COTATION1
  2
*D5
 10
496.753202
 20
-49.259554
 30
0.0
 11
476.003204
 21
-47.759554
 31
0.0
 13
455.253206
 23
-102.030303
 33
0.0
 14
496.753202
 24
-102.030303
 34
0.0
  0
DIMENSION
  5
520C
  8
COTATION1
  2
*D6
 10
455.253206
 20
-49.259554
 30
0.0
 11
435.003227
 21
-47.759554
 31
0.0
 13
414.753248
 23
-125.320759
 33
0.0
 14
455.253206
 24
-101.730303
 34
0.0
  0
DIMENSION
  5
5222
  8
COTATION1
  2
*D7
 10
460.254784
 20
-59.259554
 30
0.0
 11
451.25043
 21
-59.259554
 31
0.0
 70
   128
  1
18
 13
442.250423
 23
-69.259554
 33
0.0
 14
460.254784
 24
-74.259554
 34
0.0
  0
DIMENSION
  5
526E
  8
COTATION1
  2
*D8
 10
491.754625
 20
-39.259554
 30
0.0
 11
467.002524
 21
-37.759554
 31
0.0
 13
442.250423
 23
-69.259554
 33
0.0
 14
491.754625
 24
-74.259554
 34
0.0
  0
ENDSEC
  0
EOF
