  0
SECTION
  2
HEADER
  9
$ACADVER
  1
AC1009
  9
$INSBASE
 10
402.590624
 20
-1.041018
 30
0.0
  9
$EXTMIN
 10
0.270063
 20
-13.059586
 30
0.0
  9
$EXTMAX
 10
70.924538
 20
44.926568
 30
0.0
  9
$LIMMIN
 10
-407.970438
 20
-367.832444
  9
$LIMMAX
 10
429.804077
 20
234.370848
  9
$ORTHOMODE
 70
     1
  9
$REGENMODE
 70
     1
  9
$FILLMODE
 70
     1
  9
$QTEXTMODE
 70
     0
  9
$MIRRTEXT
 70
     1
  9
$DRAGMODE
 70
     2
  9
$LTSCALE
 40
10.0
  9
$OSMODE
 70
    35
  9
$ATTMODE
 70
     1
  9
$TEXTSIZE
 40
6.0
  9
$TRACEWID
 40
1.0
  9
$TEXTSTYLE
  7
ROMANS
  9
$CLAYER
  8
ALPHA
  9
$CELTYPE
  6
BYLAYER
  9
$CECOLOR
 62
   256
  9
$DIMSCALE
 40
1.0
  9
$DIMASZ
 40
5.0
  9
$DIMEXO
 40
2.0
  9
$DIMDLI
 40
0.38
  9
$DIMRND
 40
0.0
  9
$DIMDLE
 40
0.0
  9
$DIMEXE
 40
2.5
  9
$DIMTP
 40
0.0
  9
$DIMTM
 40
0.0
  9
$DIMTXT
 40
2.5
  9
$DIMCEN
 40
0.0
  9
$DIMTSZ
 40
0.0
  9
$DIMTOL
 70
     0
  9
$DIMLIM
 70
     0
  9
$DIMTIH
 70
     1
  9
$DIMTOH
 70
     1
  9
$DIMSE1
 70
     0
  9
$DIMSE2
 70
     0
  9
$DIMTAD
 70
     1
  9
$DIMZIN
 70
    12
  9
$DIMBLK
  1
OPEN30
  9
$DIMASO
 70
     1
  9
$DIMSHO
 70
     1
  9
$DIMPOST
  1

  9
$DIMAPOST
  1

  9
$DIMALT
 70
     0
  9
$DIMALTD
 70
     2
  9
$DIMALTF
 40
25.4
  9
$DIMLFAC
 40
1.0
  9
$DIMTOFL
 70
     0
  9
$DIMTVP
 40
0.0
  9
$DIMTIX
 70
     0
  9
$DIMSOXD
 70
     0
  9
$DIMSAH
 70
     0
  9
$DIMBLK1
  1

  9
$DIMBLK2
  1

  9
$DIMSTYLE
  2
SC_DEFAUT
  9
$DIMCLRD
 70
     0
  9
$DIMCLRE
 70
     0
  9
$DIMCLRT
 70
     0
  9
$DIMTFAC
 40
1.0
  9
$DIMGAP
 40
2.0
  9
$LUNITS
 70
     2
  9
$LUPREC
 70
     1
  9
$SKETCHINC
 40
0.1
  9
$FILLETRAD
 40
0.0
  9
$AUNITS
 70
     0
  9
$AUPREC
 70
     0
  9
$MENU
  1
acad
  9
$ELEVATION
 40
0.0
  9
$PELEVATION
 40
0.0
  9
$THICKNESS
 40
0.0
  9
$LIMCHECK
 70
     0
  9
$BLIPMODE
 70
     0
  9
$CHAMFERA
 40
0.0
  9
$CHAMFERB
 40
0.0
  9
$SKPOLY
 70
     0
  9
$TDCREATE
 40
2450373.687919
  9
$TDUPDATE
 40
2453038.457489
  9
$TDINDWG
 40
1.167712
  9
$TDUSRTIMER
 40
1.167712
  9
$USRTIMER
 70
     1
  9
$ANGBASE
 50
0.0
  9
$ANGDIR
 70
     0
  9
$PDMODE
 70
    32
  9
$PDSIZE
 40
0.0
  9
$PLINEWID
 40
0.0
  9
$COORDS
 70
     1
  9
$SPLFRAME
 70
     0
  9
$SPLINETYPE
 70
     6
  9
$SPLINESEGS
 70
     8
  9
$ATTDIA
 70
     0
  9
$ATTREQ
 70
     1
  9
$HANDLING
 70
     1
  9
$HANDSEED
  5
E4CD
  9
$SURFTAB1
 70
     6
  9
$SURFTAB2
 70
     6
  9
$SURFTYPE
 70
     6
  9
$SURFU
 70
     6
  9
$SURFV
 70
     6
  9
$UCSNAME
  2

  9
$UCSORG
 10
0.0
 20
0.0
 30
0.0
  9
$UCSXDIR
 10
1.0
 20
0.0
 30
0.0
  9
$UCSYDIR
 10
0.0
 20
1.0
 30
0.0
  9
$PUCSNAME
  2

  9
$PUCSORG
 10
0.0
 20
0.0
 30
0.0
  9
$PUCSXDIR
 10
1.0
 20
0.0
 30
0.0
  9
$PUCSYDIR
 10
0.0
 20
1.0
 30
0.0
  9
$USERI1
 70
     0
  9
$USERI2
 70
     0
  9
$USERI3
 70
     0
  9
$USERI4
 70
     0
  9
$USERI5
 70
     0
  9
$USERR1
 40
0.0
  9
$USERR2
 40
0.0
  9
$USERR3
 40
0.0
  9
$USERR4
 40
0.0
  9
$USERR5
 40
0.0
  9
$WORLDVIEW
 70
     1
  9
$SHADEDGE
 70
     3
  9
$SHADEDIF
 70
    70
  9
$TILEMODE
 70
     1
  9
$MAXACTVP
 70
    16
  9
$PLIMCHECK
 70
     0
  9
$PEXTMIN
 10
-1.452248
 20
-0.437698
 30
0.0
  9
$PEXTMAX
 10
12.749749
 20
8.310198
 30
0.0
  9
$PLIMMIN
 10
0.0
 20
0.0
  9
$PLIMMAX
 10
12.0
 20
9.0
  9
$UNITMODE
 70
     0
  9
$VISRETAIN
 70
     0
  9
$PLINEGEN
 70
     0
  9
$PSLTSCALE
 70
     0
  0
ENDSEC
  0
SECTION
  2
TABLES
  0
TABLE
  2
VPORT
 70
     2
  0
VPORT
  2
*ACTIVE
 70
     0
 10
0.0
 20
0.0
 11
1.0
 21
1.0
 12
35.588831
 22
15.946268
 13
0.0
 23
0.0
 14
1.0
 24
1.0
 15
10.0
 25
10.0
 16
0.0
 26
0.0
 36
1.0
 17
0.0
 27
0.0
 37
0.0
 40
58.445826
 41
1.466346
 42
50.0
 43
0.0
 44
0.0
 50
0.0
 51
0.0
 71
     0
 72
   100
 73
     1
 74
     0
 75
     0
 76
     0
 77
     0
 78
     0
  0
ENDTAB
  0
TABLE
  2
LTYPE
 70
     2
  0
LTYPE
  2
CONTINUOUS
 70
     0
  3
Solid line
 72
    65
 73
     0
 40
0.0
  0
LTYPE
  2
AXES2
 70
     0
  3
___ _ ___ _ ___ _ ___ _ ___ _ ___ _ ___ _ ___ _
 72
    65
 73
     4
 40
1.125
 49
0.75
 49
-0.125
 49
0.125
 49
-0.125
  0
ENDTAB
  0
TABLE
  2
LAYER
 70
     5
  0
LAYER
  2
0
 70
     0
 62
   255
  6
CONTINUOUS
  0
LAYER
  2
COTATION1
 70
     0
 62
     2
  6
CONTINUOUS
  0
LAYER
  2
AXE
 70
     0
 62
    80
  6
AXES2
  0
LAYER
  2
DEFPOINTS
 70
     0
 62
     7
  6
CONTINUOUS
  0
LAYER
  2
ALPHA
 70
     0
 62
   254
  6
CONTINUOUS
  0
ENDTAB
  0
TABLE
  2
STYLE
 70
     2
  0
STYLE
  2
ROMANS
 70
     0
 40
0.0
 41
1.0
 50
0.0
 71
     0
 42
6.0
  3
romans
  4

  0
STYLE
  2
STANDARD
 70
     0
 40
0.0
 41
1.0
 50
0.0
 71
     0
 42
0.2
  3
txt
  4

  0
ENDTAB
  0
TABLE
  2
VIEW
 70
     0
  0
ENDTAB
  0
TABLE
  2
UCS
 70
     0
  0
ENDTAB
  0
TABLE
  2
APPID
 70
     1
  0
APPID
  2
ACAD
 70
     0
  0
ENDTAB
  0
TABLE
  2
DIMSTYLE
 70
     2
  0
DIMSTYLE
  2
SC_DEFAUT
 70
     0
  3

  4

  5
OPEN30
  6

  7

 40
1.0
 41
5.0
 42
2.0
 43
0.38
 44
2.5
 45
0.0
 46
0.0
 47
0.0
 48
0.0
140
2.5
141
0.0
142
0.0
143
25.4
144
1.0
145
0.0
146
1.0
147
2.0
 71
     0
 72
     0
 73
     1
 74
     1
 75
     0
 76
     0
 77
     1
 78
    12
170
     0
171
     2
172
     0
173
     0
174
     0
175
     0
176
     0
177
     0
178
     0
  0
DIMSTYLE
  2
STANDARD
 70
     0
  3

  4

  5

  6

  7

 40
1.0
 41
0.18
 42
0.0625
 43
0.38
 44
0.18
 45
0.0
 46
0.0
 47
0.0
 48
0.0
140
0.18
141
0.09
142
0.0
143
25.4
144
1.0
145
0.0
146
1.0
147
0.09
 71
     0
 72
     0
 73
     1
 74
     1
 75
     0
 76
     0
 77
     0
 78
     0
170
     0
171
     2
172
     0
173
     0
174
     0
175
     0
176
     0
177
     0
178
     0
  0
ENDTAB
  0
ENDSEC
  0
SECTION
  2
BLOCKS
  0
BLOCK
  8
0
  2
$MODEL_SPACE
 70
     0
 10
0.0
 20
0.0
 30
0.0
  3
$MODEL_SPACE
  1

  0
ENDBLK
  5
E3A6
  8
0
  0
BLOCK
 67
     1
  8
0
  2
$PAPER_SPACE
 70
     0
 10
0.0
 20
0.0
 30
0.0
  3
$PAPER_SPACE
  1

  0
ENDBLK
  5
E3A4
 67
     1
  8
0
  0
BLOCK
  8
0
  2
COTE
 70
     0
 10
0.0
 20
0.0
 30
0.0
  3
COTE
  1

  0
ENDBLK
  5
F
  8
0
  0
BLOCK
  8
0
  2
FOND
 70
     0
 10
0.0
 20
0.0
 30
0.0
  3
FOND
  1

  0
ENDBLK
  5
75
  8
0
  0
BLOCK
  8
0
  2
_OPEN30
 70
     0
 10
0.0
 20
0.0
 30
0.0
  3
_OPEN30
  1

  0
LINE
  5
4B05
  8
COTATION1
 62
     0
 10
-1.0
 20
0.267949
 30
0.0
 11
0.0
 21
0.0
 31
0.0
1001
ACAD
1000
RTLwPs
1070
   158
  0
LINE
  5
4B06
  8
COTATION1
 62
     0
 10
0.0
 20
0.0
 30
0.0
 11
-1.0
 21
-0.267949
 31
0.0
1001
ACAD
1000
RTLwPs
1070
   158
  0
LINE
  5
4B07
  8
COTATION1
 62
     0
 10
0.0
 20
0.0
 30
0.0
 11
-1.0
 21
0.0
 31
0.0
1001
ACAD
1000
RTLwPs
1070
   158
  0
ENDBLK
  5
4B09
  8
0
  0
BLOCK
  8
0
  2
*D3
 70
     1
 10
0.0
 20
0.0
 30
0.0
  3
*D3
  1

  0
LINE
  5
E1D7
  8
COTATION1
 62
     0
 10
21.765015
 20
3.226568
 30
0.0
 11
21.765015
 21
42.926568
 31
0.0
1001
ACAD
1000
RTLwPs
1070
   158
  0
LINE
  5
E1D8
  8
COTATION1
 62
     0
 10
47.565015
 20
3.226568
 30
0.0
 11
47.565015
 21
42.926568
 31
0.0
1001
ACAD
1000
RTLwPs
1070
   158
  0
LINE
  5
E1D9
  8
COTATION1
 62
     0
 10
26.765015
 20
40.426568
 30
0.0
 11
42.565015
 21
40.426568
 31
0.0
1001
ACAD
1000
RTLwPs
1070
   158
  0
INSERT
  5
E1DA
  8
COTATION1
 62
     0
  2
_OPEN30
 10
21.765015
 20
40.426568
 30
0.0
 41
5.0
 42
5.0
 43
5.0
 50
180.0
1001
ACAD
1000
RTLwPs
1070
   158
  0
INSERT
  5
E1DB
  8
COTATION1
 62
     0
  2
_OPEN30
 10
47.565015
 20
40.426568
 30
0.0
 41
5.0
 42
5.0
 43
5.0
1001
ACAD
1000
RTLwPs
1070
   158
  0
TEXT
  5
E1DC
  8
COTATION1
 62
     0
 10
30.498348
 20
42.426568
 30
0.0
 40
2.5
  1
25.8
1001
ACAD
1000
MTEXTBEGIN
1070
    73
1070
     1
1070
    44
1040
1.0
1070
    74
1070
     0
1000
MTEXTEND
  0
POINT
  5
E1DD
  8
DEFPOINTS
 62
     0
 10
21.765015
 20
1.226568
 30
0.0
  0
POINT
  5
E1DE
  8
DEFPOINTS
 62
     0
 10
47.565015
 20
1.226568
 30
0.0
  0
POINT
  5
E1DF
  8
DEFPOINTS
 62
     0
 10
47.565015
 20
40.426568
 30
0.0
  0
ENDBLK
  5
D507
  8
0
  0
BLOCK
  8
0
  2
*D4
 70
     1
 10
0.0
 20
0.0
 30
0.0
  3
*D4
  1

  0
LINE
  5
E1C4
  8
COTATION1
 62
     0
 10
49.115015
 20
25.426568
 30
0.0
 11
69.615015
 21
25.426568
 31
0.0
1001
ACAD
1000
RTLwPs
1070
   158
  0
LINE
  5
E1C5
  8
COTATION1
 62
     0
 10
48.664985
 20
-2.273432
 30
0.0
 11
69.615015
 21
-2.273432
 31
0.0
1001
ACAD
1000
RTLwPs
1070
   158
  0
LINE
  5
E1C6
  8
COTATION1
 62
     0
 10
67.115015
 20
20.426568
 30
0.0
 11
67.115015
 21
14.826568
 31
0.0
1001
ACAD
1000
RTLwPs
1070
   158
  0
LINE
  5
E1C7
  8
COTATION1
 62
     0
 10
67.115015
 20
2.726568
 30
0.0
 11
67.115015
 21
8.326568
 31
0.0
1001
ACAD
1000
RTLwPs
1070
   158
  0
INSERT
  5
E1C8
  8
COTATION1
 62
     0
  2
_OPEN30
 10
67.115015
 20
25.426568
 30
0.0
 41
5.0
 42
5.0
 43
5.0
 50
90.0
1001
ACAD
1000
RTLwPs
1070
   158
  0
INSERT
  5
E1C9
  8
COTATION1
 62
     0
  2
_OPEN30
 10
67.115015
 20
-2.273432
 30
0.0
 41
5.0
 42
5.0
 43
5.0
 50
270.0
1001
ACAD
1000
RTLwPs
1070
   158
  0
TEXT
  5
E1CA
  8
COTATION1
 62
     0
 10
62.948348
 20
10.326568
 30
0.0
 40
2.5
  1
27.7
1001
ACAD
1000
MTEXTBEGIN
1070
    73
1070
     1
1070
    44
1040
1.0
1070
    74
1070
     0
1000
MTEXTEND
  0
POINT
  5
E1CB
  8
DEFPOINTS
 62
     0
 10
47.115015
 20
25.426568
 30
0.0
  0
POINT
  5
E1CC
  8
DEFPOINTS
 62
     0
 10
46.664985
 20
-2.273432
 30
0.0
  0
POINT
  5
E1CD
  8
DEFPOINTS
 62
     0
 10
67.115015
 20
-2.273432
 30
0.0
  0
ENDBLK
  5
D54C
  8
0
  0
ENDSEC
  0
SECTION
  2
ENTITIES
  0
INSERT
  5
A
  8
0
  2
COTE
 10
0.0
 20
0.0
 30
0.0
  0
INSERT
  5
17
  8
0
  2
COTE
 10
284.010391
 20
6.373258
 30
0.0
  0
INSERT
  5
72
  8
0
  2
FOND
 10
0.0
 20
0.0
 30
0.0
  0
DIMENSION
  5
D4FB
  8
COTATION1
  2
*D3
 10
47.565015
 20
40.426568
 30
0.0
 11
34.665015
 21
43.676568
 31
0.0
 13
21.765015
 23
1.226568
 33
0.0
 14
47.565015
 24
1.226568
 34
0.0
  0
DIMENSION
  5
D53F
  8
COTATION1
  2
*D4
 10
67.115015
 20
-2.273432
 30
0.0
 11
67.115015
 21
11.576568
 31
0.0
 13
47.115015
 23
25.426568
 33
0.0
 14
46.664985
 24
-2.273432
 34
0.0
 50
90.0
  0
LINE
  5
D563
  8
AXE
 10
17.215015
 20
11.626568
 30
0.0
 11
57.115015
 21
11.626568
 31
0.0
  0
TEXT
  5
D564
  8
AXE
 10
53.067396
 20
12.626568
 30
0.0
 40
5.0
  1
X
 72
     2
 11
57.115015
 21
12.626568
 31
0.0
  0
LINE
  5
DCF0
  8
ALPHA
 10
23.815041
 20
11.626568
 30
0.0
 11
45.514988
 21
11.626568
 31
0.0
  0
LINE
  5
DFFF
  8
ALPHA
 10
41.165015
 20
25.426568
 30
0.0
 11
47.315015
 21
25.426568
 31
0.0
  0
LINE
  5
E000
  8
ALPHA
 10
45.515015
 20
22.776568
 30
0.0
 11
42.715015
 21
22.776568
 31
0.0
  0
LINE
  5
E001
  8
ALPHA
 10
45.821803
 20
22.576568
 30
0.0
 11
42.515015
 21
22.576568
 31
0.0
  0
LINE
  5
E002
  8
ALPHA
 10
42.3328
 20
22.376568
 30
0.0
 11
46.158303
 21
22.376568
 31
0.0
  0
LINE
  5
E003
  8
ALPHA
 10
47.315015
 20
21.576568
 30
0.0
 11
35.859634
 21
21.576568
 31
0.0
  0
LINE
  5
E004
  8
ALPHA
 10
45.215015
 20
21.076568
 30
0.0
 11
24.115015
 21
21.076568
 31
0.0
  0
LINE
  5
E005
  8
ALPHA
 10
45.215015
 20
18.476568
 30
0.0
 11
24.115015
 21
18.476568
 31
0.0
  0
LINE
  5
E006
  8
ALPHA
 10
23.115031
 20
18.276568
 30
0.0
 11
46.214995
 21
18.276568
 31
0.0
  0
LINE
  5
E007
  8
ALPHA
 10
46.215015
 20
16.959709
 30
0.0
 11
39.546256
 21
16.959709
 31
0.0
  0
LINE
  5
E008
  8
ALPHA
 10
45.996566
 20
15.835889
 30
0.0
 11
23.333463
 21
15.835889
 31
0.0
  0
LINE
  5
E009
  8
ALPHA
 10
23.892198
 20
14.45297
 30
0.0
 11
45.437831
 21
14.45297
 31
0.0
  0
LINE
  5
E00A
  8
ALPHA
 10
23.965015
 20
14.078364
 30
0.0
 11
45.365015
 21
14.078364
 31
0.0
  0
LINE
  5
E00B
  8
ALPHA
 10
23.965015
 20
13.911106
 30
0.0
 11
45.365015
 21
13.911106
 31
0.0
  0
LINE
  5
E00C
  8
ALPHA
 10
23.115015
 20
9.876568
 30
0.0
 11
46.215015
 21
9.876568
 31
0.0
  0
LINE
  5
E00D
  8
ALPHA
 10
23.115015
 20
8.726568
 30
0.0
 11
46.215015
 21
8.726568
 31
0.0
  0
LINE
  5
E00E
  8
ALPHA
 10
39.644974
 20
7.376568
 30
0.0
 11
46.565015
 21
7.376568
 31
0.0
  0
LINE
  5
E00F
  8
ALPHA
 10
47.564934
 20
-0.773432
 30
0.0
 11
21.765141
 21
-0.773432
 31
0.0
  0
LINE
  5
E010
  8
ALPHA
 10
22.665015
 20
-0.973432
 30
0.0
 11
46.665015
 21
-0.973432
 31
0.0
  0
LINE
  5
E011
  8
ALPHA
 10
22.665044
 20
-2.273432
 30
0.0
 11
46.664985
 21
-2.273432
 31
0.0
  0
LINE
  5
E013
  8
ALPHA
 10
39.644974
 20
1.226568
 30
0.0
 11
39.644974
 21
2.576568
 31
0.0
  0
LINE
  5
E015
  8
ALPHA
 10
29.685055
 20
1.226568
 30
0.0
 11
29.685055
 21
2.576568
 31
0.0
  0
LINE
  5
E016
  8
ALPHA
 10
22.765015
 20
1.226568
 30
0.0
 11
22.765015
 21
8.376568
 31
0.0
  0
LINE
  5
E017
  8
ALPHA
 10
21.765015
 20
1.226568
 30
0.0
 11
22.765015
 21
1.226568
 31
0.0
  0
LINE
  5
E018
  8
ALPHA
 10
21.765015
 20
-0.773432
 30
0.0
 11
21.765015
 21
1.226568
 31
0.0
  0
ARC
  5
E019
  8
ALPHA
 10
22.865015
 20
-0.973432
 30
0.0
 40
0.2
 50
90.0
 51
180.0
  0
LINE
  5
E01A
  8
ALPHA
 10
22.665015
 20
-2.273432
 30
0.0
 11
22.665015
 21
-0.973432
 31
0.0
  0
LINE
  5
E01B
  8
ALPHA
 10
29.685055
 20
1.226568
 30
0.0
 11
39.644974
 21
1.226568
 31
0.0
  0
LINE
  5
E01C
  8
0
  6
CONTINUOUS
 62
     2
 10
22.015015
 20
21.576568
 30
0.0
 11
5.270063
 21
21.576568
 31
0.0
  0
LINE
  5
E01D
  8
0
  6
CONTINUOUS
 62
     2
 10
0.270063
 20
14.076568
 30
0.0
 11
10.270063
 21
14.076568
 31
0.0
  0
LINE
  5
E01E
  8
0
  6
CONTINUOUS
 62
     2
 10
10.270063
 20
9.076568
 30
0.0
 11
0.270063
 21
9.076568
 31
0.0
  0
TEXT
  5
E01F
  8
0
  6
CONTINUOUS
 62
     2
 10
1.520063
 20
10.326568
 30
0.0
 40
2.5
  1
ENTRY
 41
0.642857
  7
STANDARD
 72
     5
 11
9.020063
 21
10.326568
 31
0.0
  0
LINE
  5
E020
  8
0
  6
CONTINUOUS
 62
     2
 10
0.270063
 20
9.076568
 30
0.0
 11
0.270063
 21
14.076568
 31
0.0
  0
SOLID
  5
E021
  8
0
  6
CONTINUOUS
 62
     2
 10
3.826687
 20
21.576568
 30
0.0
 11
6.713438
 21
21.576568
 31
0.0
 12
5.270063
 22
19.076568
 32
0.0
 13
5.270063
 23
19.076568
 33
0.0
  0
LINE
  5
E022
  8
0
  6
CONTINUOUS
 62
     2
 10
5.270063
 20
19.076568
 30
0.0
 11
5.270063
 21
14.076568
 31
0.0
  0
LINE
  5
E023
  8
ALPHA
 10
22.015015
 20
25.426568
 30
0.0
 11
28.165015
 21
25.426568
 31
0.0
  0
LINE
  5
E024
  8
ALPHA
 10
26.615015
 20
22.776568
 30
0.0
 11
23.815015
 21
22.776568
 31
0.0
  0
LINE
  5
E025
  8
ALPHA
 10
26.815015
 20
22.576568
 30
0.0
 11
23.59764
 21
22.576568
 31
0.0
  0
LINE
  5
E026
  8
ALPHA
 10
23.171726
 20
22.376568
 30
0.0
 11
26.997229
 21
22.376568
 31
0.0
  0
LINE
  5
E027
  8
ALPHA
 10
22.015015
 20
21.576568
 30
0.0
 11
33.470395
 21
21.576568
 31
0.0
  0
LINE
  5
E028
  8
ALPHA
 10
29.783774
 20
16.959709
 30
0.0
 11
23.115015
 21
16.959709
 31
0.0
  0
LINE
  5
E029
  8
ALPHA
 10
22.765015
 20
7.376568
 30
0.0
 11
29.685055
 21
7.376568
 31
0.0
  0
LINE
  5
E02A
  8
ALPHA
 10
22.015015
 20
25.376568
 30
0.0
 11
22.215015
 21
25.176568
 31
0.0
  0
LINE
  5
E02B
  8
ALPHA
 10
25.589138
 20
22.776568
 30
0.0
 11
25.589138
 21
25.426568
 31
0.0
  0
LINE
  5
E02C
  8
ALPHA
 10
24.915015
 20
24.076568
 30
0.0
 11
24.915015
 21
25.426568
 31
0.0
  0
LINE
  5
E02D
  8
ALPHA
 10
22.015015
 20
25.426568
 30
0.0
 11
22.015015
 21
21.576568
 31
0.0
  0
LINE
  5
E02E
  8
ALPHA
 10
24.915015
 20
25.376568
 30
0.0
 11
24.715015
 21
25.176568
 31
0.0
  0
LINE
  5
E02F
  8
0
  6
CONTINUOUS
 62
     2
 10
10.270063
 20
14.076568
 30
0.0
 11
10.270063
 21
9.076568
 31
0.0
  0
ARC
  5
E030
  8
ALPHA
 10
13.965015
 20
13.911106
 30
0.0
 40
10.0
 50
336.205727
 51
0.0
  0
LINE
  5
E031
  8
ALPHA
 10
22.764991
 20
8.376544
 30
0.0
 11
23.115015
 21
8.726568
 31
0.0
  0
LINE
  5
E032
  8
ALPHA
 10
23.115015
 20
8.726568
 30
0.0
 11
23.115015
 21
9.876568
 31
0.0
  0
LINE
  5
E033
  8
ALPHA
 10
22.215015
 20
25.176568
 30
0.0
 11
24.715015
 21
25.176568
 31
0.0
  0
LINE
  5
E034
  8
ALPHA
 10
22.366357
 20
24.976568
 30
0.0
 11
24.480451
 21
24.976568
 31
0.0
  0
POLYLINE
  5
E035
  8
ALPHA
 66
     1
 10
0.0
 20
0.0
 30
0.0
  0
VERTEX
  5
E3AC
  8
ALPHA
 10
22.229744
 20
25.137626
 30
0.0
  0
VERTEX
  5
E3AD
  8
ALPHA
 10
22.265004
 20
25.089577
 30
0.0
  0
VERTEX
  5
E3AE
  8
ALPHA
 10
22.31236
 20
25.034193
 30
0.0
  0
VERTEX
  5
E3AF
  8
ALPHA
 10
22.366357
 20
24.976568
 30
0.0
  0
SEQEND
  5
E3B0
  8
ALPHA
  0
LINE
  5
E036
  8
ALPHA
 10
22.215015
 20
25.170399
 30
0.0
 11
22.229744
 21
25.137626
 31
0.0
  0
LINE
  5
E037
  8
ALPHA
 10
22.366357
 20
21.576568
 30
0.0
 11
22.366357
 21
24.976568
 31
0.0
  0
LINE
  5
E038
  8
ALPHA
 10
22.215015
 20
21.576568
 30
0.0
 11
22.215015
 21
25.170399
 31
0.0
  0
ARC
  5
E039
  8
ALPHA
 10
24.115015
 20
19.776568
 30
0.0
 40
1.3
 50
90.0
 51
270.0
  0
ARC
  5
E03A
  8
ALPHA
 10
26.115015
 20
16.959709
 30
0.0
 40
3.0
 50
180.0
 51
202.0
  0
ARC
  5
E03B
  8
ALPHA
 10
22.965015
 20
14.078364
 30
0.0
 40
1.0
 50
0.0
 51
22.0
  0
LINE
  5
E03C
  8
ALPHA
 10
23.892198
 20
14.45297
 30
0.0
 11
23.333463
 21
15.835889
 31
0.0
  0
LINE
  5
E03D
  8
ALPHA
 10
23.965015
 20
13.911106
 30
0.0
 11
23.965015
 21
14.078364
 31
0.0
  0
LINE
  5
E03E
  8
ALPHA
 10
23.115015
 20
16.959709
 30
0.0
 11
23.115015
 21
18.276568
 31
0.0
  0
ARC
  5
E03F
  8
ALPHA
 10
24.465015
 20
18.676568
 30
0.0
 40
0.4
 50
270.0
 51
329.668273
  0
ARC
  5
E040
  8
ALPHA
 10
24.265015
 20
20.976568
 30
0.0
 40
0.6
 50
9.659258
 51
90.0
  0
LINE
  5
E041
  8
ALPHA
 10
24.480451
 20
24.476568
 30
0.0
 11
23.171726
 21
24.476568
 31
0.0
  0
LINE
  5
E042
  8
ALPHA
 10
23.410418
 20
24.276568
 30
0.0
 11
24.715015
 21
24.276568
 31
0.0
  0
LINE
  5
E043
  8
ALPHA
 10
23.615015
 20
24.076568
 30
0.0
 11
24.915015
 21
24.076568
 31
0.0
  0
ARC
  5
E044
  8
ALPHA
 10
23.815015
 20
22.976568
 30
0.0
 40
0.2
 50
180.0
 51
270.0
  0
ARC
  5
E045
  8
ALPHA
 10
23.605392
 20
22.766939
 30
0.0
 40
0.190639
 50
179.992049
 51
267.415787
  0
POLYLINE
  5
E046
  8
ALPHA
 66
     1
 10
0.0
 20
0.0
 30
0.0
  0
VERTEX
  5
E3B1
  8
ALPHA
 10
23.410554
 20
22.767923
 30
0.0
  0
VERTEX
  5
E3B2
  8
ALPHA
 10
23.405958
 20
22.766716
 30
0.0
  0
VERTEX
  5
E3B3
  8
ALPHA
 10
23.399895
 20
22.762393
 30
0.0
  0
VERTEX
  5
E3B4
  8
ALPHA
 10
23.392587
 20
22.755243
 30
0.0
  0
VERTEX
  5
E3B5
  8
ALPHA
 10
23.384227
 20
22.745599
 30
0.0
  0
VERTEX
  5
E3B6
  8
ALPHA
 10
23.374687
 20
22.733374
 30
0.0
  0
SEQEND
  5
E3B7
  8
ALPHA
  0
POLYLINE
  5
E047
  8
ALPHA
 66
     1
 10
0.0
 20
0.0
 30
0.0
  0
VERTEX
  5
E3B8
  8
ALPHA
 10
23.597643
 20
22.576568
 30
0.0
  0
VERTEX
  5
E3B9
  8
ALPHA
 10
23.592549
 20
22.57575
 30
0.0
  0
VERTEX
  5
E3BA
  8
ALPHA
 10
23.584508
 20
22.57335
 30
0.0
  0
VERTEX
  5
E3BB
  8
ALPHA
 10
23.573845
 20
22.569518
 30
0.0
  0
VERTEX
  5
E3BC
  8
ALPHA
 10
23.560948
 20
22.564424
 30
0.0
  0
SEQEND
  5
E3BD
  8
ALPHA
  0
LINE
  5
E048
  8
ALPHA
 10
23.5257
 20
22.590609
 30
0.0
 11
23.596683
 21
22.5763
 31
0.0
  0
LINE
  5
E049
  8
ALPHA
 10
23.532447
 20
22.590807
 30
0.0
 11
23.597014
 21
22.577966
 31
0.0
  0
POLYLINE
  5
E04A
  8
ALPHA
 66
     1
 10
0.0
 20
0.0
 30
0.0
  0
VERTEX
  5
E3BE
  8
ALPHA
 10
23.410418
 20
24.276568
 30
0.0
  0
VERTEX
  5
E3BF
  8
ALPHA
 10
23.386366
 20
24.287156
 30
0.0
  0
VERTEX
  5
E3C0
  8
ALPHA
 10
23.349949
 20
24.313196
 30
0.0
  0
VERTEX
  5
E3C1
  8
ALPHA
 10
23.307091
 20
24.348575
 30
0.0
  0
VERTEX
  5
E3C2
  8
ALPHA
 10
23.26136
 20
24.389473
 30
0.0
  0
VERTEX
  5
E3C3
  8
ALPHA
 10
23.215383
 20
24.433062
 30
0.0
  0
VERTEX
  5
E3C4
  8
ALPHA
 10
23.171726
 20
24.476568
 30
0.0
  0
SEQEND
  5
E3C5
  8
ALPHA
  0
POLYLINE
  5
E04B
  8
ALPHA
 66
     1
 10
0.0
 20
0.0
 30
0.0
  0
VERTEX
  5
E3C6
  8
ALPHA
 10
23.415015
 20
22.766965
 30
0.0
  0
VERTEX
  5
E3C7
  8
ALPHA
 10
23.414517
 20
22.767288
 30
0.0
  0
VERTEX
  5
E3C8
  8
ALPHA
 10
23.413025
 20
22.767608
 30
0.0
  0
VERTEX
  5
E3C9
  8
ALPHA
 10
23.410554
 20
22.767923
 30
0.0
  0
SEQEND
  5
E3CA
  8
ALPHA
  0
LINE
  5
E04C
  8
ALPHA
 10
23.615015
 20
24.076568
 30
0.0
 11
23.415015
 21
24.276568
 31
0.0
  0
POLYLINE
  5
E04D
  8
ALPHA
 66
     1
 10
0.0
 20
0.0
 30
0.0
  0
VERTEX
  5
E3CB
  8
ALPHA
 10
23.424146
 20
22.694483
 30
0.0
  0
VERTEX
  5
E3CC
  8
ALPHA
 10
23.4647
 20
22.632139
 30
0.0
  0
VERTEX
  5
E3CD
  8
ALPHA
 10
23.5257
 20
22.590609
 30
0.0
  0
SEQEND
  5
E3CE
  8
ALPHA
  0
POLYLINE
  5
E04E
  8
ALPHA
 66
     1
 10
0.0
 20
0.0
 30
0.0
  0
VERTEX
  5
E3CF
  8
ALPHA
 10
23.429256
 20
22.694001
 30
0.0
  0
VERTEX
  5
E3D0
  8
ALPHA
 10
23.470586
 20
22.632139
 30
0.0
  0
VERTEX
  5
E3D1
  8
ALPHA
 10
23.532447
 20
22.590807
 30
0.0
  0
SEQEND
  5
E3D2
  8
ALPHA
  0
LINE
  5
E04F
  8
ALPHA
 10
23.4103
 20
22.767922
 30
0.0
 11
23.424146
 21
22.694483
 31
0.0
  0
LINE
  5
E050
  8
ALPHA
 10
23.414753
 20
22.766965
 30
0.0
 11
23.429256
 21
22.694001
 31
0.0
  0
LINE
  5
E051
  8
ALPHA
 10
23.615015
 20
22.976568
 30
0.0
 11
23.615015
 21
24.076568
 31
0.0
  0
LINE
  5
E052
  8
ALPHA
 10
23.415015
 20
22.7454
 30
0.0
 11
23.415015
 21
22.765649
 31
0.0
  0
LINE
  5
E053
  8
ALPHA
 10
23.415015
 20
24.276568
 30
0.0
 11
23.415015
 21
22.766965
 31
0.0
  0
LINE
  5
E054
  8
ALPHA
 10
23.171726
 20
24.476568
 30
0.0
 11
23.171726
 21
22.376568
 31
0.0
  0
POLYLINE
  5
E055
  8
ALPHA
 66
     1
 10
0.0
 20
0.0
 30
0.0
  0
VERTEX
  5
E3D3
  8
ALPHA
 10
23.560948
 20
22.564424
 30
0.0
  0
VERTEX
  5
E3D4
  8
ALPHA
 10
23.545631
 20
22.558023
 30
0.0
  0
VERTEX
  5
E3D5
  8
ALPHA
 10
23.52758
 20
22.55017
 30
0.0
  0
VERTEX
  5
E3D6
  8
ALPHA
 10
23.507152
 20
22.541015
 30
0.0
  0
SEQEND
  5
E3D7
  8
ALPHA
  0
POLYLINE
  5
E056
  8
ALPHA
 66
     1
 10
0.0
 20
0.0
 30
0.0
  0
VERTEX
  5
E3D8
  8
ALPHA
 10
23.507152
 20
22.541015
 30
0.0
  0
VERTEX
  5
E3D9
  8
ALPHA
 10
23.484796
 20
22.530765
 30
0.0
  0
VERTEX
  5
E3DA
  8
ALPHA
 10
23.460894
 20
22.519606
 30
0.0
  0
VERTEX
  5
E3DB
  8
ALPHA
 10
23.43561
 20
22.507628
 30
0.0
  0
VERTEX
  5
E3DC
  8
ALPHA
 10
23.380124
 20
22.480877
 30
0.0
  0
SEQEND
  5
E3DD
  8
ALPHA
  0
LINE
  5
E057
  8
ALPHA
 10
23.380124
 20
22.480877
 30
0.0
 11
23.315873
 21
22.449295
 31
0.0
  0
LINE
  5
E058
  8
ALPHA
 10
23.315873
 20
22.449295
 30
0.0
 11
23.244984
 21
22.413825
 31
0.0
  0
LINE
  5
E059
  8
ALPHA
 10
23.244984
 20
22.413825
 30
0.0
 11
23.171726
 21
22.376568
 31
0.0
  0
LINE
  5
E05A
  8
ALPHA
 10
23.564334
 20
22.584465
 30
0.0
 11
23.763251
 21
22.783383
 31
0.0
  0
LINE
  5
E05B
  8
ALPHA
 10
23.621829
 20
22.924804
 30
0.0
 11
23.422917
 21
22.725892
 31
0.0
  0
LINE
  5
E05C
  8
ALPHA
 10
23.374687
 20
22.733374
 30
0.0
 11
23.363775
 21
22.718291
 31
0.0
  0
POLYLINE
  5
E05D
  8
ALPHA
 66
     1
 10
0.0
 20
0.0
 30
0.0
  0
VERTEX
  5
E3DE
  8
ALPHA
 10
23.363775
 20
22.718291
 30
0.0
  0
VERTEX
  5
E3DF
  8
ALPHA
 10
23.351721
 20
22.700629
 30
0.0
  0
VERTEX
  5
E3E0
  8
ALPHA
 10
23.33879
 20
22.680779
 30
0.0
  0
VERTEX
  5
E3E1
  8
ALPHA
 10
23.325197
 20
22.659096
 30
0.0
  0
VERTEX
  5
E3E2
  8
ALPHA
 10
23.311031
 20
22.635748
 30
0.0
  0
VERTEX
  5
E3E3
  8
ALPHA
 10
23.296227
 20
22.61063
 30
0.0
  0
VERTEX
  5
E3E4
  8
ALPHA
 10
23.280571
 20
22.583348
 30
0.0
  0
VERTEX
  5
E3E5
  8
ALPHA
 10
23.263872
 20
22.553506
 30
0.0
  0
VERTEX
  5
E3E6
  8
ALPHA
 10
23.24617
 20
22.521095
 30
0.0
  0
VERTEX
  5
E3E7
  8
ALPHA
 10
23.227831
 20
22.486718
 30
0.0
  0
VERTEX
  5
E3E8
  8
ALPHA
 10
23.209106
 20
22.450805
 30
0.0
  0
VERTEX
  5
E3E9
  8
ALPHA
 10
23.190368
 20
22.414033
 30
0.0
  0
VERTEX
  5
E3EA
  8
ALPHA
 10
23.171726
 20
22.376568
 30
0.0
  0
SEQEND
  5
E3EB
  8
ALPHA
  0
POLYLINE
  5
E05E
  8
ALPHA
 66
     1
 10
0.0
 20
0.0
 30
0.0
  0
VERTEX
  5
E3EC
  8
ALPHA
 10
24.71212
 20
24.276568
 30
0.0
  0
VERTEX
  5
E3ED
  8
ALPHA
 10
24.690783
 20
24.287156
 30
0.0
  0
VERTEX
  5
E3EE
  8
ALPHA
 10
24.656379
 20
24.313196
 30
0.0
  0
VERTEX
  5
E3EF
  8
ALPHA
 10
24.614894
 20
24.348575
 30
0.0
  0
VERTEX
  5
E3F0
  8
ALPHA
 10
24.569965
 20
24.389473
 30
0.0
  0
VERTEX
  5
E3F1
  8
ALPHA
 10
24.524275
 20
24.433062
 30
0.0
  0
VERTEX
  5
E3F2
  8
ALPHA
 10
24.480451
 20
24.476568
 30
0.0
  0
SEQEND
  5
E3F3
  8
ALPHA
  0
LINE
  5
E05F
  8
ALPHA
 10
24.915015
 20
24.076568
 30
0.0
 11
24.715015
 21
24.276568
 31
0.0
  0
LINE
  5
E060
  8
ALPHA
 10
24.715015
 20
25.176568
 30
0.0
 11
24.715015
 21
24.276568
 31
0.0
  0
LINE
  5
E061
  8
ALPHA
 10
24.480451
 20
24.976568
 30
0.0
 11
24.480451
 21
24.476568
 31
0.0
  0
POLYLINE
  5
E062
  8
ALPHA
 66
     1
 10
0.0
 20
0.0
 30
0.0
  0
VERTEX
  5
E3F4
  8
ALPHA
 10
24.71212
 20
25.176568
 30
0.0
  0
VERTEX
  5
E3F5
  8
ALPHA
 10
24.690783
 20
25.165979
 30
0.0
  0
VERTEX
  5
E3F6
  8
ALPHA
 10
24.656379
 20
25.13994
 30
0.0
  0
VERTEX
  5
E3F7
  8
ALPHA
 10
24.614894
 20
25.10456
 30
0.0
  0
VERTEX
  5
E3F8
  8
ALPHA
 10
24.569965
 20
25.063663
 30
0.0
  0
VERTEX
  5
E3F9
  8
ALPHA
 10
24.524275
 20
25.020073
 30
0.0
  0
VERTEX
  5
E3FA
  8
ALPHA
 10
24.480451
 20
24.976568
 30
0.0
  0
SEQEND
  5
E3FB
  8
ALPHA
  0
LINE
  5
E063
  8
ALPHA
 10
42.715015
 20
22.776568
 30
0.0
 11
42.715015
 21
25.426568
 31
0.0
  0
LINE
  5
E064
  8
ALPHA
 10
42.515015
 20
25.426568
 30
0.0
 11
42.515015
 21
22.575715
 31
0.0
  0
LINE
  5
E065
  8
ALPHA
 10
42.3328
 20
25.426568
 30
0.0
 11
42.3328
 21
22.376568
 31
0.0
  0
LINE
  5
E066
  8
ALPHA
 10
41.165015
 20
25.426568
 30
0.0
 11
41.165015
 21
23.576568
 31
0.0
  0
LINE
  5
E067
  8
ALPHA
 10
28.165015
 20
25.426568
 30
0.0
 11
28.165015
 21
23.576568
 31
0.0
  0
LINE
  5
E068
  8
ALPHA
 10
26.997229
 20
22.376568
 30
0.0
 11
26.997229
 21
25.426568
 31
0.0
  0
LINE
  5
E069
  8
ALPHA
 10
26.815015
 20
22.575715
 30
0.0
 11
26.815015
 21
25.426568
 31
0.0
  0
LINE
  5
E06A
  8
ALPHA
 10
26.615015
 20
25.426568
 30
0.0
 11
26.615015
 21
22.776568
 31
0.0
  0
LINE
  5
E06B
  8
ALPHA
 10
38.715015
 20
22.576568
 30
0.0
 11
30.615015
 21
22.576568
 31
0.0
  0
LINE
  5
E06C
  8
ALPHA
 10
33.761549
 20
22.352038
 30
0.0
 11
35.56848
 21
22.352038
 31
0.0
  0
LINE
  5
E06D
  8
ALPHA
 10
33.908033
 20
22.1641
 30
0.0
 11
35.421997
 21
22.1641
 31
0.0
  0
LINE
  5
E06E
  8
ALPHA
 10
35.616313
 20
21.776568
 30
0.0
 11
33.713716
 21
21.776568
 31
0.0
  0
LINE
  5
E06F
  8
ALPHA
 10
35.809634
 20
21.576568
 30
0.0
 11
33.520395
 21
21.576568
 31
0.0
  0
LINE
  5
E070
  8
ALPHA
 10
32.165015
 20
21.376568
 30
0.0
 11
37.165015
 21
21.376568
 31
0.0
  0
LINE
  5
E071
  8
ALPHA
 10
39.461732
 20
15.882676
 30
0.0
 11
29.868297
 21
15.882676
 31
0.0
  0
POLYLINE
  5
E072
  8
ALPHA
 66
     1
 10
0.0
 20
0.0
 30
0.0
  0
VERTEX
  5
E3FC
  8
ALPHA
 10
34.665015
 20
8.376568
 30
0.0
  0
VERTEX
  5
E3FD
  8
ALPHA
 10
35.881189
 20
8.314583
 30
0.0
  0
VERTEX
  5
E3FE
  8
ALPHA
 10
37.10644
 20
8.128706
 30
0.0
  0
VERTEX
  5
E3FF
  8
ALPHA
 10
38.353679
 20
7.817987
 30
0.0
  0
VERTEX
  5
E400
  8
ALPHA
 10
39.644974
 20
7.376568
 30
0.0
  0
SEQEND
  5
E401
  8
ALPHA
  0
LINE
  5
E073
  8
ALPHA
 10
29.45253
 20
4.576568
 30
0.0
 11
39.8775
 21
4.576568
 31
0.0
  0
LINE
  5
E074
  8
ALPHA
 10
29.45253
 20
2.576568
 30
0.0
 11
39.8775
 21
2.576568
 31
0.0
  0
POLYLINE
  5
E075
  8
ALPHA
 66
     1
 10
0.0
 20
0.0
 30
0.0
  0
VERTEX
  5
E402
  8
ALPHA
 10
29.685055
 20
7.376568
 30
0.0
  0
VERTEX
  5
E403
  8
ALPHA
 10
30.976497
 20
7.81803
 30
0.0
  0
VERTEX
  5
E404
  8
ALPHA
 10
32.223812
 20
8.12875
 30
0.0
  0
VERTEX
  5
E405
  8
ALPHA
 10
33.449002
 20
8.3146
 30
0.0
  0
VERTEX
  5
E406
  8
ALPHA
 10
34.665015
 20
8.376568
 30
0.0
  0
SEQEND
  5
E407
  8
ALPHA
  0
LINE
  5
E076
  8
ALPHA
 10
29.685055
 20
4.576568
 30
0.0
 11
29.685055
 21
7.376568
 31
0.0
  0
LINE
  5
E077
  8
ALPHA
 10
29.45253
 20
2.576568
 30
0.0
 11
29.45253
 21
4.576568
 31
0.0
  0
LINE
  5
E078
  8
ALPHA
 10
30.615015
 20
23.576568
 30
0.0
 11
28.165015
 21
23.576568
 31
0.0
  0
LINE
  5
E079
  8
ALPHA
 10
30.165015
 20
17.976568
 30
0.0
 11
30.990015
 21
17.976568
 31
0.0
  0
LINE
  5
E07A
  8
ALPHA
 10
30.88689
 20
17.785079
 30
0.0
 11
30.165015
 21
17.785079
 31
0.0
  0
LINE
  5
E07B
  8
ALPHA
 10
30.288765
 20
16.406355
 30
0.0
 11
30.990015
 21
16.406355
 31
0.0
  0
LINE
  5
E07C
  8
ALPHA
 10
30.990015
 20
16.176568
 30
0.0
 11
30.165015
 21
16.176568
 31
0.0
  0
LINE
  5
E07D
  8
ALPHA
 10
30.165015
 20
16.482951
 30
0.0
 11
30.88689
 21
17.785079
 31
0.0
  0
LINE
  5
E07E
  8
ALPHA
 10
30.990015
 20
17.708483
 30
0.0
 11
30.288765
 21
16.406355
 31
0.0
  0
POLYLINE
  5
E07F
  8
ALPHA
 66
     1
 10
0.0
 20
0.0
 30
0.0
  0
VERTEX
  5
E408
  8
ALPHA
 10
29.868297
 20
15.882676
 30
0.0
  0
VERTEX
  5
E409
  8
ALPHA
 10
29.821598
 20
16.232397
 30
0.0
  0
VERTEX
  5
E40A
  8
ALPHA
 10
29.793266
 20
16.593299
 30
0.0
  0
VERTEX
  5
E40B
  8
ALPHA
 10
29.783774
 20
16.959709
 30
0.0
  0
SEQEND
  5
E40C
  8
ALPHA
  0
LINE
  5
E080
  8
ALPHA
 10
30.165015
 20
17.785079
 30
0.0
 11
30.165015
 21
17.976568
 31
0.0
  0
LINE
  5
E081
  8
ALPHA
 10
30.165015
 20
16.176568
 30
0.0
 11
30.165015
 21
16.482951
 31
0.0
  0
LINE
  5
E082
  8
ALPHA
 10
29.868297
 20
15.882676
 30
0.0
 11
29.868297
 21
18.276568
 31
0.0
  0
LINE
  5
E083
  8
ALPHA
 10
29.783774
 20
16.959709
 30
0.0
 11
29.783774
 21
18.276568
 31
0.0
  0
LINE
  5
E084
  8
ALPHA
 10
26.615015
 20
22.776568
 30
0.0
 11
26.815015
 21
22.576568
 31
0.0
  0
POLYLINE
  5
E085
  8
ALPHA
 66
     1
 10
0.0
 20
0.0
 30
0.0
  0
VERTEX
  5
E40D
  8
ALPHA
 10
26.815015
 20
22.575715
 30
0.0
  0
VERTEX
  5
E40E
  8
ALPHA
 10
26.827854
 20
22.556454
 30
0.0
  0
VERTEX
  5
E40F
  8
ALPHA
 10
26.85878
 20
22.520746
 30
0.0
  0
VERTEX
  5
E410
  8
ALPHA
 10
26.900285
 20
22.475986
 30
0.0
  0
VERTEX
  5
E411
  8
ALPHA
 10
26.947737
 20
22.426667
 30
0.0
  0
VERTEX
  5
E412
  8
ALPHA
 10
26.997229
 20
22.376568
 30
0.0
  0
SEQEND
  5
E413
  8
ALPHA
  0
LINE
  5
E086
  8
ALPHA
 10
29.665015
 20
23.576568
 30
0.0
 11
29.665015
 21
21.576568
 31
0.0
  0
LINE
  5
E087
  8
ALPHA
 10
32.61939
 20
17.976568
 30
0.0
 11
32.722515
 21
17.93827
 31
0.0
  0
LINE
  5
E088
  8
ALPHA
 10
32.70189
 20
17.746781
 30
0.0
 11
32.640014
 21
17.785079
 31
0.0
  0
LINE
  5
E089
  8
ALPHA
 10
32.722515
 20
17.019121
 30
0.0
 11
32.61939
 21
16.980823
 31
0.0
  0
LINE
  5
E08A
  8
ALPHA
 10
32.640014
 20
17.210611
 30
0.0
 11
32.70189
 21
17.248908
 31
0.0
  0
LINE
  5
E08B
  8
ALPHA
 10
32.124389
 20
17.976568
 30
0.0
 11
32.61939
 21
17.976568
 31
0.0
  0
LINE
  5
E08C
  8
ALPHA
 10
31.485014
 20
17.976568
 30
0.0
 11
31.67064
 21
17.976568
 31
0.0
  0
LINE
  5
E08D
  8
ALPHA
 10
32.640015
 20
17.785079
 30
0.0
 11
32.24814
 21
17.785079
 31
0.0
  0
LINE
  5
E08E
  8
ALPHA
 10
31.67064
 20
17.746781
 30
0.0
 11
31.485015
 21
17.746781
 31
0.0
  0
LINE
  5
E08F
  8
ALPHA
 10
31.95939
 20
17.516993
 30
0.0
 11
31.83564
 21
17.516993
 31
0.0
  0
LINE
  5
E090
  8
ALPHA
 10
32.24814
 20
17.210611
 30
0.0
 11
32.640015
 21
17.210611
 31
0.0
  0
LINE
  5
E091
  8
ALPHA
 10
32.61939
 20
16.980823
 30
0.0
 11
32.24814
 21
16.980823
 31
0.0
  0
LINE
  5
E092
  8
ALPHA
 10
31.75314
 20
17.708483
 30
0.0
 11
31.67064
 21
17.746781
 31
0.0
  0
LINE
  5
E093
  8
ALPHA
 10
31.67064
 20
17.976568
 30
0.0
 11
31.773765
 21
17.93827
 31
0.0
  0
LINE
  5
E094
  8
ALPHA
 10
31.83564
 20
16.636142
 30
0.0
 11
31.95939
 21
16.636142
 31
0.0
  0
LINE
  5
E095
  8
ALPHA
 10
31.485014
 20
16.406355
 30
0.0
 11
31.67064
 21
16.406355
 31
0.0
  0
LINE
  5
E096
  8
ALPHA
 10
31.67064
 20
16.176568
 30
0.0
 11
31.485015
 21
16.176568
 31
0.0
  0
LINE
  5
E097
  8
ALPHA
 10
32.24814
 20
16.176568
 30
0.0
 11
32.12439
 21
16.176568
 31
0.0
  0
LINE
  5
E098
  8
ALPHA
 10
31.773765
 20
17.93827
 30
0.0
 11
31.856265
 21
17.861674
 31
0.0
  0
LINE
  5
E099
  8
ALPHA
 10
31.402515
 20
16.444653
 30
0.0
 11
31.485015
 21
16.406355
 31
0.0
  0
LINE
  5
E09A
  8
ALPHA
 10
31.485015
 20
16.176568
 30
0.0
 11
31.38189
 21
16.214866
 31
0.0
  0
LINE
  5
E09B
  8
ALPHA
 10
31.815015
 20
17.631887
 30
0.0
 11
31.75314
 21
17.708483
 31
0.0
  0
LINE
  5
E09C
  8
ALPHA
 10
31.856265
 20
17.861674
 30
0.0
 11
31.938765
 21
17.708483
 31
0.0
  0
LINE
  5
E09D
  8
ALPHA
 10
31.34064
 20
16.521249
 30
0.0
 11
31.402515
 21
16.444653
 31
0.0
  0
LINE
  5
E09E
  8
ALPHA
 10
31.38189
 20
16.214866
 30
0.0
 11
31.29939
 21
16.291462
 31
0.0
  0
LINE
  5
E09F
  8
ALPHA
 10
31.29939
 20
16.291462
 30
0.0
 11
31.21689
 21
16.444653
 31
0.0
  0
LINE
  5
E0A0
  8
ALPHA
 10
31.83564
 20
17.516993
 30
0.0
 11
31.815015
 21
17.631887
 31
0.0
  0
LINE
  5
E0A1
  8
ALPHA
 10
31.21689
 20
16.444653
 30
0.0
 11
31.175639
 21
16.597844
 31
0.0
  0
LINE
  5
E0A2
  8
ALPHA
 10
31.29939
 20
16.636142
 30
0.0
 11
31.34064
 21
16.521249
 31
0.0
  0
LINE
  5
E0A3
  8
ALPHA
 10
31.938765
 20
17.708483
 30
0.0
 11
31.95939
 21
17.516993
 31
0.0
  0
LINE
  5
E0A4
  8
ALPHA
 10
31.278765
 20
16.789334
 30
0.0
 11
31.29939
 21
16.636142
 31
0.0
  0
LINE
  5
E0A5
  8
ALPHA
 10
31.95939
 20
16.636142
 30
0.0
 11
31.938765
 21
16.444653
 31
0.0
  0
LINE
  5
E0A6
  8
ALPHA
 10
32.24814
 20
16.980823
 30
0.0
 11
32.24814
 21
16.176568
 31
0.0
  0
LINE
  5
E0A7
  8
ALPHA
 10
32.24814
 20
17.785079
 30
0.0
 11
32.24814
 21
17.210611
 31
0.0
  0
LINE
  5
E0A8
  8
ALPHA
 10
32.124389
 20
16.176568
 30
0.0
 11
32.124389
 21
17.976568
 31
0.0
  0
LINE
  5
E0A9
  8
ALPHA
 10
31.278765
 20
17.363802
 30
0.0
 11
31.278765
 21
16.789334
 31
0.0
  0
LINE
  5
E0AA
  8
ALPHA
 10
31.155015
 20
16.789334
 30
0.0
 11
31.155015
 21
17.363802
 31
0.0
  0
LINE
  5
E0AB
  8
ALPHA
 10
31.175639
 20
16.597844
 30
0.0
 11
31.155015
 21
16.789334
 31
0.0
  0
LINE
  5
E0AC
  8
ALPHA
 10
31.938765
 20
16.444653
 30
0.0
 11
31.856265
 21
16.291462
 31
0.0
  0
LINE
  5
E0AD
  8
ALPHA
 10
31.815015
 20
16.521249
 30
0.0
 11
31.83564
 21
16.636142
 31
0.0
  0
LINE
  5
E0AE
  8
ALPHA
 10
31.29939
 20
17.516993
 30
0.0
 11
31.278765
 21
17.363802
 31
0.0
  0
LINE
  5
E0AF
  8
ALPHA
 10
31.155015
 20
17.363802
 30
0.0
 11
31.175639
 21
17.555291
 31
0.0
  0
LINE
  5
E0B0
  8
ALPHA
 10
30.990015
 20
16.406355
 30
0.0
 11
30.990015
 21
16.176568
 31
0.0
  0
LINE
  5
E0B1
  8
ALPHA
 10
30.990015
 20
17.976568
 30
0.0
 11
30.990015
 21
17.708483
 31
0.0
  0
LINE
  5
E0B2
  8
ALPHA
 10
31.773765
 20
16.214866
 30
0.0
 11
31.67064
 21
16.176568
 31
0.0
  0
LINE
  5
E0B3
  8
ALPHA
 10
31.67064
 20
16.406355
 30
0.0
 11
31.75314
 21
16.444653
 31
0.0
  0
LINE
  5
E0B4
  8
ALPHA
 10
31.856265
 20
16.291462
 30
0.0
 11
31.773765
 21
16.214866
 31
0.0
  0
LINE
  5
E0B5
  8
ALPHA
 10
31.75314
 20
16.444653
 30
0.0
 11
31.815015
 21
16.521249
 31
0.0
  0
LINE
  5
E0B6
  8
ALPHA
 10
31.21689
 20
17.708483
 30
0.0
 11
31.29939
 21
17.861674
 31
0.0
  0
LINE
  5
E0B7
  8
ALPHA
 10
31.34064
 20
17.631887
 30
0.0
 11
31.29939
 21
17.516993
 31
0.0
  0
LINE
  5
E0B8
  8
ALPHA
 10
31.175639
 20
17.555291
 30
0.0
 11
31.21689
 21
17.708483
 31
0.0
  0
LINE
  5
E0B9
  8
ALPHA
 10
31.38189
 20
17.93827
 30
0.0
 11
31.485015
 21
17.976568
 31
0.0
  0
LINE
  5
E0BA
  8
ALPHA
 10
31.485015
 20
17.746781
 30
0.0
 11
31.402515
 21
17.708483
 31
0.0
  0
LINE
  5
E0BB
  8
ALPHA
 10
31.29939
 20
17.861674
 30
0.0
 11
31.38189
 21
17.93827
 31
0.0
  0
LINE
  5
E0BC
  8
ALPHA
 10
31.402515
 20
17.708483
 30
0.0
 11
31.34064
 21
17.631887
 31
0.0
  0
LINE
  5
E0BD
  8
ALPHA
 10
33.052515
 20
17.976568
 30
0.0
 11
33.795015
 21
17.976568
 31
0.0
  0
LINE
  5
E0BE
  8
ALPHA
 10
33.795015
 20
17.746781
 30
0.0
 11
33.176265
 21
17.746781
 31
0.0
  0
LINE
  5
E0BF
  8
ALPHA
 10
33.176265
 20
17.248908
 30
0.0
 11
33.712515
 21
17.248908
 31
0.0
  0
LINE
  5
E0C0
  8
ALPHA
 10
33.712515
 20
17.019121
 30
0.0
 11
33.176265
 21
17.019121
 31
0.0
  0
LINE
  5
E0C1
  8
ALPHA
 10
33.176265
 20
16.406355
 30
0.0
 11
33.795015
 21
16.406355
 31
0.0
  0
LINE
  5
E0C2
  8
ALPHA
 10
33.795015
 20
16.176568
 30
0.0
 11
33.052515
 21
16.176568
 31
0.0
  0
LINE
  5
E0C3
  8
ALPHA
 10
32.722515
 20
17.93827
 30
0.0
 11
32.805015
 21
17.823376
 31
0.0
  0
LINE
  5
E0C4
  8
ALPHA
 10
32.805015
 20
17.823376
 30
0.0
 11
32.86689
 21
17.670185
 31
0.0
  0
LINE
  5
E0C5
  8
ALPHA
 10
32.74314
 20
17.670185
 30
0.0
 11
32.70189
 21
17.746781
 31
0.0
  0
LINE
  5
E0C6
  8
ALPHA
 10
32.86689
 20
17.670185
 30
0.0
 11
32.887515
 21
17.555291
 31
0.0
  0
LINE
  5
E0C7
  8
ALPHA
 10
32.763765
 20
17.555291
 30
0.0
 11
32.74314
 21
17.670185
 31
0.0
  0
LINE
  5
E0C8
  8
ALPHA
 10
33.795015
 20
16.406355
 30
0.0
 11
33.795015
 21
16.176568
 31
0.0
  0
LINE
  5
E0C9
  8
ALPHA
 10
33.795015
 20
17.976568
 30
0.0
 11
33.795015
 21
17.746781
 31
0.0
  0
LINE
  5
E0CA
  8
ALPHA
 10
33.712515
 20
17.248908
 30
0.0
 11
33.712515
 21
17.019121
 31
0.0
  0
LINE
  5
E0CB
  8
ALPHA
 10
33.176265
 20
17.019121
 30
0.0
 11
33.176265
 21
16.406355
 31
0.0
  0
LINE
  5
E0CC
  8
ALPHA
 10
33.176265
 20
17.746781
 30
0.0
 11
33.176265
 21
17.248908
 31
0.0
  0
LINE
  5
E0CD
  8
ALPHA
 10
33.052515
 20
16.176568
 30
0.0
 11
33.052515
 21
17.976568
 31
0.0
  0
LINE
  5
E0CE
  8
ALPHA
 10
32.887515
 20
17.555291
 30
0.0
 11
32.887515
 21
17.4021
 31
0.0
  0
LINE
  5
E0CF
  8
ALPHA
 10
32.763765
 20
17.440398
 30
0.0
 11
32.763765
 21
17.555291
 31
0.0
  0
LINE
  5
E0D0
  8
ALPHA
 10
32.887515
 20
17.4021
 30
0.0
 11
32.86689
 21
17.287206
 31
0.0
  0
LINE
  5
E0D1
  8
ALPHA
 10
32.74314
 20
17.325504
 30
0.0
 11
32.763765
 21
17.440398
 31
0.0
  0
LINE
  5
E0D2
  8
ALPHA
 10
32.805015
 20
17.134015
 30
0.0
 11
32.722515
 21
17.019121
 31
0.0
  0
LINE
  5
E0D3
  8
ALPHA
 10
32.70189
 20
17.248908
 30
0.0
 11
32.74314
 21
17.325504
 31
0.0
  0
LINE
  5
E0D4
  8
ALPHA
 10
32.86689
 20
17.287206
 30
0.0
 11
32.805015
 21
17.134015
 31
0.0
  0
LINE
  5
E0D5
  8
ALPHA
 10
30.615015
 20
22.048413
 30
0.0
 11
33.538025
 21
22.048413
 31
0.0
  0
LINE
  5
E0D6
  8
ALPHA
 10
30.615015
 20
21.766506
 30
0.0
 11
33.710731
 21
21.766506
 31
0.0
  0
ARC
  5
E0D7
  8
ALPHA
 10
32.465015
 20
21.376568
 30
0.0
 40
0.3
 50
180.0
 51
270.0
  0
POLYLINE
  5
E0D8
  8
ALPHA
 66
     1
 10
0.0
 20
0.0
 30
0.0
  0
VERTEX
  5
E414
  8
ALPHA
 10
32.465015
 20
21.076568
 30
0.0
  0
VERTEX
  5
E415
  8
ALPHA
 10
32.447023
 20
21.091024
 30
0.0
  0
VERTEX
  5
E416
  8
ALPHA
 10
32.430625
 20
21.133516
 30
0.0
  0
VERTEX
  5
E417
  8
ALPHA
 10
32.417604
 20
21.199871
 30
0.0
  0
VERTEX
  5
E418
  8
ALPHA
 10
32.409233
 20
21.283651
 30
0.0
  0
VERTEX
  5
E419
  8
ALPHA
 10
32.406348
 20
21.376568
 30
0.0
  0
SEQEND
  5
E41A
  8
ALPHA
  0
LINE
  5
E0D9
  8
ALPHA
 10
32.406348
 20
21.376568
 30
0.0
 11
32.406348
 21
21.576568
 31
0.0
  0
LINE
  5
E0DA
  8
ALPHA
 10
32.165015
 20
21.376568
 30
0.0
 11
32.165015
 21
21.576568
 31
0.0
  0
LINE
  5
E0DB
  8
ALPHA
 10
30.615015
 20
21.766506
 30
0.0
 11
30.615015
 21
23.576568
 31
0.0
  0
POLYLINE
  5
E0DC
  8
ALPHA
 66
     1
 10
0.0
 20
0.0
 30
0.0
  0
VERTEX
  5
E41B
  8
ALPHA
 10
33.538025
 20
22.048413
 30
0.0
  0
VERTEX
  5
E41C
  8
ALPHA
 10
33.608257
 20
22.02961
 30
0.0
  0
VERTEX
  5
E41D
  8
ALPHA
 10
33.668956
 20
21.987849
 30
0.0
  0
VERTEX
  5
E41E
  8
ALPHA
 10
33.711883
 20
21.928799
 30
0.0
  0
VERTEX
  5
E41F
  8
ALPHA
 10
33.731211
 20
21.860475
 30
0.0
  0
SEQEND
  5
E420
  8
ALPHA
  0
POLYLINE
  5
E0DD
  8
ALPHA
 66
     1
 10
0.0
 20
0.0
 30
0.0
  0
VERTEX
  5
E421
  8
ALPHA
 10
33.761549
 20
21.576568
 30
0.0
  0
VERTEX
  5
E422
  8
ALPHA
 10
33.803751
 20
21.584279
 30
0.0
  0
VERTEX
  5
E423
  8
ALPHA
 10
33.84447
 20
21.608277
 30
0.0
  0
VERTEX
  5
E424
  8
ALPHA
 10
33.879774
 20
21.649048
 30
0.0
  0
VERTEX
  5
E425
  8
ALPHA
 10
33.90515
 20
21.706019
 30
0.0
  0
VERTEX
  5
E426
  8
ALPHA
 10
33.915015
 20
21.776568
 30
0.0
  0
SEQEND
  5
E427
  8
ALPHA
  0
POLYLINE
  5
E0DE
  8
ALPHA
 66
     1
 10
0.0
 20
0.0
 30
0.0
  0
VERTEX
  5
E428
  8
ALPHA
 10
33.520395
 20
21.583383
 30
0.0
  0
VERTEX
  5
E429
  8
ALPHA
 10
33.502778
 20
21.579609
 30
0.0
  0
VERTEX
  5
E42A
  8
ALPHA
 10
33.484866
 20
21.57733
 30
0.0
  0
VERTEX
  5
E42B
  8
ALPHA
 10
33.466805
 20
21.576568
 30
0.0
  0
SEQEND
  5
E42C
  8
ALPHA
  0
POLYLINE
  5
E0DF
  8
ALPHA
 66
     1
 10
0.0
 20
0.0
 30
0.0
  0
VERTEX
  5
E42D
  8
ALPHA
 10
33.908033
 20
22.1641
 30
0.0
  0
VERTEX
  5
E42E
  8
ALPHA
 10
33.882196
 20
22.230169
 30
0.0
  0
VERTEX
  5
E42F
  8
ALPHA
 10
33.846368
 20
22.284563
 30
0.0
  0
VERTEX
  5
E430
  8
ALPHA
 10
33.805012
 20
22.325514
 30
0.0
  0
VERTEX
  5
E431
  8
ALPHA
 10
33.761549
 20
22.352038
 30
0.0
  0
SEQEND
  5
E432
  8
ALPHA
  0
POLYLINE
  5
E0E0
  8
ALPHA
 66
     1
 10
0.0
 20
0.0
 30
0.0
  0
VERTEX
  5
E433
  8
ALPHA
 10
33.908033
 20
22.1641
 30
0.0
  0
VERTEX
  5
E434
  8
ALPHA
 10
33.911871
 20
22.146663
 30
0.0
  0
VERTEX
  5
E435
  8
ALPHA
 10
33.914219
 20
22.128637
 30
0.0
  0
VERTEX
  5
E436
  8
ALPHA
 10
33.915015
 20
22.110146
 30
0.0
  0
SEQEND
  5
E437
  8
ALPHA
  0
LINE
  5
E0E1
  8
ALPHA
 10
33.915015
 20
21.776568
 30
0.0
 11
33.915015
 21
22.110146
 31
0.0
  0
POLYLINE
  5
E0E2
  8
ALPHA
 66
     1
 10
0.0
 20
0.0
 30
0.0
  0
VERTEX
  5
E438
  8
ALPHA
 10
33.713716
 20
21.776568
 30
0.0
  0
VERTEX
  5
E439
  8
ALPHA
 10
33.714836
 20
21.796759
 30
0.0
  0
VERTEX
  5
E43A
  8
ALPHA
 10
33.717289
 20
21.817266
 30
0.0
  0
VERTEX
  5
E43B
  8
ALPHA
 10
33.721064
 20
21.835831
 30
0.0
  0
VERTEX
  5
E43C
  8
ALPHA
 10
33.725867
 20
21.850578
 30
0.0
  0
VERTEX
  5
E43D
  8
ALPHA
 10
33.731211
 20
21.860475
 30
0.0
  0
SEQEND
  5
E43E
  8
ALPHA
  0
POLYLINE
  5
E0E3
  8
ALPHA
 66
     1
 10
0.0
 20
0.0
 30
0.0
  0
VERTEX
  5
E43F
  8
ALPHA
 10
33.520395
 20
21.766506
 30
0.0
  0
VERTEX
  5
E440
  8
ALPHA
 10
33.521028
 20
21.831364
 30
0.0
  0
VERTEX
  5
E441
  8
ALPHA
 10
33.523189
 20
21.899935
 30
0.0
  0
VERTEX
  5
E442
  8
ALPHA
 10
33.527001
 20
21.963775
 30
0.0
  0
VERTEX
  5
E443
  8
ALPHA
 10
33.532159
 20
22.01484
 30
0.0
  0
VERTEX
  5
E444
  8
ALPHA
 10
33.538025
 20
22.048413
 30
0.0
  0
SEQEND
  5
E445
  8
ALPHA
  0
LINE
  5
E0E4
  8
ALPHA
 10
33.520395
 20
21.583383
 30
0.0
 11
33.520395
 21
21.766506
 31
0.0
  0
POLYLINE
  5
E0E5
  8
ALPHA
 66
     1
 10
0.0
 20
0.0
 30
0.0
  0
VERTEX
  5
E446
  8
ALPHA
 10
33.710731
 20
21.766506
 30
0.0
  0
VERTEX
  5
E447
  8
ALPHA
 10
33.700323
 20
21.738785
 30
0.0
  0
VERTEX
  5
E448
  8
ALPHA
 10
33.686282
 20
21.71159
 30
0.0
  0
VERTEX
  5
E449
  8
ALPHA
 10
33.668539
 20
21.685126
 30
0.0
  0
VERTEX
  5
E44A
  8
ALPHA
 10
33.646946
 20
21.659729
 30
0.0
  0
VERTEX
  5
E44B
  8
ALPHA
 10
33.621243
 20
21.635841
 30
0.0
  0
VERTEX
  5
E44C
  8
ALPHA
 10
33.591409
 20
21.614351
 30
0.0
  0
VERTEX
  5
E44D
  8
ALPHA
 10
33.557475
 20
21.596329
 30
0.0
  0
VERTEX
  5
E44E
  8
ALPHA
 10
33.520395
 20
21.583383
 30
0.0
  0
SEQEND
  5
E44F
  8
ALPHA
  0
LINE
  5
E0E6
  8
ALPHA
 10
33.710731
 20
21.766506
 30
0.0
 11
33.713716
 21
21.776568
 31
0.0
  0
LINE
  5
E0E7
  8
ALPHA
 10
33.731211
 20
21.860475
 30
0.0
 11
33.915015
 21
22.110146
 31
0.0
  0
LINE
  5
E0E8
  8
ALPHA
 10
33.538025
 20
22.048413
 30
0.0
 11
33.761549
 21
22.352038
 31
0.0
  0
LINE
  5
E0E9
  8
ALPHA
 10
39.8775
 20
2.576568
 30
0.0
 11
39.8775
 21
4.576568
 31
0.0
  0
LINE
  5
E0EA
  8
ALPHA
 10
39.644974
 20
4.576568
 30
0.0
 11
39.644974
 21
7.376568
 31
0.0
  0
LINE
  5
E0EB
  8
ALPHA
 10
41.165015
 20
23.576568
 30
0.0
 11
38.715015
 21
23.576568
 31
0.0
  0
LINE
  5
E0EC
  8
ALPHA
 10
39.075014
 20
16.176568
 30
0.0
 11
38.786265
 21
16.904227
 31
0.0
  0
LINE
  5
E0ED
  8
ALPHA
 10
38.786265
 20
17.248908
 30
0.0
 11
39.075014
 21
17.976568
 31
0.0
  0
LINE
  5
E0EE
  8
ALPHA
 10
36.517515
 20
17.976568
 30
0.0
 11
36.806264
 21
17.248908
 31
0.0
  0
LINE
  5
E0EF
  8
ALPHA
 10
36.806264
 20
16.904227
 30
0.0
 11
36.517515
 21
16.176568
 31
0.0
  0
LINE
  5
E0F0
  8
ALPHA
 10
36.393765
 20
17.976568
 30
0.0
 11
36.517515
 21
17.976568
 31
0.0
  0
LINE
  5
E0F1
  8
ALPHA
 10
34.950015
 20
17.019121
 30
0.0
 11
35.238765
 21
17.019121
 31
0.0
  0
LINE
  5
E0F2
  8
ALPHA
 10
35.238765
 20
16.827632
 30
0.0
 11
34.950015
 21
16.827632
 31
0.0
  0
LINE
  5
E0F3
  8
ALPHA
 10
36.74439
 20
17.095717
 30
0.0
 11
36.393765
 21
17.976568
 31
0.0
  0
LINE
  5
E0F4
  8
ALPHA
 10
36.517515
 20
16.176568
 30
0.0
 11
36.393765
 21
16.176568
 31
0.0
  0
LINE
  5
E0F5
  8
ALPHA
 10
35.238765
 20
17.019121
 30
0.0
 11
35.238765
 21
16.827632
 31
0.0
  0
LINE
  5
E0F6
  8
ALPHA
 10
34.950015
 20
16.827632
 30
0.0
 11
34.950015
 21
17.019121
 31
0.0
  0
LINE
  5
E0F7
  8
ALPHA
 10
36.393765
 20
16.176568
 30
0.0
 11
36.74439
 21
17.095717
 31
0.0
  0
LINE
  5
E0F8
  8
ALPHA
 10
38.497515
 20
17.976568
 30
0.0
 11
38.786265
 21
17.248908
 31
0.0
  0
LINE
  5
E0F9
  8
ALPHA
 10
38.724389
 20
17.095717
 30
0.0
 11
38.373765
 21
17.976568
 31
0.0
  0
LINE
  5
E0FA
  8
ALPHA
 10
38.373765
 20
17.976568
 30
0.0
 11
38.497515
 21
17.976568
 31
0.0
  0
LINE
  5
E0FB
  8
ALPHA
 10
38.085015
 20
17.976568
 30
0.0
 11
38.208765
 21
17.976568
 31
0.0
  0
LINE
  5
E0FC
  8
ALPHA
 10
37.383765
 20
17.976568
 30
0.0
 11
37.507515
 21
17.976568
 31
0.0
  0
LINE
  5
E0FD
  8
ALPHA
 10
37.095015
 20
17.976568
 30
0.0
 11
37.218765
 21
17.976568
 31
0.0
  0
LINE
  5
E0FE
  8
ALPHA
 10
37.85814
 20
17.095717
 30
0.0
 11
38.208765
 21
16.176568
 31
0.0
  0
LINE
  5
E0FF
  8
ALPHA
 10
36.86814
 20
17.095717
 30
0.0
 11
37.218765
 21
16.176568
 31
0.0
  0
LINE
  5
E100
  8
ALPHA
 10
37.507515
 20
17.976568
 30
0.0
 11
37.796264
 21
17.248908
 31
0.0
  0
LINE
  5
E101
  8
ALPHA
 10
38.085015
 20
16.176568
 30
0.0
 11
37.796264
 21
16.904227
 31
0.0
  0
LINE
  5
E102
  8
ALPHA
 10
37.095015
 20
16.176568
 30
0.0
 11
36.806264
 21
16.904227
 31
0.0
  0
LINE
  5
E103
  8
ALPHA
 10
37.73439
 20
17.095717
 30
0.0
 11
37.383765
 21
17.976568
 31
0.0
  0
LINE
  5
E104
  8
ALPHA
 10
37.218765
 20
16.176568
 30
0.0
 11
37.095015
 21
16.176568
 31
0.0
  0
LINE
  5
E105
  8
ALPHA
 10
37.507515
 20
16.176568
 30
0.0
 11
37.383765
 21
16.176568
 31
0.0
  0
LINE
  5
E106
  8
ALPHA
 10
38.208765
 20
16.176568
 30
0.0
 11
38.085015
 21
16.176568
 31
0.0
  0
LINE
  5
E107
  8
ALPHA
 10
38.497515
 20
16.176568
 30
0.0
 11
38.373765
 21
16.176568
 31
0.0
  0
LINE
  5
E108
  8
ALPHA
 10
38.786265
 20
16.904227
 30
0.0
 11
38.497515
 21
16.176568
 31
0.0
  0
LINE
  5
E109
  8
ALPHA
 10
38.373765
 20
16.176568
 30
0.0
 11
38.724389
 21
17.095717
 31
0.0
  0
LINE
  5
E10A
  8
ALPHA
 10
38.208765
 20
17.976568
 30
0.0
 11
37.85814
 21
17.095717
 31
0.0
  0
LINE
  5
E10B
  8
ALPHA
 10
37.796264
 20
16.904227
 30
0.0
 11
37.507515
 21
16.176568
 31
0.0
  0
LINE
  5
E10C
  8
ALPHA
 10
37.796264
 20
17.248908
 30
0.0
 11
38.085015
 21
17.976568
 31
0.0
  0
LINE
  5
E10D
  8
ALPHA
 10
37.383765
 20
16.176568
 30
0.0
 11
37.73439
 21
17.095717
 31
0.0
  0
LINE
  5
E10E
  8
ALPHA
 10
37.218765
 20
17.976568
 30
0.0
 11
36.86814
 21
17.095717
 31
0.0
  0
LINE
  5
E10F
  8
ALPHA
 10
36.806264
 20
17.248908
 30
0.0
 11
37.095015
 21
17.976568
 31
0.0
  0
LINE
  5
E110
  8
ALPHA
 10
35.792004
 20
22.048413
 30
0.0
 11
38.715015
 21
22.048413
 31
0.0
  0
LINE
  5
E111
  8
ALPHA
 10
35.619298
 20
21.766506
 30
0.0
 11
38.715015
 21
21.766506
 31
0.0
  0
POLYLINE
  5
E112
  8
ALPHA
 66
     1
 10
0.0
 20
0.0
 30
0.0
  0
VERTEX
  5
E450
  8
ALPHA
 10
35.809634
 20
21.583383
 30
0.0
  0
VERTEX
  5
E451
  8
ALPHA
 10
35.827251
 20
21.579609
 30
0.0
  0
VERTEX
  5
E452
  8
ALPHA
 10
35.845163
 20
21.57733
 30
0.0
  0
VERTEX
  5
E453
  8
ALPHA
 10
35.863224
 20
21.576568
 30
0.0
  0
SEQEND
  5
E454
  8
ALPHA
  0
POLYLINE
  5
E113
  8
ALPHA
 66
     1
 10
0.0
 20
0.0
 30
0.0
  0
VERTEX
  5
E455
  8
ALPHA
 10
35.56848
 20
21.576568
 30
0.0
  0
VERTEX
  5
E456
  8
ALPHA
 10
35.526278
 20
21.584279
 30
0.0
  0
VERTEX
  5
E457
  8
ALPHA
 10
35.485559
 20
21.608277
 30
0.0
  0
VERTEX
  5
E458
  8
ALPHA
 10
35.450255
 20
21.649048
 30
0.0
  0
VERTEX
  5
E459
  8
ALPHA
 10
35.424879
 20
21.706019
 30
0.0
  0
VERTEX
  5
E45A
  8
ALPHA
 10
35.415015
 20
21.776568
 30
0.0
  0
SEQEND
  5
E45B
  8
ALPHA
  0
POLYLINE
  5
E114
  8
ALPHA
 66
     1
 10
0.0
 20
0.0
 30
0.0
  0
VERTEX
  5
E45C
  8
ALPHA
 10
35.792004
 20
22.048413
 30
0.0
  0
VERTEX
  5
E45D
  8
ALPHA
 10
35.721772
 20
22.02961
 30
0.0
  0
VERTEX
  5
E45E
  8
ALPHA
 10
35.661073
 20
21.987849
 30
0.0
  0
VERTEX
  5
E45F
  8
ALPHA
 10
35.618147
 20
21.928799
 30
0.0
  0
VERTEX
  5
E460
  8
ALPHA
 10
35.598819
 20
21.860475
 30
0.0
  0
SEQEND
  5
E461
  8
ALPHA
  0
LINE
  5
E115
  8
ALPHA
 10
35.56848
 20
22.352038
 30
0.0
 11
35.792004
 21
22.048413
 31
0.0
  0
LINE
  5
E116
  8
ALPHA
 10
35.415015
 20
22.110146
 30
0.0
 11
35.598819
 21
21.860475
 31
0.0
  0
POLYLINE
  5
E117
  8
ALPHA
 66
     1
 10
0.0
 20
0.0
 30
0.0
  0
VERTEX
  5
E462
  8
ALPHA
 10
35.598819
 20
21.860475
 30
0.0
  0
VERTEX
  5
E463
  8
ALPHA
 10
35.60416
 20
21.850586
 30
0.0
  0
VERTEX
  5
E464
  8
ALPHA
 10
35.608958
 20
21.835856
 30
0.0
  0
VERTEX
  5
E465
  8
ALPHA
 10
35.612734
 20
21.817307
 30
0.0
  0
VERTEX
  5
E466
  8
ALPHA
 10
35.61519
 20
21.796797
 30
0.0
  0
VERTEX
  5
E467
  8
ALPHA
 10
35.616313
 20
21.776568
 30
0.0
  0
SEQEND
  5
E468
  8
ALPHA
  0
POLYLINE
  5
E118
  8
ALPHA
 66
     1
 10
0.0
 20
0.0
 30
0.0
  0
VERTEX
  5
E469
  8
ALPHA
 10
35.619298
 20
21.766506
 30
0.0
  0
VERTEX
  5
E46A
  8
ALPHA
 10
35.629707
 20
21.738785
 30
0.0
  0
VERTEX
  5
E46B
  8
ALPHA
 10
35.643747
 20
21.71159
 30
0.0
  0
VERTEX
  5
E46C
  8
ALPHA
 10
35.66149
 20
21.685126
 30
0.0
  0
VERTEX
  5
E46D
  8
ALPHA
 10
35.683083
 20
21.659729
 30
0.0
  0
VERTEX
  5
E46E
  8
ALPHA
 10
35.708786
 20
21.635841
 30
0.0
  0
VERTEX
  5
E46F
  8
ALPHA
 10
35.73862
 20
21.614351
 30
0.0
  0
VERTEX
  5
E470
  8
ALPHA
 10
35.772554
 20
21.596329
 30
0.0
  0
VERTEX
  5
E471
  8
ALPHA
 10
35.809634
 20
21.583383
 30
0.0
  0
SEQEND
  5
E472
  8
ALPHA
  0
POLYLINE
  5
E119
  8
ALPHA
 66
     1
 10
0.0
 20
0.0
 30
0.0
  0
VERTEX
  5
E473
  8
ALPHA
 10
35.792004
 20
22.048413
 30
0.0
  0
VERTEX
  5
E474
  8
ALPHA
 10
35.797865
 20
22.01488
 30
0.0
  0
VERTEX
  5
E475
  8
ALPHA
 10
35.803018
 20
21.963899
 30
0.0
  0
VERTEX
  5
E476
  8
ALPHA
 10
35.806831
 20
21.900133
 30
0.0
  0
VERTEX
  5
E477
  8
ALPHA
 10
35.808998
 20
21.831545
 30
0.0
  0
VERTEX
  5
E478
  8
ALPHA
 10
35.809634
 20
21.766506
 30
0.0
  0
SEQEND
  5
E479
  8
ALPHA
  0
LINE
  5
E11A
  8
ALPHA
 10
35.619298
 20
21.766506
 30
0.0
 11
35.616313
 21
21.776568
 31
0.0
  0
LINE
  5
E11B
  8
ALPHA
 10
35.809634
 20
21.766506
 30
0.0
 11
35.809634
 21
21.583383
 31
0.0
  0
LINE
  5
E11C
  8
ALPHA
 10
35.415015
 20
21.776568
 30
0.0
 11
35.415015
 21
22.110146
 31
0.0
  0
POLYLINE
  5
E11D
  8
ALPHA
 66
     1
 10
0.0
 20
0.0
 30
0.0
  0
VERTEX
  5
E47A
  8
ALPHA
 10
35.421997
 20
22.1641
 30
0.0
  0
VERTEX
  5
E47B
  8
ALPHA
 10
35.418158
 20
22.146663
 30
0.0
  0
VERTEX
  5
E47C
  8
ALPHA
 10
35.41581
 20
22.128637
 30
0.0
  0
VERTEX
  5
E47D
  8
ALPHA
 10
35.415015
 20
22.110146
 30
0.0
  0
SEQEND
  5
E47E
  8
ALPHA
  0
POLYLINE
  5
E11E
  8
ALPHA
 66
     1
 10
0.0
 20
0.0
 30
0.0
  0
VERTEX
  5
E47F
  8
ALPHA
 10
35.421997
 20
22.1641
 30
0.0
  0
VERTEX
  5
E480
  8
ALPHA
 10
35.447833
 20
22.230169
 30
0.0
  0
VERTEX
  5
E481
  8
ALPHA
 10
35.483661
 20
22.284563
 30
0.0
  0
VERTEX
  5
E482
  8
ALPHA
 10
35.525018
 20
22.325514
 30
0.0
  0
VERTEX
  5
E483
  8
ALPHA
 10
35.56848
 20
22.352038
 30
0.0
  0
SEQEND
  5
E484
  8
ALPHA
  0
ARC
  5
E11F
  8
ALPHA
 10
36.865015
 20
21.376568
 30
0.0
 40
0.3
 50
270.0
 51
0.0
  0
LINE
  5
E120
  8
ALPHA
 10
38.715015
 20
23.576568
 30
0.0
 11
38.715015
 21
21.766506
 31
0.0
  0
LINE
  5
E121
  8
ALPHA
 10
37.165015
 20
21.376568
 30
0.0
 11
37.165015
 21
21.576568
 31
0.0
  0
LINE
  5
E122
  8
ALPHA
 10
36.923681
 20
21.376568
 30
0.0
 11
36.923681
 21
21.576568
 31
0.0
  0
POLYLINE
  5
E123
  8
ALPHA
 66
     1
 10
0.0
 20
0.0
 30
0.0
  0
VERTEX
  5
E485
  8
ALPHA
 10
36.865015
 20
21.076568
 30
0.0
  0
VERTEX
  5
E486
  8
ALPHA
 10
36.883144
 20
21.091251
 30
0.0
  0
VERTEX
  5
E487
  8
ALPHA
 10
36.899498
 20
21.133863
 30
0.0
  0
VERTEX
  5
E488
  8
ALPHA
 10
36.912477
 20
21.200232
 30
0.0
  0
VERTEX
  5
E489
  8
ALPHA
 10
36.92081
 20
21.283863
 30
0.0
  0
VERTEX
  5
E48A
  8
ALPHA
 10
36.923681
 20
21.376568
 30
0.0
  0
SEQEND
  5
E48B
  8
ALPHA
  0
LINE
  5
E124
  8
ALPHA
 10
38.84814
 20
17.095717
 30
0.0
 11
39.198765
 21
16.176568
 31
0.0
  0
LINE
  5
E125
  8
ALPHA
 10
39.075014
 20
17.976568
 30
0.0
 11
39.198765
 21
17.976568
 31
0.0
  0
LINE
  5
E126
  8
ALPHA
 10
39.198765
 20
16.176568
 30
0.0
 11
39.075014
 21
16.176568
 31
0.0
  0
POLYLINE
  5
E127
  8
ALPHA
 66
     1
 10
0.0
 20
0.0
 30
0.0
  0
VERTEX
  5
E48C
  8
ALPHA
 10
39.461732
 20
15.882676
 30
0.0
  0
VERTEX
  5
E48D
  8
ALPHA
 10
39.508432
 20
16.232397
 30
0.0
  0
VERTEX
  5
E48E
  8
ALPHA
 10
39.536763
 20
16.593299
 30
0.0
  0
VERTEX
  5
E48F
  8
ALPHA
 10
39.546256
 20
16.959709
 30
0.0
  0
SEQEND
  5
E490
  8
ALPHA
  0
LINE
  5
E128
  8
ALPHA
 10
39.546256
 20
16.959709
 30
0.0
 11
39.546256
 21
18.276568
 31
0.0
  0
LINE
  5
E129
  8
ALPHA
 10
39.461732
 20
15.882676
 30
0.0
 11
39.461732
 21
18.276568
 31
0.0
  0
LINE
  5
E12A
  8
ALPHA
 10
39.198765
 20
17.976568
 30
0.0
 11
38.84814
 21
17.095717
 31
0.0
  0
LINE
  5
E12B
  8
ALPHA
 10
39.665015
 20
23.576568
 30
0.0
 11
39.665015
 21
21.576568
 31
0.0
  0
POLYLINE
  5
E12C
  8
ALPHA
 66
     1
 10
0.0
 20
0.0
 30
0.0
  0
VERTEX
  5
E491
  8
ALPHA
 10
42.515015
 20
22.575715
 30
0.0
  0
VERTEX
  5
E492
  8
ALPHA
 10
42.502175
 20
22.556454
 30
0.0
  0
VERTEX
  5
E493
  8
ALPHA
 10
42.471249
 20
22.520746
 30
0.0
  0
VERTEX
  5
E494
  8
ALPHA
 10
42.429744
 20
22.475986
 30
0.0
  0
VERTEX
  5
E495
  8
ALPHA
 10
42.382292
 20
22.426667
 30
0.0
  0
VERTEX
  5
E496
  8
ALPHA
 10
42.3328
 20
22.376568
 30
0.0
  0
SEQEND
  5
E497
  8
ALPHA
  0
LINE
  5
E12D
  8
ALPHA
 10
42.715015
 20
22.776568
 30
0.0
 11
42.515015
 21
22.576568
 31
0.0
  0
LINE
  5
E12E
  8
ALPHA
 10
46.565015
 20
1.226568
 30
0.0
 11
46.565015
 21
8.376568
 31
0.0
  0
LINE
  5
E131
  8
ALPHA
 10
46.565015
 20
1.226568
 30
0.0
 11
47.565015
 21
1.226568
 31
0.0
  0
ARC
  5
E132
  8
ALPHA
 10
46.465015
 20
-0.973432
 30
0.0
 40
0.2
 50
0.0
 51
90.0
  0
LINE
  5
E133
  8
ALPHA
 10
46.665015
 20
-2.273432
 30
0.0
 11
46.665015
 21
-0.973432
 31
0.0
  0
LINE
  5
E134
  8
ALPHA
 10
47.565015
 20
-0.773432
 30
0.0
 11
47.565015
 21
1.226568
 31
0.0
  0
LINE
  5
E135
  8
ALPHA
 10
44.415015
 20
25.376568
 30
0.0
 11
44.615015
 21
25.176568
 31
0.0
  0
LINE
  5
E136
  8
ALPHA
 10
47.315015
 20
25.426568
 30
0.0
 11
47.315015
 21
21.576568
 31
0.0
  0
LINE
  5
E137
  8
ALPHA
 10
44.415015
 20
25.426568
 30
0.0
 11
44.415015
 21
24.076568
 31
0.0
  0
LINE
  5
E138
  8
ALPHA
 10
43.740891
 20
22.776568
 30
0.0
 11
43.740891
 21
25.426568
 31
0.0
  0
LINE
  5
E139
  8
ALPHA
 10
47.315015
 20
25.376568
 30
0.0
 11
47.115015
 21
25.176568
 31
0.0
  0
ARC
  5
E13A
  8
ALPHA
 10
55.365015
 20
13.911106
 30
0.0
 40
10.0
 50
180.0
 51
203.794273
  0
LINE
  5
E13B
  8
ALPHA
 10
46.215015
 20
8.726568
 30
0.0
 11
46.215015
 21
9.876568
 31
0.0
  0
LINE
  5
E13C
  8
ALPHA
 10
46.565039
 20
8.376544
 30
0.0
 11
46.215015
 21
8.726568
 31
0.0
  0
LINE
  5
E13D
  8
ALPHA
 10
47.115015
 20
25.176568
 30
0.0
 11
44.615015
 21
25.176568
 31
0.0
  0
POLYLINE
  5
E13E
  8
ALPHA
 66
     1
 10
0.0
 20
0.0
 30
0.0
  0
VERTEX
  5
E498
  8
ALPHA
 10
47.100286
 20
25.137626
 30
0.0
  0
VERTEX
  5
E499
  8
ALPHA
 10
47.065025
 20
25.089577
 30
0.0
  0
VERTEX
  5
E49A
  8
ALPHA
 10
47.017669
 20
25.034193
 30
0.0
  0
VERTEX
  5
E49B
  8
ALPHA
 10
46.963672
 20
24.976568
 30
0.0
  0
SEQEND
  5
E49C
  8
ALPHA
  0
ARC
  5
E13F
  8
ALPHA
 10
45.215015
 20
19.776568
 30
0.0
 40
1.3
 50
270.0
 51
90.0
  0
ARC
  5
E140
  8
ALPHA
 10
44.865015
 20
18.676568
 30
0.0
 40
0.4
 50
210.331727
 51
270.0
  0
ARC
  5
E141
  8
ALPHA
 10
43.215015
 20
16.959709
 30
0.0
 40
3.0
 50
338.0
 51
0.0
  0
ARC
  5
E142
  8
ALPHA
 10
46.365015
 20
14.078364
 30
0.0
 40
1.0
 50
158.0
 51
180.0
  0
LINE
  5
E143
  8
ALPHA
 10
46.215015
 20
16.959709
 30
0.0
 11
46.215015
 21
18.276568
 31
0.0
  0
LINE
  5
E144
  8
ALPHA
 10
45.365015
 20
13.911106
 30
0.0
 11
45.365015
 21
14.078364
 31
0.0
  0
LINE
  5
E145
  8
ALPHA
 10
45.437831
 20
14.45297
 30
0.0
 11
45.996566
 21
15.835889
 31
0.0
  0
ARC
  5
E146
  8
ALPHA
 10
45.065015
 20
20.976568
 30
0.0
 40
0.6
 50
90.0
 51
170.340742
  0
LINE
  5
E147
  8
ALPHA
 10
44.849578
 20
24.976568
 30
0.0
 11
46.963672
 21
24.976568
 31
0.0
  0
LINE
  5
E148
  8
ALPHA
 10
46.158303
 20
24.476568
 30
0.0
 11
44.849578
 21
24.476568
 31
0.0
  0
LINE
  5
E149
  8
ALPHA
 10
44.615015
 20
24.276568
 30
0.0
 11
45.919611
 21
24.276568
 31
0.0
  0
LINE
  5
E14A
  8
ALPHA
 10
44.415015
 20
24.076568
 30
0.0
 11
45.715015
 21
24.076568
 31
0.0
  0
POLYLINE
  5
E14B
  8
ALPHA
 66
     1
 10
0.0
 20
0.0
 30
0.0
  0
VERTEX
  5
E49D
  8
ALPHA
 10
44.617909
 20
25.176568
 30
0.0
  0
VERTEX
  5
E49E
  8
ALPHA
 10
44.639246
 20
25.165979
 30
0.0
  0
VERTEX
  5
E49F
  8
ALPHA
 10
44.67365
 20
25.13994
 30
0.0
  0
VERTEX
  5
E4A0
  8
ALPHA
 10
44.715135
 20
25.10456
 30
0.0
  0
VERTEX
  5
E4A1
  8
ALPHA
 10
44.760064
 20
25.063663
 30
0.0
  0
VERTEX
  5
E4A2
  8
ALPHA
 10
44.805754
 20
25.020073
 30
0.0
  0
VERTEX
  5
E4A3
  8
ALPHA
 10
44.849578
 20
24.976568
 30
0.0
  0
SEQEND
  5
E4A4
  8
ALPHA
  0
LINE
  5
E14C
  8
ALPHA
 10
44.849578
 20
24.476568
 30
0.0
 11
44.849578
 21
24.976568
 31
0.0
  0
LINE
  5
E14D
  8
ALPHA
 10
44.615015
 20
24.276568
 30
0.0
 11
44.615015
 21
25.176568
 31
0.0
  0
LINE
  5
E14E
  8
ALPHA
 10
44.415015
 20
24.076568
 30
0.0
 11
44.615015
 21
24.276568
 31
0.0
  0
POLYLINE
  5
E14F
  8
ALPHA
 66
     1
 10
0.0
 20
0.0
 30
0.0
  0
VERTEX
  5
E4A5
  8
ALPHA
 10
44.617909
 20
24.276568
 30
0.0
  0
VERTEX
  5
E4A6
  8
ALPHA
 10
44.639246
 20
24.287156
 30
0.0
  0
VERTEX
  5
E4A7
  8
ALPHA
 10
44.67365
 20
24.313196
 30
0.0
  0
VERTEX
  5
E4A8
  8
ALPHA
 10
44.715135
 20
24.348575
 30
0.0
  0
VERTEX
  5
E4A9
  8
ALPHA
 10
44.760064
 20
24.389473
 30
0.0
  0
VERTEX
  5
E4AA
  8
ALPHA
 10
44.805754
 20
24.433062
 30
0.0
  0
VERTEX
  5
E4AB
  8
ALPHA
 10
44.849578
 20
24.476568
 30
0.0
  0
SEQEND
  5
E4AC
  8
ALPHA
  0
ARC
  5
E150
  8
ALPHA
 10
45.515015
 20
22.976568
 30
0.0
 40
0.2
 50
270.0
 51
0.0
  0
ARC
  5
E151
  8
ALPHA
 10
45.815015
 20
22.676568
 30
0.0
 40
0.1
 50
270.0
 51
0.0
  0
LINE
  5
E152
  8
ALPHA
 10
45.915015
 20
22.717989
 30
0.0
 11
45.7082
 21
22.924804
 31
0.0
  0
LINE
  5
E153
  8
ALPHA
 10
45.566778
 20
22.783383
 30
0.0
 11
45.773593
 21
22.576568
 31
0.0
  0
POLYLINE
  5
E154
  8
ALPHA
 66
     1
 10
0.0
 20
0.0
 30
0.0
  0
VERTEX
  5
E4AD
  8
ALPHA
 10
45.911448
 20
22.533582
 30
0.0
  0
VERTEX
  5
E4AE
  8
ALPHA
 10
45.963519
 20
22.502706
 30
0.0
  0
VERTEX
  5
E4AF
  8
ALPHA
 10
46.02247
 20
22.466023
 30
0.0
  0
VERTEX
  5
E4B0
  8
ALPHA
 10
46.087864
 20
22.423745
 30
0.0
  0
VERTEX
  5
E4B1
  8
ALPHA
 10
46.158271
 20
22.376568
 30
0.0
  0
SEQEND
  5
E4B2
  8
ALPHA
  0
POLYLINE
  5
E155
  8
ALPHA
 66
     1
 10
0.0
 20
0.0
 30
0.0
  0
VERTEX
  5
E4B3
  8
ALPHA
 10
45.91954
 20
22.676568
 30
0.0
  0
VERTEX
  5
E4B4
  8
ALPHA
 10
45.933319
 20
22.669446
 30
0.0
  0
VERTEX
  5
E4B5
  8
ALPHA
 10
45.95666
 20
22.647572
 30
0.0
  0
VERTEX
  5
E4B6
  8
ALPHA
 10
45.987932
 20
22.6121
 30
0.0
  0
VERTEX
  5
E4B7
  8
ALPHA
 10
46.024898
 20
22.565775
 30
0.0
  0
VERTEX
  5
E4B8
  8
ALPHA
 10
46.065962
 20
22.510749
 30
0.0
  0
VERTEX
  5
E4B9
  8
ALPHA
 10
46.110786
 20
22.447332
 30
0.0
  0
VERTEX
  5
E4BA
  8
ALPHA
 10
46.158303
 20
22.376601
 30
0.0
  0
SEQEND
  5
E4BB
  8
ALPHA
  0
POLYLINE
  5
E156
  8
ALPHA
 66
     1
 10
0.0
 20
0.0
 30
0.0
  0
VERTEX
  5
E4BC
  8
ALPHA
 10
45.83802
 20
22.571838
 30
0.0
  0
VERTEX
  5
E4BD
  8
ALPHA
 10
45.868558
 20
22.557224
 30
0.0
  0
VERTEX
  5
E4BE
  8
ALPHA
 10
45.911448
 20
22.533582
 30
0.0
  0
SEQEND
  5
E4BF
  8
ALPHA
  0
LINE
  5
E157
  8
ALPHA
 10
45.821803
 20
22.576568
 30
0.0
 11
45.83802
 21
22.571838
 31
0.0
  0
LINE
  5
E158
  8
ALPHA
 10
46.963672
 20
24.976568
 30
0.0
 11
46.963672
 21
21.576568
 31
0.0
  0
LINE
  5
E159
  8
ALPHA
 10
45.915015
 20
22.676568
 30
0.0
 11
45.91954
 21
22.676568
 31
0.0
  0
LINE
  5
E15A
  8
ALPHA
 10
46.158303
 20
22.376601
 30
0.0
 11
46.158303
 21
24.476568
 31
0.0
  0
LINE
  5
E15B
  8
ALPHA
 10
45.915015
 20
22.676568
 30
0.0
 11
45.915015
 21
24.276568
 31
0.0
  0
LINE
  5
E15C
  8
ALPHA
 10
45.715015
 20
24.076568
 30
0.0
 11
45.715015
 21
22.976568
 31
0.0
  0
LINE
  5
E15D
  8
ALPHA
 10
45.906442
 20
22.626562
 30
0.0
 11
45.91954
 21
22.676568
 31
0.0
  0
POLYLINE
  5
E15E
  8
ALPHA
 66
     1
 10
0.0
 20
0.0
 30
0.0
  0
VERTEX
  5
E4C0
  8
ALPHA
 10
45.821803
 20
22.576568
 30
0.0
  0
VERTEX
  5
E4C1
  8
ALPHA
 10
45.870666
 20
22.589963
 30
0.0
  0
VERTEX
  5
E4C2
  8
ALPHA
 10
45.906442
 20
22.626562
 30
0.0
  0
SEQEND
  5
E4C3
  8
ALPHA
  0
LINE
  5
E15F
  8
ALPHA
 10
45.715015
 20
24.076568
 30
0.0
 11
45.915015
 21
24.276568
 31
0.0
  0
POLYLINE
  5
E160
  8
ALPHA
 66
     1
 10
0.0
 20
0.0
 30
0.0
  0
VERTEX
  5
E4C4
  8
ALPHA
 10
45.919611
 20
24.276568
 30
0.0
  0
VERTEX
  5
E4C5
  8
ALPHA
 10
45.943663
 20
24.287156
 30
0.0
  0
VERTEX
  5
E4C6
  8
ALPHA
 10
45.980081
 20
24.313196
 30
0.0
  0
VERTEX
  5
E4C7
  8
ALPHA
 10
46.022938
 20
24.348575
 30
0.0
  0
VERTEX
  5
E4C8
  8
ALPHA
 10
46.068669
 20
24.389473
 30
0.0
  0
VERTEX
  5
E4C9
  8
ALPHA
 10
46.114647
 20
24.433062
 30
0.0
  0
VERTEX
  5
E4CA
  8
ALPHA
 10
46.158303
 20
24.476568
 30
0.0
  0
SEQEND
  5
E4CB
  8
ALPHA
  0
LINE
  5
E161
  8
ALPHA
 10
47.115015
 20
25.170399
 30
0.0
 11
47.115015
 21
21.576568
 31
0.0
  0
LINE
  5
E162
  8
ALPHA
 10
47.115015
 20
25.170399
 30
0.0
 11
47.100286
 21
25.137626
 31
0.0
  0
LINE
  5
E1C1
  8
AXE
 10
34.665015
 20
-13.059586
 30
0.0
 11
34.665015
 21
30.426568
 31
0.0
  0
TEXT
  5
E1C3
  8
AXE
 10
29.617396
 20
-13.059586
 30
0.0
 40
5.0
  1
Y
 72
     2
 11
33.665015
 21
-13.059586
 31
0.0
  0
VIEWPORT
  5
494D
 67
     1
  8
0
 10
4.995325
 20
6.556512
 30
0.0
 40
22.70986
 41
13.988421
 68
    -1
 69
     1
1001
ACAD
1000
MVIEW
1002
{
1070
    16
1010
0.0
1020
0.0
1030
0.0
1010
0.0
1020
0.0
1030
1.0
1040
0.0
1040
13.988421
1040
4.995325
1040
6.556512
1040
50.0
1040
0.0
1040
0.0
1070
     0
1070
   100
1070
     1
1070
     1
1070
     0
1070
     0
1070
     0
1070
     0
1040
0.0
1040
0.0
1040
0.0
1040
10.0
1040
10.0
1040
10.0
1040
10.0
1070
     0
1002
{
1002
}
1002
}
  0
ENDSEC
  0
EOF
