  0
SECTION
  2
HEADER
  9
$ACADVER
  1
AC1014
  9
$ACADMAINTVER
 70
     0
  9
$DWGCODEPAGE
  3
ANSI_1252
  9
$INSBASE
 10
93.894301
 20
236.06014
 30
0.0
  9
$EXTMIN
 10
0.361958
 20
-0.168887
 30
0.0
  9
$EXTMAX
 10
42.717613
 20
77.089556
 30
0.0
  9
$LIMMIN
 10
0.0
 20
0.0
  9
$LIMMAX
 10
210.0
 20
297.0
  9
$ORTHOMODE
 70
     0
  9
$REGENMODE
 70
     1
  9
$FILLMODE
 70
     1
  9
$QTEXTMODE
 70
     0
  9
$MIRRTEXT
 70
     0
  9
$DRAGMODE
 70
     1
  9
$LTSCALE
 40
7.0
  9
$OSMODE
 70
  4095
  9
$ATTMODE
 70
     1
  9
$TEXTSIZE
 40
2.5
  9
$TRACEWID
 40
0.05
  9
$TEXTSTYLE
  7
STANDARD
  9
$CLAYER
  8
COTATION1
  9
$CELTYPE
  6
BYLAYER
  9
$CECOLOR
 62
   256
  9
$CELTSCALE
 40
1.0
  9
$DELOBJ
 70
     1
  9
$DISPSILH
 70
     0
  9
$DIMSCALE
 40
1.0
  9
$DIMASZ
 40
3.0
  9
$DIMEXO
 40
0.0625
  9
$DIMDLI
 40
0.38
  9
$DIMRND
 40
0.01
  9
$DIMDLE
 40
0.0
  9
$DIMEXE
 40
0.18
  9
$DIMTP
 40
0.0
  9
$DIMTM
 40
0.0
  9
$DIMTXT
 40
2.5
  9
$DIMCEN
 40
0.09
  9
$DIMTSZ
 40
0.0
  9
$DIMTOL
 70
     0
  9
$DIMLIM
 70
     0
  9
$DIMTIH
 70
     0
  9
$DIMTOH
 70
     0
  9
$DIMSE1
 70
     0
  9
$DIMSE2
 70
     0
  9
$DIMTAD
 70
     1
  9
$DIMZIN
 70
    12
  9
$DIMBLK
  1

  9
$DIMASO
 70
     1
  9
$DIMSHO
 70
     0
  9
$DIMPOST
  1

  9
$DIMAPOST
  1

  9
$DIMALT
 70
     0
  9
$DIMALTD
 70
     2
  9
$DIMALTF
 40
25.4
  9
$DIMLFAC
 40
1.0
  9
$DIMTOFL
 70
     1
  9
$DIMTVP
 40
0.0
  9
$DIMTIX
 70
     0
  9
$DIMSOXD
 70
     0
  9
$DIMSAH
 70
     0
  9
$DIMBLK1
  1

  9
$DIMBLK2
  1

  9
$DIMSTYLE
  2
SC_STAND
  9
$DIMCLRD
 70
     0
  9
$DIMCLRE
 70
     0
  9
$DIMCLRT
 70
     0
  9
$DIMTFAC
 40
1.0
  9
$DIMGAP
 40
1.0
  9
$DIMJUST
 70
     0
  9
$DIMSD1
 70
     0
  9
$DIMSD2
 70
     0
  9
$DIMTOLJ
 70
     1
  9
$DIMTZIN
 70
    12
  9
$DIMALTZ
 70
    12
  9
$DIMALTTZ
 70
    12
  9
$DIMFIT
 70
     5
  9
$DIMUPT
 70
     0
  9
$DIMUNIT
 70
     2
  9
$DIMDEC
 70
     3
  9
$DIMTDEC
 70
     3
  9
$DIMALTU
 70
     2
  9
$DIMALTTD
 70
     2
  9
$DIMTXSTY
  7
STANDARD
  9
$DIMAUNIT
 70
     0
  9
$LUNITS
 70
     2
  9
$LUPREC
 70
     3
  9
$SKETCHINC
 40
0.1
  9
$FILLETRAD
 40
0.0625
  9
$AUNITS
 70
     0
  9
$AUPREC
 70
     0
  9
$MENU
  1
ACAD
  9
$ELEVATION
 40
0.0
  9
$PELEVATION
 40
0.0
  9
$THICKNESS
 40
0.0
  9
$LIMCHECK
 70
     0
  9
$BLIPMODE
 70
     1
  9
$CHAMFERA
 40
0.0
  9
$CHAMFERB
 40
0.0
  9
$CHAMFERC
 40
0.0
  9
$CHAMFERD
 40
0.0
  9
$SKPOLY
 70
     0
  9
$TDCREATE
 40
2450953.590960648
  9
$TDUPDATE
 40
2453721.588762395
  9
$TDINDWG
 40
0.0076590394
  9
$TDUSRTIMER
 40
0.0076590394
  9
$USRTIMER
 70
     1
  9
$ANGBASE
 50
0.0
  9
$ANGDIR
 70
     0
  9
$PDMODE
 70
     0
  9
$PDSIZE
 40
0.0
  9
$PLINEWID
 40
0.0
  9
$COORDS
 70
     0
  9
$SPLFRAME
 70
     0
  9
$SPLINETYPE
 70
     6
  9
$SPLINESEGS
 70
     8
  9
$ATTDIA
 70
     0
  9
$ATTREQ
 70
     1
  9
$HANDLING
 70
     1
  9
$HANDSEED
  5
14C2
  9
$SURFTAB1
 70
     6
  9
$SURFTAB2
 70
     6
  9
$SURFTYPE
 70
     6
  9
$SURFU
 70
     6
  9
$SURFV
 70
     6
  9
$UCSNAME
  2

  9
$UCSORG
 10
0.0
 20
0.0
 30
0.0
  9
$UCSXDIR
 10
1.0
 20
0.0
 30
0.0
  9
$UCSYDIR
 10
0.0
 20
1.0
 30
0.0
  9
$PUCSNAME
  2

  9
$PUCSORG
 10
0.0
 20
0.0
 30
0.0
  9
$PUCSXDIR
 10
1.0
 20
0.0
 30
0.0
  9
$PUCSYDIR
 10
0.0
 20
1.0
 30
0.0
  9
$USERI1
 70
     0
  9
$USERI2
 70
     0
  9
$USERI3
 70
     0
  9
$USERI4
 70
     0
  9
$USERI5
 70
     0
  9
$USERR1
 40
0.0
  9
$USERR2
 40
0.0
  9
$USERR3
 40
0.0
  9
$USERR4
 40
0.0
  9
$USERR5
 40
0.0
  9
$WORLDVIEW
 70
     1
  9
$SHADEDGE
 70
     3
  9
$SHADEDIF
 70
    70
  9
$TILEMODE
 70
     1
  9
$MAXACTVP
 70
    32
  9
$PINSBASE
 10
0.0
 20
0.0
 30
0.0
  9
$PLIMCHECK
 70
     0
  9
$PEXTMIN
 10
-3.174999
 20
-3.175
 30
0.0
  9
$PEXTMAX
 10
203.812116
 20
370.276807
 30
0.0
  9
$PLIMMIN
 10
-3.175
 20
-3.175
  9
$PLIMMAX
 10
203.812115
 20
370.276807
  9
$UNITMODE
 70
     0
  9
$VISRETAIN
 70
     0
  9
$PLINEGEN
 70
     0
  9
$PSLTSCALE
 70
     1
  9
$TREEDEPTH
 70
  3020
  9
$PICKSTYLE
 70
     1
  9
$CMLSTYLE
  2
STANDARD
  9
$CMLJUST
 70
     0
  9
$CMLSCALE
 40
1.0
  9
$PROXYGRAPHICS
 70
     1
  9
$MEASUREMENT
 70
     0
  0
ENDSEC
  0
SECTION
  2
CLASSES
  0
CLASS
  1
DICTIONARYVAR
  2
AcDbDictionaryVar
  3
"AutoCAD"
 90
        0
280
     0
281
     0
  0
CLASS
  1
HATCH
  2
AcDbHatch
  3
"ACAD_SEDONA"
 90
        0
280
     0
281
     1
  0
ENDSEC
  0
SECTION
  2
TABLES
  0
TABLE
  2
VPORT
  5
F4
100
AcDbSymbolTable
 70
     2
  0
VPORT
  5
14C1
100
AcDbSymbolTableRecord
100
AcDbViewportTableRecord
  2
*ACTIVE
 70
     0
 10
0.0
 20
0.0
 11
1.0
 21
1.0
 12
21.534806
 22
38.455102
 13
0.0
 23
0.0
 14
1.0
 24
1.0
 15
10.0
 25
10.0
 16
0.0
 26
0.0
 36
1.0
 17
0.0
 27
0.0
 37
0.0
 40
77.8955
 41
1.643603
 42
50.0
 43
0.0
 44
0.0
 50
0.0
 51
0.0
 71
     0
 72
   100
 73
     1
 74
     1
 75
     0
 76
     1
 77
     0
 78
     0
  0
ENDTAB
  0
TABLE
  2
LTYPE
  5
F1
100
AcDbSymbolTable
 70
     5
  0
LTYPE
  5
FD
100
AcDbSymbolTableRecord
100
AcDbLinetypeTableRecord
  2
BYBLOCK
 70
     0
  3

 72
    65
 73
     0
 40
0.0
  0
LTYPE
  5
FE
100
AcDbSymbolTableRecord
100
AcDbLinetypeTableRecord
  2
BYLAYER
 70
     0
  3

 72
    65
 73
     0
 40
0.0
  0
LTYPE
  5
FF
100
AcDbSymbolTableRecord
100
AcDbLinetypeTableRecord
  2
CONTINUOUS
 70
     0
  3
Solid line
 72
    65
 73
     0
 40
0.0
  0
ENDTAB
  0
TABLE
  2
LAYER
  5
EE
100
AcDbSymbolTable
 70
     5
  0
LAYER
  5
FA
100
AcDbSymbolTableRecord
100
AcDbLayerTableRecord
  2
0
 70
     0
 62
     7
  6
CONTINUOUS
  0
LAYER
  5
12C
100
AcDbSymbolTableRecord
100
AcDbLayerTableRecord
  2
ALPHA
 70
     0
 62
   255
  6
CONTINUOUS
  0
LAYER
  5
12F
100
AcDbSymbolTableRecord
100
AcDbLayerTableRecord
  2
COTATION1
 70
     0
 62
     2
  6
CONTINUOUS
  0
LAYER
  5
13B
100
AcDbSymbolTableRecord
100
AcDbLayerTableRecord
  2
ASHADE
 70
     0
 62
     7
  6
CONTINUOUS
  0
LAYER
  5
13E
100
AcDbSymbolTableRecord
100
AcDbLayerTableRecord
  2
DEFPOINTS
 70
     0
 62
     7
  6
CONTINUOUS
  0
ENDTAB
  0
TABLE
  2
STYLE
  5
EF
100
AcDbSymbolTable
 70
     2
  0
STYLE
  5
FB
100
AcDbSymbolTableRecord
100
AcDbTextStyleTableRecord
  2
STANDARD
 70
     0
 40
0.0
 41
1.0
 50
0.0
 71
     0
 42
2.5
  3
txt
  4

  0
ENDTAB
  0
TABLE
  2
VIEW
  5
F2
100
AcDbSymbolTable
 70
     0
  0
ENDTAB
  0
TABLE
  2
UCS
  5
F3
100
AcDbSymbolTable
 70
     0
  0
ENDTAB
  0
TABLE
  2
APPID
  5
F5
100
AcDbSymbolTable
 70
     3
  0
APPID
  5
FC
100
AcDbSymbolTableRecord
100
AcDbRegAppTableRecord
  2
ACAD
 70
     0
  0
APPID
  5
127
100
AcDbSymbolTableRecord
100
AcDbRegAppTableRecord
  2
AVE_RENDER
 70
     0
  0
APPID
  5
128
100
AcDbSymbolTableRecord
100
AcDbRegAppTableRecord
  2
AVE_MATERIAL
 70
     0
  0
ENDTAB
  0
TABLE
  2
DIMSTYLE
  5
F6
100
AcDbSymbolTable
 70
     2
  0
DIMSTYLE
105
129
100
AcDbSymbolTableRecord
100
AcDbDimStyleTableRecord
  2
STANDARD
 70
     0
  3

  4

  5

  6

  7

 40
1.0
 41
0.18
 42
0.0625
 43
0.38
 44
0.18
 45
0.0
 46
0.0
 47
0.0
 48
0.0
140
0.18
141
0.09
142
0.0
143
25.4
144
1.0
145
0.0
146
1.0
147
0.09
 71
     0
 72
     0
 73
     1
 74
     1
 75
     0
 76
     0
 77
     0
 78
     0
170
     0
171
     2
172
     0
173
     0
174
     0
175
     0
176
     0
177
     0
178
     0
270
     2
271
     3
272
     3
273
     2
274
     2
340
FB
275
     0
280
     0
281
     0
282
     0
283
     1
284
    12
285
    12
286
    12
287
     5
288
     0
  0
DIMSTYLE
105
12A
102
{ACAD_REACTORS
330
13D0
330
1435
330
14A5
102
}
100
AcDbSymbolTableRecord
100
AcDbDimStyleTableRecord
  2
SC_STAND
 70
     0
  3

  4

  5

  6

  7

 40
1.0
 41
3.0
 42
0.0625
 43
0.38
 44
0.18
 45
0.01
 46
0.0
 47
0.0
 48
0.0
140
2.5
141
0.09
142
0.0
143
25.4
144
1.0
145
0.0
146
1.0
147
1.0
 71
     0
 72
     0
 73
     0
 74
     0
 75
     0
 76
     0
 77
     1
 78
    12
170
     0
171
     2
172
     1
173
     0
174
     0
175
     0
176
     0
177
     0
178
     0
270
     2
271
     3
272
     3
273
     2
274
     2
340
FB
275
     0
280
     0
281
     0
282
     0
283
     1
284
    12
285
    12
286
    12
287
     5
288
     0
  0
ENDTAB
  0
TABLE
  2
BLOCK_RECORD
  5
ED
100
AcDbSymbolTable
 70
    10
  0
BLOCK_RECORD
  5
103
100
AcDbSymbolTableRecord
100
AcDbBlockTableRecord
  2
*MODEL_SPACE
  0
BLOCK_RECORD
  5
100
100
AcDbSymbolTableRecord
100
AcDbBlockTableRecord
  2
*PAPER_SPACE
  0
BLOCK_RECORD
  5
108
100
AcDbSymbolTableRecord
100
AcDbBlockTableRecord
  2
AVE_RENDER
  0
BLOCK_RECORD
  5
109
100
AcDbSymbolTableRecord
100
AcDbBlockTableRecord
  2
AVE_GLOBAL
  0
BLOCK_RECORD
  5
10A
100
AcDbSymbolTableRecord
100
AcDbBlockTableRecord
  2
SCH_IS
  0
BLOCK_RECORD
  5
13C4
100
AcDbSymbolTableRecord
100
AcDbBlockTableRecord
  2
*D7
  0
BLOCK_RECORD
  5
1429
100
AcDbSymbolTableRecord
100
AcDbBlockTableRecord
  2
*D8
  0
BLOCK_RECORD
  5
1499
100
AcDbSymbolTableRecord
100
AcDbBlockTableRecord
  2
*D9
  0
ENDTAB
  0
ENDSEC
  0
SECTION
  2
BLOCKS
  0
BLOCK
  5
141
100
AcDbEntity
  8
0
100
AcDbBlockBegin
  2
*MODEL_SPACE
 70
     0
 10
0.0
 20
0.0
 30
0.0
  3
*MODEL_SPACE
  1

  0
ENDBLK
  5
142
100
AcDbEntity
  8
0
100
AcDbBlockEnd
  0
BLOCK
  5
13F
100
AcDbEntity
 67
     1
  8
0
100
AcDbBlockBegin
  2
*PAPER_SPACE
 70
     0
 10
0.0
 20
0.0
 30
0.0
  3
*PAPER_SPACE
  1

  0
ENDBLK
  5
140
100
AcDbEntity
 67
     1
  8
0
100
AcDbBlockEnd
  0
BLOCK
  5
8D
100
AcDbEntity
  8
0
100
AcDbBlockBegin
  2
AVE_RENDER
 70
     0
 10
0.0
 20
0.0
 30
0.0
  3
AVE_RENDER
  1
AVE_RENDER
  0
ENDBLK
  5
8E
100
AcDbEntity
  8
0
100
AcDbBlockEnd
  0
BLOCK
  5
90
100
AcDbEntity
  8
0
100
AcDbBlockBegin
  2
AVE_GLOBAL
 70
     0
 10
0.0
 20
0.0
 30
0.0
  3
AVE_GLOBAL
  1
AVE_GLOBAL
  0
ENDBLK
  5
91
100
AcDbEntity
  8
0
100
AcDbBlockEnd
  0
BLOCK
  5
C9
100
AcDbEntity
  8
0
100
AcDbBlockBegin
  2
SCH_IS
 70
     0
 10
0.0
 20
0.0
 30
0.0
  3
SCH_IS
  1

  0
INSERT
  5
C0
100
AcDbEntity
  8
ASHADE
 62
     1
100
AcDbBlockReference
  2
AVE_RENDER
 10
0.0
 20
0.0
 30
0.0
1001
AVE_RENDER
1002
{
1070
     6
1000
Pref
1070
    50
1070
    20
1070
     1
1070
     0
1000

1070
    10
1070
     1
1070
    30
1040
25.4
1070
     1
1040
0.3
1040
0.7
1040
0.0
1040
10.0
1010
-1.0
1020
-1.0
1030
-1.0
1040
0.3
1070
    49
1070
     0
1070
     0
1010
1.0
1020
1.0
1030
1.0
1040
45.0
1070
     1
1070
     0
1000
WCS
1040
0.0
1002
}
  0
INSERT
  5
C1
100
AcDbEntity
  8
ASHADE
 62
     3
100
AcDbBlockReference
  2
AVE_RENDER
 10
0.0
 20
0.0
 30
0.0
1001
AVE_RENDER
1002
{
1070
     0
1000
Full Opt
1070
     0
1070
     1
1070
     1
1070
     1
1070
     0
1070
     0
1070
     0
1070
     1
1070
     1
1040
0.0001
1040
0.0001
1002
}
  0
INSERT
  5
C2
100
AcDbEntity
  8
ASHADE
 62
     4
100
AcDbBlockReference
  2
AVE_RENDER
 10
0.0
 20
0.0
 30
0.0
1001
AVE_RENDER
1002
{
1070
     0
1000
Quick Opt
1070
     0
1070
     1
1070
     1
1070
     1
1070
     0
1070
     0
1070
     1
1002
}
  0
INSERT
  5
C3
100
AcDbEntity
  8
ASHADE
 62
     5
100
AcDbBlockReference
  2
AVE_RENDER
 10
0.0
 20
0.0
 30
0.0
1001
AVE_RENDER
1002
{
1070
     1
1000
Scanl Opt
1070
     2
1070
     0
1070
     2
1040
2.0
1040
4.0
1070
     0
1070
     1
1070
     0
1040
0.03
1002
}
  0
INSERT
  5
C4
100
AcDbEntity
  8
ASHADE
 62
     6
100
AcDbBlockReference
  2
AVE_RENDER
 10
0.0
 20
0.0
 30
0.0
1001
AVE_RENDER
1002
{
1070
     2
1000
Raytr Opt
1070
     2
1070
     0
1070
     2
1040
2.0
1040
4.0
1070
     0
1070
     1
1070
     1
1040
0.03
1070
     3
1040
0.03
1002
}
  0
INSERT
  5
C5
100
AcDbEntity
  8
ASHADE
 62
     7
100
AcDbBlockReference
  2
AVE_RENDER
 10
0.0
 20
0.0
 30
0.0
1001
AVE_RENDER
1002
{
1070
     0
1000
RFile Opt
1070
     5
1070
   640
1070
   480
1070
 10000
1070
     3
1070
    32
1070
    24
1070
     0
1070
     0
1070
     0
1070
     1
1070
     0
1070
     0
1070
     0
1002
}
  0
INSERT
  5
C6
100
AcDbEntity
  8
ASHADE
 62
     8
100
AcDbBlockReference
  2
AVE_RENDER
 10
0.0
 20
0.0
 30
0.0
1001
AVE_RENDER
1002
{
1070
     0
1000
Fog Opt
1070
     0
1070
     0
1040
0.0
1040
1.0
1040
0.0
1040
1.0
1010
0.5
1020
0.5
1030
0.5
1002
}
  0
INSERT
  5
C7
100
AcDbEntity
  8
ASHADE
 62
     9
100
AcDbBlockReference
  2
AVE_RENDER
 10
0.0
 20
0.0
 30
0.0
1001
AVE_RENDER
1002
{
1070
     0
1000
BG Opt
1070
     0
1070
     1
1010
0.0
1020
0.0
1030
0.0
1010
1.0
1020
0.0
1030
0.0
1010
0.0
1020
1.0
1030
0.0
1010
0.0
1020
0.0
1030
1.0
1040
0.5
1040
0.33
1040
0.0
1000

1070
     1
1000

1070
     1
1070
     1
1040
1.0
1040
1.0
1040
0.0
1040
0.0
1070
     0
1002
}
  0
INSERT
  5
C8
100
AcDbEntity
  8
ASHADE
 62
     1
100
AcDbBlockReference
  2
AVE_GLOBAL
 10
0.0
 20
0.0
 30
0.0
1001
AVE_MATERIAL
1002
{
1000
*GLOBAL*
1000
1
1000
Finition globale.
1002
{
1002
}
1002
{
1070
    63
1002
{
1002
{
1010
-1.0
1020
-1.0
1030
-1.0
1002
}
1040
0.1
1000

1040
0.0
1002
{
1002
}
1040
0.0
1002
{
1002
}
1040
0.0
1002
}
1002
{
1002
{
1010
-1.0
1020
-1.0
1030
-1.0
1002
}
1040
0.7
1000

1040
0.0
1002
{
1002
}
1040
0.0
1002
{
1002
}
1040
0.0
1002
}
1002
{
1002
{
1010
-1.0
1020
-1.0
1030
-1.0
1002
}
1040
0.2
1000

1040
0.0
1002
{
1002
}
1040
0.0
1002
{
1002
}
1040
0.0
1002
}
1002
{
1070
     0
1002
{
1070
     1
1002
{
1040
1.0
1040
1.0
1000

1040
0.0
1002
{
1002
}
1040
0.0
1002
{
1002
}
1040
0.0
1002
}
1002
}
1040
1.0
1040
0.0
1040
0.0
1002
}
1002
{
1040
1.0
1040
1.0
1000

1040
0.0
1002
{
1002
}
1040
0.0
1002
{
1002
}
1040
0.0
1002
}
1002
{
1040
0.5
1040
1.0
1000

1040
0.0
1002
{
1002
}
1040
0.0
1002
{
1002
}
1040
0.0
1002
}
1002
{
1070
     0
1040
0.0
1002
{
1002
}
1040
1.0
1002
{
1002
}
1040
0.0
1002
}
1002
{
1040
0.0
1002
{
1002
{
1010
0.0
1020
0.0
1030
0.0
1002
}
1040
1.0
1000

1040
0.0
1002
{
1002
}
1040
0.0
1002
{
1002
}
1040
0.0
1002
}
1002
}
1002
{
1002
{
1070
     1
1002
{
1040
0.0
1040
1.0
1000

1040
0.0
1002
{
1002
}
1040
0.0
1002
{
1002
}
1040
0.0
1002
}
1002
}
1040
0.0
1002
{
1002
}
1010
1.0
1020
0.0
1030
0.0
1010
0.0
1020
1.0
1030
0.0
1010
0.0
1020
0.0
1030
1.0
1070
     0
1002
}
1002
{
1002
{
1040
1.0
1040
1.0
1002
{
1070
     1
1002
{
1040
1.0
1040
1.0
1000

1040
0.0
1002
{
1002
}
1040
0.0
1002
{
1002
}
1040
0.0
1002
}
1002
}
1002
}
1070
     0
1040
0.0
1002
{
1002
}
1002
}
1002
{
1002
}
1002
}
1002
{
1071
        3
1070
     3
1070
     0
1002
{
1070
     2
1070
     0
1070
     0
1040
0.0
1002
}
1070
     0
1070
     2
1002
{
1002
}
1002
}
1002
{
1040
8030.0
1040
190.300003
1040
0.305
1040
228.0
1040
545.0
1040
14.0
1040
17.4
1040
0.456
1002
}
1002
}
  0
ENDBLK
  5
CA
100
AcDbEntity
  8
0
100
AcDbBlockEnd
  0
BLOCK
  5
141E
100
AcDbEntity
  8
0
100
AcDbBlockBegin
  2
*D7
 70
     1
 10
0.0
 20
0.0
 30
0.0
  3
*D7
  1

  0
LINE
  5
141F
100
AcDbEntity
  8
0
  6
BYBLOCK
 62
     0
100
AcDbLine
 10
5.361997
 20
58.750486
 30
0.0
 11
5.361997
 21
73.769556
 31
0.0
  0
LINE
  5
1420
100
AcDbEntity
  8
0
  6
BYBLOCK
 62
     0
100
AcDbLine
 10
24.362215
 20
58.750486
 30
0.0
 11
24.362215
 21
73.769556
 31
0.0
  0
LINE
  5
1421
100
AcDbEntity
  8
0
  6
BYBLOCK
 62
     0
100
AcDbLine
 10
8.361997
 20
73.589556
 30
0.0
 11
21.362215
 21
73.589556
 31
0.0
  0
SOLID
  5
1422
100
AcDbEntity
  8
0
  6
BYBLOCK
 62
     0
100
AcDbTrace
 10
8.361997
 20
74.089556
 30
0.0
 11
8.361997
 21
73.089556
 31
0.0
 12
5.361997
 22
73.589556
 32
0.0
 13
5.361997
 23
73.589556
 33
0.0
  0
SOLID
  5
1423
100
AcDbEntity
  8
0
  6
BYBLOCK
 62
     0
100
AcDbTrace
 10
21.362215
 20
74.089556
 30
0.0
 11
21.362215
 21
73.089556
 31
0.0
 12
24.362215
 22
73.589556
 32
0.0
 13
24.362215
 23
73.589556
 33
0.0
  0
MTEXT
  5
1424
100
AcDbEntity
  8
0
  6
BYBLOCK
 62
     0
100
AcDbMText
 10
14.862106
 20
75.839556
 30
0.0
 40
2.5
 41
0.0
 71
     5
 72
     1
  1
\A1;\U+220519
  0
POINT
  5
1425
100
AcDbEntity
  8
DEFPOINTS
  6
BYBLOCK
 62
     0
100
AcDbPoint
 10
5.361997
 20
58.687986
 30
0.0
  0
POINT
  5
1426
100
AcDbEntity
  8
DEFPOINTS
  6
BYBLOCK
 62
     0
100
AcDbPoint
 10
24.362215
 20
58.687986
 30
0.0
  0
POINT
  5
1427
100
AcDbEntity
  8
DEFPOINTS
  6
BYBLOCK
 62
     0
100
AcDbPoint
 10
24.362215
 20
73.589556
 30
0.0
  0
ENDBLK
  5
1428
100
AcDbEntity
  8
0
100
AcDbBlockEnd
  0
BLOCK
  5
148E
100
AcDbEntity
  8
0
100
AcDbBlockBegin
  2
*D8
 70
     1
 10
0.0
 20
0.0
 30
0.0
  3
*D8
  1

  0
LINE
  5
148F
100
AcDbEntity
  8
0
  6
BYBLOCK
 62
     0
100
AcDbLine
 10
14.929688
 20
33.736365
 30
0.0
 11
36.910643
 21
33.736365
 31
0.0
  0
LINE
  5
1490
100
AcDbEntity
  8
0
  6
BYBLOCK
 62
     0
100
AcDbLine
 10
14.92452
 20
68.187837
 30
0.0
 11
36.910643
 21
68.187837
 31
0.0
  0
LINE
  5
1491
100
AcDbEntity
  8
0
  6
BYBLOCK
 62
     0
100
AcDbLine
 10
36.730643
 20
36.736365
 30
0.0
 11
36.730643
 21
65.187837
 31
0.0
  0
SOLID
  5
1492
100
AcDbEntity
  8
0
  6
BYBLOCK
 62
     0
100
AcDbTrace
 10
36.230643
 20
36.736365
 30
0.0
 11
37.230643
 21
36.736365
 31
0.0
 12
36.730643
 22
33.736365
 32
0.0
 13
36.730643
 23
33.736365
 33
0.0
  0
SOLID
  5
1493
100
AcDbEntity
  8
0
  6
BYBLOCK
 62
     0
100
AcDbTrace
 10
36.230643
 20
65.187837
 30
0.0
 11
37.230643
 21
65.187837
 31
0.0
 12
36.730643
 22
68.187837
 32
0.0
 13
36.730643
 23
68.187837
 33
0.0
  0
MTEXT
  5
1494
100
AcDbEntity
  8
0
  6
BYBLOCK
 62
     0
100
AcDbMText
 10
34.480643
 20
50.962101
 30
0.0
 40
2.5
 41
0.0
 71
     5
 72
     1
  1
\A1;34.5
 11
0.0
 21
1.0
 31
0.0
  0
POINT
  5
1495
100
AcDbEntity
  8
DEFPOINTS
  6
BYBLOCK
 62
     0
100
AcDbPoint
 10
14.867188
 20
33.736365
 30
0.0
  0
POINT
  5
1496
100
AcDbEntity
  8
DEFPOINTS
  6
BYBLOCK
 62
     0
100
AcDbPoint
 10
14.86202
 20
68.187837
 30
0.0
  0
POINT
  5
1497
100
AcDbEntity
  8
DEFPOINTS
  6
BYBLOCK
 62
     0
100
AcDbPoint
 10
36.730643
 20
68.187837
 30
0.0
  0
ENDBLK
  5
1498
100
AcDbEntity
  8
0
100
AcDbBlockEnd
  0
BLOCK
  5
14A6
100
AcDbEntity
  8
0
100
AcDbBlockBegin
  2
*D9
 70
     1
 10
0.0
 20
0.0
 30
0.0
  3
*D9
  1

  0
LINE
  5
14A7
100
AcDbEntity
  8
0
  6
BYBLOCK
 62
     0
100
AcDbLine
 10
33.541607
 20
68.187837
 30
0.0
 11
42.397613
 21
68.187837
 31
0.0
  0
LINE
  5
14A8
100
AcDbEntity
  8
0
  6
BYBLOCK
 62
     0
100
AcDbLine
 10
29.424582
 20
14.18786
 30
0.0
 11
42.397613
 21
14.18786
 31
0.0
  0
LINE
  5
14A9
100
AcDbEntity
  8
0
  6
BYBLOCK
 62
     0
100
AcDbLine
 10
42.217613
 20
65.187837
 30
0.0
 11
42.217613
 21
17.18786
 31
0.0
  0
SOLID
  5
14AA
100
AcDbEntity
  8
0
  6
BYBLOCK
 62
     0
100
AcDbTrace
 10
41.717613
 20
65.187837
 30
0.0
 11
42.717613
 21
65.187837
 31
0.0
 12
42.217613
 22
68.187837
 32
0.0
 13
42.217613
 23
68.187837
 33
0.0
  0
SOLID
  5
14AB
100
AcDbEntity
  8
0
  6
BYBLOCK
 62
     0
100
AcDbTrace
 10
41.717613
 20
17.18786
 30
0.0
 11
42.717613
 21
17.18786
 31
0.0
 12
42.217613
 22
14.18786
 32
0.0
 13
42.217613
 23
14.18786
 33
0.0
  0
MTEXT
  5
14AC
100
AcDbEntity
  8
0
  6
BYBLOCK
 62
     0
100
AcDbMText
 10
39.967613
 20
41.187848
 30
0.0
 40
2.5
 41
0.0
 71
     5
 72
     1
  1
\A1;54
 11
0.0
 21
1.0
 31
0.0
  0
POINT
  5
14AD
100
AcDbEntity
  8
DEFPOINTS
  6
BYBLOCK
 62
     0
100
AcDbPoint
 10
33.479107
 20
68.187837
 30
0.0
  0
POINT
  5
14AE
100
AcDbEntity
  8
DEFPOINTS
  6
BYBLOCK
 62
     0
100
AcDbPoint
 10
29.362082
 20
14.18786
 30
0.0
  0
POINT
  5
14AF
100
AcDbEntity
  8
DEFPOINTS
  6
BYBLOCK
 62
     0
100
AcDbPoint
 10
42.217613
 20
14.18786
 30
0.0
  0
ENDBLK
  5
14B0
100
AcDbEntity
  8
0
100
AcDbBlockEnd
  0
ENDSEC
  0
SECTION
  2
ENTITIES
  0
INSERT
  5
CC
100
AcDbEntity
  8
0
100
AcDbBlockReference
  2
SCH_IS
 10
-68.718396
 20
-140.042541
 30
0.0
  0
INSERT
  5
EC
100
AcDbEntity
  8
COTATION1
100
AcDbBlockReference
  2
SCH_IS
 10
0.0
 20
0.0
 30
0.0
  0
POLYLINE
  5
1216
100
AcDbEntity
  8
ALPHA
100
AcDb2dPolyline
 66
     1
 10
0.0
 20
0.0
 30
0.0
  0
VERTEX
  5
1217
100
AcDbEntity
  8
ALPHA
100
AcDbVertex
100
AcDb2dVertex
 10
7.264895
 20
4.822368
 30
0.0
  0
VERTEX
  5
1218
100
AcDbEntity
  8
ALPHA
100
AcDbVertex
100
AcDb2dVertex
 10
8.548194
 20
-0.168887
 30
0.0
  0
SEQEND
  5
1219
100
AcDbEntity
  8
ALPHA
  0
POLYLINE
  5
121A
100
AcDbEntity
  8
ALPHA
100
AcDb2dPolyline
 66
     1
 10
0.0
 20
0.0
 30
0.0
  0
VERTEX
  5
121B
100
AcDbEntity
  8
ALPHA
100
AcDbVertex
100
AcDb2dVertex
 10
8.119968
 20
4.822368
 30
0.0
  0
VERTEX
  5
121C
100
AcDbEntity
  8
ALPHA
100
AcDbVertex
100
AcDb2dVertex
 10
9.403611
 20
-0.168887
 30
0.0
  0
SEQEND
  5
121D
100
AcDbEntity
  8
ALPHA
  0
POLYLINE
  5
121E
100
AcDbEntity
  8
ALPHA
100
AcDb2dPolyline
 66
     1
 10
0.0
 20
0.0
 30
0.0
  0
VERTEX
  5
121F
100
AcDbEntity
  8
ALPHA
100
AcDbVertex
100
AcDb2dVertex
 10
22.238314
 20
4.870255
 30
0.0
  0
VERTEX
  5
1220
100
AcDbEntity
  8
ALPHA
100
AcDbVertex
100
AcDb2dVertex
 10
20.95536
 20
-0.122033
 30
0.0
  0
SEQEND
  5
1221
100
AcDbEntity
  8
ALPHA
  0
POLYLINE
  5
1222
100
AcDbEntity
  8
ALPHA
100
AcDb2dPolyline
 66
     1
 10
0.0
 20
0.0
 30
0.0
  0
VERTEX
  5
1223
100
AcDbEntity
  8
ALPHA
100
AcDbVertex
100
AcDb2dVertex
 10
21.383586
 20
4.870255
 30
0.0
  0
VERTEX
  5
1224
100
AcDbEntity
  8
ALPHA
100
AcDbVertex
100
AcDb2dVertex
 10
20.099599
 20
-0.122033
 30
0.0
  0
SEQEND
  5
1225
100
AcDbEntity
  8
ALPHA
  0
POLYLINE
  5
1226
100
AcDbEntity
  8
ALPHA
100
AcDb2dPolyline
 66
     1
 10
0.0
 20
0.0
 30
0.0
  0
VERTEX
  5
1227
100
AcDbEntity
  8
ALPHA
100
AcDbVertex
100
AcDb2dVertex
 10
3.699222
 20
5.916185
 30
0.0
  0
VERTEX
  5
1228
100
AcDbEntity
  8
ALPHA
100
AcDbVertex
100
AcDb2dVertex
 10
26.138162
 20
5.916185
 30
0.0
  0
SEQEND
  5
1229
100
AcDbEntity
  8
ALPHA
  0
POLYLINE
  5
122A
100
AcDbEntity
  8
ALPHA
100
AcDb2dPolyline
 66
     1
 10
0.0
 20
0.0
 30
0.0
  0
VERTEX
  5
122B
100
AcDbEntity
  8
ALPHA
100
AcDbVertex
100
AcDb2dVertex
 10
0.361958
 20
19.640068
 30
0.0
  0
VERTEX
  5
122C
100
AcDbEntity
  8
ALPHA
100
AcDbVertex
100
AcDb2dVertex
 10
29.362082
 20
19.640068
 30
0.0
  0
SEQEND
  5
122D
100
AcDbEntity
  8
ALPHA
  0
POLYLINE
  5
122E
100
AcDbEntity
  8
ALPHA
100
AcDb2dPolyline
 66
     1
 10
0.0
 20
0.0
 30
0.0
  0
VERTEX
  5
122F
100
AcDbEntity
  8
ALPHA
100
AcDbVertex
100
AcDb2dVertex
 10
29.362082
 20
21.782573
 30
0.0
  0
VERTEX
  5
1230
100
AcDbEntity
  8
ALPHA
100
AcDbVertex
100
AcDb2dVertex
 10
0.361958
 20
21.782573
 30
0.0
  0
SEQEND
  5
1231
100
AcDbEntity
  8
ALPHA
  0
POLYLINE
  5
1232
100
AcDbEntity
  8
ALPHA
100
AcDb2dPolyline
 66
     1
 10
0.0
 20
0.0
 30
0.0
  0
VERTEX
  5
1233
100
AcDbEntity
  8
ALPHA
100
AcDbVertex
100
AcDb2dVertex
 10
6.289244
 20
41.781008
 30
0.0
  0
VERTEX
  5
1234
100
AcDbEntity
  8
ALPHA
100
AcDbVertex
100
AcDb2dVertex
 10
6.289244
 20
23.417271
 30
0.0
  0
SEQEND
  5
1235
100
AcDbEntity
  8
ALPHA
  0
POLYLINE
  5
1236
100
AcDbEntity
  8
ALPHA
100
AcDb2dPolyline
 66
     1
 10
0.0
 20
0.0
 30
0.0
  0
VERTEX
  5
1237
100
AcDbEntity
  8
ALPHA
100
AcDbVertex
100
AcDb2dVertex
 10
23.426872
 20
41.781008
 30
0.0
  0
VERTEX
  5
1238
100
AcDbEntity
  8
ALPHA
100
AcDbVertex
100
AcDb2dVertex
 10
23.426872
 20
23.417271
 30
0.0
  0
SEQEND
  5
1239
100
AcDbEntity
  8
ALPHA
  0
POLYLINE
  5
123A
100
AcDbEntity
  8
ALPHA
100
AcDb2dPolyline
 66
     1
 10
0.0
 20
0.0
 30
0.0
  0
VERTEX
  5
123B
100
AcDbEntity
  8
ALPHA
100
AcDbVertex
100
AcDb2dVertex
 10
20.233268
 20
53.279186
 30
0.0
  0
VERTEX
  5
123C
100
AcDbEntity
  8
ALPHA
100
AcDbVertex
100
AcDb2dVertex
 10
9.449431
 20
53.279186
 30
0.0
  0
SEQEND
  5
123D
100
AcDbEntity
  8
ALPHA
  0
POLYLINE
  5
123E
100
AcDbEntity
  8
ALPHA
100
AcDb2dPolyline
 66
     1
 10
0.0
 20
0.0
 30
0.0
  0
VERTEX
  5
123F
100
AcDbEntity
  8
ALPHA
100
AcDbVertex
100
AcDb2dVertex
 10
20.271853
 20
43.578658
 30
0.0
  0
VERTEX
  5
1240
100
AcDbEntity
  8
ALPHA
100
AcDbVertex
100
AcDb2dVertex
 10
9.488016
 20
43.578658
 30
0.0
  0
SEQEND
  5
1241
100
AcDbEntity
  8
ALPHA
  0
POLYLINE
  5
1242
100
AcDbEntity
  8
ALPHA
100
AcDb2dPolyline
 66
     1
 10
0.0
 20
0.0
 30
0.0
  0
VERTEX
  5
1243
100
AcDbEntity
  8
ALPHA
100
AcDbVertex
100
AcDb2dVertex
 10
16.447625
 20
58.687814
 30
0.0
 42
1.0
  0
VERTEX
  5
1244
100
AcDbEntity
  8
ALPHA
100
AcDbVertex
100
AcDb2dVertex
 10
13.20958
 20
58.687814
 30
0.0
 42
1.0
  0
VERTEX
  5
1245
100
AcDbEntity
  8
ALPHA
100
AcDbVertex
100
AcDb2dVertex
 10
16.447625
 20
58.687814
 30
0.0
  0
SEQEND
  5
1246
100
AcDbEntity
  8
ALPHA
  0
POLYLINE
  5
1247
100
AcDbEntity
  8
ALPHA
100
AcDb2dPolyline
 66
     1
 10
0.0
 20
0.0
 30
0.0
  0
VERTEX
  5
1248
100
AcDbEntity
  8
ALPHA
100
AcDbVertex
100
AcDb2dVertex
 10
7.227688
 20
35.093388
 30
0.0
  0
VERTEX
  5
1249
100
AcDbEntity
  8
ALPHA
100
AcDbVertex
100
AcDb2dVertex
 10
7.227688
 20
32.379342
 30
0.0
  0
SEQEND
  5
124A
100
AcDbEntity
  8
ALPHA
  0
POLYLINE
  5
124B
100
AcDbEntity
  8
ALPHA
100
AcDb2dPolyline
 66
     1
 10
0.0
 20
0.0
 30
0.0
  0
VERTEX
  5
124C
100
AcDbEntity
  8
ALPHA
100
AcDbVertex
100
AcDb2dVertex
 10
22.509098
 20
35.093388
 30
0.0
  0
VERTEX
  5
124D
100
AcDbEntity
  8
ALPHA
100
AcDbVertex
100
AcDb2dVertex
 10
22.509098
 20
32.379342
 30
0.0
  0
SEQEND
  5
124E
100
AcDbEntity
  8
ALPHA
  0
POLYLINE
  5
124F
100
AcDbEntity
  8
ALPHA
100
AcDb2dPolyline
 66
     1
 10
0.0
 20
0.0
 30
0.0
  0
VERTEX
  5
1250
100
AcDbEntity
  8
ALPHA
100
AcDbVertex
100
AcDb2dVertex
 10
13.511887
 20
26.072061
 30
0.0
  0
VERTEX
  5
1251
100
AcDbEntity
  8
ALPHA
100
AcDbVertex
100
AcDb2dVertex
 10
16.069526
 20
26.072061
 30
0.0
  0
SEQEND
  5
1252
100
AcDbEntity
  8
ALPHA
  0
POLYLINE
  5
1253
100
AcDbEntity
  8
ALPHA
100
AcDb2dPolyline
 66
     1
 10
0.0
 20
0.0
 30
0.0
  0
VERTEX
  5
1254
100
AcDbEntity
  8
ALPHA
100
AcDbVertex
100
AcDb2dVertex
 10
20.264963
 20
33.736365
 30
0.0
 42
1.0
  0
VERTEX
  5
1255
100
AcDbEntity
  8
ALPHA
100
AcDbVertex
100
AcDb2dVertex
 10
9.469412
 20
33.736365
 30
0.0
 42
1.0
  0
VERTEX
  5
1256
100
AcDbEntity
  8
ALPHA
100
AcDbVertex
100
AcDb2dVertex
 10
20.264963
 20
33.736365
 30
0.0
  0
SEQEND
  5
1257
100
AcDbEntity
  8
ALPHA
  0
POLYLINE
  5
1258
100
AcDbEntity
  8
ALPHA
100
AcDb2dPolyline
 66
     1
 10
0.0
 20
0.0
 30
0.0
  0
VERTEX
  5
1259
100
AcDbEntity
  8
ALPHA
100
AcDbVertex
100
AcDb2dVertex
 10
17.56642
 20
33.736365
 30
0.0
 42
1.0
  0
VERTEX
  5
125A
100
AcDbEntity
  8
ALPHA
100
AcDbVertex
100
AcDb2dVertex
 10
12.167955
 20
33.736365
 30
0.0
 42
1.0
  0
VERTEX
  5
125B
100
AcDbEntity
  8
ALPHA
100
AcDbVertex
100
AcDb2dVertex
 10
17.56642
 20
33.736365
 30
0.0
  0
SEQEND
  5
125C
100
AcDbEntity
  8
ALPHA
  0
POLYLINE
  5
125D
100
AcDbEntity
  8
ALPHA
100
AcDb2dPolyline
 66
     1
 10
0.0
 20
0.0
 30
0.0
  0
VERTEX
  5
125E
100
AcDbEntity
  8
ALPHA
100
AcDbVertex
100
AcDb2dVertex
 10
15.702623
 20
58.687986
 30
0.0
 42
1.0
  0
VERTEX
  5
125F
100
AcDbEntity
  8
ALPHA
100
AcDbVertex
100
AcDb2dVertex
 10
13.954582
 20
58.687986
 30
0.0
 42
1.0
  0
VERTEX
  5
1260
100
AcDbEntity
  8
ALPHA
100
AcDbVertex
100
AcDb2dVertex
 10
15.702623
 20
58.687986
 30
0.0
  0
SEQEND
  5
1261
100
AcDbEntity
  8
ALPHA
  0
POLYLINE
  5
1262
100
AcDbEntity
  8
ALPHA
100
AcDb2dPolyline
 66
     1
 10
0.0
 20
0.0
 30
0.0
  0
VERTEX
  5
1263
100
AcDbEntity
  8
ALPHA
100
AcDbVertex
100
AcDb2dVertex
 10
13.511887
 20
41.323499
 30
0.0
  0
VERTEX
  5
1264
100
AcDbEntity
  8
ALPHA
100
AcDbVertex
100
AcDb2dVertex
 10
16.2249
 20
41.323499
 30
0.0
  0
SEQEND
  5
1265
100
AcDbEntity
  8
ALPHA
  0
POLYLINE
  5
1266
100
AcDbEntity
  8
ALPHA
100
AcDb2dPolyline
 66
     1
 10
0.0
 20
0.0
 30
0.0
  0
VERTEX
  5
1267
100
AcDbEntity
  8
ALPHA
100
AcDbVertex
100
AcDb2dVertex
 10
20.226723
 20
50.847982
 30
0.0
  0
VERTEX
  5
1268
100
AcDbEntity
  8
ALPHA
100
AcDbVertex
100
AcDb2dVertex
 10
21.121234
 20
51.542756
 30
0.0
  0
VERTEX
  5
1269
100
AcDbEntity
  8
ALPHA
100
AcDbVertex
100
AcDb2dVertex
 10
21.926172
 20
52.337235
 30
0.0
  0
VERTEX
  5
126A
100
AcDbEntity
  8
ALPHA
100
AcDbVertex
100
AcDb2dVertex
 10
22.632384
 20
53.222313
 30
0.0
  0
VERTEX
  5
126B
100
AcDbEntity
  8
ALPHA
100
AcDbVertex
100
AcDb2dVertex
 10
23.230717
 20
54.188885
 30
0.0
  0
VERTEX
  5
126C
100
AcDbEntity
  8
ALPHA
100
AcDbVertex
100
AcDb2dVertex
 10
23.712019
 20
55.227844
 30
0.0
  0
VERTEX
  5
126D
100
AcDbEntity
  8
ALPHA
100
AcDbVertex
100
AcDb2dVertex
 10
24.067138
 20
56.330084
 30
0.0
  0
VERTEX
  5
126E
100
AcDbEntity
  8
ALPHA
100
AcDbVertex
100
AcDb2dVertex
 10
24.28692
 20
57.4865
 30
0.0
  0
VERTEX
  5
126F
100
AcDbEntity
  8
ALPHA
100
AcDbVertex
100
AcDb2dVertex
 10
24.362215
 20
58.687986
 30
0.0
  0
VERTEX
  5
1270
100
AcDbEntity
  8
ALPHA
100
AcDbVertex
100
AcDb2dVertex
 10
24.313168
 20
59.659276
 30
0.0
  0
VERTEX
  5
1271
100
AcDbEntity
  8
ALPHA
100
AcDbVertex
100
AcDb2dVertex
 10
24.169208
 20
60.602512
 30
0.0
  0
VERTEX
  5
1272
100
AcDbEntity
  8
ALPHA
100
AcDbVertex
100
AcDb2dVertex
 10
23.935111
 20
61.512919
 30
0.0
  0
VERTEX
  5
1273
100
AcDbEntity
  8
ALPHA
100
AcDbVertex
100
AcDb2dVertex
 10
23.615652
 20
62.38572
 30
0.0
  0
VERTEX
  5
1274
100
AcDbEntity
  8
ALPHA
100
AcDbVertex
100
AcDb2dVertex
 10
23.215607
 20
63.21614
 30
0.0
  0
VERTEX
  5
1275
100
AcDbEntity
  8
ALPHA
100
AcDbVertex
100
AcDb2dVertex
 10
22.739749
 20
63.999405
 30
0.0
  0
VERTEX
  5
1276
100
AcDbEntity
  8
ALPHA
100
AcDbVertex
100
AcDb2dVertex
 10
22.192854
 20
64.730737
 30
0.0
  0
VERTEX
  5
1277
100
AcDbEntity
  8
ALPHA
100
AcDbVertex
100
AcDb2dVertex
 10
21.579698
 20
65.405362
 30
0.0
  0
VERTEX
  5
1278
100
AcDbEntity
  8
ALPHA
100
AcDbVertex
100
AcDb2dVertex
 10
20.905054
 20
66.018505
 30
0.0
  0
VERTEX
  5
1279
100
AcDbEntity
  8
ALPHA
100
AcDbVertex
100
AcDb2dVertex
 10
20.173699
 20
66.565388
 30
0.0
  0
VERTEX
  5
127A
100
AcDbEntity
  8
ALPHA
100
AcDbVertex
100
AcDb2dVertex
 10
19.390407
 20
67.041239
 30
0.0
  0
VERTEX
  5
127B
100
AcDbEntity
  8
ALPHA
100
AcDbVertex
100
AcDb2dVertex
 10
18.559953
 20
67.441279
 30
0.0
  0
VERTEX
  5
127C
100
AcDbEntity
  8
ALPHA
100
AcDbVertex
100
AcDb2dVertex
 10
17.687113
 20
67.760735
 30
0.0
  0
VERTEX
  5
127D
100
AcDbEntity
  8
ALPHA
100
AcDbVertex
100
AcDb2dVertex
 10
16.77666
 20
67.99483
 30
0.0
  0
VERTEX
  5
127E
100
AcDbEntity
  8
ALPHA
100
AcDbVertex
100
AcDb2dVertex
 10
15.833371
 20
68.138789
 30
0.0
  0
VERTEX
  5
127F
100
AcDbEntity
  8
ALPHA
100
AcDbVertex
100
AcDb2dVertex
 10
14.86202
 20
68.187837
 30
0.0
  0
VERTEX
  5
1280
100
AcDbEntity
  8
ALPHA
100
AcDbVertex
100
AcDb2dVertex
 10
13.890699
 20
68.138789
 30
0.0
  0
VERTEX
  5
1281
100
AcDbEntity
  8
ALPHA
100
AcDbVertex
100
AcDb2dVertex
 10
12.947437
 20
67.99483
 30
0.0
  0
VERTEX
  5
1282
100
AcDbEntity
  8
ALPHA
100
AcDbVertex
100
AcDb2dVertex
 10
12.037007
 20
67.760735
 30
0.0
  0
VERTEX
  5
1283
100
AcDbEntity
  8
ALPHA
100
AcDbVertex
100
AcDb2dVertex
 10
11.164186
 20
67.441279
 30
0.0
  0
VERTEX
  5
1284
100
AcDbEntity
  8
ALPHA
100
AcDbVertex
100
AcDb2dVertex
 10
10.333749
 20
67.041239
 30
0.0
  0
VERTEX
  5
1285
100
AcDbEntity
  8
ALPHA
100
AcDbVertex
100
AcDb2dVertex
 10
9.550471
 20
66.565388
 30
0.0
  0
VERTEX
  5
1286
100
AcDbEntity
  8
ALPHA
100
AcDbVertex
100
AcDb2dVertex
 10
8.819127
 20
66.018505
 30
0.0
  0
VERTEX
  5
1287
100
AcDbEntity
  8
ALPHA
100
AcDbVertex
100
AcDb2dVertex
 10
8.144493
 20
65.405362
 30
0.0
  0
VERTEX
  5
1288
100
AcDbEntity
  8
ALPHA
100
AcDbVertex
100
AcDb2dVertex
 10
7.531344
 20
64.730737
 30
0.0
  0
VERTEX
  5
1289
100
AcDbEntity
  8
ALPHA
100
AcDbVertex
100
AcDb2dVertex
 10
6.984454
 20
63.999405
 30
0.0
  0
VERTEX
  5
128A
100
AcDbEntity
  8
ALPHA
100
AcDbVertex
100
AcDb2dVertex
 10
6.5086
 20
63.21614
 30
0.0
  0
VERTEX
  5
128B
100
AcDbEntity
  8
ALPHA
100
AcDbVertex
100
AcDb2dVertex
 10
6.108557
 20
62.38572
 30
0.0
  0
VERTEX
  5
128C
100
AcDbEntity
  8
ALPHA
100
AcDbVertex
100
AcDb2dVertex
 10
5.7891
 20
61.512919
 30
0.0
  0
VERTEX
  5
128D
100
AcDbEntity
  8
ALPHA
100
AcDbVertex
100
AcDb2dVertex
 10
5.555004
 20
60.602512
 30
0.0
  0
VERTEX
  5
128E
100
AcDbEntity
  8
ALPHA
100
AcDbVertex
100
AcDb2dVertex
 10
5.411045
 20
59.659276
 30
0.0
  0
VERTEX
  5
128F
100
AcDbEntity
  8
ALPHA
100
AcDbVertex
100
AcDb2dVertex
 10
5.361997
 20
58.687986
 30
0.0
  0
VERTEX
  5
1290
100
AcDbEntity
  8
ALPHA
100
AcDbVertex
100
AcDb2dVertex
 10
5.436641
 20
57.491774
 30
0.0
  0
VERTEX
  5
1291
100
AcDbEntity
  8
ALPHA
100
AcDbVertex
100
AcDb2dVertex
 10
5.65455
 20
56.340237
 30
0.0
  0
VERTEX
  5
1292
100
AcDbEntity
  8
ALPHA
100
AcDbVertex
100
AcDb2dVertex
 10
6.006689
 20
55.242342
 30
0.0
  0
VERTEX
  5
1293
100
AcDbEntity
  8
ALPHA
100
AcDbVertex
100
AcDb2dVertex
 10
6.484022
 20
54.207058
 30
0.0
  0
VERTEX
  5
1294
100
AcDbEntity
  8
ALPHA
100
AcDbVertex
100
AcDb2dVertex
 10
7.077513
 20
53.243354
 30
0.0
  0
VERTEX
  5
1295
100
AcDbEntity
  8
ALPHA
100
AcDbVertex
100
AcDb2dVertex
 10
7.778129
 20
52.360199
 30
0.0
  0
VERTEX
  5
1296
100
AcDbEntity
  8
ALPHA
100
AcDbVertex
100
AcDb2dVertex
 10
8.576832
 20
51.566561
 30
0.0
  0
VERTEX
  5
1297
100
AcDbEntity
  8
ALPHA
100
AcDbVertex
100
AcDb2dVertex
 10
9.464589
 20
50.871409
 30
0.0
  0
SEQEND
  5
1298
100
AcDbEntity
  8
ALPHA
  0
POLYLINE
  5
1299
100
AcDbEntity
  8
ALPHA
100
AcDb2dPolyline
 66
     1
 10
0.0
 20
0.0
 30
0.0
  0
VERTEX
  5
129A
100
AcDbEntity
  8
ALPHA
100
AcDbVertex
100
AcDb2dVertex
 10
28.23967
 20
14.181314
 30
0.0
  0
VERTEX
  5
129B
100
AcDbEntity
  8
ALPHA
100
AcDbVertex
100
AcDb2dVertex
 10
28.23967
 20
16.348624
 30
0.0
  0
SEQEND
  5
129C
100
AcDbEntity
  8
ALPHA
  0
POLYLINE
  5
129D
100
AcDbEntity
  8
ALPHA
100
AcDb2dPolyline
 66
     1
 10
0.0
 20
0.0
 30
0.0
  0
VERTEX
  5
129E
100
AcDbEntity
  8
ALPHA
100
AcDbVertex
100
AcDb2dVertex
 10
28.23967
 20
16.348624
 30
0.0
  0
VERTEX
  5
129F
100
AcDbEntity
  8
ALPHA
100
AcDbVertex
100
AcDb2dVertex
 10
29.323153
 20
16.348624
 30
0.0
  0
SEQEND
  5
12A0
100
AcDbEntity
  8
ALPHA
  0
POLYLINE
  5
12A1
100
AcDbEntity
  8
ALPHA
100
AcDb2dPolyline
 66
     1
 10
0.0
 20
0.0
 30
0.0
  0
VERTEX
  5
12A2
100
AcDbEntity
  8
ALPHA
100
AcDbVertex
100
AcDb2dVertex
 10
17.272209
 20
38.044112
 30
0.0
  0
VERTEX
  5
12A3
100
AcDbEntity
  8
ALPHA
100
AcDbVertex
100
AcDb2dVertex
 10
20.264274
 20
33.735676
 30
0.0
  0
SEQEND
  5
12A4
100
AcDbEntity
  8
ALPHA
  0
POLYLINE
  5
12A5
100
AcDbEntity
  8
ALPHA
100
AcDb2dPolyline
 66
     1
 10
0.0
 20
0.0
 30
0.0
  0
VERTEX
  5
12A6
100
AcDbEntity
  8
ALPHA
100
AcDbVertex
100
AcDb2dVertex
 10
20.264274
 20
33.735676
 30
0.0
  0
VERTEX
  5
12A7
100
AcDbEntity
  8
ALPHA
100
AcDbVertex
100
AcDb2dVertex
 10
17.272209
 20
29.42724
 30
0.0
  0
SEQEND
  5
12A8
100
AcDbEntity
  8
ALPHA
  0
POLYLINE
  5
12A9
100
AcDbEntity
  8
ALPHA
100
AcDb2dPolyline
 66
     1
 10
0.0
 20
0.0
 30
0.0
  0
VERTEX
  5
12AA
100
AcDbEntity
  8
ALPHA
100
AcDbVertex
100
AcDb2dVertex
 10
17.272209
 20
29.42724
 30
0.0
  0
VERTEX
  5
12AB
100
AcDbEntity
  8
ALPHA
100
AcDbVertex
100
AcDb2dVertex
 10
12.415313
 20
29.42724
 30
0.0
  0
SEQEND
  5
12AC
100
AcDbEntity
  8
ALPHA
  0
POLYLINE
  5
12AD
100
AcDbEntity
  8
ALPHA
100
AcDb2dPolyline
 66
     1
 10
0.0
 20
0.0
 30
0.0
  0
VERTEX
  5
12AE
100
AcDbEntity
  8
ALPHA
100
AcDbVertex
100
AcDb2dVertex
 10
12.415313
 20
29.42724
 30
0.0
  0
VERTEX
  5
12AF
100
AcDbEntity
  8
ALPHA
100
AcDbVertex
100
AcDb2dVertex
 10
9.472513
 20
33.735676
 30
0.0
  0
SEQEND
  5
12B0
100
AcDbEntity
  8
ALPHA
  0
POLYLINE
  5
12B1
100
AcDbEntity
  8
ALPHA
100
AcDb2dPolyline
 66
     1
 10
0.0
 20
0.0
 30
0.0
  0
VERTEX
  5
12B2
100
AcDbEntity
  8
ALPHA
100
AcDbVertex
100
AcDb2dVertex
 10
9.472513
 20
33.735676
 30
0.0
  0
VERTEX
  5
12B3
100
AcDbEntity
  8
ALPHA
100
AcDbVertex
100
AcDb2dVertex
 10
12.415313
 20
38.044112
 30
0.0
  0
SEQEND
  5
12B4
100
AcDbEntity
  8
ALPHA
  0
POLYLINE
  5
12B5
100
AcDbEntity
  8
ALPHA
100
AcDb2dPolyline
 66
     1
 10
0.0
 20
0.0
 30
0.0
  0
VERTEX
  5
12B6
100
AcDbEntity
  8
ALPHA
100
AcDbVertex
100
AcDb2dVertex
 10
12.415313
 20
38.044112
 30
0.0
  0
VERTEX
  5
12B7
100
AcDbEntity
  8
ALPHA
100
AcDbVertex
100
AcDb2dVertex
 10
17.272209
 20
38.044112
 30
0.0
  0
SEQEND
  5
12B8
100
AcDbEntity
  8
ALPHA
  0
POLYLINE
  5
12B9
100
AcDbEntity
  8
ALPHA
100
AcDb2dPolyline
 66
     1
 10
0.0
 20
0.0
 30
0.0
  0
VERTEX
  5
12BA
100
AcDbEntity
  8
ALPHA
100
AcDbVertex
100
AcDb2dVertex
 10
16.216976
 20
39.008739
 30
0.0
  0
VERTEX
  5
12BB
100
AcDbEntity
  8
ALPHA
100
AcDbVertex
100
AcDb2dVertex
 10
16.216976
 20
42.233693
 30
0.0
  0
SEQEND
  5
12BC
100
AcDbEntity
  8
ALPHA
  0
POLYLINE
  5
12BD
100
AcDbEntity
  8
ALPHA
100
AcDb2dPolyline
 66
     1
 10
0.0
 20
0.0
 30
0.0
  0
VERTEX
  5
12BE
100
AcDbEntity
  8
ALPHA
100
AcDbVertex
100
AcDb2dVertex
 10
16.216976
 20
42.233693
 30
0.0
  0
VERTEX
  5
12BF
100
AcDbEntity
  8
ALPHA
100
AcDbVertex
100
AcDb2dVertex
 10
13.517055
 20
42.233693
 30
0.0
  0
SEQEND
  5
12C0
100
AcDbEntity
  8
ALPHA
  0
POLYLINE
  5
12C1
100
AcDbEntity
  8
ALPHA
100
AcDb2dPolyline
 66
     1
 10
0.0
 20
0.0
 30
0.0
  0
VERTEX
  5
12C2
100
AcDbEntity
  8
ALPHA
100
AcDbVertex
100
AcDb2dVertex
 10
13.517055
 20
42.233693
 30
0.0
  0
VERTEX
  5
12C3
100
AcDbEntity
  8
ALPHA
100
AcDbVertex
100
AcDb2dVertex
 10
13.517055
 20
38.9798
 30
0.0
  0
SEQEND
  5
12C4
100
AcDbEntity
  8
ALPHA
  0
POLYLINE
  5
12C5
100
AcDbEntity
  8
ALPHA
100
AcDb2dPolyline
 66
     1
 10
0.0
 20
0.0
 30
0.0
  0
VERTEX
  5
12C6
100
AcDbEntity
  8
ALPHA
100
AcDbVertex
100
AcDb2dVertex
 10
20.152309
 20
35.085809
 30
0.0
  0
VERTEX
  5
12C7
100
AcDbEntity
  8
ALPHA
100
AcDbVertex
100
AcDb2dVertex
 10
23.36486
 20
35.085809
 30
0.0
  0
SEQEND
  5
12C8
100
AcDbEntity
  8
ALPHA
  0
POLYLINE
  5
12C9
100
AcDbEntity
  8
ALPHA
100
AcDb2dPolyline
 66
     1
 10
0.0
 20
0.0
 30
0.0
  0
VERTEX
  5
12CA
100
AcDbEntity
  8
ALPHA
100
AcDbVertex
100
AcDb2dVertex
 10
23.36486
 20
35.085809
 30
0.0
  0
VERTEX
  5
12CB
100
AcDbEntity
  8
ALPHA
100
AcDbVertex
100
AcDb2dVertex
 10
23.398622
 20
35.094766
 30
0.0
  0
SEQEND
  5
12CC
100
AcDbEntity
  8
ALPHA
  0
POLYLINE
  5
12CD
100
AcDbEntity
  8
ALPHA
100
AcDb2dPolyline
 66
     1
 10
0.0
 20
0.0
 30
0.0
  0
VERTEX
  5
12CE
100
AcDbEntity
  8
ALPHA
100
AcDbVertex
100
AcDb2dVertex
 10
23.398622
 20
35.094766
 30
0.0
  0
VERTEX
  5
12CF
100
AcDbEntity
  8
ALPHA
100
AcDbVertex
100
AcDb2dVertex
 10
23.231455
 20
35.893824
 30
0.0
  0
VERTEX
  5
12D0
100
AcDbEntity
  8
ALPHA
100
AcDbVertex
100
AcDb2dVertex
 10
22.989199
 20
36.664072
 30
0.0
  0
VERTEX
  5
12D1
100
AcDbEntity
  8
ALPHA
100
AcDbVertex
100
AcDb2dVertex
 10
22.67664
 20
37.401796
 30
0.0
  0
VERTEX
  5
12D2
100
AcDbEntity
  8
ALPHA
100
AcDbVertex
100
AcDb2dVertex
 10
22.29856
 20
38.103282
 30
0.0
  0
VERTEX
  5
12D3
100
AcDbEntity
  8
ALPHA
100
AcDbVertex
100
AcDb2dVertex
 10
21.859744
 20
38.764816
 30
0.0
  0
VERTEX
  5
12D4
100
AcDbEntity
  8
ALPHA
100
AcDbVertex
100
AcDb2dVertex
 10
21.364977
 20
39.382683
 30
0.0
  0
VERTEX
  5
12D5
100
AcDbEntity
  8
ALPHA
100
AcDbVertex
100
AcDb2dVertex
 10
20.819042
 20
39.953169
 30
0.0
  0
VERTEX
  5
12D6
100
AcDbEntity
  8
ALPHA
100
AcDbVertex
100
AcDb2dVertex
 10
20.226723
 20
40.47256
 30
0.0
  0
SEQEND
  5
12D7
100
AcDbEntity
  8
ALPHA
  0
POLYLINE
  5
12D8
100
AcDbEntity
  8
ALPHA
100
AcDb2dPolyline
 66
     1
 10
0.0
 20
0.0
 30
0.0
  0
VERTEX
  5
12D9
100
AcDbEntity
  8
ALPHA
100
AcDbVertex
100
AcDb2dVertex
 10
20.226723
 20
40.47256
 30
0.0
  0
VERTEX
  5
12DA
100
AcDbEntity
  8
ALPHA
100
AcDbVertex
100
AcDb2dVertex
 10
20.226723
 20
58.672483
 30
0.0
  0
SEQEND
  5
12DB
100
AcDbEntity
  8
ALPHA
  0
POLYLINE
  5
12DC
100
AcDbEntity
  8
ALPHA
100
AcDb2dPolyline
 66
     1
 10
0.0
 20
0.0
 30
0.0
  0
VERTEX
  5
12DD
100
AcDbEntity
  8
ALPHA
100
AcDbVertex
100
AcDb2dVertex
 10
20.226723
 20
58.672483
 30
0.0
  0
VERTEX
  5
12DE
100
AcDbEntity
  8
ALPHA
100
AcDbVertex
100
AcDb2dVertex
 10
20.199233
 20
59.224469
 30
0.0
  0
VERTEX
  5
12DF
100
AcDbEntity
  8
ALPHA
100
AcDbVertex
100
AcDb2dVertex
 10
20.118506
 20
59.760472
 30
0.0
  0
VERTEX
  5
12E0
100
AcDbEntity
  8
ALPHA
100
AcDbVertex
100
AcDb2dVertex
 10
19.987155
 20
60.277783
 30
0.0
  0
VERTEX
  5
12E1
100
AcDbEntity
  8
ALPHA
100
AcDbVertex
100
AcDb2dVertex
 10
19.807794
 20
60.773695
 30
0.0
  0
VERTEX
  5
12E2
100
AcDbEntity
  8
ALPHA
100
AcDbVertex
100
AcDb2dVertex
 10
19.583036
 20
61.245499
 30
0.0
  0
VERTEX
  5
12E3
100
AcDbEntity
  8
ALPHA
100
AcDbVertex
100
AcDb2dVertex
 10
19.315496
 20
61.690486
 30
0.0
  0
VERTEX
  5
12E4
100
AcDbEntity
  8
ALPHA
100
AcDbVertex
100
AcDb2dVertex
 10
19.007786
 20
62.105947
 30
0.0
  0
VERTEX
  5
12E5
100
AcDbEntity
  8
ALPHA
100
AcDbVertex
100
AcDb2dVertex
 10
18.66252
 20
62.489175
 30
0.0
  0
VERTEX
  5
12E6
100
AcDbEntity
  8
ALPHA
100
AcDbVertex
100
AcDb2dVertex
 10
18.282312
 20
62.837461
 30
0.0
  0
VERTEX
  5
12E7
100
AcDbEntity
  8
ALPHA
100
AcDbVertex
100
AcDb2dVertex
 10
17.869776
 20
63.148096
 30
0.0
  0
VERTEX
  5
12E8
100
AcDbEntity
  8
ALPHA
100
AcDbVertex
100
AcDb2dVertex
 10
17.427525
 20
63.418372
 30
0.0
  0
VERTEX
  5
12E9
100
AcDbEntity
  8
ALPHA
100
AcDbVertex
100
AcDb2dVertex
 10
16.958172
 20
63.645581
 30
0.0
  0
VERTEX
  5
12EA
100
AcDbEntity
  8
ALPHA
100
AcDbVertex
100
AcDb2dVertex
 10
16.464332
 20
63.827013
 30
0.0
  0
VERTEX
  5
12EB
100
AcDbEntity
  8
ALPHA
100
AcDbVertex
100
AcDb2dVertex
 10
15.948617
 20
63.959961
 30
0.0
  0
VERTEX
  5
12EC
100
AcDbEntity
  8
ALPHA
100
AcDbVertex
100
AcDb2dVertex
 10
15.413642
 20
64.041716
 30
0.0
  0
VERTEX
  5
12ED
100
AcDbEntity
  8
ALPHA
100
AcDbVertex
100
AcDb2dVertex
 10
14.86202
 20
64.06957
 30
0.0
  0
VERTEX
  5
12EE
100
AcDbEntity
  8
ALPHA
100
AcDbVertex
100
AcDb2dVertex
 10
14.310428
 20
64.041716
 30
0.0
  0
VERTEX
  5
12EF
100
AcDbEntity
  8
ALPHA
100
AcDbVertex
100
AcDb2dVertex
 10
13.774709
 20
63.959961
 30
0.0
  0
VERTEX
  5
12F0
100
AcDbEntity
  8
ALPHA
100
AcDbVertex
100
AcDb2dVertex
 10
13.257583
 20
63.827013
 30
0.0
  0
VERTEX
  5
12F1
100
AcDbEntity
  8
ALPHA
100
AcDbVertex
100
AcDb2dVertex
 10
12.761771
 20
63.645581
 30
0.0
  0
VERTEX
  5
12F2
100
AcDbEntity
  8
ALPHA
100
AcDbVertex
100
AcDb2dVertex
 10
12.289993
 20
63.418372
 30
0.0
  0
VERTEX
  5
12F3
100
AcDbEntity
  8
ALPHA
100
AcDbVertex
100
AcDb2dVertex
 10
11.844968
 20
63.148096
 30
0.0
  0
VERTEX
  5
12F4
100
AcDbEntity
  8
ALPHA
100
AcDbVertex
100
AcDb2dVertex
 10
11.429417
 20
62.837461
 30
0.0
  0
VERTEX
  5
12F5
100
AcDbEntity
  8
ALPHA
100
AcDbVertex
100
AcDb2dVertex
 10
11.04606
 20
62.489175
 30
0.0
  0
VERTEX
  5
12F6
100
AcDbEntity
  8
ALPHA
100
AcDbVertex
100
AcDb2dVertex
 10
10.697617
 20
62.105947
 30
0.0
  0
VERTEX
  5
12F7
100
AcDbEntity
  8
ALPHA
100
AcDbVertex
100
AcDb2dVertex
 10
10.386807
 20
61.690486
 30
0.0
  0
VERTEX
  5
12F8
100
AcDbEntity
  8
ALPHA
100
AcDbVertex
100
AcDb2dVertex
 10
10.116352
 20
61.245499
 30
0.0
  0
VERTEX
  5
12F9
100
AcDbEntity
  8
ALPHA
100
AcDbVertex
100
AcDb2dVertex
 10
9.888971
 20
60.773695
 30
0.0
  0
VERTEX
  5
12FA
100
AcDbEntity
  8
ALPHA
100
AcDbVertex
100
AcDb2dVertex
 10
9.707384
 20
60.277783
 30
0.0
  0
VERTEX
  5
12FB
100
AcDbEntity
  8
ALPHA
100
AcDbVertex
100
AcDb2dVertex
 10
9.574311
 20
59.760472
 30
0.0
  0
VERTEX
  5
12FC
100
AcDbEntity
  8
ALPHA
100
AcDbVertex
100
AcDb2dVertex
 10
9.492473
 20
59.224469
 30
0.0
  0
VERTEX
  5
12FD
100
AcDbEntity
  8
ALPHA
100
AcDbVertex
100
AcDb2dVertex
 10
9.464589
 20
58.672483
 30
0.0
  0
SEQEND
  5
12FE
100
AcDbEntity
  8
ALPHA
  0
POLYLINE
  5
12FF
100
AcDbEntity
  8
ALPHA
100
AcDb2dPolyline
 66
     1
 10
0.0
 20
0.0
 30
0.0
  0
VERTEX
  5
1300
100
AcDbEntity
  8
ALPHA
100
AcDbVertex
100
AcDb2dVertex
 10
9.464589
 20
58.672483
 30
0.0
  0
VERTEX
  5
1301
100
AcDbEntity
  8
ALPHA
100
AcDbVertex
100
AcDb2dVertex
 10
9.464589
 20
40.47256
 30
0.0
  0
SEQEND
  5
1302
100
AcDbEntity
  8
ALPHA
  0
POLYLINE
  5
1303
100
AcDbEntity
  8
ALPHA
100
AcDb2dPolyline
 66
     1
 10
0.0
 20
0.0
 30
0.0
  0
VERTEX
  5
1304
100
AcDbEntity
  8
ALPHA
100
AcDbVertex
100
AcDb2dVertex
 10
9.464589
 20
40.47256
 30
0.0
  0
VERTEX
  5
1305
100
AcDbEntity
  8
ALPHA
100
AcDbVertex
100
AcDb2dVertex
 10
8.874323
 20
39.953169
 30
0.0
  0
VERTEX
  5
1306
100
AcDbEntity
  8
ALPHA
100
AcDbVertex
100
AcDb2dVertex
 10
8.333586
 20
39.382683
 30
0.0
  0
VERTEX
  5
1307
100
AcDbEntity
  8
ALPHA
100
AcDbVertex
100
AcDb2dVertex
 10
7.846107
 20
38.764816
 30
0.0
  0
VERTEX
  5
1308
100
AcDbEntity
  8
ALPHA
100
AcDbVertex
100
AcDb2dVertex
 10
7.415618
 20
38.103282
 30
0.0
  0
VERTEX
  5
1309
100
AcDbEntity
  8
ALPHA
100
AcDbVertex
100
AcDb2dVertex
 10
7.045849
 20
37.401796
 30
0.0
  0
VERTEX
  5
130A
100
AcDbEntity
  8
ALPHA
100
AcDbVertex
100
AcDb2dVertex
 10
6.74053
 20
36.664072
 30
0.0
  0
VERTEX
  5
130B
100
AcDbEntity
  8
ALPHA
100
AcDbVertex
100
AcDb2dVertex
 10
6.503392
 20
35.893824
 30
0.0
  0
VERTEX
  5
130C
100
AcDbEntity
  8
ALPHA
100
AcDbVertex
100
AcDb2dVertex
 10
6.338165
 20
35.094766
 30
0.0
  0
SEQEND
  5
130D
100
AcDbEntity
  8
ALPHA
  0
POLYLINE
  5
130E
100
AcDbEntity
  8
ALPHA
100
AcDb2dPolyline
 66
     1
 10
0.0
 20
0.0
 30
0.0
  0
VERTEX
  5
130F
100
AcDbEntity
  8
ALPHA
100
AcDbVertex
100
AcDb2dVertex
 10
6.338165
 20
35.094766
 30
0.0
  0
VERTEX
  5
1310
100
AcDbEntity
  8
ALPHA
100
AcDbVertex
100
AcDb2dVertex
 10
6.346089
 20
35.085809
 30
0.0
  0
SEQEND
  5
1311
100
AcDbEntity
  8
ALPHA
  0
POLYLINE
  5
1312
100
AcDbEntity
  8
ALPHA
100
AcDb2dPolyline
 66
     1
 10
0.0
 20
0.0
 30
0.0
  0
VERTEX
  5
1313
100
AcDbEntity
  8
ALPHA
100
AcDbVertex
100
AcDb2dVertex
 10
6.346089
 20
35.085809
 30
0.0
  0
VERTEX
  5
1314
100
AcDbEntity
  8
ALPHA
100
AcDbVertex
100
AcDb2dVertex
 10
9.692827
 20
35.085809
 30
0.0
  0
SEQEND
  5
1315
100
AcDbEntity
  8
ALPHA
  0
POLYLINE
  5
1316
100
AcDbEntity
  8
ALPHA
100
AcDb2dPolyline
 66
     1
 10
0.0
 20
0.0
 30
0.0
  0
VERTEX
  5
1317
100
AcDbEntity
  8
ALPHA
100
AcDbVertex
100
AcDb2dVertex
 10
9.711258
 20
32.388644
 30
0.0
  0
VERTEX
  5
1318
100
AcDbEntity
  8
ALPHA
100
AcDbVertex
100
AcDb2dVertex
 10
6.343332
 20
32.428607
 30
0.0
  0
SEQEND
  5
1319
100
AcDbEntity
  8
ALPHA
  0
POLYLINE
  5
131A
100
AcDbEntity
  8
ALPHA
100
AcDb2dPolyline
 66
     1
 10
0.0
 20
0.0
 30
0.0
  0
VERTEX
  5
131B
100
AcDbEntity
  8
ALPHA
100
AcDbVertex
100
AcDb2dVertex
 10
6.343332
 20
32.428607
 30
0.0
  0
VERTEX
  5
131C
100
AcDbEntity
  8
ALPHA
100
AcDbVertex
100
AcDb2dVertex
 10
6.669961
 20
31.088444
 30
0.0
  0
VERTEX
  5
131D
100
AcDbEntity
  8
ALPHA
100
AcDbVertex
100
AcDb2dVertex
 10
7.195423
 20
29.833486
 30
0.0
  0
VERTEX
  5
131E
100
AcDbEntity
  8
ALPHA
100
AcDbVertex
100
AcDb2dVertex
 10
7.901607
 20
28.683602
 30
0.0
  0
VERTEX
  5
131F
100
AcDbEntity
  8
ALPHA
100
AcDbVertex
100
AcDb2dVertex
 10
8.770402
 20
27.658657
 30
0.0
  0
VERTEX
  5
1320
100
AcDbEntity
  8
ALPHA
100
AcDbVertex
100
AcDb2dVertex
 10
9.783698
 20
26.778519
 30
0.0
  0
VERTEX
  5
1321
100
AcDbEntity
  8
ALPHA
100
AcDbVertex
100
AcDb2dVertex
 10
10.923382
 20
26.063055
 30
0.0
  0
VERTEX
  5
1322
100
AcDbEntity
  8
ALPHA
100
AcDbVertex
100
AcDb2dVertex
 10
12.171345
 20
25.532133
 30
0.0
  0
VERTEX
  5
1323
100
AcDbEntity
  8
ALPHA
100
AcDbVertex
100
AcDb2dVertex
 10
13.509476
 20
25.20562
 30
0.0
  0
SEQEND
  5
1324
100
AcDbEntity
  8
ALPHA
  0
POLYLINE
  5
1325
100
AcDbEntity
  8
ALPHA
100
AcDb2dPolyline
 66
     1
 10
0.0
 20
0.0
 30
0.0
  0
VERTEX
  5
1326
100
AcDbEntity
  8
ALPHA
100
AcDbVertex
100
AcDb2dVertex
 10
13.509476
 20
25.20562
 30
0.0
  0
VERTEX
  5
1327
100
AcDbEntity
  8
ALPHA
100
AcDbVertex
100
AcDb2dVertex
 10
13.51671
 20
28.567344
 30
0.0
  0
SEQEND
  5
1328
100
AcDbEntity
  8
ALPHA
  0
POLYLINE
  5
1329
100
AcDbEntity
  8
ALPHA
100
AcDb2dPolyline
 66
     1
 10
0.0
 20
0.0
 30
0.0
  0
VERTEX
  5
132A
100
AcDbEntity
  8
ALPHA
100
AcDbVertex
100
AcDb2dVertex
 10
16.212497
 20
28.537371
 30
0.0
  0
VERTEX
  5
132B
100
AcDbEntity
  8
ALPHA
100
AcDbVertex
100
AcDb2dVertex
 10
16.152208
 20
25.206998
 30
0.0
  0
SEQEND
  5
132C
100
AcDbEntity
  8
ALPHA
  0
POLYLINE
  5
132D
100
AcDbEntity
  8
ALPHA
100
AcDb2dPolyline
 66
     1
 10
0.0
 20
0.0
 30
0.0
  0
VERTEX
  5
132E
100
AcDbEntity
  8
ALPHA
100
AcDbVertex
100
AcDb2dVertex
 10
16.152208
 20
25.206998
 30
0.0
  0
VERTEX
  5
132F
100
AcDbEntity
  8
ALPHA
100
AcDbVertex
100
AcDb2dVertex
 10
17.496289
 20
25.531559
 30
0.0
  0
VERTEX
  5
1330
100
AcDbEntity
  8
ALPHA
100
AcDbVertex
100
AcDb2dVertex
 10
18.755156
 20
26.055918
 30
0.0
  0
VERTEX
  5
1331
100
AcDbEntity
  8
ALPHA
100
AcDbVertex
100
AcDb2dVertex
 10
19.908804
 20
26.761863
 30
0.0
  0
VERTEX
  5
1332
100
AcDbEntity
  8
ALPHA
100
AcDbVertex
100
AcDb2dVertex
 10
20.937231
 20
27.631182
 30
0.0
  0
VERTEX
  5
1333
100
AcDbEntity
  8
ALPHA
100
AcDbVertex
100
AcDb2dVertex
 10
21.82043
 20
28.645664
 30
0.0
  0
VERTEX
  5
1334
100
AcDbEntity
  8
ALPHA
100
AcDbVertex
100
AcDb2dVertex
 10
22.538398
 20
29.787096
 30
0.0
  0
VERTEX
  5
1335
100
AcDbEntity
  8
ALPHA
100
AcDbVertex
100
AcDb2dVertex
 10
23.07113
 20
31.037267
 30
0.0
  0
VERTEX
  5
1336
100
AcDbEntity
  8
ALPHA
100
AcDbVertex
100
AcDb2dVertex
 10
23.398622
 20
32.377964
 30
0.0
  0
SEQEND
  5
1337
100
AcDbEntity
  8
ALPHA
  0
POLYLINE
  5
1338
100
AcDbEntity
  8
ALPHA
100
AcDb2dPolyline
 66
     1
 10
0.0
 20
0.0
 30
0.0
  0
VERTEX
  5
1339
100
AcDbEntity
  8
ALPHA
100
AcDbVertex
100
AcDb2dVertex
 10
23.398622
 20
32.377964
 30
0.0
  0
VERTEX
  5
133A
100
AcDbEntity
  8
ALPHA
100
AcDbVertex
100
AcDb2dVertex
 10
20.133016
 20
32.385199
 30
0.0
  0
SEQEND
  5
133B
100
AcDbEntity
  8
ALPHA
  0
POLYLINE
  5
133C
100
AcDbEntity
  8
ALPHA
100
AcDb2dPolyline
 66
     1
 10
0.0
 20
0.0
 30
0.0
  0
VERTEX
  5
133D
100
AcDbEntity
  8
ALPHA
100
AcDbVertex
100
AcDb2dVertex
 10
23.42446
 20
21.782573
 30
0.0
  0
VERTEX
  5
133E
100
AcDbEntity
  8
ALPHA
100
AcDbVertex
100
AcDb2dVertex
 10
23.42446
 20
23.396944
 30
0.0
  0
SEQEND
  5
133F
100
AcDbEntity
  8
ALPHA
  0
POLYLINE
  5
1340
100
AcDbEntity
  8
ALPHA
100
AcDb2dPolyline
 66
     1
 10
0.0
 20
0.0
 30
0.0
  0
VERTEX
  5
1341
100
AcDbEntity
  8
ALPHA
100
AcDbVertex
100
AcDb2dVertex
 10
23.42446
 20
23.396944
 30
0.0
  0
VERTEX
  5
1342
100
AcDbEntity
  8
ALPHA
100
AcDbVertex
100
AcDb2dVertex
 10
25.82707
 20
23.396944
 30
0.0
  0
SEQEND
  5
1343
100
AcDbEntity
  8
ALPHA
  0
POLYLINE
  5
1344
100
AcDbEntity
  8
ALPHA
100
AcDb2dPolyline
 66
     1
 10
0.0
 20
0.0
 30
0.0
  0
VERTEX
  5
1345
100
AcDbEntity
  8
ALPHA
100
AcDbVertex
100
AcDb2dVertex
 10
25.82707
 20
23.396944
 30
0.0
  0
VERTEX
  5
1346
100
AcDbEntity
  8
ALPHA
100
AcDbVertex
100
AcDb2dVertex
 10
25.82707
 20
22.562198
 30
0.0
  0
SEQEND
  5
1347
100
AcDbEntity
  8
ALPHA
  0
POLYLINE
  5
1348
100
AcDbEntity
  8
ALPHA
100
AcDb2dPolyline
 66
     1
 10
0.0
 20
0.0
 30
0.0
  0
VERTEX
  5
1349
100
AcDbEntity
  8
ALPHA
100
AcDbVertex
100
AcDb2dVertex
 10
25.82707
 20
22.562198
 30
0.0
  0
VERTEX
  5
134A
100
AcDbEntity
  8
ALPHA
100
AcDbVertex
100
AcDb2dVertex
 10
26.959473
 20
22.562198
 30
0.0
  0
SEQEND
  5
134B
100
AcDbEntity
  8
ALPHA
  0
POLYLINE
  5
134C
100
AcDbEntity
  8
ALPHA
100
AcDb2dPolyline
 66
     1
 10
0.0
 20
0.0
 30
0.0
  0
VERTEX
  5
134D
100
AcDbEntity
  8
ALPHA
100
AcDbVertex
100
AcDb2dVertex
 10
26.959473
 20
22.562198
 30
0.0
  0
VERTEX
  5
134E
100
AcDbEntity
  8
ALPHA
100
AcDbVertex
100
AcDb2dVertex
 10
26.959473
 20
23.396944
 30
0.0
  0
SEQEND
  5
134F
100
AcDbEntity
  8
ALPHA
  0
POLYLINE
  5
1350
100
AcDbEntity
  8
ALPHA
100
AcDb2dPolyline
 66
     1
 10
0.0
 20
0.0
 30
0.0
  0
VERTEX
  5
1351
100
AcDbEntity
  8
ALPHA
100
AcDbVertex
100
AcDb2dVertex
 10
26.959473
 20
23.396944
 30
0.0
  0
VERTEX
  5
1352
100
AcDbEntity
  8
ALPHA
100
AcDbVertex
100
AcDb2dVertex
 10
29.362082
 20
23.396944
 30
0.0
  0
SEQEND
  5
1353
100
AcDbEntity
  8
ALPHA
  0
POLYLINE
  5
1354
100
AcDbEntity
  8
ALPHA
100
AcDb2dPolyline
 66
     1
 10
0.0
 20
0.0
 30
0.0
  0
VERTEX
  5
1355
100
AcDbEntity
  8
ALPHA
100
AcDbVertex
100
AcDb2dVertex
 10
29.362082
 20
23.396944
 30
0.0
  0
VERTEX
  5
1356
100
AcDbEntity
  8
ALPHA
100
AcDbVertex
100
AcDb2dVertex
 10
29.362082
 20
21.782573
 30
0.0
  0
SEQEND
  5
1357
100
AcDbEntity
  8
ALPHA
  0
POLYLINE
  5
1358
100
AcDbEntity
  8
ALPHA
100
AcDb2dPolyline
 66
     1
 10
0.0
 20
0.0
 30
0.0
  0
VERTEX
  5
1359
100
AcDbEntity
  8
ALPHA
100
AcDbVertex
100
AcDb2dVertex
 10
0.361958
 20
21.782573
 30
0.0
  0
VERTEX
  5
135A
100
AcDbEntity
  8
ALPHA
100
AcDbVertex
100
AcDb2dVertex
 10
0.361958
 20
23.396944
 30
0.0
  0
SEQEND
  5
135B
100
AcDbEntity
  8
ALPHA
  0
POLYLINE
  5
135C
100
AcDbEntity
  8
ALPHA
100
AcDb2dPolyline
 66
     1
 10
0.0
 20
0.0
 30
0.0
  0
VERTEX
  5
135D
100
AcDbEntity
  8
ALPHA
100
AcDbVertex
100
AcDb2dVertex
 10
0.361958
 20
23.396944
 30
0.0
  0
VERTEX
  5
135E
100
AcDbEntity
  8
ALPHA
100
AcDbVertex
100
AcDb2dVertex
 10
2.764223
 20
23.396944
 30
0.0
  0
SEQEND
  5
135F
100
AcDbEntity
  8
ALPHA
  0
POLYLINE
  5
1360
100
AcDbEntity
  8
ALPHA
100
AcDb2dPolyline
 66
     1
 10
0.0
 20
0.0
 30
0.0
  0
VERTEX
  5
1361
100
AcDbEntity
  8
ALPHA
100
AcDbVertex
100
AcDb2dVertex
 10
2.764223
 20
23.396944
 30
0.0
  0
VERTEX
  5
1362
100
AcDbEntity
  8
ALPHA
100
AcDbVertex
100
AcDb2dVertex
 10
2.764223
 20
22.562198
 30
0.0
  0
SEQEND
  5
1363
100
AcDbEntity
  8
ALPHA
  0
POLYLINE
  5
1364
100
AcDbEntity
  8
ALPHA
100
AcDb2dPolyline
 66
     1
 10
0.0
 20
0.0
 30
0.0
  0
VERTEX
  5
1365
100
AcDbEntity
  8
ALPHA
100
AcDbVertex
100
AcDb2dVertex
 10
2.764223
 20
22.562198
 30
0.0
  0
VERTEX
  5
1366
100
AcDbEntity
  8
ALPHA
100
AcDbVertex
100
AcDb2dVertex
 10
3.894559
 20
22.562198
 30
0.0
  0
SEQEND
  5
1367
100
AcDbEntity
  8
ALPHA
  0
POLYLINE
  5
1368
100
AcDbEntity
  8
ALPHA
100
AcDb2dPolyline
 66
     1
 10
0.0
 20
0.0
 30
0.0
  0
VERTEX
  5
1369
100
AcDbEntity
  8
ALPHA
100
AcDbVertex
100
AcDb2dVertex
 10
3.894559
 20
22.562198
 30
0.0
  0
VERTEX
  5
136A
100
AcDbEntity
  8
ALPHA
100
AcDbVertex
100
AcDb2dVertex
 10
3.894559
 20
23.396944
 30
0.0
  0
SEQEND
  5
136B
100
AcDbEntity
  8
ALPHA
  0
POLYLINE
  5
136C
100
AcDbEntity
  8
ALPHA
100
AcDb2dPolyline
 66
     1
 10
0.0
 20
0.0
 30
0.0
  0
VERTEX
  5
136D
100
AcDbEntity
  8
ALPHA
100
AcDbVertex
100
AcDb2dVertex
 10
3.894559
 20
23.396944
 30
0.0
  0
VERTEX
  5
136E
100
AcDbEntity
  8
ALPHA
100
AcDbVertex
100
AcDb2dVertex
 10
6.29958
 20
23.396944
 30
0.0
  0
SEQEND
  5
136F
100
AcDbEntity
  8
ALPHA
  0
POLYLINE
  5
1370
100
AcDbEntity
  8
ALPHA
100
AcDb2dPolyline
 66
     1
 10
0.0
 20
0.0
 30
0.0
  0
VERTEX
  5
1371
100
AcDbEntity
  8
ALPHA
100
AcDbVertex
100
AcDb2dVertex
 10
6.29958
 20
23.396944
 30
0.0
  0
VERTEX
  5
1372
100
AcDbEntity
  8
ALPHA
100
AcDbVertex
100
AcDb2dVertex
 10
6.29958
 20
21.782573
 30
0.0
  0
SEQEND
  5
1373
100
AcDbEntity
  8
ALPHA
  0
POLYLINE
  5
1374
100
AcDbEntity
  8
ALPHA
100
AcDb2dPolyline
 66
     1
 10
0.0
 20
0.0
 30
0.0
  0
VERTEX
  5
1375
100
AcDbEntity
  8
ALPHA
100
AcDbVertex
100
AcDb2dVertex
 10
1.440273
 20
14.181314
 30
0.0
  0
VERTEX
  5
1376
100
AcDbEntity
  8
ALPHA
100
AcDbVertex
100
AcDb2dVertex
 10
1.448196
 20
16.348624
 30
0.0
  0
SEQEND
  5
1377
100
AcDbEntity
  8
ALPHA
  0
POLYLINE
  5
1378
100
AcDbEntity
  8
ALPHA
100
AcDb2dPolyline
 66
     1
 10
0.0
 20
0.0
 30
0.0
  0
VERTEX
  5
1379
100
AcDbEntity
  8
ALPHA
100
AcDbVertex
100
AcDb2dVertex
 10
1.448196
 20
16.348624
 30
0.0
  0
VERTEX
  5
137A
100
AcDbEntity
  8
ALPHA
100
AcDbVertex
100
AcDb2dVertex
 10
0.367125
 20
16.348624
 30
0.0
  0
SEQEND
  5
137B
100
AcDbEntity
  8
ALPHA
  0
POLYLINE
  5
137C
100
AcDbEntity
  8
ALPHA
100
AcDb2dPolyline
 66
     1
 10
0.0
 20
0.0
 30
0.0
  0
VERTEX
  5
137D
100
AcDbEntity
  8
ALPHA
100
AcDbVertex
100
AcDb2dVertex
 10
0.361958
 20
21.782573
 30
0.0
  0
VERTEX
  5
137E
100
AcDbEntity
  8
ALPHA
100
AcDbVertex
100
AcDb2dVertex
 10
0.361958
 20
14.18786
 30
0.0
  0
SEQEND
  5
137F
100
AcDbEntity
  8
ALPHA
  0
POLYLINE
  5
1380
100
AcDbEntity
  8
ALPHA
100
AcDb2dPolyline
 66
     1
 10
0.0
 20
0.0
 30
0.0
  0
VERTEX
  5
1381
100
AcDbEntity
  8
ALPHA
100
AcDbVertex
100
AcDb2dVertex
 10
0.361958
 20
14.18786
 30
0.0
  0
VERTEX
  5
1382
100
AcDbEntity
  8
ALPHA
100
AcDbVertex
100
AcDb2dVertex
 10
29.362082
 20
14.18786
 30
0.0
  0
SEQEND
  5
1383
100
AcDbEntity
  8
ALPHA
  0
POLYLINE
  5
1384
100
AcDbEntity
  8
ALPHA
100
AcDb2dPolyline
 66
     1
 10
0.0
 20
0.0
 30
0.0
  0
VERTEX
  5
1385
100
AcDbEntity
  8
ALPHA
100
AcDbVertex
100
AcDb2dVertex
 10
29.362082
 20
14.18786
 30
0.0
  0
VERTEX
  5
1386
100
AcDbEntity
  8
ALPHA
100
AcDbVertex
100
AcDb2dVertex
 10
29.362082
 20
21.782573
 30
0.0
  0
SEQEND
  5
1387
100
AcDbEntity
  8
ALPHA
  0
POLYLINE
  5
1388
100
AcDbEntity
  8
ALPHA
100
AcDb2dPolyline
 66
     1
 10
0.0
 20
0.0
 30
0.0
  0
VERTEX
  5
1389
100
AcDbEntity
  8
ALPHA
100
AcDbVertex
100
AcDb2dVertex
 10
9.464589
 20
41.779974
 30
0.0
  0
VERTEX
  5
138A
100
AcDbEntity
  8
ALPHA
100
AcDbVertex
100
AcDb2dVertex
 10
0.361958
 20
41.779974
 30
0.0
  0
SEQEND
  5
138B
100
AcDbEntity
  8
ALPHA
  0
POLYLINE
  5
138C
100
AcDbEntity
  8
ALPHA
100
AcDb2dPolyline
 66
     1
 10
0.0
 20
0.0
 30
0.0
  0
VERTEX
  5
138D
100
AcDbEntity
  8
ALPHA
100
AcDbVertex
100
AcDb2dVertex
 10
0.361958
 20
41.779974
 30
0.0
  0
VERTEX
  5
138E
100
AcDbEntity
  8
ALPHA
100
AcDbVertex
100
AcDb2dVertex
 10
0.361958
 20
23.396944
 30
0.0
  0
SEQEND
  5
138F
100
AcDbEntity
  8
ALPHA
  0
POLYLINE
  5
1390
100
AcDbEntity
  8
ALPHA
100
AcDb2dPolyline
 66
     1
 10
0.0
 20
0.0
 30
0.0
  0
VERTEX
  5
1391
100
AcDbEntity
  8
ALPHA
100
AcDbVertex
100
AcDb2dVertex
 10
29.362082
 20
23.396944
 30
0.0
  0
VERTEX
  5
1392
100
AcDbEntity
  8
ALPHA
100
AcDbVertex
100
AcDb2dVertex
 10
29.362082
 20
41.779974
 30
0.0
  0
SEQEND
  5
1393
100
AcDbEntity
  8
ALPHA
  0
POLYLINE
  5
1394
100
AcDbEntity
  8
ALPHA
100
AcDb2dPolyline
 66
     1
 10
0.0
 20
0.0
 30
0.0
  0
VERTEX
  5
1395
100
AcDbEntity
  8
ALPHA
100
AcDbVertex
100
AcDb2dVertex
 10
29.362082
 20
41.779974
 30
0.0
  0
VERTEX
  5
1396
100
AcDbEntity
  8
ALPHA
100
AcDbVertex
100
AcDb2dVertex
 10
20.194339
 20
41.779974
 30
0.0
  0
SEQEND
  5
1397
100
AcDbEntity
  8
ALPHA
  0
POLYLINE
  5
1398
100
AcDbEntity
  8
ALPHA
100
AcDb2dPolyline
 66
     1
 10
0.0
 20
0.0
 30
0.0
  0
VERTEX
  5
1399
100
AcDbEntity
  8
ALPHA
100
AcDbVertex
100
AcDb2dVertex
 10
6.075649
 20
4.893681
 30
0.0
  0
VERTEX
  5
139A
100
AcDbEntity
  8
ALPHA
100
AcDbVertex
100
AcDb2dVertex
 10
7.406833
 20
-0.168887
 30
0.0
  0
SEQEND
  5
139B
100
AcDbEntity
  8
ALPHA
  0
POLYLINE
  5
139C
100
AcDbEntity
  8
ALPHA
100
AcDb2dPolyline
 66
     1
 10
0.0
 20
0.0
 30
0.0
  0
VERTEX
  5
139D
100
AcDbEntity
  8
ALPHA
100
AcDbVertex
100
AcDb2dVertex
 10
7.406833
 20
-0.168887
 30
0.0
  0
VERTEX
  5
139E
100
AcDbEntity
  8
ALPHA
100
AcDbVertex
100
AcDb2dVertex
 10
22.238314
 20
-0.168887
 30
0.0
  0
SEQEND
  5
139F
100
AcDbEntity
  8
ALPHA
  0
POLYLINE
  5
13A0
100
AcDbEntity
  8
ALPHA
100
AcDb2dPolyline
 66
     1
 10
0.0
 20
0.0
 30
0.0
  0
VERTEX
  5
13A1
100
AcDbEntity
  8
ALPHA
100
AcDbVertex
100
AcDb2dVertex
 10
22.238314
 20
-0.168887
 30
0.0
  0
VERTEX
  5
13A2
100
AcDbEntity
  8
ALPHA
100
AcDbVertex
100
AcDb2dVertex
 10
23.903673
 20
4.893681
 30
0.0
  0
SEQEND
  5
13A3
100
AcDbEntity
  8
ALPHA
  0
POLYLINE
  5
13A4
100
AcDbEntity
  8
ALPHA
100
AcDb2dPolyline
 66
     1
 10
0.0
 20
0.0
 30
0.0
  0
VERTEX
  5
13A5
100
AcDbEntity
  8
ALPHA
100
AcDbVertex
100
AcDb2dVertex
 10
26.138162
 20
12.951759
 30
0.0
  0
VERTEX
  5
13A6
100
AcDbEntity
  8
ALPHA
100
AcDbVertex
100
AcDb2dVertex
 10
26.138162
 20
5.916185
 30
0.0
  0
SEQEND
  5
13A7
100
AcDbEntity
  8
ALPHA
  0
POLYLINE
  5
13A8
100
AcDbEntity
  8
ALPHA
100
AcDb2dPolyline
 66
     1
 10
0.0
 20
0.0
 30
0.0
  0
VERTEX
  5
13A9
100
AcDbEntity
  8
ALPHA
100
AcDbVertex
100
AcDb2dVertex
 10
26.138162
 20
5.916185
 30
0.0
  0
VERTEX
  5
13AA
100
AcDbEntity
  8
ALPHA
100
AcDbVertex
100
AcDb2dVertex
 10
25.115313
 20
4.893681
 30
0.0
  0
SEQEND
  5
13AB
100
AcDbEntity
  8
ALPHA
  0
POLYLINE
  5
13AC
100
AcDbEntity
  8
ALPHA
100
AcDb2dPolyline
 66
     1
 10
0.0
 20
0.0
 30
0.0
  0
VERTEX
  5
13AD
100
AcDbEntity
  8
ALPHA
100
AcDbVertex
100
AcDb2dVertex
 10
25.115313
 20
4.893681
 30
0.0
  0
VERTEX
  5
13AE
100
AcDbEntity
  8
ALPHA
100
AcDbVertex
100
AcDb2dVertex
 10
4.721381
 20
4.893681
 30
0.0
  0
SEQEND
  5
13AF
100
AcDbEntity
  8
ALPHA
  0
POLYLINE
  5
13B0
100
AcDbEntity
  8
ALPHA
100
AcDb2dPolyline
 66
     1
 10
0.0
 20
0.0
 30
0.0
  0
VERTEX
  5
13B1
100
AcDbEntity
  8
ALPHA
100
AcDbVertex
100
AcDb2dVertex
 10
4.721381
 20
4.893681
 30
0.0
  0
VERTEX
  5
13B2
100
AcDbEntity
  8
ALPHA
100
AcDbVertex
100
AcDb2dVertex
 10
3.699222
 20
5.916185
 30
0.0
  0
SEQEND
  5
13B3
100
AcDbEntity
  8
ALPHA
  0
POLYLINE
  5
13B4
100
AcDbEntity
  8
ALPHA
100
AcDb2dPolyline
 66
     1
 10
0.0
 20
0.0
 30
0.0
  0
VERTEX
  5
13B5
100
AcDbEntity
  8
ALPHA
100
AcDbVertex
100
AcDb2dVertex
 10
3.699222
 20
5.916185
 30
0.0
  0
VERTEX
  5
13B6
100
AcDbEntity
  8
ALPHA
100
AcDbVertex
100
AcDb2dVertex
 10
3.699222
 20
12.951759
 30
0.0
  0
SEQEND
  5
13B7
100
AcDbEntity
  8
ALPHA
  0
POLYLINE
  5
13B8
100
AcDbEntity
  8
ALPHA
100
AcDb2dPolyline
 66
     1
 10
0.0
 20
0.0
 30
0.0
  0
VERTEX
  5
13B9
100
AcDbEntity
  8
ALPHA
100
AcDbVertex
100
AcDb2dVertex
 10
2.177178
 20
14.18786
 30
0.0
  0
VERTEX
  5
13BA
100
AcDbEntity
  8
ALPHA
100
AcDbVertex
100
AcDb2dVertex
 10
2.177178
 20
12.951759
 30
0.0
  0
SEQEND
  5
13BB
100
AcDbEntity
  8
ALPHA
  0
POLYLINE
  5
13BC
100
AcDbEntity
  8
ALPHA
100
AcDb2dPolyline
 66
     1
 10
0.0
 20
0.0
 30
0.0
  0
VERTEX
  5
13BD
100
AcDbEntity
  8
ALPHA
100
AcDbVertex
100
AcDb2dVertex
 10
2.177178
 20
12.951759
 30
0.0
  0
VERTEX
  5
13BE
100
AcDbEntity
  8
ALPHA
100
AcDbVertex
100
AcDb2dVertex
 10
27.563054
 20
12.951759
 30
0.0
  0
SEQEND
  5
13BF
100
AcDbEntity
  8
ALPHA
  0
POLYLINE
  5
13C0
100
AcDbEntity
  8
ALPHA
100
AcDb2dPolyline
 66
     1
 10
0.0
 20
0.0
 30
0.0
  0
VERTEX
  5
13C1
100
AcDbEntity
  8
ALPHA
100
AcDbVertex
100
AcDb2dVertex
 10
27.563054
 20
12.951759
 30
0.0
  0
VERTEX
  5
13C2
100
AcDbEntity
  8
ALPHA
100
AcDbVertex
100
AcDb2dVertex
 10
27.563054
 20
14.18786
 30
0.0
  0
SEQEND
  5
13C3
100
AcDbEntity
  8
ALPHA
  0
DIMENSION
  5
13D0
100
AcDbEntity
  8
COTATION1
100
AcDbDimension
  2
*D7
 10
24.362215
 20
73.589556
 30
0.0
 11
14.862106
 21
75.839556
 31
0.0
 70
    32
  1
%%c<>
  3
SC_STAND
100
AcDbAlignedDimension
 13
5.361997
 23
58.687986
 33
0.0
 14
24.362215
 24
58.687986
 34
0.0
100
AcDbRotatedDimension
  0
DIMENSION
  5
1435
100
AcDbEntity
  8
COTATION1
100
AcDbDimension
  2
*D8
 10
36.730643
 20
68.187837
 30
0.0
 11
34.480643
 21
50.962101
 31
0.0
 70
    32
  1
34.5
  3
SC_STAND
100
AcDbAlignedDimension
 13
14.867188
 23
33.736365
 33
0.0
 14
14.86202
 24
68.187837
 34
0.0
 50
90.0
100
AcDbRotatedDimension
  0
DIMENSION
  5
14A5
100
AcDbEntity
  8
COTATION1
100
AcDbDimension
  2
*D9
 10
42.217613
 20
14.18786
 30
0.0
 11
39.967613
 21
41.187848
 31
0.0
 70
    32
  3
SC_STAND
100
AcDbAlignedDimension
 13
33.479107
 23
68.187837
 33
0.0
 14
29.362082
 24
14.18786
 34
0.0
 50
90.0
100
AcDbRotatedDimension
  0
ENDSEC
  0
SECTION
  2
OBJECTS
  0
DICTIONARY
  5
F8
100
AcDbDictionary
  3
ACAD_GROUP
350
F9
  3
ACAD_MLINESTYLE
350
106
  3
ACDBVARIABLEDICTIONARY
350
143
  0
DICTIONARY
  5
F9
102
{ACAD_REACTORS
330
F8
102
}
100
AcDbDictionary
  0
DICTIONARY
  5
106
102
{ACAD_REACTORS
330
F8
102
}
100
AcDbDictionary
  3
STANDARD
350
107
  0
DICTIONARY
  5
143
102
{ACAD_REACTORS
330
F8
102
}
100
AcDbDictionary
  3
DIMADEC
350
144
  0
MLINESTYLE
  5
107
102
{ACAD_REACTORS
330
106
102
}
100
AcDbMlineStyle
  2
STANDARD
 70
     0
  3

 62
   256
 51
90.0
 52
90.0
 71
     2
 49
0.5
 62
   256
  6
BYLAYER
 49
-0.5
 62
   256
  6
BYLAYER
  0
DICTIONARYVAR
  5
144
102
{ACAD_REACTORS
330
143
102
}
100
DictionaryVariables
280
     0
  1
0
  0
ENDSEC
  0
EOF
