  0
SECTION
  2
HEADER
  9
$ACADVER
  1
AC1009
  9
$INSBASE
 10
402.590624
 20
-1.041018
 30
0.0
  9
$EXTMIN
 10
-7.478894
 20
-0.743649
 30
0.0
  9
$EXTMAX
 10
83.689185
 20
57.256351
 30
0.0
  9
$LIMMIN
 10
-407.970438
 20
-367.832444
  9
$LIMMAX
 10
429.804077
 20
234.370848
  9
$ORTHOMODE
 70
     1
  9
$REGENMODE
 70
     1
  9
$FILLMODE
 70
     1
  9
$QTEXTMODE
 70
     0
  9
$MIRRTEXT
 70
     1
  9
$DRAGMODE
 70
     2
  9
$LTSCALE
 40
10.0
  9
$OSMODE
 70
    39
  9
$ATTMODE
 70
     1
  9
$TEXTSIZE
 40
6.0
  9
$TRACEWID
 40
1.0
  9
$TEXTSTYLE
  7
ROMANS
  9
$CLAYER
  8
ALPHA
  9
$CELTYPE
  6
BYLAYER
  9
$CECOLOR
 62
   256
  9
$DIMSCALE
 40
1.0
  9
$DIMASZ
 40
5.0
  9
$DIMEXO
 40
2.0
  9
$DIMDLI
 40
0.38
  9
$DIMRND
 40
0.0
  9
$DIMDLE
 40
0.0
  9
$DIMEXE
 40
2.5
  9
$DIMTP
 40
0.0
  9
$DIMTM
 40
0.0
  9
$DIMTXT
 40
2.5
  9
$DIMCEN
 40
0.0
  9
$DIMTSZ
 40
0.0
  9
$DIMTOL
 70
     0
  9
$DIMLIM
 70
     0
  9
$DIMTIH
 70
     1
  9
$DIMTOH
 70
     1
  9
$DIMSE1
 70
     0
  9
$DIMSE2
 70
     0
  9
$DIMTAD
 70
     1
  9
$DIMZIN
 70
    12
  9
$DIMBLK
  1
OPEN30
  9
$DIMASO
 70
     1
  9
$DIMSHO
 70
     1
  9
$DIMPOST
  1

  9
$DIMAPOST
  1

  9
$DIMALT
 70
     0
  9
$DIMALTD
 70
     2
  9
$DIMALTF
 40
25.4
  9
$DIMLFAC
 40
1.0
  9
$DIMTOFL
 70
     0
  9
$DIMTVP
 40
0.0
  9
$DIMTIX
 70
     0
  9
$DIMSOXD
 70
     0
  9
$DIMSAH
 70
     0
  9
$DIMBLK1
  1

  9
$DIMBLK2
  1

  9
$DIMSTYLE
  2
SC_DEFAUT
  9
$DIMCLRD
 70
     0
  9
$DIMCLRE
 70
     0
  9
$DIMCLRT
 70
     0
  9
$DIMTFAC
 40
1.0
  9
$DIMGAP
 40
2.0
  9
$LUNITS
 70
     2
  9
$LUPREC
 70
     1
  9
$SKETCHINC
 40
0.1
  9
$FILLETRAD
 40
0.0
  9
$AUNITS
 70
     0
  9
$AUPREC
 70
     0
  9
$MENU
  1
acad
  9
$ELEVATION
 40
0.0
  9
$PELEVATION
 40
0.0
  9
$THICKNESS
 40
0.0
  9
$LIMCHECK
 70
     0
  9
$BLIPMODE
 70
     0
  9
$CHAMFERA
 40
0.0
  9
$CHAMFERB
 40
0.0
  9
$SKPOLY
 70
     0
  9
$TDCREATE
 40
2450373.687919
  9
$TDUPDATE
 40
2452993.658349
  9
$TDINDWG
 40
0.901111
  9
$TDUSRTIMER
 40
0.901111
  9
$USRTIMER
 70
     1
  9
$ANGBASE
 50
0.0
  9
$ANGDIR
 70
     0
  9
$PDMODE
 70
    32
  9
$PDSIZE
 40
0.0
  9
$PLINEWID
 40
0.0
  9
$COORDS
 70
     1
  9
$SPLFRAME
 70
     0
  9
$SPLINETYPE
 70
     6
  9
$SPLINESEGS
 70
     8
  9
$ATTDIA
 70
     0
  9
$ATTREQ
 70
     1
  9
$HANDLING
 70
     1
  9
$HANDSEED
  5
99F4
  9
$SURFTAB1
 70
     6
  9
$SURFTAB2
 70
     6
  9
$SURFTYPE
 70
     6
  9
$SURFU
 70
     6
  9
$SURFV
 70
     6
  9
$UCSNAME
  2

  9
$UCSORG
 10
0.0
 20
0.0
 30
0.0
  9
$UCSXDIR
 10
1.0
 20
0.0
 30
0.0
  9
$UCSYDIR
 10
0.0
 20
1.0
 30
0.0
  9
$PUCSNAME
  2

  9
$PUCSORG
 10
0.0
 20
0.0
 30
0.0
  9
$PUCSXDIR
 10
1.0
 20
0.0
 30
0.0
  9
$PUCSYDIR
 10
0.0
 20
1.0
 30
0.0
  9
$USERI1
 70
     0
  9
$USERI2
 70
     0
  9
$USERI3
 70
     0
  9
$USERI4
 70
     0
  9
$USERI5
 70
     0
  9
$USERR1
 40
0.0
  9
$USERR2
 40
0.0
  9
$USERR3
 40
0.0
  9
$USERR4
 40
0.0
  9
$USERR5
 40
0.0
  9
$WORLDVIEW
 70
     1
  9
$SHADEDGE
 70
     3
  9
$SHADEDIF
 70
    70
  9
$TILEMODE
 70
     1
  9
$MAXACTVP
 70
    16
  9
$PLIMCHECK
 70
     0
  9
$PEXTMIN
 10
-1.452248
 20
-0.437698
 30
0.0
  9
$PEXTMAX
 10
12.749749
 20
8.310198
 30
0.0
  9
$PLIMMIN
 10
0.0
 20
0.0
  9
$PLIMMAX
 10
12.0
 20
9.0
  9
$UNITMODE
 70
     0
  9
$VISRETAIN
 70
     0
  9
$PLINEGEN
 70
     0
  9
$PSLTSCALE
 70
     0
  0
ENDSEC
  0
SECTION
  2
TABLES
  0
TABLE
  2
VPORT
 70
     2
  0
VPORT
  2
*ACTIVE
 70
     0
 10
0.0
 20
0.0
 11
1.0
 21
1.0
 12
38.113557
 22
28.259385
 13
0.0
 23
0.0
 14
1.0
 24
1.0
 15
10.0
 25
10.0
 16
0.0
 26
0.0
 36
1.0
 17
0.0
 27
0.0
 37
0.0
 40
62.507592
 41
1.466346
 42
50.0
 43
0.0
 44
0.0
 50
0.0
 51
0.0
 71
     0
 72
   100
 73
     1
 74
     0
 75
     0
 76
     0
 77
     0
 78
     0
  0
ENDTAB
  0
TABLE
  2
LTYPE
 70
     2
  0
LTYPE
  2
CONTINUOUS
 70
     0
  3
Solid line
 72
    65
 73
     0
 40
0.0
  0
LTYPE
  2
AXES2
 70
     0
  3
___ _ ___ _ ___ _ ___ _ ___ _ ___ _ ___ _ ___ _
 72
    65
 73
     4
 40
1.125
 49
0.75
 49
-0.125
 49
0.125
 49
-0.125
  0
ENDTAB
  0
TABLE
  2
LAYER
 70
     5
  0
LAYER
  2
0
 70
     0
 62
   255
  6
CONTINUOUS
  0
LAYER
  2
COTATION1
 70
     0
 62
     2
  6
CONTINUOUS
  0
LAYER
  2
AXE
 70
     0
 62
    80
  6
AXES2
  0
LAYER
  2
DEFPOINTS
 70
     0
 62
     7
  6
CONTINUOUS
  0
LAYER
  2
ALPHA
 70
     0
 62
   254
  6
CONTINUOUS
  0
ENDTAB
  0
TABLE
  2
STYLE
 70
     2
  0
STYLE
  2
ROMANS
 70
     0
 40
0.0
 41
1.0
 50
0.0
 71
     0
 42
6.0
  3
romans
  4

  0
STYLE
  2
STANDARD
 70
     0
 40
0.0
 41
1.0
 50
0.0
 71
     0
 42
0.2
  3
txt
  4

  0
ENDTAB
  0
TABLE
  2
VIEW
 70
     0
  0
ENDTAB
  0
TABLE
  2
UCS
 70
     0
  0
ENDTAB
  0
TABLE
  2
APPID
 70
     1
  0
APPID
  2
ACAD
 70
     0
  0
ENDTAB
  0
TABLE
  2
DIMSTYLE
 70
     2
  0
DIMSTYLE
  2
SC_DEFAUT
 70
     0
  3

  4

  5
OPEN30
  6

  7

 40
1.0
 41
5.0
 42
2.0
 43
0.38
 44
2.5
 45
0.0
 46
0.0
 47
0.0
 48
0.0
140
2.5
141
0.0
142
0.0
143
25.4
144
1.0
145
0.0
146
1.0
147
2.0
 71
     0
 72
     0
 73
     1
 74
     1
 75
     0
 76
     0
 77
     1
 78
    12
170
     0
171
     2
172
     0
173
     0
174
     0
175
     0
176
     0
177
     0
178
     0
  0
DIMSTYLE
  2
STANDARD
 70
     0
  3

  4

  5

  6

  7

 40
1.0
 41
0.18
 42
0.0625
 43
0.38
 44
0.18
 45
0.0
 46
0.0
 47
0.0
 48
0.0
140
0.18
141
0.09
142
0.0
143
25.4
144
1.0
145
0.0
146
1.0
147
0.09
 71
     0
 72
     0
 73
     1
 74
     1
 75
     0
 76
     0
 77
     0
 78
     0
170
     0
171
     2
172
     0
173
     0
174
     0
175
     0
176
     0
177
     0
178
     0
  0
ENDTAB
  0
ENDSEC
  0
SECTION
  2
BLOCKS
  0
BLOCK
  8
0
  2
$MODEL_SPACE
 70
     0
 10
0.0
 20
0.0
 30
0.0
  3
$MODEL_SPACE
  1

  0
ENDBLK
  5
9869
  8
0
  0
BLOCK
 67
     1
  8
0
  2
$PAPER_SPACE
 70
     0
 10
0.0
 20
0.0
 30
0.0
  3
$PAPER_SPACE
  1

  0
ENDBLK
  5
9867
 67
     1
  8
0
  0
BLOCK
  8
0
  2
COTE
 70
     0
 10
0.0
 20
0.0
 30
0.0
  3
COTE
  1

  0
ENDBLK
  5
F
  8
0
  0
BLOCK
  8
0
  2
FOND
 70
     0
 10
0.0
 20
0.0
 30
0.0
  3
FOND
  1

  0
ENDBLK
  5
75
  8
0
  0
BLOCK
  8
0
  2
_OPEN30
 70
     0
 10
0.0
 20
0.0
 30
0.0
  3
_OPEN30
  1

  0
LINE
  5
4B05
  8
COTATION1
 62
     0
 10
-1.0
 20
0.267949
 30
0.0
 11
0.0
 21
0.0
 31
0.0
1001
ACAD
1000
RTLwPs
1070
   158
  0
LINE
  5
4B06
  8
COTATION1
 62
     0
 10
0.0
 20
0.0
 30
0.0
 11
-1.0
 21
-0.267949
 31
0.0
1001
ACAD
1000
RTLwPs
1070
   158
  0
LINE
  5
4B07
  8
COTATION1
 62
     0
 10
0.0
 20
0.0
 30
0.0
 11
-1.0
 21
0.0
 31
0.0
1001
ACAD
1000
RTLwPs
1070
   158
  0
ENDBLK
  5
4B09
  8
0
  0
BLOCK
  8
0
  2
*D3
 70
     1
 10
0.0
 20
0.0
 30
0.0
  3
*D3
  1

  0
LINE
  5
9621
  8
COTATION1
 62
     0
 10
43.879661
 20
37.143977
 30
0.0
 11
43.879661
 21
55.256351
 31
0.0
1001
ACAD
1000
RTLwPs
1070
   158
  0
LINE
  5
9622
  8
COTATION1
 62
     0
 10
59.879661
 20
37.143977
 30
0.0
 11
59.879661
 21
55.256351
 31
0.0
1001
ACAD
1000
RTLwPs
1070
   158
  0
LINE
  5
9623
  8
COTATION1
 62
     0
 10
48.879661
 20
52.756351
 30
0.0
 11
54.879661
 21
52.756351
 31
0.0
1001
ACAD
1000
RTLwPs
1070
   158
  0
INSERT
  5
9624
  8
COTATION1
 62
     0
  2
_OPEN30
 10
43.879661
 20
52.756351
 30
0.0
 41
5.0
 42
5.0
 43
5.0
 50
180.0
1001
ACAD
1000
RTLwPs
1070
   158
  0
INSERT
  5
9625
  8
COTATION1
 62
     0
  2
_OPEN30
 10
59.879661
 20
52.756351
 30
0.0
 41
5.0
 42
5.0
 43
5.0
1001
ACAD
1000
RTLwPs
1070
   158
  0
TEXT
  5
9626
  8
COTATION1
 62
     0
 10
49.320137
 20
54.756351
 30
0.0
 40
2.5
  1
16
1001
ACAD
1000
MTEXTBEGIN
1070
    73
1070
     1
1070
    44
1040
1.0
1070
    74
1070
     0
1000
MTEXTEND
  0
POINT
  5
9627
  8
DEFPOINTS
 62
     0
 10
43.879661
 20
35.143977
 30
0.0
  0
POINT
  5
9628
  8
DEFPOINTS
 62
     0
 10
59.879661
 20
35.143977
 30
0.0
  0
POINT
  5
9629
  8
DEFPOINTS
 62
     0
 10
59.879661
 20
52.756351
 30
0.0
  0
ENDBLK
  5
7F3E
  8
0
  0
BLOCK
  8
0
  2
*D4
 70
     1
 10
0.0
 20
0.0
 30
0.0
  3
*D4
  1

  0
LINE
  5
9634
  8
COTATION1
 62
     0
 10
49.879661
 20
37.756351
 30
0.0
 11
28.237846
 21
37.756351
 31
0.0
1001
ACAD
1000
RTLwPs
1070
   158
  0
LINE
  5
9635
  8
COTATION1
 62
     0
 10
41.879661
 20
19.256351
 30
0.0
 11
28.237846
 21
19.256351
 31
0.0
1001
ACAD
1000
RTLwPs
1070
   158
  0
LINE
  5
9636
  8
COTATION1
 62
     0
 10
30.737846
 20
32.756351
 30
0.0
 11
30.737846
 21
31.756351
 31
0.0
1001
ACAD
1000
RTLwPs
1070
   158
  0
LINE
  5
9637
  8
COTATION1
 62
     0
 10
30.737846
 20
24.256351
 30
0.0
 11
30.737846
 21
25.256351
 31
0.0
1001
ACAD
1000
RTLwPs
1070
   158
  0
TEXT
  5
9638
  8
COTATION1
 62
     0
 10
26.392608
 20
27.256351
 30
0.0
 40
2.5
  1
18.5
1001
ACAD
1000
MTEXTBEGIN
1070
    73
1070
     1
1070
    44
1040
1.0
1070
    74
1070
     0
1000
MTEXTEND
  0
INSERT
  5
9639
  8
COTATION1
 62
     0
  2
_OPEN30
 10
30.737846
 20
37.756351
 30
0.0
 41
5.0
 42
5.0
 43
5.0
 50
90.0
1001
ACAD
1000
RTLwPs
1070
   158
  0
INSERT
  5
963A
  8
COTATION1
 62
     0
  2
_OPEN30
 10
30.737846
 20
19.256351
 30
0.0
 41
5.0
 42
5.0
 43
5.0
 50
270.0
1001
ACAD
1000
RTLwPs
1070
   158
  0
POINT
  5
963B
  8
DEFPOINTS
 62
     0
 10
51.879661
 20
37.756351
 30
0.0
  0
POINT
  5
963C
  8
DEFPOINTS
 62
     0
 10
43.879661
 20
19.256351
 30
0.0
  0
POINT
  5
963D
  8
DEFPOINTS
 62
     0
 10
30.737846
 20
19.256351
 30
0.0
  0
ENDBLK
  5
7F4B
  8
0
  0
BLOCK
  8
0
  2
*D5
 70
     1
 10
0.0
 20
0.0
 30
0.0
  3
*D5
  1

  0
LINE
  5
962A
  8
COTATION1
 62
     0
 10
53.879661
 20
37.756351
 30
0.0
 11
82.379661
 21
37.756351
 31
0.0
1001
ACAD
1000
RTLwPs
1070
   158
  0
LINE
  5
962B
  8
COTATION1
 62
     0
 10
59.379661
 20
9.256351
 30
0.0
 11
82.379661
 21
9.256351
 31
0.0
1001
ACAD
1000
RTLwPs
1070
   158
  0
LINE
  5
962C
  8
COTATION1
 62
     0
 10
79.879661
 20
32.756351
 30
0.0
 11
79.879661
 21
26.756351
 31
0.0
1001
ACAD
1000
RTLwPs
1070
   158
  0
LINE
  5
962D
  8
COTATION1
 62
     0
 10
79.879661
 20
14.256351
 30
0.0
 11
79.879661
 21
20.256351
 31
0.0
1001
ACAD
1000
RTLwPs
1070
   158
  0
TEXT
  5
962E
  8
COTATION1
 62
     0
 10
75.712994
 20
22.256351
 30
0.0
 40
2.5
  1
28.5
1001
ACAD
1000
MTEXTBEGIN
1070
    73
1070
     1
1070
    44
1040
1.0
1070
    74
1070
     0
1000
MTEXTEND
  0
INSERT
  5
962F
  8
COTATION1
 62
     0
  2
_OPEN30
 10
79.879661
 20
37.756351
 30
0.0
 41
5.0
 42
5.0
 43
5.0
 50
90.0
1001
ACAD
1000
RTLwPs
1070
   158
  0
INSERT
  5
9630
  8
COTATION1
 62
     0
  2
_OPEN30
 10
79.879661
 20
9.256351
 30
0.0
 41
5.0
 42
5.0
 43
5.0
 50
270.0
1001
ACAD
1000
RTLwPs
1070
   158
  0
POINT
  5
9631
  8
DEFPOINTS
 62
     0
 10
51.879661
 20
37.756351
 30
0.0
  0
POINT
  5
9632
  8
DEFPOINTS
 62
     0
 10
57.379661
 20
9.256351
 30
0.0
  0
POINT
  5
9633
  8
DEFPOINTS
 62
     0
 10
79.879661
 20
9.256351
 30
0.0
  0
ENDBLK
  5
8EB4
  8
0
  0
ENDSEC
  0
SECTION
  2
ENTITIES
  0
INSERT
  5
A
  8
0
  2
COTE
 10
0.0
 20
0.0
 30
0.0
  0
INSERT
  5
17
  8
0
  2
COTE
 10
284.010391
 20
6.373258
 30
0.0
  0
INSERT
  5
72
  8
0
  2
FOND
 10
0.0
 20
0.0
 30
0.0
  0
DIMENSION
  5
7F30
  8
COTATION1
  2
*D3
 10
59.879661
 20
52.756351
 30
0.0
 11
51.879661
 21
56.006351
 31
0.0
 13
43.879661
 23
35.143977
 33
0.0
 14
59.879661
 24
35.143977
 34
0.0
  0
DIMENSION
  5
7F31
  8
COTATION1
  2
*D4
 10
30.737846
 20
19.256351
 30
0.0
 11
30.737846
 21
28.506351
 31
0.0
 70
   128
 13
51.879661
 23
37.756351
 33
0.0
 14
43.879661
 24
19.256351
 34
0.0
 50
90.0
  0
LINE
  5
8AD3
  8
AXE
 10
51.879661
 20
-0.743649
 30
0.0
 11
51.879661
 21
42.756351
 31
0.0
  0
TEXT
  5
8AD4
  8
AXE
 10
46.832042
 20
-0.743649
 30
0.0
 40
5.0
  1
Y
 72
     2
 11
50.879661
 21
-0.743649
 31
0.0
  0
LINE
  5
8AD5
  8
AXE
 10
38.879661
 20
16.501351
 30
0.0
 11
69.879661
 21
16.501351
 31
0.0
  0
TEXT
  5
8AD6
  8
AXE
 10
65.832042
 20
17.501351
 30
0.0
 40
5.0
  1
X
 72
     2
 11
69.879661
 21
17.501351
 31
0.0
  0
LINE
  5
8B73
  8
COTATION1
 10
5.771106
 20
21.756351
 30
0.0
 11
5.771106
 21
46.715273
 31
0.0
  0
LINE
  5
8B74
  8
COTATION1
 10
-2.329247
 20
19.256351
 30
0.0
 11
42.879661
 21
19.256351
 31
0.0
  0
SOLID
  5
8B75
  8
COTATION1
 10
7.214482
 20
19.256351
 30
0.0
 11
4.32773
 21
19.256351
 31
0.0
 12
5.771106
 22
21.756351
 32
0.0
 13
5.771106
 23
21.756351
 33
0.0
  0
LINE
  5
8B76
  8
COTATION1
 10
-7.478894
 20
51.715273
 30
0.0
 11
19.021106
 21
51.715273
 31
0.0
  0
LINE
  5
8B77
  8
COTATION1
 10
19.021106
 20
46.715273
 30
0.0
 11
-7.478894
 21
46.715273
 31
0.0
  0
TEXT
  5
8B78
  8
COTATION1
 10
-6.228894
 20
47.965273
 30
0.0
 40
2.5
  1
PLANE_TO_LINE_UP
 41
0.626087
  7
STANDARD
 72
     5
 11
17.771106
 21
47.965273
 31
0.0
  0
LINE
  5
8B79
  8
COTATION1
 10
19.021106
 20
51.715273
 30
0.0
 11
19.021106
 21
46.715273
 31
0.0
  0
LINE
  5
8B7A
  8
COTATION1
 10
-7.478894
 20
46.715273
 30
0.0
 11
-7.478894
 21
51.715273
 31
0.0
  0
DIMENSION
  5
8EA7
  8
COTATION1
  2
*D5
 10
79.879661
 20
9.256351
 30
0.0
 11
79.879661
 21
23.506351
 31
0.0
 70
   128
 13
51.879661
 23
37.756351
 33
0.0
 14
57.379661
 24
9.256351
 34
0.0
 50
90.0
  0
ARC
  5
927C
  8
ALPHA
 10
51.879661
 20
28.756351
 30
0.0
 40
7.523399
 50
301.90427
 51
358.09573
  0
ARC
  5
927D
  8
ALPHA
 10
51.879661
 20
28.756351
 30
0.0
 40
7.523399
 50
181.90427
 51
238.09573
  0
ARC
  5
927E
  8
ALPHA
 10
51.879661
 20
28.756351
 30
0.0
 40
7.614754
 50
301.721912
 51
358.278088
  0
CIRCLE
  5
927F
  8
ALPHA
 10
51.879661
 20
28.756351
 30
0.0
 40
8.0
  0
ARC
  5
9280
  8
ALPHA
 10
51.879661
 20
28.756351
 30
0.0
 40
7.614754
 50
181.721912
 51
238.278088
  0
CIRCLE
  5
9281
  8
ALPHA
 10
51.879661
 20
28.756351
 30
0.0
 40
7.9
  0
CIRCLE
  5
9282
  8
ALPHA
 10
51.879661
 20
28.756351
 30
0.0
 40
7.0
  0
CIRCLE
  5
9283
  8
ALPHA
 10
51.879661
 20
28.756351
 30
0.0
 40
7.5
  0
LINE
  5
9284
  8
ALPHA
 10
59.879661
 20
19.256351
 30
0.0
 11
59.879661
 21
35.143977
 31
0.0
  0
LINE
  5
9285
  8
ALPHA
 10
43.879661
 20
19.256351
 30
0.0
 11
43.879661
 21
35.143977
 31
0.0
  0
POLYLINE
  5
9286
  8
ALPHA
 66
     1
 10
0.0
 20
0.0
 30
0.0
 70
   128
210
0.0
220
0.0
230
-1.0
  0
VERTEX
  5
986F
  8
ALPHA
 10
-51.879661
 20
19.506351
 30
0.0
  0
VERTEX
  5
9870
  8
ALPHA
 10
-50.718385
 20
19.58287
 30
0.0
  0
VERTEX
  5
9871
  8
ALPHA
 10
-49.57771
 20
19.816586
 30
0.0
  0
VERTEX
  5
9872
  8
ALPHA
 10
-48.477819
 20
20.197298
 30
0.0
  0
VERTEX
  5
9873
  8
ALPHA
 10
-47.437701
 20
20.720312
 30
0.0
  0
VERTEX
  5
9874
  8
ALPHA
 10
-46.474504
 20
21.374344
 30
0.0
  0
VERTEX
  5
9875
  8
ALPHA
 10
-45.604276
 20
22.14759
 30
0.0
  0
VERTEX
  5
9876
  8
ALPHA
 10
-44.838215
 20
23.024498
 30
0.0
  0
VERTEX
  5
9877
  8
ALPHA
 10
-44.191349
 20
23.991873
 30
0.0
  0
SEQEND
  5
9878
  8
ALPHA
  0
ARC
  5
9287
  8
ALPHA
 10
51.879661
 20
28.756351
 30
0.0
 40
7.614754
 50
241.721912
 51
298.278088
  0
ARC
  5
9288
  8
ALPHA
 10
51.879661
 20
28.756351
 30
0.0
 40
7.523399
 50
241.90427
 51
298.09573
  0
ARC
  5
9289
  8
ALPHA
 10
51.879661
 20
28.756351
 30
0.0
 40
9.0
 50
211.002719
 51
328.997281
  0
LINE
  5
928A
  8
ALPHA
 10
43.879661
 20
19.256351
 30
0.0
 11
59.879661
 21
19.256351
 31
0.0
  0
LINE
  5
928B
  8
ALPHA
 10
49.84768
 20
17.256351
 30
0.0
 11
48.802009
 21
17.256351
 31
0.0
  0
LINE
  5
928C
  8
ALPHA
 10
45.179778
 20
17.106351
 30
0.0
 11
58.579544
 21
17.106351
 31
0.0
  0
LINE
  5
928D
  8
ALPHA
 10
45.529772
 20
15.806351
 30
0.0
 11
58.22955
 21
15.806351
 31
0.0
  0
LINE
  5
928E
  8
ALPHA
 10
45.529772
 20
14.656351
 30
0.0
 11
58.22955
 21
14.656351
 31
0.0
  0
LINE
  5
928F
  8
ALPHA
 10
57.879661
 20
14.556351
 30
0.0
 11
45.879661
 21
14.556351
 31
0.0
  0
LINE
  5
9290
  8
ALPHA
 10
57.879661
 20
13.556351
 30
0.0
 11
45.879661
 21
13.556351
 31
0.0
  0
LINE
  5
9291
  8
ALPHA
 10
45.529772
 20
13.456351
 30
0.0
 11
58.22955
 21
13.456351
 31
0.0
  0
LINE
  5
9292
  8
ALPHA
 10
45.529772
 20
12.856351
 30
0.0
 11
58.22955
 21
12.856351
 31
0.0
  0
LINE
  5
9293
  8
ALPHA
 10
49.129661
 20
11.156351
 30
0.0
 11
54.629661
 21
11.156351
 31
0.0
  0
LINE
  5
9294
  8
ALPHA
 10
49.004661
 20
10.906351
 30
0.0
 11
54.754661
 21
10.906351
 31
0.0
  0
LINE
  5
9295
  8
ALPHA
 10
57.529661
 20
9.506351
 30
0.0
 11
46.229661
 21
9.506351
 31
0.0
  0
LINE
  5
9296
  8
ALPHA
 10
57.379661
 20
9.256351
 30
0.0
 11
46.379661
 21
9.256351
 31
0.0
  0
ARC
  5
9297
  8
ALPHA
 10
45.879661
 20
14.056351
 30
0.0
 40
0.5
 50
90.0
 51
270.0
  0
LINE
  5
9298
  8
ALPHA
 10
45.529661
 20
12.856351
 30
0.0
 11
45.529661
 21
13.456351
 31
0.0
  0
POLYLINE
  5
9299
  8
ALPHA
 66
     1
 10
0.0
 20
0.0
 30
0.0
 70
   128
  0
VERTEX
  5
9879
  8
ALPHA
 10
49.129661
 20
11.156351
 30
0.0
  0
VERTEX
  5
987A
  8
ALPHA
 10
49.02884
 20
11.053912
 30
0.0
  0
VERTEX
  5
987B
  8
ALPHA
 10
49.004661
 20
10.906351
 30
0.0
  0
SEQEND
  5
987C
  8
ALPHA
  0
POLYLINE
  5
929A
  8
ALPHA
 66
     1
 10
0.0
 20
0.0
 30
0.0
 70
   128
  0
VERTEX
  5
987D
  8
ALPHA
 10
48.481934
 20
11.406351
 30
0.0
  0
VERTEX
  5
987E
  8
ALPHA
 10
48.523097
 20
11.211418
 30
0.0
  0
VERTEX
  5
987F
  8
ALPHA
 10
48.639028
 20
11.049071
 30
0.0
  0
VERTEX
  5
9880
  8
ALPHA
 10
48.808242
 20
10.942481
 30
0.0
  0
VERTEX
  5
9881
  8
ALPHA
 10
49.004661
 20
10.906351
 30
0.0
  0
SEQEND
  5
9882
  8
ALPHA
  0
LINE
  5
929B
  8
ALPHA
 10
48.552063
 20
12.856351
 30
0.0
 11
48.481934
 21
12.606351
 31
0.0
  0
ARC
  5
929C
  8
ALPHA
 10
49.129661
 20
11.406351
 30
0.0
 40
0.25
 50
180.0
 51
270.0
  0
ARC
  5
929D
  8
ALPHA
 10
49.129661
 20
12.606351
 30
0.0
 40
0.25
 50
90.0
 51
180.0
  0
ARC
  5
929E
  8
ALPHA
 10
46.029661
 20
13.706351
 30
0.0
 40
0.25
 50
270.000011
 51
323.006207
  0
ARC
  5
929F
  8
ALPHA
 10
46.379661
 20
9.506351
 30
0.0
 40
0.25
 50
233.122851
 51
270.0
  0
LINE
  5
92A0
  8
ALPHA
 10
48.879661
 20
12.606351
 30
0.0
 11
48.879661
 21
11.406351
 31
0.0
  0
LINE
  5
92A1
  8
ALPHA
 10
48.481934
 20
12.606351
 30
0.0
 11
48.481934
 21
11.406351
 31
0.0
  0
LINE
  5
92A2
  8
ALPHA
 10
46.229661
 20
9.306351
 30
0.0
 11
46.229661
 21
12.856351
 31
0.0
  0
LINE
  5
92A3
  8
ALPHA
 10
48.879661
 20
12.606351
 30
0.0
 11
48.481934
 21
12.606351
 31
0.0
  0
LINE
  5
92A4
  8
ALPHA
 10
48.879661
 20
11.406351
 30
0.0
 11
48.481934
 21
11.406351
 31
0.0
  0
LINE
  5
92A5
  8
ALPHA
 10
44.706111
 20
17.256351
 30
0.0
 11
45.928354
 21
17.256351
 31
0.0
  0
POLYLINE
  5
92A6
  8
ALPHA
 66
     1
 10
0.0
 20
0.0
 30
0.0
 70
   128
  0
VERTEX
  5
9883
  8
ALPHA
 10
44.576535
 20
17.456351
 30
0.0
  0
VERTEX
  5
9884
  8
ALPHA
 10
44.642004
 20
17.312466
 30
0.0
  0
VERTEX
  5
9885
  8
ALPHA
 10
44.790958
 20
17.256351
 30
0.0
  0
SEQEND
  5
9886
  8
ALPHA
  0
POLYLINE
  5
92A7
  8
ALPHA
 66
     1
 10
0.0
 20
0.0
 30
0.0
 70
   128
  0
VERTEX
  5
9887
  8
ALPHA
 10
45.134273
 20
17.456351
 30
0.0
  0
VERTEX
  5
9888
  8
ALPHA
 10
45.20475
 20
17.310848
 30
0.0
  0
VERTEX
  5
9889
  8
ALPHA
 10
45.358888
 20
17.256351
 30
0.0
  0
SEQEND
  5
988A
  8
ALPHA
  0
POLYLINE
  5
92A8
  8
ALPHA
 66
     1
 10
0.0
 20
0.0
 30
0.0
 70
   128
210
0.0
220
0.0
230
-1.0
  0
VERTEX
  5
988B
  8
ALPHA
 10
-44.706112
 20
17.256351
 30
0.0
  0
VERTEX
  5
988C
  8
ALPHA
 10
-44.5702
 20
17.316876
 30
0.0
  0
VERTEX
  5
988D
  8
ALPHA
 10
-44.516493
 20
17.456351
 30
0.0
  0
SEQEND
  5
988E
  8
ALPHA
  0
POLYLINE
  5
92A9
  8
ALPHA
 66
     1
 10
0.0
 20
0.0
 30
0.0
 70
   128
210
0.0
220
0.0
230
-1.0
  0
VERTEX
  5
988F
  8
ALPHA
 10
-45.110131
 20
17.256351
 30
0.0
  0
VERTEX
  5
9890
  8
ALPHA
 10
-44.995645
 20
17.324886
 30
0.0
  0
VERTEX
  5
9891
  8
ALPHA
 10
-44.958238
 20
17.456351
 30
0.0
  0
SEQEND
  5
9892
  8
ALPHA
  0
LINE
  5
92AA
  8
ALPHA
 10
44.576535
 20
17.456351
 30
0.0
 11
44.516493
 21
17.456351
 31
0.0
  0
LINE
  5
92AB
  8
ALPHA
 10
45.134273
 20
17.456351
 30
0.0
 11
44.958238
 21
17.456351
 31
0.0
  0
LINE
  5
92AC
  8
ALPHA
 10
45.529661
 20
14.656351
 30
0.0
 11
45.529661
 21
15.806351
 31
0.0
  0
LINE
  5
92AD
  8
ALPHA
 10
45.179661
 20
17.106351
 30
0.0
 11
45.179661
 21
17.256351
 31
0.0
  0
LINE
  5
92AE
  8
ALPHA
 10
45.134273
 20
19.256351
 30
0.0
 11
45.134273
 21
17.456351
 31
0.0
  0
LINE
  5
92AF
  8
ALPHA
 10
44.958238
 20
19.256351
 30
0.0
 11
44.958238
 21
17.456351
 31
0.0
  0
LINE
  5
92B0
  8
ALPHA
 10
44.576535
 20
19.256351
 30
0.0
 11
44.576535
 21
17.456351
 31
0.0
  0
LINE
  5
92B1
  8
ALPHA
 10
44.516493
 20
19.256351
 30
0.0
 11
44.516493
 21
17.456351
 31
0.0
  0
POLYLINE
  5
92B2
  8
ALPHA
 66
     1
 10
0.0
 20
0.0
 30
0.0
 70
   128
  0
VERTEX
  5
9893
  8
ALPHA
 10
49.261664
 20
17.456351
 30
0.0
  0
VERTEX
  5
9894
  8
ALPHA
 10
49.304798
 20
17.321765
 30
0.0
  0
VERTEX
  5
9895
  8
ALPHA
 10
49.427426
 20
17.256351
 30
0.0
  0
SEQEND
  5
9896
  8
ALPHA
  0
LINE
  5
92B3
  8
ALPHA
 10
48.826873
 20
17.256351
 30
0.0
 11
48.83668
 21
17.456351
 31
0.0
  0
ARC
  5
92B4
  8
ALPHA
 10
46.029661
 20
14.406351
 30
0.0
 40
0.25
 50
36.993798
 51
89.999999
  0
LINE
  5
92B5
  8
ALPHA
 10
49.261664
 20
19.256351
 30
0.0
 11
49.261664
 21
17.456351
 31
0.0
  0
LINE
  5
92B6
  8
ALPHA
 10
48.83668
 20
19.256351
 30
0.0
 11
48.83668
 21
17.456351
 31
0.0
  0
LINE
  5
92B7
  8
ALPHA
 10
48.802009
 20
17.256351
 30
0.0
 11
48.802009
 21
19.256351
 31
0.0
  0
LINE
  5
92B8
  8
ALPHA
 10
49.261664
 20
17.456351
 30
0.0
 11
48.83668
 21
17.456351
 31
0.0
  0
LINE
  5
92B9
  8
ALPHA
 10
46.379661
 20
15.806351
 30
0.0
 11
46.379661
 21
17.106351
 31
0.0
  0
LINE
  5
92BA
  8
ALPHA
 10
45.928354
 20
17.256351
 30
0.0
 11
45.928354
 21
19.256351
 31
0.0
  0
LINE
  5
92BB
  8
ALPHA
 10
44.165375
 20
24.120642
 30
0.0
 11
44.19135
 21
23.991873
 31
0.0
  0
POLYLINE
  5
92BC
  8
ALPHA
 66
     1
 10
0.0
 20
0.0
 30
0.0
 70
   128
210
0.0
220
0.0
230
-1.0
  0
VERTEX
  5
9897
  8
ALPHA
 10
-44.130266
 20
24.103833
 30
0.0
  0
VERTEX
  5
9898
  8
ALPHA
 10
-43.941697
 20
24.612128
 30
0.0
  0
VERTEX
  5
9899
  8
ALPHA
 10
-43.879661
 20
25.1508
 30
0.0
  0
SEQEND
  5
989A
  8
ALPHA
  0
LINE
  5
92BD
  8
ALPHA
 10
44.191349
 20
23.991873
 30
0.0
 11
44.130266
 21
24.103833
 31
0.0
  0
ARC
  5
92BE
  8
ALPHA
 10
45.879661
 20
25.1508
 30
0.0
 40
2.0
 50
180.0
 51
211.002719
  0
LINE
  5
92BF
  8
ALPHA
 10
48.272161
 20
22.050353
 30
0.0
 11
47.929661
 21
21.914751
 31
0.0
  0
LINE
  5
92C0
  8
ALPHA
 10
47.929661
 20
21.914751
 30
0.0
 11
47.875846
 21
22.279165
 31
0.0
  0
LINE
  5
92C1
  8
ALPHA
 10
47.875846
 20
22.279165
 30
0.0
 11
47.903533
 21
22.369495
 31
0.0
  0
LINE
  5
92C2
  8
ALPHA
 10
48.336545
 20
22.119495
 30
0.0
 11
48.272161
 21
22.050353
 31
0.0
  0
LINE
  5
92C3
  8
ALPHA
 10
48.336545
 20
22.119495
 30
0.0
 11
48.354095
 21
22.149891
 31
0.0
  0
LINE
  5
92C4
  8
ALPHA
 10
48.131576
 20
22.264478
 30
0.0
 11
47.929661
 21
21.914751
 31
0.0
  0
LINE
  5
92C5
  8
ALPHA
 10
47.903533
 20
22.369495
 30
0.0
 11
47.918674
 21
22.395721
 31
0.0
  0
ARC
  5
92C6
  8
ALPHA
 10
57.879661
 20
14.056351
 30
0.0
 40
0.5
 50
270.0
 51
90.0
  0
LINE
  5
92C7
  8
ALPHA
 10
55.277388
 20
12.606351
 30
0.0
 11
55.207259
 21
12.856351
 31
0.0
  0
POLYLINE
  5
92C8
  8
ALPHA
 66
     1
 10
0.0
 20
0.0
 30
0.0
 70
   128
  0
VERTEX
  5
989B
  8
ALPHA
 10
54.754661
 20
10.906351
 30
0.0
  0
VERTEX
  5
989C
  8
ALPHA
 10
54.95108
 20
10.942481
 30
0.0
  0
VERTEX
  5
989D
  8
ALPHA
 10
55.120294
 20
11.049071
 30
0.0
  0
VERTEX
  5
989E
  8
ALPHA
 10
55.236225
 20
11.211418
 30
0.0
  0
VERTEX
  5
989F
  8
ALPHA
 10
55.277388
 20
11.406351
 30
0.0
  0
SEQEND
  5
98A0
  8
ALPHA
  0
POLYLINE
  5
92C9
  8
ALPHA
 66
     1
 10
0.0
 20
0.0
 30
0.0
 70
   128
210
0.0
220
0.0
230
-1.0
  0
VERTEX
  5
98A1
  8
ALPHA
 10
-54.629661
 20
11.156351
 30
0.0
  0
VERTEX
  5
98A2
  8
ALPHA
 10
-54.730482
 20
11.053912
 30
0.0
  0
VERTEX
  5
98A3
  8
ALPHA
 10
-54.754661
 20
10.906351
 30
0.0
  0
SEQEND
  5
98A4
  8
ALPHA
  0
ARC
  5
92CA
  8
ALPHA
 10
54.629661
 20
12.606351
 30
0.0
 40
0.25
 50
0.0
 51
90.0
  0
ARC
  5
92CB
  8
ALPHA
 10
54.629661
 20
11.406351
 30
0.0
 40
0.25
 50
270.0
 51
0.0
  0
ARC
  5
92CC
  8
ALPHA
 10
57.729661
 20
13.706351
 30
0.0
 40
0.25
 50
216.993793
 51
269.999989
  0
ARC
  5
92CD
  8
ALPHA
 10
57.379661
 20
9.506351
 30
0.0
 40
0.25
 50
270.0
 51
306.877149
  0
LINE
  5
92CE
  8
ALPHA
 10
57.529661
 20
9.306351
 30
0.0
 11
57.529661
 21
12.856351
 31
0.0
  0
LINE
  5
92CF
  8
ALPHA
 10
55.277388
 20
11.406351
 30
0.0
 11
55.277388
 21
12.606351
 31
0.0
  0
LINE
  5
92D0
  8
ALPHA
 10
54.879661
 20
11.406351
 30
0.0
 11
54.879661
 21
12.606351
 31
0.0
  0
LINE
  5
92D1
  8
ALPHA
 10
54.879661
 20
12.606351
 30
0.0
 11
55.277388
 21
12.606351
 31
0.0
  0
LINE
  5
92D2
  8
ALPHA
 10
54.879661
 20
11.406351
 30
0.0
 11
55.277388
 21
11.406351
 31
0.0
  0
LINE
  5
92D3
  8
ALPHA
 10
58.229661
 20
12.856351
 30
0.0
 11
58.229661
 21
13.456351
 31
0.0
  0
POLYLINE
  5
92D4
  8
ALPHA
 66
     1
 10
0.0
 20
0.0
 30
0.0
 70
   128
210
0.0
220
0.0
230
-1.0
  0
VERTEX
  5
98A5
  8
ALPHA
 10
-59.567973
 20
23.991873
 30
0.0
  0
VERTEX
  5
98A6
  8
ALPHA
 10
-58.921123
 20
23.024487
 30
0.0
  0
VERTEX
  5
98A7
  8
ALPHA
 10
-58.155033
 20
22.147591
 30
0.0
  0
VERTEX
  5
98A8
  8
ALPHA
 10
-57.28481
 20
21.374335
 30
0.0
  0
VERTEX
  5
98A9
  8
ALPHA
 10
-56.321602
 20
20.720301
 30
0.0
  0
VERTEX
  5
98AA
  8
ALPHA
 10
-55.281476
 20
20.19729
 30
0.0
  0
VERTEX
  5
98AB
  8
ALPHA
 10
-54.18158
 20
19.81657
 30
0.0
  0
VERTEX
  5
98AC
  8
ALPHA
 10
-53.040916
 20
19.582862
 30
0.0
  0
VERTEX
  5
98AD
  8
ALPHA
 10
-51.879661
 20
19.506351
 30
0.0
  0
SEQEND
  5
98AE
  8
ALPHA
  0
LINE
  5
92D5
  8
ALPHA
 10
59.053211
 20
17.256351
 30
0.0
 11
57.830968
 21
17.256351
 31
0.0
  0
POLYLINE
  5
92D6
  8
ALPHA
 66
     1
 10
0.0
 20
0.0
 30
0.0
 70
   128
  0
VERTEX
  5
98AF
  8
ALPHA
 10
51.142266
 20
17.456351
 30
0.0
  0
VERTEX
  5
98B0
  8
ALPHA
 10
51.168198
 20
17.332472
 30
0.0
  0
VERTEX
  5
98B1
  8
ALPHA
 10
51.263067
 20
17.256351
 30
0.0
  0
SEQEND
  5
98B2
  8
ALPHA
  0
LINE
  5
92D7
  8
ALPHA
 10
50.618594
 20
17.256351
 30
0.0
 11
50.686202
 21
17.456351
 31
0.0
  0
POLYLINE
  5
92D8
  8
ALPHA
 66
     1
 10
0.0
 20
0.0
 30
0.0
 70
   128
  0
VERTEX
  5
98B3
  8
ALPHA
 10
52.496255
 20
17.256351
 30
0.0
  0
VERTEX
  5
98B4
  8
ALPHA
 10
52.591124
 20
17.332472
 30
0.0
  0
VERTEX
  5
98B5
  8
ALPHA
 10
52.617056
 20
17.456351
 30
0.0
  0
SEQEND
  5
98B6
  8
ALPHA
  0
LINE
  5
92D9
  8
ALPHA
 10
53.073121
 20
17.456351
 30
0.0
 11
53.140728
 21
17.256351
 31
0.0
  0
LINE
  5
92DA
  8
ALPHA
 10
53.312133
 20
17.256351
 30
0.0
 11
53.312133
 21
19.256351
 31
0.0
  0
LINE
  5
92DB
  8
ALPHA
 10
53.073121
 20
19.256351
 30
0.0
 11
53.073121
 21
17.456351
 31
0.0
  0
LINE
  5
92DC
  8
ALPHA
 10
52.617056
 20
19.256351
 30
0.0
 11
52.617056
 21
17.456351
 31
0.0
  0
LINE
  5
92DD
  8
ALPHA
 10
52.18999
 20
17.256351
 30
0.0
 11
52.18999
 21
19.256351
 31
0.0
  0
LINE
  5
92DE
  8
ALPHA
 10
51.569332
 20
17.256351
 30
0.0
 11
51.569332
 21
19.256351
 31
0.0
  0
LINE
  5
92DF
  8
ALPHA
 10
51.142266
 20
19.256351
 30
0.0
 11
51.142266
 21
17.456351
 31
0.0
  0
LINE
  5
92E0
  8
ALPHA
 10
50.686202
 20
19.256351
 30
0.0
 11
50.686202
 21
17.456351
 31
0.0
  0
LINE
  5
92E1
  8
ALPHA
 10
50.447189
 20
17.256351
 30
0.0
 11
50.447189
 21
19.256351
 31
0.0
  0
LINE
  5
92E2
  8
ALPHA
 10
49.84768
 20
17.256351
 30
0.0
 11
49.84768
 21
19.256351
 31
0.0
  0
LINE
  5
92E3
  8
ALPHA
 10
51.142266
 20
17.456351
 30
0.0
 11
50.686202
 21
17.456351
 31
0.0
  0
LINE
  5
92E4
  8
ALPHA
 10
53.073121
 20
17.456351
 30
0.0
 11
52.617056
 21
17.456351
 31
0.0
  0
LINE
  5
92E5
  8
ALPHA
 10
51.569332
 20
17.256351
 30
0.0
 11
50.447189
 21
17.256351
 31
0.0
  0
LINE
  5
92E6
  8
ALPHA
 10
53.312133
 20
17.256351
 30
0.0
 11
52.18999
 21
17.256351
 31
0.0
  0
LINE
  5
92E7
  8
ALPHA
 10
54.922643
 20
17.456351
 30
0.0
 11
54.93245
 21
17.256351
 31
0.0
  0
POLYLINE
  5
92E8
  8
ALPHA
 66
     1
 10
0.0
 20
0.0
 30
0.0
 70
   128
  0
VERTEX
  5
98B7
  8
ALPHA
 10
54.331897
 20
17.256351
 30
0.0
  0
VERTEX
  5
98B8
  8
ALPHA
 10
54.454524
 20
17.321765
 30
0.0
  0
VERTEX
  5
98B9
  8
ALPHA
 10
54.497658
 20
17.456351
 30
0.0
  0
SEQEND
  5
98BA
  8
ALPHA
  0
ARC
  5
92E9
  8
ALPHA
 10
57.729661
 20
14.406351
 30
0.0
 40
0.25
 50
90.000001
 51
143.006202
  0
LINE
  5
92EA
  8
ALPHA
 10
57.830968
 20
17.256351
 30
0.0
 11
57.830968
 21
19.256351
 31
0.0
  0
LINE
  5
92EB
  8
ALPHA
 10
57.379661
 20
15.806351
 30
0.0
 11
57.379661
 21
17.106351
 31
0.0
  0
LINE
  5
92EC
  8
ALPHA
 10
54.957313
 20
17.256351
 30
0.0
 11
54.957313
 21
19.256351
 31
0.0
  0
LINE
  5
92ED
  8
ALPHA
 10
54.922643
 20
19.256351
 30
0.0
 11
54.922643
 21
17.456351
 31
0.0
  0
LINE
  5
92EE
  8
ALPHA
 10
54.497658
 20
19.256351
 30
0.0
 11
54.497658
 21
17.456351
 31
0.0
  0
LINE
  5
92EF
  8
ALPHA
 10
53.911642
 20
17.256351
 30
0.0
 11
53.911642
 21
19.256351
 31
0.0
  0
LINE
  5
92F0
  8
ALPHA
 10
54.922643
 20
17.456351
 30
0.0
 11
54.497658
 21
17.456351
 31
0.0
  0
LINE
  5
92F1
  8
ALPHA
 10
54.957313
 20
17.256351
 30
0.0
 11
53.911642
 21
17.256351
 31
0.0
  0
LINE
  5
92F2
  8
ALPHA
 10
53.515968
 20
19.906351
 30
0.0
 11
50.243354
 21
19.906351
 31
0.0
  0
LINE
  5
92F3
  8
ALPHA
 10
55.883476
 20
22.279165
 30
0.0
 11
55.829661
 21
21.914751
 31
0.0
  0
LINE
  5
92F4
  8
ALPHA
 10
55.829661
 20
21.914751
 30
0.0
 11
55.487162
 21
22.050353
 31
0.0
  0
LINE
  5
92F5
  8
ALPHA
 10
55.85579
 20
22.369495
 30
0.0
 11
55.883476
 21
22.279165
 31
0.0
  0
LINE
  5
92F6
  8
ALPHA
 10
55.487162
 20
22.050353
 30
0.0
 11
55.422777
 21
22.119495
 31
0.0
  0
LINE
  5
92F7
  8
ALPHA
 10
55.85579
 20
22.369495
 30
0.0
 11
55.840648
 21
22.395721
 31
0.0
  0
LINE
  5
92F8
  8
ALPHA
 10
55.628163
 20
22.263756
 30
0.0
 11
55.829661
 21
21.914751
 31
0.0
  0
LINE
  5
92F9
  8
ALPHA
 10
55.422777
 20
22.119495
 30
0.0
 11
55.405394
 21
22.149602
 31
0.0
  0
POLYLINE
  5
92FA
  8
ALPHA
 66
     1
 10
0.0
 20
0.0
 30
0.0
 70
   128
  0
VERTEX
  5
98BB
  8
ALPHA
 10
58.400434
 20
17.256351
 30
0.0
  0
VERTEX
  5
98BC
  8
ALPHA
 10
58.554572
 20
17.310848
 30
0.0
  0
VERTEX
  5
98BD
  8
ALPHA
 10
58.625049
 20
17.456351
 30
0.0
  0
SEQEND
  5
98BE
  8
ALPHA
  0
POLYLINE
  5
92FB
  8
ALPHA
 66
     1
 10
0.0
 20
0.0
 30
0.0
 70
   128
  0
VERTEX
  5
98BF
  8
ALPHA
 10
58.968364
 20
17.256351
 30
0.0
  0
VERTEX
  5
98C0
  8
ALPHA
 10
59.117318
 20
17.312466
 30
0.0
  0
VERTEX
  5
98C1
  8
ALPHA
 10
59.182787
 20
17.456351
 30
0.0
  0
SEQEND
  5
98C2
  8
ALPHA
  0
POLYLINE
  5
92FC
  8
ALPHA
 66
     1
 10
0.0
 20
0.0
 30
0.0
 70
   128
210
0.0
220
0.0
230
-1.0
  0
VERTEX
  5
98C3
  8
ALPHA
 10
-59.24283
 20
17.456351
 30
0.0
  0
VERTEX
  5
98C4
  8
ALPHA
 10
-59.189122
 20
17.316876
 30
0.0
  0
VERTEX
  5
98C5
  8
ALPHA
 10
-59.053211
 20
17.256351
 30
0.0
  0
SEQEND
  5
98C6
  8
ALPHA
  0
POLYLINE
  5
92FD
  8
ALPHA
 66
     1
 10
0.0
 20
0.0
 30
0.0
 70
   128
210
0.0
220
0.0
230
-1.0
  0
VERTEX
  5
98C7
  8
ALPHA
 10
-58.801084
 20
17.456351
 30
0.0
  0
VERTEX
  5
98C8
  8
ALPHA
 10
-58.763677
 20
17.324885
 30
0.0
  0
VERTEX
  5
98C9
  8
ALPHA
 10
-58.649191
 20
17.256351
 30
0.0
  0
SEQEND
  5
98CA
  8
ALPHA
  0
LINE
  5
92FE
  8
ALPHA
 10
59.24283
 20
19.256351
 30
0.0
 11
59.24283
 21
17.456351
 31
0.0
  0
LINE
  5
92FF
  8
ALPHA
 10
59.182787
 20
19.256351
 30
0.0
 11
59.182787
 21
17.456351
 31
0.0
  0
LINE
  5
9300
  8
ALPHA
 10
58.801084
 20
19.256351
 30
0.0
 11
58.801084
 21
17.456351
 31
0.0
  0
LINE
  5
9301
  8
ALPHA
 10
58.625049
 20
19.256351
 30
0.0
 11
58.625049
 21
17.456351
 31
0.0
  0
LINE
  5
9302
  8
ALPHA
 10
58.579661
 20
17.106351
 30
0.0
 11
58.579661
 21
17.256351
 31
0.0
  0
LINE
  5
9303
  8
ALPHA
 10
58.229661
 20
14.656351
 30
0.0
 11
58.229661
 21
15.806351
 31
0.0
  0
LINE
  5
9304
  8
ALPHA
 10
58.801084
 20
17.456351
 30
0.0
 11
58.625049
 21
17.456351
 31
0.0
  0
LINE
  5
9305
  8
ALPHA
 10
59.24283
 20
17.456351
 30
0.0
 11
59.182787
 21
17.456351
 31
0.0
  0
LINE
  5
9306
  8
ALPHA
 10
59.593939
 20
24.120647
 30
0.0
 11
59.567977
 21
23.991873
 31
0.0
  0
LINE
  5
9307
  8
ALPHA
 10
59.629056
 20
24.103833
 30
0.0
 11
59.567973
 21
23.991873
 31
0.0
  0
POLYLINE
  5
9308
  8
ALPHA
 66
     1
 10
0.0
 20
0.0
 30
0.0
 70
   128
210
0.0
220
0.0
230
-1.0
  0
VERTEX
  5
98CB
  8
ALPHA
 10
-59.879661
 20
25.1508
 30
0.0
  0
VERTEX
  5
98CC
  8
ALPHA
 10
-59.817625
 20
24.612128
 30
0.0
  0
VERTEX
  5
98CD
  8
ALPHA
 10
-59.629056
 20
24.103833
 30
0.0
  0
SEQEND
  5
98CE
  8
ALPHA
  0
ARC
  5
9309
  8
ALPHA
 10
57.879661
 20
25.1508
 30
0.0
 40
2.0
 50
328.997281
 51
0.0
  0
POLYLINE
  5
930A
  8
ALPHA
 66
     1
 10
0.0
 20
0.0
 30
0.0
 70
   128
210
0.0
220
0.0
230
-1.0
  0
VERTEX
  5
98CF
  8
ALPHA
 10
-49.063332
 20
27.585561
 30
0.0
  0
VERTEX
  5
98D0
  8
ALPHA
 10
-48.888286
 20
28.156606
 30
0.0
  0
VERTEX
  5
98D1
  8
ALPHA
 10
-48.829865
 20
28.751791
 30
0.0
  0
VERTEX
  5
98D2
  8
ALPHA
 10
-48.887283
 20
29.346561
 30
0.0
  0
VERTEX
  5
98D3
  8
ALPHA
 10
-49.059878
 20
29.918796
 30
0.0
  0
VERTEX
  5
98D4
  8
ALPHA
 10
-49.340699
 20
30.446372
 30
0.0
  0
VERTEX
  5
98D5
  8
ALPHA
 10
-49.719022
 20
30.909056
 30
0.0
  0
VERTEX
  5
98D6
  8
ALPHA
 10
-50.180312
 20
31.289077
 30
0.0
  0
VERTEX
  5
98D7
  8
ALPHA
 10
-50.706854
 20
31.571843
 30
0.0
  0
VERTEX
  5
98D8
  8
ALPHA
 10
-51.27843
 20
31.746498
 30
0.0
  0
VERTEX
  5
98D9
  8
ALPHA
 10
-51.873092
 20
31.806336
 30
0.0
  0
VERTEX
  5
98DA
  8
ALPHA
 10
-52.468005
 20
31.74906
 30
0.0
  0
VERTEX
  5
98DB
  8
ALPHA
 10
-53.040328
 20
31.576869
 30
0.0
  0
VERTEX
  5
98DC
  8
ALPHA
 10
-53.568084
 20
31.296374
 30
0.0
  0
VERTEX
  5
98DD
  8
ALPHA
 10
-54.031006
 20
30.918344
 30
0.0
  0
VERTEX
  5
98DE
  8
ALPHA
 10
-54.411318
 20
30.457295
 30
0.0
  0
VERTEX
  5
98DF
  8
ALPHA
 10
-54.694417
 20
29.93093
 30
0.0
  0
VERTEX
  5
98E0
  8
ALPHA
 10
-54.869431
 20
29.359464
 30
0.0
  0
VERTEX
  5
98E1
  8
ALPHA
 10
-54.929642
 20
28.76484
 30
0.0
  0
VERTEX
  5
98E2
  8
ALPHA
 10
-54.872739
 20
28.16989
 30
0.0
  0
VERTEX
  5
98E3
  8
ALPHA
 10
-54.700907
 20
27.59746
 30
0.0
  0
VERTEX
  5
98E4
  8
ALPHA
 10
-54.420744
 20
27.069528
 30
0.0
  0
VERTEX
  5
98E5
  8
ALPHA
 10
-54.043006
 20
26.606368
 30
0.0
  0
VERTEX
  5
98E6
  8
ALPHA
 10
-53.582197
 20
26.225764
 30
0.0
  0
VERTEX
  5
98E7
  8
ALPHA
 10
-53.056012
 20
25.942334
 30
0.0
  0
VERTEX
  5
98E8
  8
ALPHA
 10
-52.484656
 20
25.766959
 30
0.0
  0
VERTEX
  5
98E9
  8
ALPHA
 10
-51.890069
 20
25.706375
 30
0.0
  0
VERTEX
  5
98EA
  8
ALPHA
 10
-51.295084
 20
25.762904
 30
0.0
  0
VERTEX
  5
98EB
  8
ALPHA
 10
-50.722546
 20
25.934377
 30
0.0
  0
VERTEX
  5
98EC
  8
ALPHA
 10
-50.194439
 20
26.214209
 30
0.0
  0
VERTEX
  5
98ED
  8
ALPHA
 10
-49.731041
 20
26.591656
 30
0.0
  0
VERTEX
  5
98EE
  8
ALPHA
 10
-49.350147
 20
27.052224
 30
0.0
  0
VERTEX
  5
98EF
  8
ALPHA
 10
-49.066384
 20
27.57823
 30
0.0
  0
VERTEX
  5
98F0
  8
ALPHA
 10
-48.890649
 20
28.149476
 30
0.0
  0
VERTEX
  5
98F1
  8
ALPHA
 10
-48.829689
 20
28.744024
 30
0.0
  0
VERTEX
  5
98F2
  8
ALPHA
 10
-48.885846
 20
29.339045
 30
0.0
  0
VERTEX
  5
98F3
  8
ALPHA
 10
-49.056959
 20
29.911691
 30
0.0
  0
VERTEX
  5
98F4
  8
ALPHA
 10
-49.33646
 20
30.439973
 30
0.0
  0
VERTEX
  5
98F5
  8
ALPHA
 10
-49.713616
 20
30.903607
 30
0.0
  0
VERTEX
  5
98F6
  8
ALPHA
 10
-50.173944
 20
31.284791
 30
0.0
  0
VERTEX
  5
98F7
  8
ALPHA
 10
-50.699771
 20
31.568886
 30
0.0
  0
VERTEX
  5
98F8
  8
ALPHA
 10
-51.270905
 20
31.744982
 30
0.0
  0
VERTEX
  5
98F9
  8
ALPHA
 10
-51.865415
 20
31.806317
 30
0.0
  0
VERTEX
  5
98FA
  8
ALPHA
 10
-52.460471
 20
31.750535
 30
0.0
  0
VERTEX
  5
98FB
  8
ALPHA
 10
-53.033224
 20
31.579781
 30
0.0
  0
VERTEX
  5
98FC
  8
ALPHA
 10
-53.561682
 20
31.300611
 30
0.0
  0
VERTEX
  5
98FD
  8
ALPHA
 10
-54.025553
 20
30.923747
 30
0.0
  0
VERTEX
  5
98FE
  8
ALPHA
 10
-54.407025
 20
30.463658
 30
0.0
  0
VERTEX
  5
98FF
  8
ALPHA
 10
-54.691451
 20
29.93801
 30
0.0
  0
VERTEX
  5
9900
  8
ALPHA
 10
-54.867908
 20
29.366987
 30
0.0
  0
VERTEX
  5
9901
  8
ALPHA
 10
-54.929618
 20
28.772516
 30
0.0
  0
VERTEX
  5
9902
  8
ALPHA
 10
-54.874212
 20
28.177425
 30
0.0
  0
VERTEX
  5
9903
  8
ALPHA
 10
-54.703818
 20
27.604564
 30
0.0
  0
VERTEX
  5
9904
  8
ALPHA
 10
-54.42498
 20
27.075931
 30
0.0
  0
VERTEX
  5
9905
  8
ALPHA
 10
-54.048406
 20
26.611824
 30
0.0
  0
VERTEX
  5
9906
  8
ALPHA
 10
-53.588557
 20
26.230063
 30
0.0
  0
VERTEX
  5
9907
  8
ALPHA
 10
-53.063088
 20
25.945307
 30
0.0
  0
VERTEX
  5
9908
  8
ALPHA
 10
-52.492177
 20
25.768491
 30
0.0
  0
VERTEX
  5
9909
  8
ALPHA
 10
-51.897745
 20
25.706405
 30
0.0
  0
VERTEX
  5
990A
  8
ALPHA
 10
-51.302618
 20
25.761435
 30
0.0
  0
VERTEX
  5
990B
  8
ALPHA
 10
-50.729655
 20
25.93147
 30
0.0
  0
VERTEX
  5
990C
  8
ALPHA
 10
-50.200808
 20
26.209961
 30
0.0
  0
VERTEX
  5
990D
  8
ALPHA
 10
-49.736681
 20
26.586323
 30
0.0
  0
VERTEX
  5
990E
  8
ALPHA
 10
-49.353618
 20
27.04556
 30
0.0
  0
VERTEX
  5
990F
  8
ALPHA
 10
-49.069475
 20
27.570914
 30
0.0
  0
SEQEND
  5
9910
  8
ALPHA
  0
POLYLINE
  5
930B
  8
ALPHA
 66
     1
 10
0.0
 20
0.0
 30
0.0
 70
   128
210
0.0
220
0.0
230
-1.0
  0
VERTEX
  5
9911
  8
ALPHA
 10
-52.961659
 20
25.904723
 30
0.0
  0
VERTEX
  5
9912
  8
ALPHA
 10
-52.262301
 20
25.729238
 30
0.0
  0
VERTEX
  5
9913
  8
ALPHA
 10
-51.54062
 20
25.725447
 30
0.0
  0
VERTEX
  5
9914
  8
ALPHA
 10
-50.838478
 20
25.889573
 30
0.0
  0
VERTEX
  5
9915
  8
ALPHA
 10
-50.194479
 20
26.214175
 30
0.0
  0
VERTEX
  5
9916
  8
ALPHA
 10
-49.644718
 20
26.680922
 30
0.0
  0
VERTEX
  5
9917
  8
ALPHA
 10
-49.219904
 20
27.263698
 30
0.0
  0
VERTEX
  5
9918
  8
ALPHA
 10
-48.942891
 20
27.929924
 30
0.0
  0
VERTEX
  5
9919
  8
ALPHA
 10
-48.831804
 20
28.642147
 30
0.0
  0
SEQEND
  5
991A
  8
ALPHA
  0
POLYLINE
  5
930C
  8
ALPHA
 66
     1
 10
0.0
 20
0.0
 30
0.0
 70
   128
  0
VERTEX
  5
991B
  8
ALPHA
 10
48.83398
 20
28.594725
 30
0.0
  0
VERTEX
  5
991C
  8
ALPHA
 10
48.95897
 20
27.871306
 30
0.0
  0
VERTEX
  5
991D
  8
ALPHA
 10
49.258097
 20
27.198435
 30
0.0
  0
VERTEX
  5
991E
  8
ALPHA
 10
49.706494
 20
26.616206
 30
0.0
  0
VERTEX
  5
991F
  8
ALPHA
 10
50.282052
 20
26.158233
 30
0.0
  0
VERTEX
  5
9920
  8
ALPHA
 10
50.950124
 20
25.851616
 30
0.0
  0
VERTEX
  5
9921
  8
ALPHA
 10
51.672658
 20
25.712958
 30
0.0
  0
VERTEX
  5
9922
  8
ALPHA
 10
52.406411
 20
25.753023
 30
0.0
  0
VERTEX
  5
9923
  8
ALPHA
 10
53.110413
 20
25.965697
 30
0.0
  0
SEQEND
  5
9924
  8
ALPHA
  0
POLYLINE
  5
930D
  8
ALPHA
 66
     1
 10
0.0
 20
0.0
 30
0.0
 70
   128
  0
VERTEX
  5
9925
  8
ALPHA
 10
51.879662
 20
31.805902
 30
0.0
  0
VERTEX
  5
9926
  8
ALPHA
 10
51.293693
 20
31.7615
 30
0.0
  0
VERTEX
  5
9927
  8
ALPHA
 10
50.723264
 20
31.616161
 30
0.0
  0
VERTEX
  5
9928
  8
ALPHA
 10
50.193826
 20
31.359564
 30
0.0
  0
VERTEX
  5
9929
  8
ALPHA
 10
49.743313
 20
30.981697
 30
0.0
  0
VERTEX
  5
992A
  8
ALPHA
 10
49.392738
 20
30.509806
 30
0.0
  0
VERTEX
  5
992B
  8
ALPHA
 10
49.133615
 20
29.98222
 30
0.0
  0
VERTEX
  5
992C
  8
ALPHA
 10
48.836996
 20
28.847114
 30
0.0
  0
SEQEND
  5
992D
  8
ALPHA
  0
ARC
  5
930E
  8
ALPHA
 10
51.879661
 20
28.756351
 30
0.0
 40
7.523399
 50
61.90427
 51
118.09573
  0
ARC
  5
930F
  8
ALPHA
 10
51.879661
 20
28.756351
 30
0.0
 40
7.614754
 50
61.721912
 51
118.278088
  0
ARC
  5
9310
  8
ALPHA
 10
51.879661
 20
6.056351
 30
0.0
 40
31.7
 50
78.34488
 51
101.65512
  0
ARC
  5
9311
  8
ALPHA
 10
51.879661
 20
28.756351
 30
0.0
 40
3.096104
 50
125.833967
 51
118.59768
  0
CIRCLE
  5
9312
  8
ALPHA
 10
49.429661
 20
28.756351
 30
0.0
 40
0.6
  0
ARC
  5
9313
  8
ALPHA
 10
45.879661
 20
35.143977
 30
0.0
 40
2.0
 50
101.65512
 51
180.0
  0
ARC
  5
9314
  8
ALPHA
 10
51.879661
 20
28.756351
 30
0.0
 40
7.523399
 50
121.90427
 51
178.09573
  0
ARC
  5
9315
  8
ALPHA
 10
51.879661
 20
28.756351
 30
0.0
 40
7.614754
 50
121.721912
 51
178.278088
  0
LINE
  5
9316
  8
ALPHA
 10
44.268346
 20
28.527539
 30
0.0
 11
43.979661
 21
28.756351
 31
0.0
  0
LINE
  5
9317
  8
ALPHA
 10
43.979661
 20
28.756351
 30
0.0
 11
44.268346
 21
28.985163
 31
0.0
  0
LINE
  5
9318
  8
ALPHA
 10
44.268346
 20
28.985163
 30
0.0
 11
44.360417
 21
29.006351
 31
0.0
  0
LINE
  5
9319
  8
ALPHA
 10
44.360417
 20
28.506351
 30
0.0
 11
44.268346
 21
28.527539
 31
0.0
  0
LINE
  5
931A
  8
ALPHA
 10
44.360417
 20
29.006351
 30
0.0
 11
44.397541
 21
29.006351
 31
0.0
  0
LINE
  5
931B
  8
ALPHA
 10
44.379661
 20
28.756351
 30
0.0
 11
43.979661
 21
28.756351
 31
0.0
  0
LINE
  5
931C
  8
ALPHA
 10
44.360417
 20
28.506351
 30
0.0
 11
44.397541
 21
28.506351
 31
0.0
  0
LINE
  5
931D
  8
ALPHA
 10
48.839899
 20
29.005934
 30
0.0
 11
48.941569
 21
29.574934
 31
0.0
  0
LINE
  5
931E
  8
ALPHA
 10
48.833626
 20
28.911658
 30
0.0
 11
48.832151
 21
28.879252
 31
0.0
  0
LINE
  5
931F
  8
ALPHA
 10
48.841163
 20
29.020978
 30
0.0
 11
48.833626
 21
28.911658
 31
0.0
  0
LINE
  5
9320
  8
ALPHA
 10
48.833626
 20
28.911658
 30
0.0
 11
48.832151
 21
28.879252
 31
0.0
  0
LINE
  5
9321
  8
ALPHA
 10
48.83181
 20
28.642675
 30
0.0
 11
48.83398
 21
28.594725
 31
0.0
  0
POLYLINE
  5
9322
  8
ALPHA
 66
     1
 10
0.0
 20
0.0
 30
0.0
 70
   128
  0
VERTEX
  5
992E
  8
ALPHA
 10
49.357458
 20
30.47129
 30
0.0
  0
VERTEX
  5
992F
  8
ALPHA
 10
48.987565
 20
29.727999
 30
0.0
  0
VERTEX
  5
9930
  8
ALPHA
 10
48.833647
 20
28.912222
 30
0.0
  0
SEQEND
  5
9931
  8
ALPHA
  0
LINE
  5
9323
  8
ALPHA
 10
47.875846
 20
35.233538
 30
0.0
 11
47.929661
 21
35.597952
 31
0.0
  0
LINE
  5
9324
  8
ALPHA
 10
47.929661
 20
35.597952
 30
0.0
 11
48.272161
 21
35.46235
 31
0.0
  0
LINE
  5
9325
  8
ALPHA
 10
48.272161
 20
35.46235
 30
0.0
 11
48.336545
 21
35.393208
 31
0.0
  0
LINE
  5
9326
  8
ALPHA
 10
47.903533
 20
35.143208
 30
0.0
 11
47.875846
 21
35.233538
 31
0.0
  0
LINE
  5
9327
  8
ALPHA
 10
48.336545
 20
35.393208
 30
0.0
 11
48.353928
 21
35.3631
 31
0.0
  0
LINE
  5
9328
  8
ALPHA
 10
48.131159
 20
35.248947
 30
0.0
 11
47.929661
 21
35.597952
 31
0.0
  0
LINE
  5
9329
  8
ALPHA
 10
47.903533
 20
35.143208
 30
0.0
 11
47.918674
 21
35.116982
 31
0.0
  0
ARC
  5
932A
  8
ALPHA
 10
57.879661
 20
35.143977
 30
0.0
 40
2.0
 50
0.0
 51
78.34488
  0
ARC
  5
932B
  8
ALPHA
 10
51.879661
 20
28.756351
 30
0.0
 40
7.523399
 50
1.90427
 51
58.09573
  0
ARC
  5
932C
  8
ALPHA
 10
51.879661
 20
28.756351
 30
0.0
 40
7.614754
 50
1.721912
 51
58.278088
  0
LINE
  5
932D
  8
ALPHA
 10
51.875911
 20
30.889987
 30
0.0
 11
51.879659
 21
31.806351
 31
0.0
  0
POLYLINE
  5
932E
  8
ALPHA
 66
     1
 10
0.0
 20
0.0
 30
0.0
 70
   128
  0
VERTEX
  5
9932
  8
ALPHA
 10
53.77392
 20
26.365895
 30
0.0
  0
VERTEX
  5
9933
  8
ALPHA
 10
54.412438
 20
27.053381
 30
0.0
  0
VERTEX
  5
9934
  8
ALPHA
 10
54.808081
 20
27.905937
 30
0.0
  0
VERTEX
  5
9935
  8
ALPHA
 10
54.928669
 20
28.836167
 30
0.0
  0
VERTEX
  5
9936
  8
ALPHA
 10
54.759919
 20
29.759617
 30
0.0
  0
VERTEX
  5
9937
  8
ALPHA
 10
54.318487
 20
30.587928
 30
0.0
  0
VERTEX
  5
9938
  8
ALPHA
 10
53.646081
 20
31.24243
 30
0.0
  0
VERTEX
  5
9939
  8
ALPHA
 10
52.806271
 20
31.664118
 30
0.0
  0
VERTEX
  5
993A
  8
ALPHA
 10
51.879661
 20
31.806301
 30
0.0
  0
SEQEND
  5
993B
  8
ALPHA
  0
LINE
  5
932F
  8
ALPHA
 10
51.879666
 20
30.606351
 30
0.0
 11
51.875911
 21
30.889987
 31
0.0
  0
LINE
  5
9330
  8
ALPHA
 10
53.729653
 20
28.753034
 30
0.0
 11
53.727404
 21
28.665437
 31
0.0
  0
LINE
  5
9331
  8
ALPHA
 10
51.493342
 20
30.565559
 30
0.0
 11
51.535565
 21
30.574069
 31
0.0
  0
POLYLINE
  5
9332
  8
ALPHA
 66
     1
 10
0.0
 20
0.0
 30
0.0
 70
   128
210
0.0
220
0.0
230
-1.0
  0
VERTEX
  5
993C
  8
ALPHA
 10
-51.385008
 20
30.539001
 30
0.0
  0
VERTEX
  5
993D
  8
ALPHA
 10
-52.110746
 20
30.592995
 30
0.0
  0
VERTEX
  5
993E
  8
ALPHA
 10
-52.802037
 20
30.360003
 30
0.0
  0
VERTEX
  5
993F
  8
ALPHA
 10
-53.349782
 20
29.879336
 30
0.0
  0
VERTEX
  5
9940
  8
ALPHA
 10
-53.669421
 20
29.224497
 30
0.0
  0
VERTEX
  5
9941
  8
ALPHA
 10
-53.711388
 20
28.496981
 30
0.0
  0
VERTEX
  5
9942
  8
ALPHA
 10
-53.469085
 20
27.809722
 30
0.0
  0
VERTEX
  5
9943
  8
ALPHA
 10
-52.980197
 20
27.269326
 30
0.0
  0
VERTEX
  5
9944
  8
ALPHA
 10
-52.320547
 20
26.959659
 30
0.0
  0
VERTEX
  5
9945
  8
ALPHA
 10
-51.592477
 20
26.928814
 30
0.0
  0
VERTEX
  5
9946
  8
ALPHA
 10
-50.908962
 20
27.181489
 30
0.0
  0
VERTEX
  5
9947
  8
ALPHA
 10
-50.376071
 20
27.678539
 30
0.0
  0
VERTEX
  5
9948
  8
ALPHA
 10
-50.076502
 20
28.342852
 30
0.0
  0
VERTEX
  5
9949
  8
ALPHA
 10
-50.056679
 20
29.071272
 30
0.0
  0
VERTEX
  5
994A
  8
ALPHA
 10
-50.319783
 20
29.75065
 30
0.0
  0
VERTEX
  5
994B
  8
ALPHA
 10
-50.82446
 20
30.278092
 30
0.0
  0
VERTEX
  5
994C
  8
ALPHA
 10
-51.493342
 20
30.565559
 30
0.0
  0
SEQEND
  5
994D
  8
ALPHA
  0
LINE
  5
9333
  8
ALPHA
 10
51.08443
 20
30.426685
 30
0.0
 11
51.098344
 21
30.43323
 31
0.0
  0
LINE
  5
9334
  8
ALPHA
 10
51.068598
 20
30.419063
 30
0.0
 11
51.08443
 21
30.426685
 31
0.0
  0
LINE
  5
9335
  8
ALPHA
 10
51.042283
 20
30.40598
 30
0.0
 11
51.068598
 21
30.419063
 31
0.0
  0
LINE
  5
9336
  8
ALPHA
 10
50.35637
 20
29.806082
 30
0.0
 11
50.636563
 21
30.126468
 31
0.0
  0
LINE
  5
9337
  8
ALPHA
 10
51.852472
 20
26.906551
 30
0.0
 11
51.837991
 21
26.906821
 31
0.0
  0
LINE
  5
9338
  8
ALPHA
 10
51.866451
 20
26.9064
 30
0.0
 11
51.852472
 21
26.906551
 31
0.0
  0
LINE
  5
9339
  8
ALPHA
 10
52.125586
 20
26.922806
 30
0.0
 11
51.866451
 21
26.9064
 31
0.0
  0
LINE
  5
933A
  8
ALPHA
 10
52.787453
 20
27.144405
 30
0.0
 11
52.644319
 21
27.071814
 31
0.0
  0
LINE
  5
933B
  8
ALPHA
 10
52.868415
 20
27.192744
 30
0.0
 11
52.837622
 21
27.173694
 31
0.0
  0
LINE
  5
933C
  8
ALPHA
 10
53.774162
 20
26.366087
 30
0.0
 11
53.789497
 21
26.378321
 31
0.0
  0
LINE
  5
933D
  8
ALPHA
 10
53.709881
 20
26.316526
 30
0.0
 11
53.774162
 21
26.366087
 31
0.0
  0
LINE
  5
933E
  8
ALPHA
 10
53.444991
 20
26.138714
 30
0.0
 11
53.709881
 21
26.316525
 31
0.0
  0
LINE
  5
933F
  8
ALPHA
 10
53.271995
 20
26.042718
 30
0.0
 11
53.444895
 21
26.138657
 31
0.0
  0
LINE
  5
9340
  8
ALPHA
 10
53.211023
 20
26.01228
 30
0.0
 11
53.271995
 21
26.042718
 31
0.0
  0
LINE
  5
9341
  8
ALPHA
 10
53.115725
 20
25.968046
 30
0.0
 11
53.211023
 21
26.01228
 31
0.0
  0
LINE
  5
9342
  8
ALPHA
 10
50.211595
 20
26.202915
 30
0.0
 11
50.179605
 21
26.224103
 31
0.0
  0
LINE
  5
9343
  8
ALPHA
 10
53.208196
 20
26.01091
 30
0.0
 11
53.115723
 21
25.968051
 31
0.0
  0
LINE
  5
9344
  8
ALPHA
 10
53.273503
 20
26.043481
 30
0.0
 11
53.208196
 21
26.01091
 31
0.0
  0
LINE
  5
9345
  8
ALPHA
 10
53.444914
 20
26.138626
 30
0.0
 11
53.273503
 21
26.043481
 31
0.0
  0
POLYLINE
  5
9346
  8
ALPHA
 66
     1
 10
0.0
 20
0.0
 30
0.0
 70
   128
210
0.0
220
0.0
230
-1.0
  0
VERTEX
  5
994E
  8
ALPHA
 10
-50.167483
 20
28.055689
 30
0.0
  0
VERTEX
  5
994F
  8
ALPHA
 10
-50.029876
 20
28.766338
 30
0.0
  0
VERTEX
  5
9950
  8
ALPHA
 10
-50.17518
 20
29.475513
 30
0.0
  0
VERTEX
  5
9951
  8
ALPHA
 10
-50.581711
 20
30.074612
 30
0.0
  0
VERTEX
  5
9952
  8
ALPHA
 10
-51.187053
 20
30.471806
 30
0.0
  0
VERTEX
  5
9953
  8
ALPHA
 10
-51.898479
 20
30.606254
 30
0.0
  0
VERTEX
  5
9954
  8
ALPHA
 10
-52.607023
 20
30.457363
 30
0.0
  0
VERTEX
  5
9955
  8
ALPHA
 10
-53.204162
 20
30.047937
 30
0.0
  0
VERTEX
  5
9956
  8
ALPHA
 10
-53.598435
 20
29.440687
 30
0.0
  0
VERTEX
  5
9957
  8
ALPHA
 10
-53.729453
 20
28.72862
 30
0.0
  0
VERTEX
  5
9958
  8
ALPHA
 10
-53.577149
 20
28.020801
 30
0.0
  0
VERTEX
  5
9959
  8
ALPHA
 10
-53.164851
 20
27.425642
 30
0.0
  0
VERTEX
  5
995A
  8
ALPHA
 10
-52.555707
 20
27.0343
 30
0.0
  0
VERTEX
  5
995B
  8
ALPHA
 10
-51.843018
 20
26.906715
 30
0.0
  0
VERTEX
  5
995C
  8
ALPHA
 10
-51.135951
 20
27.062432
 30
0.0
  0
VERTEX
  5
995D
  8
ALPHA
 10
-50.542935
 20
27.477647
 30
0.0
  0
VERTEX
  5
995E
  8
ALPHA
 10
-50.154442
 20
28.088447
 30
0.0
  0
SEQEND
  5
995F
  8
ALPHA
  0
POLYLINE
  5
9347
  8
ALPHA
 66
     1
 10
0.0
 20
0.0
 30
0.0
 70
   128
210
0.0
220
0.0
230
-1.0
  0
VERTEX
  5
9960
  8
ALPHA
 10
-50.167483
 20
28.055689
 30
0.0
  0
VERTEX
  5
9961
  8
ALPHA
 10
-50.029851
 20
28.761234
 30
0.0
  0
VERTEX
  5
9962
  8
ALPHA
 10
-50.171237
 20
29.466101
 30
0.0
  0
VERTEX
  5
9963
  8
ALPHA
 10
-50.570847
 20
30.063829
 30
0.0
  0
VERTEX
  5
9964
  8
ALPHA
 10
-51.16817
 20
30.464062
 30
0.0
  0
VERTEX
  5
9965
  8
ALPHA
 10
-51.872968
 20
30.606339
 30
0.0
  0
VERTEX
  5
9966
  8
ALPHA
 10
-52.578777
 20
30.469166
 30
0.0
  0
VERTEX
  5
9967
  8
ALPHA
 10
-53.178982
 20
30.073266
 30
0.0
  0
VERTEX
  5
9968
  8
ALPHA
 10
-53.582919
 20
29.478439
 30
0.0
  0
VERTEX
  5
9969
  8
ALPHA
 10
-53.729571
 20
28.774539
 30
0.0
  0
VERTEX
  5
996A
  8
ALPHA
 10
-53.596785
 20
28.067892
 30
0.0
  0
VERTEX
  5
996B
  8
ALPHA
 10
-53.204621
 20
27.46524
 30
0.0
  0
VERTEX
  5
996C
  8
ALPHA
 10
-52.612317
 20
27.057617
 30
0.0
  0
VERTEX
  5
996D
  8
ALPHA
 10
-51.909344
 20
26.906595
 30
0.0
  0
VERTEX
  5
996E
  8
ALPHA
 10
-51.201899
 20
27.034991
 30
0.0
  0
VERTEX
  5
996F
  8
ALPHA
 10
-50.596994
 20
27.423465
 30
0.0
  0
VERTEX
  5
9970
  8
ALPHA
 10
-50.185618
 20
28.012941
 30
0.0
  0
SEQEND
  5
9971
  8
ALPHA
  0
LINE
  5
9348
  8
ALPHA
 10
50.199878
 20
27.981262
 30
0.0
 11
50.185618
 21
28.012941
 31
0.0
  0
LINE
  5
9349
  8
ALPHA
 10
50.873845
 20
27.203671
 30
0.0
 11
50.818275
 21
27.24111
 31
0.0
  0
LINE
  5
934A
  8
ALPHA
 10
50.906587
 20
27.182946
 30
0.0
 11
50.873845
 21
27.203671
 31
0.0
  0
LINE
  5
934B
  8
ALPHA
 10
51.86663
 20
26.9064
 30
0.0
 11
51.842309
 21
26.906729
 31
0.0
  0
LINE
  5
934C
  8
ALPHA
 10
51.885418
 20
26.906364
 30
0.0
 11
51.86663
 21
26.9064
 31
0.0
  0
LINE
  5
934D
  8
ALPHA
 10
51.93165
 20
26.907088
 30
0.0
 11
51.885418
 21
26.906364
 31
0.0
  0
POLYLINE
  5
934E
  8
ALPHA
 66
     1
 10
0.0
 20
0.0
 30
0.0
 70
   128
210
0.0
220
0.0
230
-1.0
  0
VERTEX
  5
9972
  8
ALPHA
 10
-51.62957
 20
30.589362
 30
0.0
  0
VERTEX
  5
9973
  8
ALPHA
 10
-52.345321
 20
30.546652
 30
0.0
  0
VERTEX
  5
9974
  8
ALPHA
 10
-52.99124
 20
30.235148
 30
0.0
  0
VERTEX
  5
9975
  8
ALPHA
 10
-53.470128
 20
29.701278
 30
0.0
  0
VERTEX
  5
9976
  8
ALPHA
 10
-53.709987
 20
29.025387
 30
0.0
  0
VERTEX
  5
9977
  8
ALPHA
 10
-53.674768
 20
28.309061
 30
0.0
  0
VERTEX
  5
9978
  8
ALPHA
 10
-53.369762
 20
27.659958
 30
0.0
  0
VERTEX
  5
9979
  8
ALPHA
 10
-52.840809
 20
27.17563
 30
0.0
  0
VERTEX
  5
997A
  8
ALPHA
 10
-52.167405
 20
26.928869
 30
0.0
  0
VERTEX
  5
997B
  8
ALPHA
 10
-51.450754
 20
26.956759
 30
0.0
  0
VERTEX
  5
997C
  8
ALPHA
 10
-50.798563
 20
27.25511
 30
0.0
  0
VERTEX
  5
997D
  8
ALPHA
 10
-50.30885
 20
27.779084
 30
0.0
  0
VERTEX
  5
997E
  8
ALPHA
 10
-50.055214
 20
28.449931
 30
0.0
  0
VERTEX
  5
997F
  8
ALPHA
 10
-50.075775
 20
29.16683
 30
0.0
  0
VERTEX
  5
9980
  8
ALPHA
 10
-50.367443
 20
29.822029
 30
0.0
  0
VERTEX
  5
9981
  8
ALPHA
 10
-50.886404
 20
30.316925
 30
0.0
  0
VERTEX
  5
9982
  8
ALPHA
 10
-51.554419
 20
30.577533
 30
0.0
  0
SEQEND
  5
9983
  8
ALPHA
  0
POLYLINE
  5
934F
  8
ALPHA
 66
     1
 10
0.0
 20
0.0
 30
0.0
 70
   128
210
0.0
220
0.0
230
-1.0
  0
VERTEX
  5
9984
  8
ALPHA
 10
-51.522112
 20
30.571472
 30
0.0
  0
VERTEX
  5
9985
  8
ALPHA
 10
-52.2449
 20
30.569924
 30
0.0
  0
VERTEX
  5
9986
  8
ALPHA
 10
-52.911978
 20
30.291541
 30
0.0
  0
VERTEX
  5
9987
  8
ALPHA
 10
-53.421461
 20
29.77877
 30
0.0
  0
VERTEX
  5
9988
  8
ALPHA
 10
-53.695558
 20
29.109906
 30
0.0
  0
VERTEX
  5
9989
  8
ALPHA
 10
-53.692424
 20
28.387065
 30
0.0
  0
VERTEX
  5
998A
  8
ALPHA
 10
-53.412536
 20
27.720604
 30
0.0
  0
VERTEX
  5
998B
  8
ALPHA
 10
-52.898625
 20
27.21227
 30
0.0
  0
VERTEX
  5
998C
  8
ALPHA
 10
-52.22915
 20
26.93967
 30
0.0
  0
VERTEX
  5
998D
  8
ALPHA
 10
-51.506319
 20
26.944422
 30
0.0
  0
VERTEX
  5
998E
  8
ALPHA
 10
-50.840487
 20
27.2258
 30
0.0
  0
VERTEX
  5
998F
  8
ALPHA
 10
-50.333304
 20
27.740846
 30
0.0
  0
VERTEX
  5
9990
  8
ALPHA
 10
-50.062203
 20
28.410928
 30
0.0
  0
VERTEX
  5
9991
  8
ALPHA
 10
-50.068572
 20
29.133747
 30
0.0
  0
VERTEX
  5
9992
  8
ALPHA
 10
-50.351438
 20
29.798948
 30
0.0
  0
VERTEX
  5
9993
  8
ALPHA
 10
-50.867618
 20
30.304978
 30
0.0
  0
VERTEX
  5
9994
  8
ALPHA
 10
-51.538306
 20
30.574579
 30
0.0
  0
VERTEX
  5
9995
  8
ALPHA
 10
-52.261109
 20
30.566593
 30
0.0
  0
VERTEX
  5
9996
  8
ALPHA
 10
-52.925677
 20
30.282239
 30
0.0
  0
VERTEX
  5
9997
  8
ALPHA
 10
-53.430551
 20
29.764927
 30
0.0
  0
VERTEX
  5
9998
  8
ALPHA
 10
-53.698652
 20
29.093637
 30
0.0
  0
VERTEX
  5
9999
  8
ALPHA
 10
-53.689048
 20
28.370852
 30
0.0
  0
VERTEX
  5
999A
  8
ALPHA
 10
-53.403206
 20
27.706921
 30
0.0
  0
VERTEX
  5
999B
  8
ALPHA
 10
-52.884765
 20
27.203205
 30
0.0
  0
VERTEX
  5
999C
  8
ALPHA
 10
-52.212875
 20
26.936608
 30
0.0
  0
VERTEX
  5
999D
  8
ALPHA
 10
-51.490113
 20
26.947829
 30
0.0
  0
VERTEX
  5
999E
  8
ALPHA
 10
-50.826823
 20
27.235157
 30
0.0
  0
VERTEX
  5
999F
  8
ALPHA
 10
-50.324269
 20
27.754725
 30
0.0
  0
VERTEX
  5
99A0
  8
ALPHA
 10
-50.059176
 20
28.427211
 30
0.0
  0
VERTEX
  5
99A1
  8
ALPHA
 10
-50.072017
 20
29.149946
 30
0.0
  0
VERTEX
  5
99A2
  8
ALPHA
 10
-50.360831
 20
29.812581
 30
0.0
  0
VERTEX
  5
99A3
  8
ALPHA
 10
-50.881546
 20
30.313811
 30
0.0
  0
VERTEX
  5
99A4
  8
ALPHA
 10
-51.554419
 20
30.577533
 30
0.0
  0
SEQEND
  5
99A5
  8
ALPHA
  0
POLYLINE
  5
9350
  8
ALPHA
 66
     1
 10
0.0
 20
0.0
 30
0.0
 70
   128
210
0.0
220
0.0
230
-1.0
  0
VERTEX
  5
99A6
  8
ALPHA
 10
-51.09897
 20
30.433557
 30
0.0
  0
VERTEX
  5
99A7
  8
ALPHA
 10
-51.8012
 20
30.604619
 30
0.0
  0
VERTEX
  5
99A8
  8
ALPHA
 10
-52.515439
 20
30.493671
 30
0.0
  0
VERTEX
  5
99A9
  8
ALPHA
 10
-53.132645
 20
30.117429
 30
0.0
  0
VERTEX
  5
99AA
  8
ALPHA
 10
-53.558562
 20
29.533392
 30
0.0
  0
VERTEX
  5
99AB
  8
ALPHA
 10
-53.728165
 20
28.830726
 30
0.0
  0
VERTEX
  5
99AC
  8
ALPHA
 10
-53.615561
 20
28.116707
 30
0.0
  0
VERTEX
  5
99AD
  8
ALPHA
 10
-53.237943
 20
27.500341
 30
0.0
  0
VERTEX
  5
99AE
  8
ALPHA
 10
-52.652959
 20
27.075727
 30
0.0
  0
VERTEX
  5
99AF
  8
ALPHA
 10
-51.949919
 20
26.907689
 30
0.0
  0
VERTEX
  5
99B0
  8
ALPHA
 10
-51.236153
 20
27.021883
 30
0.0
  0
VERTEX
  5
99B1
  8
ALPHA
 10
-50.620631
 20
27.400872
 30
0.0
  0
VERTEX
  5
99B2
  8
ALPHA
 10
-50.197321
 20
27.986799
 30
0.0
  0
VERTEX
  5
99B3
  8
ALPHA
 10
-50.03085
 20
28.69021
 30
0.0
  0
VERTEX
  5
99B4
  8
ALPHA
 10
-50.146632
 20
29.403719
 30
0.0
  0
VERTEX
  5
99B5
  8
ALPHA
 10
-50.526991
 20
30.018396
 30
0.0
  0
VERTEX
  5
99B6
  8
ALPHA
 10
-51.113858
 20
30.440399
 30
0.0
  0
VERTEX
  5
99B7
  8
ALPHA
 10
-51.817638
 20
30.605303
 30
0.0
  0
VERTEX
  5
99B8
  8
ALPHA
 10
-52.530886
 20
30.487933
 30
0.0
  0
VERTEX
  5
99B9
  8
ALPHA
 10
-53.144714
 20
30.106208
 30
0.0
  0
VERTEX
  5
99BA
  8
ALPHA
 10
-53.56541
 20
29.518403
 30
0.0
  0
VERTEX
  5
99BB
  8
ALPHA
 10
-53.728748
 20
28.814257
 30
0.0
  0
VERTEX
  5
99BC
  8
ALPHA
 10
-53.60979
 20
28.101271
 30
0.0
  0
VERTEX
  5
99BD
  8
ALPHA
 10
-53.226698
 20
27.488294
 30
0.0
  0
VERTEX
  5
99BE
  8
ALPHA
 10
-52.637958
 20
27.068907
 30
0.0
  0
VERTEX
  5
99BF
  8
ALPHA
 10
-51.933449
 20
26.907137
 30
0.0
  0
VERTEX
  5
99C0
  8
ALPHA
 10
-51.220728
 20
27.027682
 30
0.0
  0
VERTEX
  5
99C1
  8
ALPHA
 10
-50.608605
 20
27.412139
 30
0.0
  0
VERTEX
  5
99C2
  8
ALPHA
 10
-50.190529
 20
28.001814
 30
0.0
  0
VERTEX
  5
99C3
  8
ALPHA
 10
-50.030329
 20
28.706683
 30
0.0
  0
VERTEX
  5
99C4
  8
ALPHA
 10
-50.152458
 20
29.419141
 30
0.0
  0
VERTEX
  5
99C5
  8
ALPHA
 10
-50.538259
 20
30.030451
 30
0.0
  0
VERTEX
  5
99C6
  8
ALPHA
 10
-51.128887
 20
30.447161
 30
0.0
  0
SEQEND
  5
99C7
  8
ALPHA
  0
LINE
  5
9351
  8
ALPHA
 10
51.922068
 20
26.906842
 30
0.0
 11
51.797994
 21
26.908162
 31
0.0
  0
LINE
  5
9352
  8
ALPHA
 10
52.021437
 20
26.911792
 30
0.0
 11
51.922068
 21
26.906842
 31
0.0
  0
LINE
  5
9353
  8
ALPHA
 10
53.038321
 20
27.314128
 30
0.0
 11
52.928329
 21
27.232287
 31
0.0
  0
LINE
  5
9354
  8
ALPHA
 10
51.629568
 20
30.589369
 30
0.0
 11
51.716781
 21
30.599163
 31
0.0
  0
LINE
  5
9355
  8
ALPHA
 10
51.465319
 20
30.559347
 30
0.0
 11
51.629568
 21
30.589369
 31
0.0
  0
LINE
  5
9356
  8
ALPHA
 10
51.089684
 20
30.429196
 30
0.0
 11
51.131165
 21
30.448163
 31
0.0
  0
LINE
  5
9357
  8
ALPHA
 10
50.450562
 20
29.931152
 30
0.0
 11
50.638127
 21
30.12788
 31
0.0
  0
LINE
  5
9358
  8
ALPHA
 10
52.856077
 20
27.185014
 30
0.0
 11
52.815636
 21
27.160598
 31
0.0
  0
LINE
  5
9359
  8
ALPHA
 10
52.887106
 20
27.204723
 30
0.0
 11
52.856077
 21
27.185014
 31
0.0
  0
LINE
  5
935A
  8
ALPHA
 10
52.915913
 20
27.22381
 30
0.0
 11
52.887106
 21
27.204723
 31
0.0
  0
LINE
  5
935B
  8
ALPHA
 10
51.491116
 20
30.565086
 30
0.0
 11
51.764564
 21
30.602767
 31
0.0
  0
LINE
  5
935C
  8
ALPHA
 10
51.415908
 20
30.547282
 30
0.0
 11
51.491116
 21
30.565086
 31
0.0
  0
LINE
  5
935D
  8
ALPHA
 10
51.159276
 20
30.460325
 30
0.0
 11
51.415908
 21
30.547282
 31
0.0
  0
POLYLINE
  5
935E
  8
ALPHA
 66
     1
 10
0.0
 20
0.0
 30
0.0
 70
   128
210
0.0
220
0.0
230
-1.0
  0
VERTEX
  5
99C8
  8
ALPHA
 10
-51.138355
 20
30.451323
 30
0.0
  0
VERTEX
  5
99C9
  8
ALPHA
 10
-51.838584
 20
30.60585
 30
0.0
  0
VERTEX
  5
99CA
  8
ALPHA
 10
-52.545046
 20
30.482542
 30
0.0
  0
VERTEX
  5
99CB
  8
ALPHA
 10
-53.151537
 20
30.099783
 30
0.0
  0
VERTEX
  5
99CC
  8
ALPHA
 10
-53.566888
 20
29.515126
 30
0.0
  0
VERTEX
  5
99CD
  8
ALPHA
 10
-53.728677
 20
28.816439
 30
0.0
  0
VERTEX
  5
99CE
  8
ALPHA
 10
-53.612591
 20
28.108722
 30
0.0
  0
VERTEX
  5
99CF
  8
ALPHA
 10
-53.236076
 20
27.498332
 30
0.0
  0
VERTEX
  5
99D0
  8
ALPHA
 10
-52.655714
 20
27.077001
 30
0.0
  0
VERTEX
  5
99D1
  8
ALPHA
 10
-51.958724
 20
26.908048
 30
0.0
  0
VERTEX
  5
99D2
  8
ALPHA
 10
-51.249852
 20
27.016863
 30
0.0
  0
VERTEX
  5
99D3
  8
ALPHA
 10
-50.635628
 20
27.387094
 30
0.0
  0
VERTEX
  5
99D4
  8
ALPHA
 10
-50.208361
 20
27.963102
 30
0.0
  0
VERTEX
  5
99D5
  8
ALPHA
 10
-50.032262
 20
28.658323
 30
0.0
  0
VERTEX
  5
99D6
  8
ALPHA
 10
-50.133791
 20
29.368287
 30
0.0
  0
VERTEX
  5
99D7
  8
ALPHA
 10
-50.497669
 20
29.986342
 30
0.0
  0
VERTEX
  5
99D8
  8
ALPHA
 10
-51.069299
 20
30.419424
 30
0.0
  0
SEQEND
  5
99D9
  8
ALPHA
  0
LINE
  5
935F
  8
ALPHA
 10
51.04228
 20
30.405985
 30
0.0
 11
51.069299
 21
30.419424
 31
0.0
  0
LINE
  5
9360
  8
ALPHA
 10
50.486712
 20
29.973804
 30
0.0
 11
50.755006
 21
30.225246
 31
0.0
  0
LINE
  5
9361
  8
ALPHA
 10
51.81328
 20
26.907547
 30
0.0
 11
51.717461
 21
26.913475
 31
0.0
  0
LINE
  5
9362
  8
ALPHA
 10
51.922068
 20
26.906845
 30
0.0
 11
51.81328
 21
26.907547
 31
0.0
  0
LINE
  5
9363
  8
ALPHA
 10
52.086873
 20
26.917992
 30
0.0
 11
51.936704
 21
26.907238
 31
0.0
  0
LINE
  5
9364
  8
ALPHA
 10
52.346058
 20
26.966113
 30
0.0
 11
52.086873
 21
26.917992
 31
0.0
  0
LINE
  5
9365
  8
ALPHA
 10
53.774162
 20
26.366087
 30
0.0
 11
53.789497
 21
26.378321
 31
0.0
  0
LINE
  5
9366
  8
ALPHA
 10
53.709881
 20
26.316526
 30
0.0
 11
53.774162
 21
26.366087
 31
0.0
  0
LINE
  5
9367
  8
ALPHA
 10
53.211023
 20
26.01228
 30
0.0
 11
53.271995
 21
26.042718
 31
0.0
  0
POLYLINE
  5
9368
  8
ALPHA
 66
     1
 10
0.0
 20
0.0
 30
0.0
 70
   128
210
0.0
220
0.0
230
-1.0
  0
VERTEX
  5
99DA
  8
ALPHA
 10
-51.385008
 20
30.539001
 30
0.0
  0
VERTEX
  5
99DB
  8
ALPHA
 10
-52.088953
 20
30.595725
 30
0.0
  0
VERTEX
  5
99DC
  8
ALPHA
 10
-52.763819
 20
30.381329
 30
0.0
  0
VERTEX
  5
99DD
  8
ALPHA
 10
-53.30897
 20
29.930861
 30
0.0
  0
VERTEX
  5
99DE
  8
ALPHA
 10
-53.645234
 20
29.308728
 30
0.0
  0
VERTEX
  5
99DF
  8
ALPHA
 10
-53.723518
 20
28.605835
 30
0.0
  0
VERTEX
  5
99E0
  8
ALPHA
 10
-53.532305
 20
27.924948
 30
0.0
  0
VERTEX
  5
99E1
  8
ALPHA
 10
-53.099546
 20
27.365579
 30
0.0
  0
VERTEX
  5
99E2
  8
ALPHA
 10
-52.488533
 20
27.009436
 30
0.0
  0
VERTEX
  5
99E3
  8
ALPHA
 10
-51.788531
 20
26.908601
 30
0.0
  0
VERTEX
  5
99E4
  8
ALPHA
 10
-51.101851
 20
27.077844
 30
0.0
  0
VERTEX
  5
99E5
  8
ALPHA
 10
-50.528832
 20
27.492361
 30
0.0
  0
VERTEX
  5
99E6
  8
ALPHA
 10
-50.153219
 20
28.0916
 30
0.0
  0
VERTEX
  5
99E7
  8
ALPHA
 10
-50.029963
 20
28.787992
 30
0.0
  0
VERTEX
  5
99E8
  8
ALPHA
 10
-50.176993
 20
29.479849
 30
0.0
  0
VERTEX
  5
99E9
  8
ALPHA
 10
-50.57287
 20
30.06579
 30
0.0
  0
VERTEX
  5
99EA
  8
ALPHA
 10
-51.159298
 20
30.460274
 30
0.0
  0
SEQEND
  5
99EB
  8
ALPHA
  0
LINE
  5
9369
  8
ALPHA
 10
51.068598
 20
30.419063
 30
0.0
 11
51.08443
 21
30.426685
 31
0.0
  0
LINE
  5
936A
  8
ALPHA
 10
51.042283
 20
30.40598
 30
0.0
 11
51.068598
 21
30.419063
 31
0.0
  0
LINE
  5
936B
  8
ALPHA
 10
52.787453
 20
27.144405
 30
0.0
 11
52.644319
 21
27.071814
 31
0.0
  0
LINE
  5
936C
  8
ALPHA
 10
52.837622
 20
27.173694
 30
0.0
 11
52.787453
 21
27.144405
 31
0.0
  0
LINE
  5
936D
  8
ALPHA
 10
52.868415
 20
27.192744
 30
0.0
 11
52.837622
 21
27.173694
 31
0.0
  0
LINE
  5
936E
  8
ALPHA
 10
50.038981
 20
28.570888
 30
0.0
 11
50.030778
 21
28.692515
 31
0.0
  0
LINE
  5
936F
  8
ALPHA
 10
51.469164
 20
30.560227
 30
0.0
 11
51.586833
 21
30.583023
 31
0.0
  0
LINE
  5
9370
  8
ALPHA
 10
50.537104
 20
30.029148
 30
0.0
 11
50.616638
 21
30.108112
 31
0.0
  0
LINE
  5
9371
  8
ALPHA
 10
53.427671
 20
29.769337
 30
0.0
 11
53.461996
 21
29.71481
 31
0.0
  0
LINE
  5
9372
  8
ALPHA
 10
52.595887
 20
30.462078
 30
0.0
 11
52.667017
 21
30.430418
 31
0.0
  0
LINE
  5
9373
  8
ALPHA
 10
52.55603
 20
30.478276
 30
0.0
 11
52.595887
 21
30.462078
 31
0.0
  0
LINE
  5
9374
  8
ALPHA
 10
51.508055
 20
30.568644
 30
0.0
 11
51.534726
 21
30.573905
 31
0.0
  0
LINE
  5
9375
  8
ALPHA
 10
50.580303
 20
30.073223
 30
0.0
 11
50.598207
 21
30.090647
 31
0.0
  0
LINE
  5
9376
  8
ALPHA
 10
50.56728
 20
30.060248
 30
0.0
 11
50.580303
 21
30.073223
 31
0.0
  0
LINE
  5
9377
  8
ALPHA
 10
50.554107
 20
30.046857
 30
0.0
 11
50.56728
 21
30.060248
 31
0.0
  0
LINE
  5
9378
  8
ALPHA
 10
53.427671
 20
29.769337
 30
0.0
 11
53.461996
 21
29.71481
 31
0.0
  0
LINE
  5
9379
  8
ALPHA
 10
52.55603
 20
30.478276
 30
0.0
 11
52.595887
 21
30.462078
 31
0.0
  0
LINE
  5
937A
  8
ALPHA
 10
52.880186
 20
27.200251
 30
0.0
 11
52.868415
 21
27.192744
 31
0.0
  0
LINE
  5
937B
  8
ALPHA
 10
52.92833
 20
27.232289
 30
0.0
 11
52.880186
 21
27.200251
 31
0.0
  0
LINE
  5
937C
  8
ALPHA
 10
51.766774
 20
30.602904
 30
0.0
 11
51.885216
 21
30.606314
 31
0.0
  0
LINE
  5
937D
  8
ALPHA
 10
51.223911
 20
30.486228
 30
0.0
 11
51.237908
 21
30.491474
 31
0.0
  0
LINE
  5
937E
  8
ALPHA
 10
53.05882
 20
25.943512
 30
0.0
 11
53.115725
 21
25.968046
 31
0.0
  0
LINE
  5
937F
  8
ALPHA
 10
53.689161
 20
26.301119
 30
0.0
 11
53.445089
 21
26.138731
 31
0.0
  0
LINE
  5
9380
  8
ALPHA
 10
53.709881
 20
26.316526
 30
0.0
 11
53.689161
 21
26.301119
 31
0.0
  0
LINE
  5
9381
  8
ALPHA
 10
53.774222
 20
26.36614
 30
0.0
 11
53.709881
 21
26.316526
 31
0.0
  0
LINE
  5
9382
  8
ALPHA
 10
53.815128
 20
26.399138
 30
0.0
 11
53.774222
 21
26.36614
 31
0.0
  0
LINE
  5
9383
  8
ALPHA
 10
53.879977
 20
26.45391
 30
0.0
 11
53.815128
 21
26.399138
 31
0.0
  0
LINE
  5
9384
  8
ALPHA
 10
52.837622
 20
27.173695
 30
0.0
 11
52.786504
 21
27.143858
 31
0.0
  0
LINE
  5
9385
  8
ALPHA
 10
52.853434
 20
27.183375
 30
0.0
 11
52.837622
 21
27.173695
 31
0.0
  0
LINE
  5
9386
  8
ALPHA
 10
52.928329
 20
27.232288
 30
0.0
 11
52.853434
 21
27.183375
 31
0.0
  0
LINE
  5
9387
  8
ALPHA
 10
53.088824
 20
27.356199
 30
0.0
 11
52.928329
 21
27.232288
 31
0.0
  0
LINE
  5
9388
  8
ALPHA
 10
51.208658
 20
30.480374
 30
0.0
 11
51.223909
 21
30.486234
 31
0.0
  0
LINE
  5
9389
  8
ALPHA
 10
50.879476
 20
30.31267
 30
0.0
 11
51.208658
 21
30.480374
 31
0.0
  0
LINE
  5
938A
  8
ALPHA
 10
53.05882
 20
25.943512
 30
0.0
 11
53.115725
 21
25.968046
 31
0.0
  0
LINE
  5
938B
  8
ALPHA
 10
50.8795
 20
30.312633
 30
0.0
 11
51.237908
 21
30.491474
 31
0.0
  0
LINE
  5
938C
  8
ALPHA
 10
53.444992
 20
26.138712
 30
0.0
 11
53.77392
 21
26.365895
 31
0.0
  0
LINE
  5
938D
  8
ALPHA
 10
53.110413
 20
25.965697
 30
0.0
 11
53.444992
 21
26.138712
 31
0.0
  0
POLYLINE
  5
938E
  8
ALPHA
 66
     1
 10
0.0
 20
0.0
 30
0.0
 70
   128
210
0.0
220
0.0
230
-1.0
  0
VERTEX
  5
99EC
  8
ALPHA
 10
-50.083481
 20
29.009107
 30
0.0
  0
VERTEX
  5
99ED
  8
ALPHA
 10
-50.290683
 20
29.640462
 30
0.0
  0
VERTEX
  5
99EE
  8
ALPHA
 10
-50.653124
 20
30.195934
 30
0.0
  0
VERTEX
  5
99EF
  8
ALPHA
 10
-50.919297
 20
30.395544
 30
0.0
  0
VERTEX
  5
99F0
  8
ALPHA
 10
-51.228396
 20
30.519585
 30
0.0
  0
VERTEX
  5
99F1
  8
ALPHA
 10
-51.886376
 20
30.606841
 30
0.0
  0
SEQEND
  5
99F2
  8
ALPHA
  0
CIRCLE
  5
938F
  8
ALPHA
 10
51.879661
 20
28.756351
 30
0.0
 40
0.9
  0
LINE
  5
9390
  8
ALPHA
 10
50.853957
 20
30.352378
 30
0.0
 11
50.879476
 21
30.31267
 31
0.0
  0
LINE
  5
9391
  8
ALPHA
 10
51.79919
 20
31.805289
 30
0.0
 11
51.879264
 21
31.806348
 31
0.0
  0
LINE
  5
9392
  8
ALPHA
 10
51.750902
 20
31.803632
 30
0.0
 11
51.79919
 21
31.805289
 31
0.0
  0
LINE
  5
9393
  8
ALPHA
 10
55.487162
 20
35.46235
 30
0.0
 11
55.829661
 21
35.597952
 31
0.0
  0
LINE
  5
9394
  8
ALPHA
 10
55.829661
 20
35.597952
 30
0.0
 11
55.883476
 21
35.233538
 31
0.0
  0
LINE
  5
9395
  8
ALPHA
 10
55.883476
 20
35.233538
 30
0.0
 11
55.85579
 21
35.143208
 31
0.0
  0
LINE
  5
9396
  8
ALPHA
 10
55.422777
 20
35.393208
 30
0.0
 11
55.487162
 21
35.46235
 31
0.0
  0
LINE
  5
9397
  8
ALPHA
 10
55.85579
 20
35.143208
 30
0.0
 11
55.840648
 21
35.116982
 31
0.0
  0
LINE
  5
9398
  8
ALPHA
 10
55.627746
 20
35.248225
 30
0.0
 11
55.829661
 21
35.597952
 31
0.0
  0
LINE
  5
9399
  8
ALPHA
 10
55.422777
 20
35.393208
 30
0.0
 11
55.405228
 21
35.362812
 31
0.0
  0
LINE
  5
939A
  8
ALPHA
 10
59.490976
 20
28.985163
 30
0.0
 11
59.779661
 21
28.756351
 31
0.0
  0
LINE
  5
939B
  8
ALPHA
 10
59.779661
 20
28.756351
 30
0.0
 11
59.490976
 21
28.527539
 31
0.0
  0
LINE
  5
939C
  8
ALPHA
 10
59.398905
 20
29.006351
 30
0.0
 11
59.490976
 21
28.985163
 31
0.0
  0
LINE
  5
939D
  8
ALPHA
 10
59.490976
 20
28.527539
 30
0.0
 11
59.398905
 21
28.506351
 31
0.0
  0
LINE
  5
939E
  8
ALPHA
 10
59.398905
 20
29.006351
 30
0.0
 11
59.361781
 21
29.006351
 31
0.0
  0
LINE
  5
939F
  8
ALPHA
 10
59.379661
 20
28.756351
 30
0.0
 11
59.779661
 21
28.756351
 31
0.0
  0
LINE
  5
93A0
  8
ALPHA
 10
59.398905
 20
28.506351
 30
0.0
 11
59.361781
 21
28.506351
 31
0.0
  0
VIEWPORT
  5
494D
 67
     1
  8
0
 10
4.995325
 20
6.556512
 30
0.0
 40
22.70986
 41
13.988421
 68
    -1
 69
     1
1001
ACAD
1000
MVIEW
1002
{
1070
    16
1010
0.0
1020
0.0
1030
0.0
1010
0.0
1020
0.0
1030
1.0
1040
0.0
1040
13.988421
1040
4.995325
1040
6.556512
1040
50.0
1040
0.0
1040
0.0
1070
     0
1070
   100
1070
     1
1070
     1
1070
     0
1070
     0
1070
     0
1070
     0
1040
0.0
1040
0.0
1040
0.0
1040
10.0
1040
10.0
1040
10.0
1040
10.0
1070
     0
1002
{
1002
}
1002
}
  0
ENDSEC
  0
EOF
