  0
SECTION
  2
HEADER
  9
$ACADVER
  1
AC1009
  9
$INSBASE
 10
402.590624
 20
-1.041018
 30
0.0
  9
$EXTMIN
 10
-5.172906
 20
0.773739
 30
0.0
  9
$EXTMAX
 10
87.989242
 20
71.438739
 30
0.0
  9
$LIMMIN
 10
-407.970438
 20
-367.832444
  9
$LIMMAX
 10
429.804077
 20
234.370848
  9
$ORTHOMODE
 70
     1
  9
$REGENMODE
 70
     1
  9
$FILLMODE
 70
     1
  9
$QTEXTMODE
 70
     0
  9
$MIRRTEXT
 70
     1
  9
$DRAGMODE
 70
     2
  9
$LTSCALE
 40
10.0
  9
$OSMODE
 70
    39
  9
$ATTMODE
 70
     1
  9
$TEXTSIZE
 40
6.0
  9
$TRACEWID
 40
1.0
  9
$TEXTSTYLE
  7
ROMANS
  9
$CLAYER
  8
ALPHA
  9
$CELTYPE
  6
BYLAYER
  9
$CECOLOR
 62
   256
  9
$DIMSCALE
 40
1.0
  9
$DIMASZ
 40
5.0
  9
$DIMEXO
 40
2.0
  9
$DIMDLI
 40
0.38
  9
$DIMRND
 40
0.0
  9
$DIMDLE
 40
0.0
  9
$DIMEXE
 40
2.5
  9
$DIMTP
 40
0.0
  9
$DIMTM
 40
0.0
  9
$DIMTXT
 40
2.5
  9
$DIMCEN
 40
0.0
  9
$DIMTSZ
 40
0.0
  9
$DIMTOL
 70
     0
  9
$DIMLIM
 70
     0
  9
$DIMTIH
 70
     1
  9
$DIMTOH
 70
     1
  9
$DIMSE1
 70
     0
  9
$DIMSE2
 70
     0
  9
$DIMTAD
 70
     1
  9
$DIMZIN
 70
    12
  9
$DIMBLK
  1
OPEN30
  9
$DIMASO
 70
     1
  9
$DIMSHO
 70
     1
  9
$DIMPOST
  1

  9
$DIMAPOST
  1

  9
$DIMALT
 70
     0
  9
$DIMALTD
 70
     2
  9
$DIMALTF
 40
25.4
  9
$DIMLFAC
 40
1.0
  9
$DIMTOFL
 70
     0
  9
$DIMTVP
 40
0.0
  9
$DIMTIX
 70
     0
  9
$DIMSOXD
 70
     0
  9
$DIMSAH
 70
     0
  9
$DIMBLK1
  1

  9
$DIMBLK2
  1

  9
$DIMSTYLE
  2
SC_DEFAUT
  9
$DIMCLRD
 70
     0
  9
$DIMCLRE
 70
     0
  9
$DIMCLRT
 70
     0
  9
$DIMTFAC
 40
1.0
  9
$DIMGAP
 40
2.0
  9
$LUNITS
 70
     2
  9
$LUPREC
 70
     1
  9
$SKETCHINC
 40
0.1
  9
$FILLETRAD
 40
0.0
  9
$AUNITS
 70
     0
  9
$AUPREC
 70
     0
  9
$MENU
  1
acad
  9
$ELEVATION
 40
0.0
  9
$PELEVATION
 40
0.0
  9
$THICKNESS
 40
0.0
  9
$LIMCHECK
 70
     0
  9
$BLIPMODE
 70
     0
  9
$CHAMFERA
 40
0.0
  9
$CHAMFERB
 40
0.0
  9
$SKPOLY
 70
     0
  9
$TDCREATE
 40
2450373.687919
  9
$TDUPDATE
 40
2452996.480943
  9
$TDINDWG
 40
0.881718
  9
$TDUSRTIMER
 40
0.881718
  9
$USRTIMER
 70
     1
  9
$ANGBASE
 50
0.0
  9
$ANGDIR
 70
     0
  9
$PDMODE
 70
    32
  9
$PDSIZE
 40
0.0
  9
$PLINEWID
 40
0.0
  9
$COORDS
 70
     1
  9
$SPLFRAME
 70
     0
  9
$SPLINETYPE
 70
     6
  9
$SPLINESEGS
 70
     8
  9
$ATTDIA
 70
     0
  9
$ATTREQ
 70
     1
  9
$HANDLING
 70
     1
  9
$HANDSEED
  5
9FF2
  9
$SURFTAB1
 70
     6
  9
$SURFTAB2
 70
     6
  9
$SURFTYPE
 70
     6
  9
$SURFU
 70
     6
  9
$SURFV
 70
     6
  9
$UCSNAME
  2

  9
$UCSORG
 10
0.0
 20
0.0
 30
0.0
  9
$UCSXDIR
 10
1.0
 20
0.0
 30
0.0
  9
$UCSYDIR
 10
0.0
 20
1.0
 30
0.0
  9
$PUCSNAME
  2

  9
$PUCSORG
 10
0.0
 20
0.0
 30
0.0
  9
$PUCSXDIR
 10
1.0
 20
0.0
 30
0.0
  9
$PUCSYDIR
 10
0.0
 20
1.0
 30
0.0
  9
$USERI1
 70
     0
  9
$USERI2
 70
     0
  9
$USERI3
 70
     0
  9
$USERI4
 70
     0
  9
$USERI5
 70
     0
  9
$USERR1
 40
0.0
  9
$USERR2
 40
0.0
  9
$USERR3
 40
0.0
  9
$USERR4
 40
0.0
  9
$USERR5
 40
0.0
  9
$WORLDVIEW
 70
     1
  9
$SHADEDGE
 70
     3
  9
$SHADEDIF
 70
    70
  9
$TILEMODE
 70
     1
  9
$MAXACTVP
 70
    16
  9
$PLIMCHECK
 70
     0
  9
$PEXTMIN
 10
-1.452248
 20
-0.437698
 30
0.0
  9
$PEXTMAX
 10
12.749749
 20
8.310198
 30
0.0
  9
$PLIMMIN
 10
0.0
 20
0.0
  9
$PLIMMAX
 10
12.0
 20
9.0
  9
$UNITMODE
 70
     0
  9
$VISRETAIN
 70
     0
  9
$PLINEGEN
 70
     0
  9
$PSLTSCALE
 70
     0
  0
ENDSEC
  0
SECTION
  2
TABLES
  0
TABLE
  2
VPORT
 70
     2
  0
VPORT
  2
*ACTIVE
 70
     0
 10
0.0
 20
0.0
 11
1.0
 21
1.0
 12
41.405289
 22
36.115888
 13
0.0
 23
0.0
 14
1.0
 24
1.0
 15
10.0
 25
10.0
 16
0.0
 26
0.0
 36
1.0
 17
0.0
 27
0.0
 37
0.0
 40
71.217836
 41
1.466346
 42
50.0
 43
0.0
 44
0.0
 50
0.0
 51
0.0
 71
     0
 72
   100
 73
     1
 74
     0
 75
     0
 76
     0
 77
     0
 78
     0
  0
ENDTAB
  0
TABLE
  2
LTYPE
 70
     2
  0
LTYPE
  2
CONTINUOUS
 70
     0
  3
Solid line
 72
    65
 73
     0
 40
0.0
  0
LTYPE
  2
AXES2
 70
     0
  3
___ _ ___ _ ___ _ ___ _ ___ _ ___ _ ___ _ ___ _
 72
    65
 73
     4
 40
1.125
 49
0.75
 49
-0.125
 49
0.125
 49
-0.125
  0
ENDTAB
  0
TABLE
  2
LAYER
 70
     5
  0
LAYER
  2
0
 70
     0
 62
   255
  6
CONTINUOUS
  0
LAYER
  2
COTATION1
 70
     0
 62
     2
  6
CONTINUOUS
  0
LAYER
  2
AXE
 70
     0
 62
    80
  6
AXES2
  0
LAYER
  2
DEFPOINTS
 70
     0
 62
     7
  6
CONTINUOUS
  0
LAYER
  2
ALPHA
 70
     0
 62
   254
  6
CONTINUOUS
  0
ENDTAB
  0
TABLE
  2
STYLE
 70
     2
  0
STYLE
  2
ROMANS
 70
     0
 40
0.0
 41
1.0
 50
0.0
 71
     0
 42
6.0
  3
romans
  4

  0
STYLE
  2
STANDARD
 70
     0
 40
0.0
 41
1.0
 50
0.0
 71
     0
 42
0.2
  3
txt
  4

  0
ENDTAB
  0
TABLE
  2
VIEW
 70
     0
  0
ENDTAB
  0
TABLE
  2
UCS
 70
     0
  0
ENDTAB
  0
TABLE
  2
APPID
 70
     1
  0
APPID
  2
ACAD
 70
     0
  0
ENDTAB
  0
TABLE
  2
DIMSTYLE
 70
     1
  0
DIMSTYLE
  2
SC_DEFAUT
 70
     0
  3

  4

  5
OPEN30
  6

  7

 40
1.0
 41
5.0
 42
2.0
 43
0.38
 44
2.5
 45
0.0
 46
0.0
 47
0.0
 48
0.0
140
2.5
141
0.0
142
0.0
143
25.4
144
1.0
145
0.0
146
1.0
147
2.0
 71
     0
 72
     0
 73
     1
 74
     1
 75
     0
 76
     0
 77
     1
 78
    12
170
     0
171
     2
172
     0
173
     0
174
     0
175
     0
176
     0
177
     0
178
     0
  0
ENDTAB
  0
ENDSEC
  0
SECTION
  2
BLOCKS
  0
BLOCK
  8
0
  2
$MODEL_SPACE
 70
     0
 10
0.0
 20
0.0
 30
0.0
  3
$MODEL_SPACE
  1

  0
ENDBLK
  5
9EF6
  8
0
  0
BLOCK
 67
     1
  8
0
  2
$PAPER_SPACE
 70
     0
 10
0.0
 20
0.0
 30
0.0
  3
$PAPER_SPACE
  1

  0
ENDBLK
  5
9EF4
 67
     1
  8
0
  0
BLOCK
  8
0
  2
COTE
 70
     0
 10
0.0
 20
0.0
 30
0.0
  3
COTE
  1

  0
ENDBLK
  5
F
  8
0
  0
BLOCK
  8
0
  2
FOND
 70
     0
 10
0.0
 20
0.0
 30
0.0
  3
FOND
  1

  0
ENDBLK
  5
75
  8
0
  0
BLOCK
  8
0
  2
_OPEN30
 70
     0
 10
0.0
 20
0.0
 30
0.0
  3
_OPEN30
  1

  0
LINE
  5
4B05
  8
COTATION1
 62
     0
 10
-1.0
 20
0.267949
 30
0.0
 11
0.0
 21
0.0
 31
0.0
1001
ACAD
1000
RTLwPs
1070
   158
  0
LINE
  5
4B06
  8
COTATION1
 62
     0
 10
0.0
 20
0.0
 30
0.0
 11
-1.0
 21
-0.267949
 31
0.0
1001
ACAD
1000
RTLwPs
1070
   158
  0
LINE
  5
4B07
  8
COTATION1
 62
     0
 10
0.0
 20
0.0
 30
0.0
 11
-1.0
 21
0.0
 31
0.0
1001
ACAD
1000
RTLwPs
1070
   158
  0
ENDBLK
  5
4B09
  8
0
  0
BLOCK
  8
0
  2
*D3
 70
     1
 10
0.0
 20
0.0
 30
0.0
  3
*D3
  1

  0
LINE
  5
9D0B
  8
COTATION1
 62
     0
 10
42.064707
 20
32.451398
 30
0.0
 11
42.064707
 21
69.438739
 31
0.0
1001
ACAD
1000
RTLwPs
1070
   158
  0
LINE
  5
9D0C
  8
COTATION1
 62
     0
 10
61.694616
 20
32.451398
 30
0.0
 11
61.694616
 21
69.438739
 31
0.0
1001
ACAD
1000
RTLwPs
1070
   158
  0
LINE
  5
9D0D
  8
COTATION1
 62
     0
 10
47.064707
 20
66.938739
 30
0.0
 11
56.694616
 21
66.938739
 31
0.0
1001
ACAD
1000
RTLwPs
1070
   158
  0
INSERT
  5
9D0E
  8
COTATION1
 62
     0
  2
_OPEN30
 10
42.064707
 20
66.938739
 30
0.0
 41
5.0
 42
5.0
 43
5.0
 50
180.0
1001
ACAD
1000
RTLwPs
1070
   158
  0
INSERT
  5
9D0F
  8
COTATION1
 62
     0
  2
_OPEN30
 10
61.694616
 20
66.938739
 30
0.0
 41
5.0
 42
5.0
 43
5.0
1001
ACAD
1000
RTLwPs
1070
   158
  0
TEXT
  5
9D10
  8
COTATION1
 62
     0
 10
47.534423
 20
68.938739
 30
0.0
 40
2.5
  1
19.6
1001
ACAD
1000
MTEXTBEGIN
1070
    73
1070
     1
1070
    44
1040
1.0
1070
    74
1070
     0
1000
MTEXTEND
  0
POINT
  5
9D11
  8
DEFPOINTS
 62
     0
 10
42.064707
 20
30.451398
 30
0.0
  0
POINT
  5
9D12
  8
DEFPOINTS
 62
     0
 10
61.694616
 20
30.451398
 30
0.0
  0
POINT
  5
9D13
  8
DEFPOINTS
 62
     0
 10
61.694616
 20
66.938739
 30
0.0
  0
ENDBLK
  5
7F3E
  8
0
  0
BLOCK
  8
0
  2
*D4
 70
     1
 10
0.0
 20
0.0
 30
0.0
  3
*D4
  1

  0
LINE
  5
9CC8
  8
COTATION1
 62
     0
 10
49.879661
 20
56.938739
 30
0.0
 11
28.237846
 21
56.938739
 31
0.0
1001
ACAD
1000
RTLwPs
1070
   158
  0
LINE
  5
9CC9
  8
COTATION1
 62
     0
 10
41.929661
 20
19.073739
 30
0.0
 11
28.237846
 21
19.073739
 31
0.0
1001
ACAD
1000
RTLwPs
1070
   158
  0
LINE
  5
9CCA
  8
COTATION1
 62
     0
 10
30.737846
 20
51.938739
 30
0.0
 11
30.737846
 21
41.256239
 31
0.0
1001
ACAD
1000
RTLwPs
1070
   158
  0
LINE
  5
9CCB
  8
COTATION1
 62
     0
 10
30.737846
 20
24.073739
 30
0.0
 11
30.737846
 21
34.756239
 31
0.0
1001
ACAD
1000
RTLwPs
1070
   158
  0
INSERT
  5
9CCC
  8
COTATION1
 62
     0
  2
_OPEN30
 10
30.737846
 20
56.938739
 30
0.0
 41
5.0
 42
5.0
 43
5.0
 50
90.0
1001
ACAD
1000
RTLwPs
1070
   158
  0
INSERT
  5
9CCD
  8
COTATION1
 62
     0
  2
_OPEN30
 10
30.737846
 20
19.073739
 30
0.0
 41
5.0
 42
5.0
 43
5.0
 50
270.0
1001
ACAD
1000
RTLwPs
1070
   158
  0
TEXT
  5
9CCE
  8
COTATION1
 62
     0
 10
26.630703
 20
36.756239
 30
0.0
 40
2.5
  1
37.9
1001
ACAD
1000
MTEXTBEGIN
1070
    73
1070
     1
1070
    44
1040
1.0
1070
    74
1070
     0
1000
MTEXTEND
  0
POINT
  5
9CCF
  8
DEFPOINTS
 62
     0
 10
51.879661
 20
56.938739
 30
0.0
  0
POINT
  5
9CD0
  8
DEFPOINTS
 62
     0
 10
43.929661
 20
19.073739
 30
0.0
  0
POINT
  5
9CD1
  8
DEFPOINTS
 62
     0
 10
30.737846
 20
19.073739
 30
0.0
  0
ENDBLK
  5
7F4B
  8
0
  0
BLOCK
  8
0
  2
*D5
 70
     1
 10
0.0
 20
0.0
 30
0.0
  3
*D5
  1

  0
LINE
  5
9CE5
  8
COTATION1
 62
     0
 10
53.879661
 20
56.938739
 30
0.0
 11
86.679718
 21
56.938739
 31
0.0
1001
ACAD
1000
RTLwPs
1070
   158
  0
LINE
  5
9CE6
  8
COTATION1
 62
     0
 10
59.729661
 20
10.773739
 30
0.0
 11
86.679718
 21
10.773739
 31
0.0
1001
ACAD
1000
RTLwPs
1070
   158
  0
LINE
  5
9CE7
  8
COTATION1
 62
     0
 10
84.179718
 20
51.938739
 30
0.0
 11
84.179718
 21
37.106239
 31
0.0
1001
ACAD
1000
RTLwPs
1070
   158
  0
LINE
  5
9CE8
  8
COTATION1
 62
     0
 10
84.179718
 20
15.773739
 30
0.0
 11
84.179718
 21
30.606239
 31
0.0
1001
ACAD
1000
RTLwPs
1070
   158
  0
TEXT
  5
9CE9
  8
COTATION1
 62
     0
 10
80.013051
 20
32.606239
 30
0.0
 40
2.5
  1
46.2
1001
ACAD
1000
MTEXTBEGIN
1070
    73
1070
     1
1070
    44
1040
1.0
1070
    74
1070
     0
1000
MTEXTEND
  0
INSERT
  5
9CEA
  8
COTATION1
 62
     0
  2
_OPEN30
 10
84.179718
 20
56.938739
 30
0.0
 41
5.0
 42
5.0
 43
5.0
 50
90.0
1001
ACAD
1000
RTLwPs
1070
   158
  0
INSERT
  5
9CEB
  8
COTATION1
 62
     0
  2
_OPEN30
 10
84.179718
 20
10.773739
 30
0.0
 41
5.0
 42
5.0
 43
5.0
 50
270.0
1001
ACAD
1000
RTLwPs
1070
   158
  0
POINT
  5
9CEC
  8
DEFPOINTS
 62
     0
 10
51.879661
 20
56.938739
 30
0.0
  0
POINT
  5
9CED
  8
DEFPOINTS
 62
     0
 10
57.729661
 20
10.773739
 30
0.0
  0
POINT
  5
9CEE
  8
DEFPOINTS
 62
     0
 10
84.179718
 20
10.773739
 30
0.0
  0
ENDBLK
  5
8EB4
  8
0
  0
ENDSEC
  0
SECTION
  2
ENTITIES
  0
INSERT
  5
A
  8
0
  2
COTE
 10
0.0
 20
0.0
 30
0.0
  0
INSERT
  5
17
  8
0
  2
COTE
 10
284.010391
 20
6.373258
 30
0.0
  0
INSERT
  5
72
  8
0
  2
FOND
 10
0.0
 20
0.0
 30
0.0
  0
DIMENSION
  5
7F30
  8
COTATION1
  2
*D3
 10
61.694616
 20
66.938739
 30
0.0
 11
51.879661
 21
70.188739
 31
0.0
 13
42.064707
 23
30.451398
 33
0.0
 14
61.694616
 24
30.451398
 34
0.0
  0
DIMENSION
  5
7F31
  8
COTATION1
  2
*D4
 10
30.737846
 20
19.073739
 30
0.0
 11
30.737846
 21
38.006239
 31
0.0
 13
51.879661
 23
56.938739
 33
0.0
 14
43.929661
 24
19.073739
 34
0.0
 50
90.0
  0
LINE
  5
8AD3
  8
AXE
 10
51.879661
 20
0.773739
 30
0.0
 11
51.879661
 21
61.938739
 31
0.0
  0
TEXT
  5
8AD4
  8
AXE
 10
46.832042
 20
0.773739
 30
0.0
 40
5.0
  1
Y
 72
     2
 11
50.879661
 21
0.773739
 31
0.0
  0
LINE
  5
8AD5
  8
AXE
 10
38.879661
 20
18.018739
 30
0.0
 11
69.879661
 21
18.018739
 31
0.0
  0
TEXT
  5
8AD6
  8
AXE
 10
65.832042
 20
19.018739
 30
0.0
 40
5.0
  1
X
 72
     2
 11
69.879661
 21
19.018739
 31
0.0
  0
LINE
  5
8B73
  8
COTATION1
 10
8.077094
 20
21.573739
 30
0.0
 11
8.077094
 21
46.532661
 31
0.0
  0
LINE
  5
8B74
  8
COTATION1
 10
-0.023259
 20
19.073739
 30
0.0
 11
42.879661
 21
19.073739
 31
0.0
  0
SOLID
  5
8B75
  8
COTATION1
 10
9.520469
 20
19.073739
 30
0.0
 11
6.633718
 21
19.073739
 31
0.0
 12
8.077094
 22
21.573739
 32
0.0
 13
8.077094
 23
21.573739
 33
0.0
  0
LINE
  5
8B76
  8
COTATION1
 10
-5.172906
 20
51.532661
 30
0.0
 11
21.327094
 21
51.532661
 31
0.0
  0
LINE
  5
8B77
  8
COTATION1
 10
21.327094
 20
46.532661
 30
0.0
 11
-5.172906
 21
46.532661
 31
0.0
  0
TEXT
  5
8B78
  8
COTATION1
 10
-3.922906
 20
47.782661
 30
0.0
 40
2.5
  1
PLANE_TO_LINE_UP
 41
0.626087
  7
STANDARD
 72
     5
 11
20.077094
 21
47.782661
 31
0.0
  0
LINE
  5
8B79
  8
COTATION1
 10
21.327094
 20
51.532661
 30
0.0
 11
21.327094
 21
46.532661
 31
0.0
  0
LINE
  5
8B7A
  8
COTATION1
 10
-5.172906
 20
46.532661
 30
0.0
 11
-5.172906
 21
51.532661
 31
0.0
  0
DIMENSION
  5
8EA7
  8
COTATION1
  2
*D5
 10
84.179718
 20
10.773739
 30
0.0
 11
84.179718
 21
33.856239
 31
0.0
 70
   128
 13
51.879661
 23
56.938739
 33
0.0
 14
57.729661
 24
10.773739
 34
0.0
 50
90.0
  0
POLYLINE
  5
99A1
  8
ALPHA
 66
     1
 10
0.0
 20
0.0
 30
0.0
 70
   128
210
0.0
220
0.0
230
-1.0
  0
VERTEX
  5
9EFC
  8
ALPHA
 10
-46.394757
 20
34.041181
 30
0.0
  0
VERTEX
  5
9EFD
  8
ALPHA
 10
-47.752666
 20
34.161896
 30
0.0
  0
VERTEX
  5
9EFE
  8
ALPHA
 10
-49.123997
 20
34.215136
 30
0.0
  0
VERTEX
  5
9EFF
  8
ALPHA
 10
-51.869425
 20
34.298441
 30
0.0
  0
VERTEX
  5
9F00
  8
ALPHA
 10
-57.356096
 20
34.534
 30
0.0
  0
SEQEND
  5
9F01
  8
ALPHA
  0
LINE
  5
99A2
  8
ALPHA
 10
46.414973
 20
34.016783
 30
0.0
 11
57.35803
 21
34.499218
 31
0.0
  0
LINE
  5
99A3
  8
ALPHA
 10
45.882265
 20
34.494049
 30
0.0
 11
46.378389
 21
34.047326
 31
0.0
  0
LINE
  5
99A4
  8
ALPHA
 10
57.877057
 20
34.053428
 30
0.0
 11
57.380933
 21
34.500151
 31
0.0
  0
POLYLINE
  5
99A7
  8
ALPHA
 66
     1
 10
0.0
 20
0.0
 30
0.0
 70
   128
  0
VERTEX
  5
9F02
  8
ALPHA
 10
51.879661
 20
31.798739
 30
0.0
  0
VERTEX
  5
9F03
  8
ALPHA
 10
48.878175
 20
31.715358
 30
0.0
  0
VERTEX
  5
9F04
  8
ALPHA
 10
45.88245
 20
31.553194
 30
0.0
  0
SEQEND
  5
9F05
  8
ALPHA
  0
LINE
  5
99A8
  8
ALPHA
 10
46.382493
 20
33.046333
 30
0.0
 11
57.371629
 21
33.543498
 31
0.0
  0
POLYLINE
  5
99A9
  8
ALPHA
 66
     1
 10
0.0
 20
0.0
 30
0.0
 70
   128
210
0.0
220
0.0
230
-1.0
  0
VERTEX
  5
9F06
  8
ALPHA
 10
-46.390042
 20
27.008518
 30
0.0
  0
VERTEX
  5
9F07
  8
ALPHA
 10
-50.062087
 20
27.195122
 30
0.0
  0
VERTEX
  5
9F08
  8
ALPHA
 10
-53.739261
 20
27.303652
 30
0.0
  0
SEQEND
  5
9F09
  8
ALPHA
  0
POLYLINE
  5
99AA
  8
ALPHA
 66
     1
 10
0.0
 20
0.0
 30
0.0
 70
   128
210
0.0
220
0.0
230
-1.0
  0
VERTEX
  5
9F0A
  8
ALPHA
 10
-46.390136
 20
23.05604
 30
0.0
  0
VERTEX
  5
9F0B
  8
ALPHA
 10
-49.131307
 20
23.215218
 30
0.0
  0
VERTEX
  5
9F0C
  8
ALPHA
 10
-51.879806
 20
23.298748
 30
0.0
  0
SEQEND
  5
9F0D
  8
ALPHA
  0
POLYLINE
  5
99AB
  8
ALPHA
 66
     1
 10
0.0
 20
0.0
 30
0.0
 70
   128
  0
VERTEX
  5
9F0E
  8
ALPHA
 10
51.879661
 20
22.798738
 30
0.0
  0
VERTEX
  5
9F0F
  8
ALPHA
 10
48.878224
 20
22.715362
 30
0.0
  0
VERTEX
  5
9F10
  8
ALPHA
 10
45.882645
 20
22.552932
 30
0.0
  0
SEQEND
  5
9F11
  8
ALPHA
  0
POLYLINE
  5
99AC
  8
ALPHA
 66
     1
 10
0.0
 20
0.0
 30
0.0
 70
   128
210
0.0
220
0.0
230
-1.0
  0
VERTEX
  5
9F12
  8
ALPHA
 10
-46.388906
 20
23.007967
 30
0.0
  0
VERTEX
  5
9F13
  8
ALPHA
 10
-50.061234
 20
23.195095
 30
0.0
  0
VERTEX
  5
9F14
  8
ALPHA
 10
-53.738784
 20
23.303639
 30
0.0
  0
SEQEND
  5
9F15
  8
ALPHA
  0
POLYLINE
  5
99AD
  8
ALPHA
 66
     1
 10
0.0
 20
0.0
 30
0.0
 70
   128
210
0.0
220
0.0
230
-1.0
  0
VERTEX
  5
9F16
  8
ALPHA
 10
-46.391348
 20
27.056308
 30
0.0
  0
VERTEX
  5
9F17
  8
ALPHA
 10
-49.131764
 20
27.215225
 30
0.0
  0
VERTEX
  5
9F18
  8
ALPHA
 10
-51.879806
 20
27.298749
 30
0.0
  0
SEQEND
  5
9F19
  8
ALPHA
  0
LINE
  5
99AE
  8
ALPHA
 10
46.391243
 20
31.009069
 30
0.0
 11
57.373542
 21
31.503941
 31
0.0
  0
LINE
  5
99AF
  8
ALPHA
 10
46.387694
 20
32.011033
 30
0.0
 11
57.379594
 21
32.498727
 31
0.0
  0
LINE
  5
99B0
  8
ALPHA
 10
46.392652
 20
31.056442
 30
0.0
 11
57.362565
 21
31.545081
 31
0.0
  0
LINE
  5
99B1
  8
ALPHA
 10
46.38075
 20
32.051907
 30
0.0
 11
57.369222
 21
32.539311
 31
0.0
  0
POLYLINE
  5
99B2
  8
ALPHA
 66
     1
 10
0.0
 20
0.0
 30
0.0
 70
   128
  0
VERTEX
  5
9F1A
  8
ALPHA
 10
51.879661
 20
33.798738
 30
0.0
  0
VERTEX
  5
9F1B
  8
ALPHA
 10
48.878321
 20
33.715361
 30
0.0
  0
VERTEX
  5
9F1C
  8
ALPHA
 10
45.882988
 20
33.552451
 30
0.0
  0
SEQEND
  5
9F1D
  8
ALPHA
  0
LINE
  5
99B3
  8
ALPHA
 10
45.968873
 20
31.526218
 30
0.0
 11
51.879661
 21
31.748739
 31
0.0
  0
LINE
  5
99B4
  8
ALPHA
 10
46.393811
 20
33.004132
 30
0.0
 11
57.372273
 21
33.492737
 31
0.0
  0
LINE
  5
99B5
  8
ALPHA
 10
45.973454
 20
32.526917
 30
0.0
 11
51.879661
 21
32.748739
 31
0.0
  0
LINE
  5
99B6
  8
ALPHA
 10
45.936441
 20
33.520651
 30
0.0
 11
51.879661
 21
33.748738
 31
0.0
  0
POLYLINE
  5
99B7
  8
ALPHA
 66
     1
 10
0.0
 20
0.0
 30
0.0
 70
   128
  0
VERTEX
  5
9F1E
  8
ALPHA
 10
51.879661
 20
32.798738
 30
0.0
  0
VERTEX
  5
9F1F
  8
ALPHA
 10
48.879581
 20
32.715371
 30
0.0
  0
VERTEX
  5
9F20
  8
ALPHA
 10
47.380117
 20
32.662982
 30
0.0
  0
VERTEX
  5
9F21
  8
ALPHA
 10
45.888737
 20
32.545871
 30
0.0
  0
SEQEND
  5
9F22
  8
ALPHA
  0
POLYLINE
  5
99B8
  8
ALPHA
 66
     1
 10
0.0
 20
0.0
 30
0.0
 70
   128
  0
VERTEX
  5
9F23
  8
ALPHA
 10
46.972184
 20
23.65608
 30
0.0
  0
VERTEX
  5
9F24
  8
ALPHA
 10
49.420083
 20
23.397337
 30
0.0
  0
VERTEX
  5
9F25
  8
ALPHA
 10
51.879661
 20
23.303739
 30
0.0
  0
SEQEND
  5
9F26
  8
ALPHA
  0
POLYLINE
  5
99B9
  8
ALPHA
 66
     1
 10
0.0
 20
0.0
 30
0.0
 70
   128
210
0.0
220
0.0
230
-1.0
  0
VERTEX
  5
9F27
  8
ALPHA
 10
-46.972184
 20
26.451398
 30
0.0
  0
VERTEX
  5
9F28
  8
ALPHA
 10
-49.420083
 20
26.710141
 30
0.0
  0
VERTEX
  5
9F29
  8
ALPHA
 10
-51.879661
 20
26.803739
 30
0.0
  0
SEQEND
  5
9F2A
  8
ALPHA
  0
POLYLINE
  5
99BA
  8
ALPHA
 66
     1
 10
0.0
 20
0.0
 30
0.0
 70
   128
  0
VERTEX
  5
9F2B
  8
ALPHA
 10
46.972184
 20
27.65608
 30
0.0
  0
VERTEX
  5
9F2C
  8
ALPHA
 10
49.420083
 20
27.397337
 30
0.0
  0
VERTEX
  5
9F2D
  8
ALPHA
 10
51.879661
 20
27.303739
 30
0.0
  0
SEQEND
  5
9F2E
  8
ALPHA
  0
POLYLINE
  5
99BB
  8
ALPHA
 66
     1
 10
0.0
 20
0.0
 30
0.0
 70
   128
210
0.0
220
0.0
230
-1.0
  0
VERTEX
  5
9F2F
  8
ALPHA
 10
-46.972184
 20
30.451398
 30
0.0
  0
VERTEX
  5
9F30
  8
ALPHA
 10
-49.420083
 20
30.710141
 30
0.0
  0
VERTEX
  5
9F31
  8
ALPHA
 10
-51.879661
 20
30.803739
 30
0.0
  0
SEQEND
  5
9F32
  8
ALPHA
  0
LINE
  5
99BC
  8
ALPHA
 10
43.379661
 20
30.803739
 30
0.0
 11
60.379661
 21
30.803739
 31
0.0
  0
LINE
  5
99BD
  8
ALPHA
 10
43.379661
 20
27.303739
 30
0.0
 11
60.379661
 21
27.303739
 31
0.0
  0
LINE
  5
99BE
  8
ALPHA
 10
43.379661
 20
26.803739
 30
0.0
 11
60.379661
 21
26.803739
 31
0.0
  0
LINE
  5
99BF
  8
ALPHA
 10
43.379661
 20
23.303739
 30
0.0
 11
60.379661
 21
23.303739
 31
0.0
  0
LINE
  5
99C0
  8
ALPHA
 10
44.129661
 20
21.073739
 30
0.0
 11
59.629661
 21
21.073739
 31
0.0
  0
LINE
  5
99C1
  8
ALPHA
 10
43.929661
 20
20.873739
 30
0.0
 11
59.829661
 21
20.873739
 31
0.0
  0
LINE
  5
99C2
  8
ALPHA
 10
43.929754
 20
19.073739
 30
0.0
 11
59.829568
 21
19.073739
 31
0.0
  0
LINE
  5
99C3
  8
ALPHA
 10
58.57966
 20
16.973739
 30
0.0
 11
45.179764
 21
16.973739
 31
0.0
  0
LINE
  5
99C4
  8
ALPHA
 10
45.529772
 20
15.623739
 30
0.0
 11
58.22955
 21
15.623739
 31
0.0
  0
LINE
  5
99C5
  8
ALPHA
 10
58.229661
 20
14.673739
 30
0.0
 11
45.529661
 21
14.673739
 31
0.0
  0
LINE
  5
99C6
  8
ALPHA
 10
58.029493
 20
14.473739
 30
0.0
 11
45.729829
 21
14.473739
 31
0.0
  0
LINE
  5
99C7
  8
ALPHA
 10
57.879661
 20
13.473739
 30
0.0
 11
45.879661
 21
13.473739
 31
0.0
  0
LINE
  5
99C8
  8
ALPHA
 10
45.529661
 20
13.273739
 30
0.0
 11
58.229661
 21
13.273739
 31
0.0
  0
LINE
  5
99C9
  8
ALPHA
 10
58.229661
 20
11.273739
 30
0.0
 11
45.529661
 21
11.273739
 31
0.0
  0
LINE
  5
99CA
  8
ALPHA
 10
57.72966
 20
10.773739
 30
0.0
 11
46.029662
 21
10.773739
 31
0.0
  0
ARC
  5
99CB
  8
ALPHA
 10
46.029661
 20
11.273739
 30
0.0
 40
0.5
 50
180.0
 51
270.0
  0
LINE
  5
99CC
  8
ALPHA
 10
46.382502
 20
23.003854
 30
0.0
 11
45.882265
 21
22.553428
 31
0.0
  0
ARC
  5
99CD
  8
ALPHA
 10
44.129661
 20
20.873739
 30
0.0
 40
0.2
 50
90.0
 51
180.0
  0
LINE
  5
99CE
  8
ALPHA
 10
45.179661
 20
16.973739
 30
0.0
 11
45.179661
 21
19.073739
 31
0.0
  0
LINE
  5
99CF
  8
ALPHA
 10
43.929661
 20
19.073739
 30
0.0
 11
43.929661
 21
20.873739
 31
0.0
  0
LINE
  5
99D0
  8
ALPHA
 10
46.379661
 20
16.973739
 30
0.0
 11
46.379661
 21
15.623739
 31
0.0
  0
ARC
  5
99D1
  8
ALPHA
 10
45.879661
 20
13.973739
 30
0.0
 40
0.5
 50
90.0
 51
270.0
  0
LINE
  5
99D2
  8
ALPHA
 10
46.279661
 20
13.273739
 30
0.0
 11
46.279661
 21
13.473739
 31
0.0
  0
LINE
  5
99D3
  8
ALPHA
 10
45.529661
 20
13.273739
 30
0.0
 11
45.529661
 21
11.273739
 31
0.0
  0
LINE
  5
99D4
  8
ALPHA
 10
45.529661
 20
15.623739
 30
0.0
 11
45.529661
 21
14.673739
 31
0.0
  0
LINE
  5
99D5
  8
ALPHA
 10
45.529661
 20
14.673739
 30
0.0
 11
45.729661
 21
14.473739
 31
0.0
  0
LINE
  5
99D6
  8
ALPHA
 10
45.882265
 20
22.553428
 30
0.0
 11
45.879661
 21
22.548738
 31
0.0
  0
LINE
  5
99D7
  8
ALPHA
 10
45.879661
 20
22.548738
 30
0.0
 11
45.879661
 21
21.073739
 31
0.0
  0
POLYLINE
  5
99D8
  8
ALPHA
 66
     1
 10
0.0
 20
0.0
 30
0.0
 70
   128
  0
VERTEX
  5
9F33
  8
ALPHA
 10
44.518445
 20
23.303739
 30
0.0
  0
VERTEX
  5
9F34
  8
ALPHA
 10
45.756778
 20
23.39861
 30
0.0
  0
VERTEX
  5
9F35
  8
ALPHA
 10
46.972184
 20
23.65608
 30
0.0
  0
SEQEND
  5
9F36
  8
ALPHA
  0
POLYLINE
  5
99D9
  8
ALPHA
 66
     1
 10
0.0
 20
0.0
 30
0.0
 70
   128
210
0.0
220
0.0
230
-1.0
  0
VERTEX
  5
9F37
  8
ALPHA
 10
-44.518445
 20
26.803739
 30
0.0
  0
VERTEX
  5
9F38
  8
ALPHA
 10
-45.756778
 20
26.708868
 30
0.0
  0
VERTEX
  5
9F39
  8
ALPHA
 10
-46.972184
 20
26.451398
 30
0.0
  0
SEQEND
  5
9F3A
  8
ALPHA
  0
POLYLINE
  5
99DA
  8
ALPHA
 66
     1
 10
0.0
 20
0.0
 30
0.0
 70
   128
  0
VERTEX
  5
9F3B
  8
ALPHA
 10
44.518445
 20
27.303739
 30
0.0
  0
VERTEX
  5
9F3C
  8
ALPHA
 10
45.756778
 20
27.39861
 30
0.0
  0
VERTEX
  5
9F3D
  8
ALPHA
 10
46.972184
 20
27.65608
 30
0.0
  0
SEQEND
  5
9F3E
  8
ALPHA
  0
POLYLINE
  5
99DB
  8
ALPHA
 66
     1
 10
0.0
 20
0.0
 30
0.0
 70
   128
210
0.0
220
0.0
230
-1.0
  0
VERTEX
  5
9F3F
  8
ALPHA
 10
-44.518445
 20
30.803739
 30
0.0
  0
VERTEX
  5
9F40
  8
ALPHA
 10
-45.756778
 20
30.708868
 30
0.0
  0
VERTEX
  5
9F41
  8
ALPHA
 10
-46.972184
 20
30.451398
 30
0.0
  0
SEQEND
  5
9F42
  8
ALPHA
  0
LINE
  5
99DC
  8
ALPHA
 10
42.064707
 20
27.65608
 30
0.0
 11
42.064707
 21
30.451398
 31
0.0
  0
POLYLINE
  5
99DD
  8
ALPHA
 66
     1
 10
0.0
 20
0.0
 30
0.0
 70
   128
  0
VERTEX
  5
9F43
  8
ALPHA
 10
42.064707
 20
23.65608
 30
0.0
  0
VERTEX
  5
9F44
  8
ALPHA
 10
43.280113
 20
23.39861
 30
0.0
  0
VERTEX
  5
9F45
  8
ALPHA
 10
44.518445
 20
23.303739
 30
0.0
  0
SEQEND
  5
9F46
  8
ALPHA
  0
POLYLINE
  5
99DE
  8
ALPHA
 66
     1
 10
0.0
 20
0.0
 30
0.0
 70
   128
210
0.0
220
0.0
230
-1.0
  0
VERTEX
  5
9F47
  8
ALPHA
 10
-42.064707
 20
26.451398
 30
0.0
  0
VERTEX
  5
9F48
  8
ALPHA
 10
-43.280113
 20
26.708868
 30
0.0
  0
VERTEX
  5
9F49
  8
ALPHA
 10
-44.518445
 20
26.803739
 30
0.0
  0
SEQEND
  5
9F4A
  8
ALPHA
  0
POLYLINE
  5
99DF
  8
ALPHA
 66
     1
 10
0.0
 20
0.0
 30
0.0
 70
   128
  0
VERTEX
  5
9F4B
  8
ALPHA
 10
42.064707
 20
27.65608
 30
0.0
  0
VERTEX
  5
9F4C
  8
ALPHA
 10
43.280113
 20
27.39861
 30
0.0
  0
VERTEX
  5
9F4D
  8
ALPHA
 10
44.518445
 20
27.303739
 30
0.0
  0
SEQEND
  5
9F4E
  8
ALPHA
  0
LINE
  5
99E0
  8
ALPHA
 10
42.064707
 20
26.451398
 30
0.0
 11
43.379661
 21
26.803739
 31
0.0
  0
LINE
  5
99E1
  8
ALPHA
 10
43.379661
 20
27.303739
 30
0.0
 11
42.064707
 21
27.65608
 31
0.0
  0
LINE
  5
99E2
  8
ALPHA
 10
43.379661
 20
23.303739
 30
0.0
 11
42.064707
 21
23.65608
 31
0.0
  0
LINE
  5
99E3
  8
ALPHA
 10
42.064707
 20
23.65608
 30
0.0
 11
42.064707
 21
26.451398
 31
0.0
  0
POLYLINE
  5
99E4
  8
ALPHA
 66
     1
 10
0.0
 20
0.0
 30
0.0
 70
   128
210
0.0
220
0.0
230
-1.0
  0
VERTEX
  5
9F4F
  8
ALPHA
 10
-42.064707
 20
30.451398
 30
0.0
  0
VERTEX
  5
9F50
  8
ALPHA
 10
-43.280113
 20
30.708868
 30
0.0
  0
VERTEX
  5
9F51
  8
ALPHA
 10
-44.518445
 20
30.803739
 30
0.0
  0
SEQEND
  5
9F52
  8
ALPHA
  0
LINE
  5
99E5
  8
ALPHA
 10
42.064707
 20
30.451398
 30
0.0
 11
43.379661
 21
30.803739
 31
0.0
  0
LINE
  5
99E6
  8
ALPHA
 10
46.972184
 20
27.65608
 30
0.0
 11
46.972184
 21
30.451398
 31
0.0
  0
LINE
  5
99E7
  8
ALPHA
 10
46.390251
 20
27.008132
 30
0.0
 11
46.390042
 21
27.008518
 31
0.0
  0
LINE
  5
99E8
  8
ALPHA
 10
46.389046
 20
23.007728
 30
0.0
 11
46.388906
 21
23.007967
 31
0.0
  0
LINE
  5
99E9
  8
ALPHA
 10
46.093626
 20
27.303739
 30
0.0
 11
46.378389
 21
27.047326
 31
0.0
  0
LINE
  5
99EA
  8
ALPHA
 10
46.382502
 20
27.003854
 30
0.0
 11
46.160262
 21
26.803738
 31
0.0
  0
LINE
  5
99EB
  8
ALPHA
 10
46.093625
 20
23.303739
 30
0.0
 11
46.378389
 21
23.047326
 31
0.0
  0
LINE
  5
99EC
  8
ALPHA
 10
46.972184
 20
23.65608
 30
0.0
 11
46.972184
 21
26.451398
 31
0.0
  0
LINE
  5
99ED
  8
ALPHA
 10
46.379661
 20
23.048738
 30
0.0
 11
46.379661
 21
22.998738
 31
0.0
  0
LINE
  5
99EE
  8
ALPHA
 10
46.379661
 20
27.048738
 30
0.0
 11
46.379661
 21
26.998738
 31
0.0
  0
LINE
  5
99EF
  8
ALPHA
 10
46.391555
 20
31.008434
 30
0.0
 11
46.391243
 21
31.009069
 31
0.0
  0
LINE
  5
99F0
  8
ALPHA
 10
46.380377
 20
32.00407
 30
0.0
 11
46.387694
 21
32.011033
 31
0.0
  0
LINE
  5
99F1
  8
ALPHA
 10
46.381709
 20
32.050364
 30
0.0
 11
46.38075
 21
32.051907
 31
0.0
  0
LINE
  5
99F2
  8
ALPHA
 10
45.895676
 20
31.509117
 30
0.0
 11
45.968873
 21
31.526218
 31
0.0
  0
LINE
  5
99F3
  8
ALPHA
 10
45.891876
 20
31.507681
 30
0.0
 11
45.895676
 21
31.509117
 31
0.0
  0
LINE
  5
99F4
  8
ALPHA
 10
45.879682
 20
31.498736
 30
0.0
 11
45.891876
 21
31.507681
 31
0.0
  0
LINE
  5
99F5
  8
ALPHA
 10
46.385839
 20
32.999347
 30
0.0
 11
46.393811
 21
33.004132
 31
0.0
  0
LINE
  5
99F6
  8
ALPHA
 10
45.895215
 20
32.509356
 30
0.0
 11
45.973454
 21
32.526917
 31
0.0
  0
LINE
  5
99F7
  8
ALPHA
 10
45.891413
 20
32.507925
 30
0.0
 11
45.895215
 21
32.509356
 31
0.0
  0
LINE
  5
99F8
  8
ALPHA
 10
45.879667
 20
32.49874
 30
0.0
 11
45.891413
 21
32.507925
 31
0.0
  0
LINE
  5
99F9
  8
ALPHA
 10
45.901565
 20
33.504448
 30
0.0
 11
45.936441
 21
33.520651
 31
0.0
  0
LINE
  5
99FA
  8
ALPHA
 10
45.898127
 20
33.502443
 30
0.0
 11
45.901565
 21
33.504448
 31
0.0
  0
LINE
  5
99FB
  8
ALPHA
 10
45.88596
 20
33.49318
 30
0.0
 11
45.898127
 21
33.502443
 31
0.0
  0
LINE
  5
99FC
  8
ALPHA
 10
46.396932
 20
33.995095
 30
0.0
 11
46.414973
 21
34.016783
 31
0.0
  0
LINE
  5
99FD
  8
ALPHA
 10
45.882265
 20
31.494049
 30
0.0
 11
46.378389
 21
31.047326
 31
0.0
  0
LINE
  5
99FE
  8
ALPHA
 10
45.882265
 20
32.49405
 30
0.0
 11
46.378389
 21
32.047327
 31
0.0
  0
LINE
  5
99FF
  8
ALPHA
 10
46.382502
 20
31.003854
 30
0.0
 11
46.160261
 21
30.803738
 31
0.0
  0
LINE
  5
9A00
  8
ALPHA
 10
46.382502
 20
32.003855
 30
0.0
 11
45.882265
 21
31.553429
 31
0.0
  0
LINE
  5
9A01
  8
ALPHA
 10
45.882265
 20
33.494049
 30
0.0
 11
46.378389
 21
33.047326
 31
0.0
  0
LINE
  5
9A02
  8
ALPHA
 10
46.382502
 20
33.003854
 30
0.0
 11
45.882265
 21
32.553428
 31
0.0
  0
LINE
  5
9A03
  8
ALPHA
 10
46.382502
 20
34.003854
 30
0.0
 11
45.882265
 21
33.553428
 31
0.0
  0
LINE
  5
9A04
  8
ALPHA
 10
45.882265
 20
32.553428
 30
0.0
 11
45.879661
 21
32.548747
 31
0.0
  0
LINE
  5
9A05
  8
ALPHA
 10
45.882265
 20
31.553429
 30
0.0
 11
45.879661
 21
31.548739
 31
0.0
  0
LINE
  5
9A06
  8
ALPHA
 10
45.882265
 20
33.494049
 30
0.0
 11
45.879661
 21
33.498747
 31
0.0
  0
LINE
  5
9A07
  8
ALPHA
 10
45.882265
 20
32.49405
 30
0.0
 11
45.879661
 21
32.498739
 31
0.0
  0
LINE
  5
9A08
  8
ALPHA
 10
45.882265
 20
31.494049
 30
0.0
 11
45.879661
 21
31.498738
 31
0.0
  0
LINE
  5
9A09
  8
ALPHA
 10
45.882265
 20
33.553428
 30
0.0
 11
45.879661
 21
33.548737
 31
0.0
  0
LINE
  5
9A0A
  8
ALPHA
 10
46.379661
 20
31.048739
 30
0.0
 11
46.379661
 21
30.998739
 31
0.0
  0
LINE
  5
9A0B
  8
ALPHA
 10
46.379661
 20
32.048739
 30
0.0
 11
46.379661
 21
31.998739
 31
0.0
  0
LINE
  5
9A0C
  8
ALPHA
 10
46.379661
 20
33.048738
 30
0.0
 11
46.379661
 21
32.998738
 31
0.0
  0
LINE
  5
9A0D
  8
ALPHA
 10
46.379661
 20
34.048738
 30
0.0
 11
46.379661
 21
33.998738
 31
0.0
  0
LINE
  5
9A0E
  8
ALPHA
 10
45.879661
 20
31.548739
 30
0.0
 11
45.879661
 21
31.498739
 31
0.0
  0
LINE
  5
9A0F
  8
ALPHA
 10
45.879661
 20
32.548738
 30
0.0
 11
45.879661
 21
32.498739
 31
0.0
  0
LINE
  5
9A10
  8
ALPHA
 10
45.879661
 20
33.548738
 30
0.0
 11
45.879661
 21
33.498738
 31
0.0
  0
ARC
  5
9A11
  8
ALPHA
 10
57.729661
 20
11.273739
 30
0.0
 40
0.5
 50
270.0
 51
0.0
  0
LINE
  5
9A12
  8
ALPHA
 10
57.786812
 20
23.020703
 30
0.0
 11
51.879661
 21
22.798738
 31
0.0
  0
POLYLINE
  5
9A13
  8
ALPHA
 66
     1
 10
0.0
 20
0.0
 30
0.0
 70
   128
210
0.0
220
0.0
230
-1.0
  0
VERTEX
  5
9F53
  8
ALPHA
 10
-57.879642
 20
22.04874
 30
0.0
  0
VERTEX
  5
9F54
  8
ALPHA
 10
-54.883092
 20
21.88218
 30
0.0
  0
VERTEX
  5
9F55
  8
ALPHA
 10
-51.879661
 20
21.798739
 30
0.0
  0
SEQEND
  5
9F56
  8
ALPHA
  0
POLYLINE
  5
9A14
  8
ALPHA
 66
     1
 10
0.0
 20
0.0
 30
0.0
 70
   128
  0
VERTEX
  5
9F57
  8
ALPHA
 10
51.879661
 20
22.748739
 30
0.0
  0
VERTEX
  5
9F58
  8
ALPHA
 10
54.881081
 20
22.832118
 30
0.0
  0
VERTEX
  5
9F59
  8
ALPHA
 10
57.876641
 20
22.994595
 30
0.0
  0
SEQEND
  5
9F5A
  8
ALPHA
  0
LINE
  5
9A15
  8
ALPHA
 10
57.791635
 20
34.021443
 30
0.0
 11
51.879661
 21
33.798738
 31
0.0
  0
LINE
  5
9A16
  8
ALPHA
 10
57.786543
 20
33.020662
 30
0.0
 11
51.879661
 21
32.798738
 31
0.0
  0
POLYLINE
  5
9A17
  8
ALPHA
 66
     1
 10
0.0
 20
0.0
 30
0.0
 70
   128
  0
VERTEX
  5
9F5B
  8
ALPHA
 10
51.879661
 20
33.748738
 30
0.0
  0
VERTEX
  5
9F5C
  8
ALPHA
 10
54.881123
 20
33.832119
 30
0.0
  0
VERTEX
  5
9F5D
  8
ALPHA
 10
57.876792
 20
33.99439
 30
0.0
  0
SEQEND
  5
9F5E
  8
ALPHA
  0
LINE
  5
9A18
  8
ALPHA
 10
57.786785
 20
32.020699
 30
0.0
 11
51.879661
 21
31.798739
 31
0.0
  0
POLYLINE
  5
9A19
  8
ALPHA
 66
     1
 10
0.0
 20
0.0
 30
0.0
 70
   128
  0
VERTEX
  5
9F5F
  8
ALPHA
 10
51.879661
 20
32.748739
 30
0.0
  0
VERTEX
  5
9F60
  8
ALPHA
 10
54.881217
 20
32.832117
 30
0.0
  0
VERTEX
  5
9F61
  8
ALPHA
 10
57.877079
 20
32.994022
 30
0.0
  0
SEQEND
  5
9F62
  8
ALPHA
  0
POLYLINE
  5
9A1A
  8
ALPHA
 66
     1
 10
0.0
 20
0.0
 30
0.0
 70
   128
  0
VERTEX
  5
9F63
  8
ALPHA
 10
51.879661
 20
31.748739
 30
0.0
  0
VERTEX
  5
9F64
  8
ALPHA
 10
54.881117
 20
31.832119
 30
0.0
  0
VERTEX
  5
9F65
  8
ALPHA
 10
57.876768
 20
31.994423
 30
0.0
  0
SEQEND
  5
9F66
  8
ALPHA
  0
LINE
  5
9A1B
  8
ALPHA
 10
57.787283
 20
31.020775
 30
0.0
 11
52.067202
 21
30.803715
 31
0.0
  0
LINE
  5
9A1C
  8
ALPHA
 10
53.911338
 20
30.803715
 30
0.0
 11
57.876651
 21
30.99458
 31
0.0
  0
LINE
  5
9A1D
  8
ALPHA
 10
53.911401
 20
26.803717
 30
0.0
 11
57.876417
 21
26.994907
 31
0.0
  0
LINE
  5
9A1E
  8
ALPHA
 10
57.785483
 20
27.020503
 30
0.0
 11
52.067235
 21
26.803715
 31
0.0
  0
LINE
  5
9A1F
  8
ALPHA
 10
57.877057
 20
22.053428
 30
0.0
 11
57.380933
 21
22.500151
 31
0.0
  0
LINE
  5
9A20
  8
ALPHA
 10
57.37682
 20
31.543624
 30
0.0
 11
57.877057
 21
31.99405
 31
0.0
  0
LINE
  5
9A21
  8
ALPHA
 10
57.37682
 20
22.543623
 30
0.0
 11
57.877057
 21
22.994049
 31
0.0
  0
LINE
  5
9A22
  8
ALPHA
 10
57.37682
 20
32.543624
 30
0.0
 11
57.877057
 21
32.99405
 31
0.0
  0
LINE
  5
9A23
  8
ALPHA
 10
57.877057
 20
31.053428
 30
0.0
 11
57.380933
 21
31.500151
 31
0.0
  0
LINE
  5
9A24
  8
ALPHA
 10
57.877057
 20
32.053428
 30
0.0
 11
57.380933
 21
32.500151
 31
0.0
  0
LINE
  5
9A25
  8
ALPHA
 10
57.37682
 20
33.543623
 30
0.0
 11
57.877057
 21
33.994049
 31
0.0
  0
LINE
  5
9A26
  8
ALPHA
 10
57.877057
 20
33.053428
 30
0.0
 11
57.380933
 21
33.50015
 31
0.0
  0
POLYLINE
  5
9A27
  8
ALPHA
 66
     1
 10
0.0
 20
0.0
 30
0.0
 70
   128
  0
VERTEX
  5
9F67
  8
ALPHA
 10
56.787138
 20
23.65608
 30
0.0
  0
VERTEX
  5
9F68
  8
ALPHA
 10
58.002545
 20
23.39861
 30
0.0
  0
VERTEX
  5
9F69
  8
ALPHA
 10
59.240877
 20
23.303739
 30
0.0
  0
SEQEND
  5
9F6A
  8
ALPHA
  0
POLYLINE
  5
9A28
  8
ALPHA
 66
     1
 10
0.0
 20
0.0
 30
0.0
 70
   128
210
0.0
220
0.0
230
-1.0
  0
VERTEX
  5
9F6B
  8
ALPHA
 10
-56.787138
 20
26.451398
 30
0.0
  0
VERTEX
  5
9F6C
  8
ALPHA
 10
-58.002545
 20
26.708868
 30
0.0
  0
VERTEX
  5
9F6D
  8
ALPHA
 10
-59.240877
 20
26.803739
 30
0.0
  0
SEQEND
  5
9F6E
  8
ALPHA
  0
POLYLINE
  5
9A29
  8
ALPHA
 66
     1
 10
0.0
 20
0.0
 30
0.0
 70
   128
  0
VERTEX
  5
9F6F
  8
ALPHA
 10
56.787138
 20
27.65608
 30
0.0
  0
VERTEX
  5
9F70
  8
ALPHA
 10
58.002545
 20
27.39861
 30
0.0
  0
VERTEX
  5
9F71
  8
ALPHA
 10
59.240877
 20
27.303739
 30
0.0
  0
SEQEND
  5
9F72
  8
ALPHA
  0
POLYLINE
  5
9A2A
  8
ALPHA
 66
     1
 10
0.0
 20
0.0
 30
0.0
 70
   128
210
0.0
220
0.0
230
-1.0
  0
VERTEX
  5
9F73
  8
ALPHA
 10
-56.787138
 20
30.451398
 30
0.0
  0
VERTEX
  5
9F74
  8
ALPHA
 10
-58.002545
 20
30.708868
 30
0.0
  0
VERTEX
  5
9F75
  8
ALPHA
 10
-59.240877
 20
30.803739
 30
0.0
  0
SEQEND
  5
9F76
  8
ALPHA
  0
POLYLINE
  5
9A2B
  8
ALPHA
 66
     1
 10
0.0
 20
0.0
 30
0.0
 70
   128
  0
VERTEX
  5
9F77
  8
ALPHA
 10
51.879661
 20
22.748739
 30
0.0
  0
VERTEX
  5
9F78
  8
ALPHA
 10
50.65916
 20
22.638391
 30
0.0
  0
VERTEX
  5
9F79
  8
ALPHA
 10
49.481745
 20
22.298739
 30
0.0
  0
SEQEND
  5
9F7A
  8
ALPHA
  0
LINE
  5
9A2C
  8
ALPHA
 10
51.879661
 20
21.798739
 30
0.0
 11
51.879661
 21
22.748739
 31
0.0
  0
POLYLINE
  5
9A2D
  8
ALPHA
 66
     1
 10
0.0
 20
0.0
 30
0.0
 70
   128
  0
VERTEX
  5
9F7B
  8
ALPHA
 10
51.879661
 20
22.248739
 30
0.0
  0
VERTEX
  5
9F7C
  8
ALPHA
 10
54.628946
 20
22.332208
 30
0.0
  0
VERTEX
  5
9F7D
  8
ALPHA
 10
56.001541
 20
22.385914
 30
0.0
  0
VERTEX
  5
9F7E
  8
ALPHA
 10
57.360317
 20
22.504148
 30
0.0
  0
SEQEND
  5
9F7F
  8
ALPHA
  0
POLYLINE
  5
9A2E
  8
ALPHA
 66
     1
 10
0.0
 20
0.0
 30
0.0
 70
   128
  0
VERTEX
  5
9F80
  8
ALPHA
 10
51.879661
 20
22.298739
 30
0.0
  0
VERTEX
  5
9F81
  8
ALPHA
 10
54.626722
 20
22.382136
 30
0.0
  0
VERTEX
  5
9F82
  8
ALPHA
 10
55.998242
 20
22.435789
 30
0.0
  0
VERTEX
  5
9F83
  8
ALPHA
 10
57.358966
 20
22.549865
 30
0.0
  0
SEQEND
  5
9F84
  8
ALPHA
  0
POLYLINE
  5
9A2F
  8
ALPHA
 66
     1
 10
0.0
 20
0.0
 30
0.0
 70
   128
210
0.0
220
0.0
230
-1.0
  0
VERTEX
  5
9F85
  8
ALPHA
 10
-51.879661
 20
21.798739
 30
0.0
  0
VERTEX
  5
9F86
  8
ALPHA
 10
-50.65916
 20
21.909086
 30
0.0
  0
VERTEX
  5
9F87
  8
ALPHA
 10
-49.481745
 20
22.248739
 30
0.0
  0
SEQEND
  5
9F88
  8
ALPHA
  0
LINE
  5
9A30
  8
ALPHA
 10
51.879661
 20
22.298739
 30
0.0
 11
49.481745
 21
22.298739
 31
0.0
  0
LINE
  5
9A31
  8
ALPHA
 10
51.879661
 20
22.248739
 30
0.0
 11
49.481745
 21
22.248739
 31
0.0
  0
LINE
  5
9A32
  8
ALPHA
 10
51.498388
 20
17.273739
 30
0.0
 11
50.488388
 21
17.273739
 31
0.0
  0
LINE
  5
9A33
  8
ALPHA
 10
51.444798
 20
17.073739
 30
0.0
 11
50.541978
 21
17.073739
 31
0.0
  0
LINE
  5
9A34
  8
ALPHA
 10
50.5333
 20
16.973739
 30
0.0
 11
50.5333
 21
17.106124
 31
0.0
  0
LINE
  5
9A35
  8
ALPHA
 10
50.488388
 20
19.073739
 30
0.0
 11
50.488388
 21
17.273739
 31
0.0
  0
LINE
  5
9A36
  8
ALPHA
 10
49.481745
 20
22.298739
 30
0.0
 11
49.481745
 21
22.248739
 31
0.0
  0
LINE
  5
9A37
  8
ALPHA
 10
50.488388
 20
17.273739
 30
0.0
 11
50.541978
 21
17.073739
 31
0.0
  0
LINE
  5
9A38
  8
ALPHA
 10
51.498388
 20
17.273739
 30
0.0
 11
51.444798
 21
17.073739
 31
0.0
  0
LINE
  5
9A39
  8
ALPHA
 10
51.498388
 20
19.073739
 30
0.0
 11
51.498388
 21
17.273739
 31
0.0
  0
LINE
  5
9A3A
  8
ALPHA
 10
51.481431
 20
16.973739
 30
0.0
 11
51.481431
 21
17.210452
 31
0.0
  0
LINE
  5
9A3B
  8
ALPHA
 10
57.379661
 20
16.973739
 30
0.0
 11
57.379661
 21
15.623739
 31
0.0
  0
LINE
  5
9A3C
  8
ALPHA
 10
57.479661
 20
13.273739
 30
0.0
 11
57.479661
 21
13.473739
 31
0.0
  0
LINE
  5
9A3D
  8
ALPHA
 10
57.379661
 20
22.498738
 30
0.0
 11
57.379661
 21
22.548738
 31
0.0
  0
POLYLINE
  5
9A3E
  8
ALPHA
 66
     1
 10
0.0
 20
0.0
 30
0.0
 70
   128
  0
VERTEX
  5
9F89
  8
ALPHA
 10
51.879661
 20
23.303739
 30
0.0
  0
VERTEX
  5
9F8A
  8
ALPHA
 10
54.339239
 20
23.397337
 30
0.0
  0
VERTEX
  5
9F8B
  8
ALPHA
 10
56.787138
 20
23.65608
 30
0.0
  0
SEQEND
  5
9F8C
  8
ALPHA
  0
POLYLINE
  5
9A3F
  8
ALPHA
 66
     1
 10
0.0
 20
0.0
 30
0.0
 70
   128
210
0.0
220
0.0
230
-1.0
  0
VERTEX
  5
9F8D
  8
ALPHA
 10
-51.879661
 20
26.803739
 30
0.0
  0
VERTEX
  5
9F8E
  8
ALPHA
 10
-54.339239
 20
26.71014
 30
0.0
  0
VERTEX
  5
9F8F
  8
ALPHA
 10
-56.787138
 20
26.451398
 30
0.0
  0
SEQEND
  5
9F90
  8
ALPHA
  0
POLYLINE
  5
9A40
  8
ALPHA
 66
     1
 10
0.0
 20
0.0
 30
0.0
 70
   128
  0
VERTEX
  5
9F91
  8
ALPHA
 10
51.879661
 20
27.303739
 30
0.0
  0
VERTEX
  5
9F92
  8
ALPHA
 10
54.339239
 20
27.397337
 30
0.0
  0
VERTEX
  5
9F93
  8
ALPHA
 10
56.787138
 20
27.65608
 30
0.0
  0
SEQEND
  5
9F94
  8
ALPHA
  0
POLYLINE
  5
9A41
  8
ALPHA
 66
     1
 10
0.0
 20
0.0
 30
0.0
 70
   128
210
0.0
220
0.0
230
-1.0
  0
VERTEX
  5
9F95
  8
ALPHA
 10
-51.879661
 20
30.803739
 30
0.0
  0
VERTEX
  5
9F96
  8
ALPHA
 10
-54.339239
 20
30.71014
 30
0.0
  0
VERTEX
  5
9F97
  8
ALPHA
 10
-56.787138
 20
30.451398
 30
0.0
  0
SEQEND
  5
9F98
  8
ALPHA
  0
LINE
  5
9A42
  8
ALPHA
 10
56.787138
 20
27.65608
 30
0.0
 11
56.787138
 21
30.451398
 31
0.0
  0
LINE
  5
9A43
  8
ALPHA
 10
56.787138
 20
23.65608
 30
0.0
 11
56.787138
 21
26.451398
 31
0.0
  0
LINE
  5
9A44
  8
ALPHA
 10
57.373346
 20
33.541293
 30
0.0
 11
57.371629
 21
33.543498
 31
0.0
  0
LINE
  5
9A45
  8
ALPHA
 10
57.362565
 20
31.545081
 30
0.0
 11
57.370478
 21
31.550892
 31
0.0
  0
LINE
  5
9A46
  8
ALPHA
 10
57.369222
 20
32.539311
 30
0.0
 11
57.376827
 21
32.543616
 31
0.0
  0
LINE
  5
9A47
  8
ALPHA
 10
57.379661
 20
33.498738
 30
0.0
 11
57.379661
 21
33.548738
 31
0.0
  0
LINE
  5
9A48
  8
ALPHA
 10
57.379661
 20
32.498739
 30
0.0
 11
57.379661
 21
32.548739
 31
0.0
  0
LINE
  5
9A49
  8
ALPHA
 10
57.379661
 20
31.498739
 30
0.0
 11
57.379661
 21
31.548739
 31
0.0
  0
ARC
  5
9A4A
  8
ALPHA
 10
57.879661
 20
13.973739
 30
0.0
 40
0.5
 50
270.0
 51
90.0
  0
LINE
  5
9A4B
  8
ALPHA
 10
58.229661
 20
14.673739
 30
0.0
 11
58.029661
 21
14.473739
 31
0.0
  0
LINE
  5
9A4C
  8
ALPHA
 10
58.229661
 20
13.273739
 30
0.0
 11
58.229661
 21
11.273739
 31
0.0
  0
LINE
  5
9A4D
  8
ALPHA
 10
58.229661
 20
15.623739
 30
0.0
 11
58.229661
 21
14.673739
 31
0.0
  0
LINE
  5
9A4E
  8
ALPHA
 10
58.657803
 20
17.273739
 30
0.0
 11
58.604213
 21
17.073739
 31
0.0
  0
LINE
  5
9A4F
  8
ALPHA
 10
58.657803
 20
19.073739
 30
0.0
 11
58.657803
 21
17.273739
 31
0.0
  0
LINE
  5
9A50
  8
ALPHA
 10
58.579661
 20
16.973739
 30
0.0
 11
58.579661
 21
19.073739
 31
0.0
  0
LINE
  5
9A51
  8
ALPHA
 10
57.879661
 20
22.048738
 30
0.0
 11
57.879661
 21
21.073739
 31
0.0
  0
LINE
  5
9A52
  8
ALPHA
 10
57.877057
 20
22.053428
 30
0.0
 11
57.879661
 21
22.048738
 31
0.0
  0
LINE
  5
9A53
  8
ALPHA
 10
58.657803
 20
17.273739
 30
0.0
 11
58.579661
 21
17.273739
 31
0.0
  0
LINE
  5
9A54
  8
ALPHA
 10
58.604213
 20
17.073739
 30
0.0
 11
58.579661
 21
17.073739
 31
0.0
  0
ARC
  5
9A55
  8
ALPHA
 10
59.629661
 20
20.873739
 30
0.0
 40
0.2
 50
0.0
 51
90.0
  0
LINE
  5
9A56
  8
ALPHA
 10
59.829661
 20
19.073739
 30
0.0
 11
59.829661
 21
20.873739
 31
0.0
  0
POLYLINE
  5
9A57
  8
ALPHA
 66
     1
 10
0.0
 20
0.0
 30
0.0
 70
   128
  0
VERTEX
  5
9F99
  8
ALPHA
 10
59.240877
 20
23.303739
 30
0.0
  0
VERTEX
  5
9F9A
  8
ALPHA
 10
60.47921
 20
23.39861
 30
0.0
  0
VERTEX
  5
9F9B
  8
ALPHA
 10
61.694616
 20
23.65608
 30
0.0
  0
SEQEND
  5
9F9C
  8
ALPHA
  0
POLYLINE
  5
9A58
  8
ALPHA
 66
     1
 10
0.0
 20
0.0
 30
0.0
 70
   128
210
0.0
220
0.0
230
-1.0
  0
VERTEX
  5
9F9D
  8
ALPHA
 10
-59.240877
 20
26.803739
 30
0.0
  0
VERTEX
  5
9F9E
  8
ALPHA
 10
-60.47921
 20
26.708868
 30
0.0
  0
VERTEX
  5
9F9F
  8
ALPHA
 10
-61.694616
 20
26.451398
 30
0.0
  0
SEQEND
  5
9FA0
  8
ALPHA
  0
POLYLINE
  5
9A59
  8
ALPHA
 66
     1
 10
0.0
 20
0.0
 30
0.0
 70
   128
  0
VERTEX
  5
9FA1
  8
ALPHA
 10
59.240877
 20
27.303739
 30
0.0
  0
VERTEX
  5
9FA2
  8
ALPHA
 10
60.47921
 20
27.39861
 30
0.0
  0
VERTEX
  5
9FA3
  8
ALPHA
 10
61.694616
 20
27.65608
 30
0.0
  0
SEQEND
  5
9FA4
  8
ALPHA
  0
POLYLINE
  5
9A5A
  8
ALPHA
 66
     1
 10
0.0
 20
0.0
 30
0.0
 70
   128
210
0.0
220
0.0
230
-1.0
  0
VERTEX
  5
9FA5
  8
ALPHA
 10
-59.240877
 20
30.803739
 30
0.0
  0
VERTEX
  5
9FA6
  8
ALPHA
 10
-60.47921
 20
30.708868
 30
0.0
  0
VERTEX
  5
9FA7
  8
ALPHA
 10
-61.694616
 20
30.451398
 30
0.0
  0
SEQEND
  5
9FA8
  8
ALPHA
  0
LINE
  5
9A5B
  8
ALPHA
 10
61.694616
 20
30.451398
 30
0.0
 11
60.379661
 21
30.803739
 31
0.0
  0
LINE
  5
9A5C
  8
ALPHA
 10
61.694616
 20
26.451398
 30
0.0
 11
60.379661
 21
26.803739
 31
0.0
  0
LINE
  5
9A5D
  8
ALPHA
 10
60.379661
 20
27.303739
 30
0.0
 11
61.694616
 21
27.65608
 31
0.0
  0
LINE
  5
9A5E
  8
ALPHA
 10
60.379661
 20
23.303739
 30
0.0
 11
61.694616
 21
23.65608
 31
0.0
  0
LINE
  5
9A5F
  8
ALPHA
 10
57.864005
 20
23.038202
 30
0.0
 11
57.786812
 21
23.020703
 31
0.0
  0
LINE
  5
9A60
  8
ALPHA
 10
57.867806
 20
23.039635
 30
0.0
 11
57.864005
 21
23.038202
 31
0.0
  0
LINE
  5
9A61
  8
ALPHA
 10
57.879661
 20
23.048738
 30
0.0
 11
57.867806
 21
23.039635
 31
0.0
  0
LINE
  5
9A62
  8
ALPHA
 10
57.864212
 20
27.03787
 30
0.0
 11
57.785483
 21
27.020503
 31
0.0
  0
LINE
  5
9A63
  8
ALPHA
 10
57.868034
 20
27.039301
 30
0.0
 11
57.864212
 21
27.03787
 31
0.0
  0
LINE
  5
9A64
  8
ALPHA
 10
57.879609
 20
27.04873
 30
0.0
 11
57.868034
 21
27.039301
 31
0.0
  0
LINE
  5
9A65
  8
ALPHA
 10
57.877057
 20
27.053428
 30
0.0
 11
57.599061
 21
27.303738
 31
0.0
  0
LINE
  5
9A66
  8
ALPHA
 10
57.665697
 20
26.803739
 30
0.0
 11
57.877057
 21
26.994049
 31
0.0
  0
LINE
  5
9A67
  8
ALPHA
 10
57.877057
 20
23.053428
 30
0.0
 11
57.599061
 21
23.303738
 31
0.0
  0
LINE
  5
9A68
  8
ALPHA
 10
57.877057
 20
22.994049
 30
0.0
 11
57.879661
 21
22.998738
 31
0.0
  0
LINE
  5
9A69
  8
ALPHA
 10
57.877057
 20
26.994049
 30
0.0
 11
57.879661
 21
26.99874
 31
0.0
  0
LINE
  5
9A6A
  8
ALPHA
 10
57.879661
 20
23.048738
 30
0.0
 11
57.879661
 21
22.998738
 31
0.0
  0
LINE
  5
9A6B
  8
ALPHA
 10
57.879661
 20
27.048739
 30
0.0
 11
57.879661
 21
26.998738
 31
0.0
  0
LINE
  5
9A6C
  8
ALPHA
 10
57.877057
 20
27.053428
 30
0.0
 11
57.879661
 21
27.048738
 31
0.0
  0
LINE
  5
9A6D
  8
ALPHA
 10
57.877057
 20
23.053428
 30
0.0
 11
57.879661
 21
23.048738
 31
0.0
  0
LINE
  5
9A6E
  8
ALPHA
 10
57.863458
 20
34.038645
 30
0.0
 11
57.791635
 21
34.021443
 31
0.0
  0
LINE
  5
9A6F
  8
ALPHA
 10
57.867242
 20
34.040087
 30
0.0
 11
57.863458
 21
34.038645
 31
0.0
  0
LINE
  5
9A70
  8
ALPHA
 10
57.879553
 20
34.048765
 30
0.0
 11
57.867242
 21
34.040087
 31
0.0
  0
LINE
  5
9A71
  8
ALPHA
 10
57.864017
 20
33.038236
 30
0.0
 11
57.786543
 21
33.020662
 31
0.0
  0
LINE
  5
9A72
  8
ALPHA
 10
57.867815
 20
33.03967
 30
0.0
 11
57.864017
 21
33.038236
 31
0.0
  0
LINE
  5
9A73
  8
ALPHA
 10
57.879661
 20
33.048738
 30
0.0
 11
57.867815
 21
33.03967
 31
0.0
  0
LINE
  5
9A74
  8
ALPHA
 10
57.864136
 20
32.037756
 30
0.0
 11
57.786785
 21
32.020699
 31
0.0
  0
LINE
  5
9A75
  8
ALPHA
 10
57.86797
 20
32.039184
 30
0.0
 11
57.864136
 21
32.037756
 31
0.0
  0
LINE
  5
9A76
  8
ALPHA
 10
57.879583
 20
32.048722
 30
0.0
 11
57.86797
 21
32.039184
 31
0.0
  0
LINE
  5
9A77
  8
ALPHA
 10
57.863949
 20
31.038258
 30
0.0
 11
57.787283
 21
31.020775
 31
0.0
  0
LINE
  5
9A78
  8
ALPHA
 10
57.867747
 20
31.039692
 30
0.0
 11
57.863949
 21
31.038258
 31
0.0
  0
LINE
  5
9A79
  8
ALPHA
 10
57.879661
 20
31.048739
 30
0.0
 11
57.867747
 21
31.039692
 31
0.0
  0
LINE
  5
9A7A
  8
ALPHA
 10
57.665697
 20
30.803739
 30
0.0
 11
57.877057
 21
30.994049
 31
0.0
  0
LINE
  5
9A7B
  8
ALPHA
 10
57.877057
 20
34.053428
 30
0.0
 11
57.879661
 21
34.04874
 31
0.0
  0
LINE
  5
9A7C
  8
ALPHA
 10
57.877057
 20
32.99405
 30
0.0
 11
57.879661
 21
32.998738
 31
0.0
  0
LINE
  5
9A7D
  8
ALPHA
 10
57.877057
 20
30.994049
 30
0.0
 11
57.879661
 21
30.998738
 31
0.0
  0
LINE
  5
9A7E
  8
ALPHA
 10
57.877057
 20
31.99405
 30
0.0
 11
57.879661
 21
31.998739
 31
0.0
  0
LINE
  5
9A7F
  8
ALPHA
 10
57.879661
 20
31.048739
 30
0.0
 11
57.879661
 21
30.998738
 31
0.0
  0
LINE
  5
9A80
  8
ALPHA
 10
57.879661
 20
32.048739
 30
0.0
 11
57.879661
 21
31.998739
 31
0.0
  0
LINE
  5
9A81
  8
ALPHA
 10
57.879661
 20
33.048738
 30
0.0
 11
57.879661
 21
32.998739
 31
0.0
  0
LINE
  5
9A82
  8
ALPHA
 10
57.879661
 20
34.048739
 30
0.0
 11
57.879661
 21
33.998738
 31
0.0
  0
LINE
  5
9A83
  8
ALPHA
 10
57.877057
 20
33.053428
 30
0.0
 11
57.879661
 21
33.048738
 31
0.0
  0
LINE
  5
9A84
  8
ALPHA
 10
57.877057
 20
32.053428
 30
0.0
 11
57.879661
 21
32.048737
 31
0.0
  0
LINE
  5
9A85
  8
ALPHA
 10
57.877057
 20
31.053428
 30
0.0
 11
57.879661
 21
31.048739
 31
0.0
  0
LINE
  5
9A86
  8
ALPHA
 10
57.877057
 20
33.994049
 30
0.0
 11
57.879661
 21
33.998738
 31
0.0
  0
LINE
  5
9A87
  8
ALPHA
 10
61.694616
 20
27.65608
 30
0.0
 11
61.694616
 21
30.451398
 31
0.0
  0
LINE
  5
9A88
  8
ALPHA
 10
61.694616
 20
23.65608
 30
0.0
 11
61.694616
 21
26.451398
 31
0.0
  0
LINE
  5
9ADE
  8
ALPHA
 10
46.394039
 20
35.056399
 30
0.0
 11
57.361884
 21
35.545297
 31
0.0
  0
POLYLINE
  5
9ADF
  8
ALPHA
 66
     1
 10
0.0
 20
0.0
 30
0.0
 70
   128
  0
VERTEX
  5
9FA9
  8
ALPHA
 10
51.879661
 20
38.798739
 30
0.0
  0
VERTEX
  5
9FAA
  8
ALPHA
 10
48.878244
 20
38.715363
 30
0.0
  0
VERTEX
  5
9FAB
  8
ALPHA
 10
45.882714
 20
38.552838
 30
0.0
  0
SEQEND
  5
9FAC
  8
ALPHA
  0
POLYLINE
  5
9AE0
  8
ALPHA
 66
     1
 10
0.0
 20
0.0
 30
0.0
 70
   128
210
0.0
220
0.0
230
-1.0
  0
VERTEX
  5
9FAD
  8
ALPHA
 10
-46.381162
 20
36.052458
 30
0.0
  0
VERTEX
  5
9FAE
  8
ALPHA
 10
-48.773038
 20
36.203265
 30
0.0
  0
VERTEX
  5
9FAF
  8
ALPHA
 10
-51.171069
 20
36.278181
 30
0.0
  0
VERTEX
  5
9FB0
  8
ALPHA
 10
-55.966958
 20
36.432072
 30
0.0
  0
SEQEND
  5
9FB1
  8
ALPHA
  0
POLYLINE
  5
9AE1
  8
ALPHA
 66
     1
 10
0.0
 20
0.0
 30
0.0
 70
   128
  0
VERTEX
  5
9FB2
  8
ALPHA
 10
51.879661
 20
37.798739
 30
0.0
  0
VERTEX
  5
9FB3
  8
ALPHA
 10
48.878217
 20
37.715361
 30
0.0
  0
VERTEX
  5
9FB4
  8
ALPHA
 10
45.882596
 20
37.552998
 30
0.0
  0
SEQEND
  5
9FB5
  8
ALPHA
  0
LINE
  5
9AE2
  8
ALPHA
 10
57.630932
 20
39.77237
 30
0.0
 11
45.953528
 21
39.523739
 31
0.0
  0
POLYLINE
  5
9AE3
  8
ALPHA
 66
     1
 10
0.0
 20
0.0
 30
0.0
 70
   128
  0
VERTEX
  5
9FB6
  8
ALPHA
 10
51.879661
 20
36.798738
 30
0.0
  0
VERTEX
  5
9FB7
  8
ALPHA
 10
48.878174
 20
36.715357
 30
0.0
  0
VERTEX
  5
9FB8
  8
ALPHA
 10
45.882446
 20
36.553198
 30
0.0
  0
SEQEND
  5
9FB9
  8
ALPHA
  0
POLYLINE
  5
9AE4
  8
ALPHA
 66
     1
 10
0.0
 20
0.0
 30
0.0
 70
   128
  0
VERTEX
  5
9FBA
  8
ALPHA
 10
51.879661
 20
35.798739
 30
0.0
  0
VERTEX
  5
9FBB
  8
ALPHA
 10
48.878128
 20
35.715362
 30
0.0
  0
VERTEX
  5
9FBC
  8
ALPHA
 10
45.882319
 20
35.553362
 30
0.0
  0
SEQEND
  5
9FBD
  8
ALPHA
  0
LINE
  5
9AE5
  8
ALPHA
 10
46.393298
 20
37.00457
 30
0.0
 11
57.373137
 21
37.493264
 31
0.0
  0
LINE
  5
9AE6
  8
ALPHA
 10
46.417158
 20
38.017334
 30
0.0
 11
57.358152
 21
38.49731
 31
0.0
  0
POLYLINE
  5
9AE7
  8
ALPHA
 66
     1
 10
0.0
 20
0.0
 30
0.0
 70
   128
210
0.0
220
0.0
230
-1.0
  0
VERTEX
  5
9FBE
  8
ALPHA
 10
-46.393843
 20
39.010171
 30
0.0
  0
VERTEX
  5
9FBF
  8
ALPHA
 10
-50.883682
 20
39.219761
 30
0.0
  0
VERTEX
  5
9FC0
  8
ALPHA
 10
-55.378217
 20
39.358319
 30
0.0
  0
SEQEND
  5
9FC1
  8
ALPHA
  0
POLYLINE
  5
9AE8
  8
ALPHA
 66
     1
 10
0.0
 20
0.0
 30
0.0
 70
   128
  0
VERTEX
  5
9FC2
  8
ALPHA
 10
51.879661
 20
34.798739
 30
0.0
  0
VERTEX
  5
9FC3
  8
ALPHA
 10
48.878217
 20
34.715358
 30
0.0
  0
VERTEX
  5
9FC4
  8
ALPHA
 10
45.88259
 20
34.553006
 30
0.0
  0
SEQEND
  5
9FC5
  8
ALPHA
  0
LINE
  5
9AE9
  8
ALPHA
 10
46.381962
 20
37.04686
 30
0.0
 11
57.372264
 21
37.544246
 31
0.0
  0
LINE
  5
9AEA
  8
ALPHA
 10
45.967146
 20
34.52595
 30
0.0
 11
51.879661
 21
34.748738
 31
0.0
  0
LINE
  5
9AEB
  8
ALPHA
 10
45.972199
 20
35.526727
 30
0.0
 11
51.879661
 21
35.748739
 31
0.0
  0
LINE
  5
9AEC
  8
ALPHA
 10
45.971685
 20
36.526649
 30
0.0
 11
51.879661
 21
36.748739
 31
0.0
  0
LINE
  5
9AED
  8
ALPHA
 10
45.973261
 20
37.526887
 30
0.0
 11
51.879661
 21
37.748738
 31
0.0
  0
LINE
  5
9AEE
  8
ALPHA
 10
46.39251
 20
35.00962
 30
0.0
 11
57.372714
 21
35.504481
 31
0.0
  0
LINE
  5
9AEF
  8
ALPHA
 10
45.971844
 20
38.526673
 30
0.0
 11
51.879661
 21
38.748739
 31
0.0
  0
POLYLINE
  5
9AF0
  8
ALPHA
 66
     1
 10
0.0
 20
0.0
 30
0.0
 70
   128
210
0.0
220
0.0
230
-1.0
  0
VERTEX
  5
9FC6
  8
ALPHA
 10
-46.393336
 20
38.041032
 30
0.0
  0
VERTEX
  5
9FC7
  8
ALPHA
 10
-47.752159
 20
38.162057
 30
0.0
  0
VERTEX
  5
9FC8
  8
ALPHA
 10
-49.123965
 20
38.215156
 30
0.0
  0
VERTEX
  5
9FC9
  8
ALPHA
 10
-51.870014
 20
38.298458
 30
0.0
  0
VERTEX
  5
9FCA
  8
ALPHA
 10
-57.357823
 20
38.534551
 30
0.0
  0
SEQEND
  5
9FCB
  8
ALPHA
  0
POLYLINE
  5
9AF1
  8
ALPHA
 66
     1
 10
0.0
 20
0.0
 30
0.0
 70
   128
210
0.0
220
0.0
230
-1.0
  0
VERTEX
  5
9FCC
  8
ALPHA
 10
-46.380805
 20
36.003361
 30
0.0
  0
VERTEX
  5
9FCD
  8
ALPHA
 10
-48.772942
 20
36.153257
 30
0.0
  0
VERTEX
  5
9FCE
  8
ALPHA
 10
-51.171004
 20
36.228179
 30
0.0
  0
VERTEX
  5
9FCF
  8
ALPHA
 10
-55.966958
 20
36.382072
 30
0.0
  0
SEQEND
  5
9FD0
  8
ALPHA
  0
POLYLINE
  5
9AF2
  8
ALPHA
 66
     1
 10
0.0
 20
0.0
 30
0.0
 70
   128
210
0.0
220
0.0
230
-1.0
  0
VERTEX
  5
9FD1
  8
ALPHA
 10
-46.395486
 20
39.056131
 30
0.0
  0
VERTEX
  5
9FD2
  8
ALPHA
 10
-50.880654
 20
39.269652
 30
0.0
  0
VERTEX
  5
9FD3
  8
ALPHA
 10
-55.37645
 20
39.408248
 30
0.0
  0
SEQEND
  5
9FD4
  8
ALPHA
  0
LINE
  5
9AF3
  8
ALPHA
 10
48.579749
 20
54.373739
 30
0.0
 11
50.129661
 21
54.373739
 31
0.0
  0
LINE
  5
9AF4
  8
ALPHA
 10
50.129661
 20
54.173739
 30
0.0
 11
48.379661
 21
54.173739
 31
0.0
  0
LINE
  5
9AF5
  8
ALPHA
 10
47.429863
 20
49.073739
 30
0.0
 11
50.079661
 21
49.073739
 31
0.0
  0
LINE
  5
9AF6
  8
ALPHA
 10
50.079661
 20
48.273739
 30
0.0
 11
46.629661
 21
48.273739
 31
0.0
  0
LINE
  5
9AF7
  8
ALPHA
 10
46.629661
 20
40.273739
 30
0.0
 11
57.129661
 21
40.273739
 31
0.0
  0
LINE
  5
9AF8
  8
ALPHA
 10
46.629661
 20
40.273739
 30
0.0
 11
46.629661
 21
48.273739
 31
0.0
  0
LINE
  5
9AF9
  8
ALPHA
 10
46.379661
 20
40.023739
 30
0.0
 11
46.629661
 21
40.273739
 31
0.0
  0
LINE
  5
9AFA
  8
ALPHA
 10
46.382223
 20
36.050878
 30
0.0
 11
46.381162
 21
36.052458
 31
0.0
  0
LINE
  5
9AFB
  8
ALPHA
 10
45.886969
 20
39.501759
 30
0.0
 11
45.881389
 21
39.497266
 31
0.0
  0
LINE
  5
9AFC
  8
ALPHA
 10
45.953528
 20
39.523739
 30
0.0
 11
45.886969
 21
39.501759
 31
0.0
  0
LINE
  5
9AFD
  8
ALPHA
 10
46.181714
 20
39.823139
 30
0.0
 11
46.447376
 21
40.023739
 31
0.0
  0
LINE
  5
9AFE
  8
ALPHA
 10
46.385358
 20
36.99993
 30
0.0
 11
46.393298
 21
37.00457
 31
0.0
  0
LINE
  5
9AFF
  8
ALPHA
 10
46.395698
 20
37.994796
 30
0.0
 11
46.417158
 21
38.017334
 31
0.0
  0
LINE
  5
9B00
  8
ALPHA
 10
46.394434
 20
39.008565
 30
0.0
 11
46.393843
 21
39.010171
 31
0.0
  0
LINE
  5
9B01
  8
ALPHA
 10
45.895958
 20
34.508677
 30
0.0
 11
45.967146
 21
34.52595
 31
0.0
  0
LINE
  5
9B02
  8
ALPHA
 10
45.892183
 20
34.50723
 30
0.0
 11
45.895958
 21
34.508677
 31
0.0
  0
LINE
  5
9B03
  8
ALPHA
 10
45.879834
 20
34.498686
 30
0.0
 11
45.892183
 21
34.50723
 31
0.0
  0
LINE
  5
9B04
  8
ALPHA
 10
45.895377
 20
35.509161
 30
0.0
 11
45.972199
 21
35.526727
 31
0.0
  0
LINE
  5
9B05
  8
ALPHA
 10
45.891583
 20
35.507726
 30
0.0
 11
45.895377
 21
35.509161
 31
0.0
  0
LINE
  5
9B06
  8
ALPHA
 10
45.879664
 20
35.498739
 30
0.0
 11
45.891583
 21
35.507726
 31
0.0
  0
LINE
  5
9B07
  8
ALPHA
 10
45.895287
 20
36.509622
 30
0.0
 11
45.971685
 21
36.526649
 31
0.0
  0
LINE
  5
9B08
  8
ALPHA
 10
45.891459
 20
36.508194
 30
0.0
 11
45.895287
 21
36.509622
 31
0.0
  0
LINE
  5
9B09
  8
ALPHA
 10
45.879706
 20
36.498747
 30
0.0
 11
45.891459
 21
36.508194
 31
0.0
  0
LINE
  5
9B0A
  8
ALPHA
 10
45.895228
 20
37.509367
 30
0.0
 11
45.973261
 21
37.526887
 31
0.0
  0
LINE
  5
9B0B
  8
ALPHA
 10
45.891422
 20
37.507934
 30
0.0
 11
45.895228
 21
37.509367
 31
0.0
  0
LINE
  5
9B0C
  8
ALPHA
 10
45.879668
 20
37.498739
 30
0.0
 11
45.891422
 21
37.507934
 31
0.0
  0
LINE
  5
9B0D
  8
ALPHA
 10
46.392954
 20
35.008594
 30
0.0
 11
46.39251
 21
35.00962
 31
0.0
  0
LINE
  5
9B0E
  8
ALPHA
 10
45.895407
 20
38.50916
 30
0.0
 11
45.971844
 21
38.526673
 31
0.0
  0
LINE
  5
9B0F
  8
ALPHA
 10
45.891612
 20
38.507725
 30
0.0
 11
45.895407
 21
38.50916
 31
0.0
  0
LINE
  5
9B10
  8
ALPHA
 10
45.879665
 20
38.498738
 30
0.0
 11
45.891612
 21
38.507725
 31
0.0
  0
LINE
  5
9B11
  8
ALPHA
 10
45.882265
 20
35.49405
 30
0.0
 11
46.378389
 21
35.047327
 31
0.0
  0
LINE
  5
9B12
  8
ALPHA
 10
45.882265
 20
36.49405
 30
0.0
 11
46.378389
 21
36.047327
 31
0.0
  0
LINE
  5
9B13
  8
ALPHA
 10
46.382502
 20
35.003854
 30
0.0
 11
45.882265
 21
34.553428
 31
0.0
  0
LINE
  5
9B14
  8
ALPHA
 10
46.382502
 20
36.003855
 30
0.0
 11
45.882265
 21
35.553429
 31
0.0
  0
LINE
  5
9B15
  8
ALPHA
 10
45.882265
 20
37.494049
 30
0.0
 11
46.378389
 21
37.047326
 31
0.0
  0
LINE
  5
9B16
  8
ALPHA
 10
45.882265
 20
38.494049
 30
0.0
 11
46.378389
 21
38.047326
 31
0.0
  0
LINE
  5
9B17
  8
ALPHA
 10
45.882265
 20
39.49405
 30
0.0
 11
46.378389
 21
39.047327
 31
0.0
  0
LINE
  5
9B18
  8
ALPHA
 10
46.382502
 20
37.003854
 30
0.0
 11
45.882265
 21
36.553428
 31
0.0
  0
LINE
  5
9B19
  8
ALPHA
 10
46.382502
 20
38.003854
 30
0.0
 11
45.882265
 21
37.553428
 31
0.0
  0
LINE
  5
9B1A
  8
ALPHA
 10
46.382502
 20
39.003855
 30
0.0
 11
45.882265
 21
38.553429
 31
0.0
  0
LINE
  5
9B1B
  8
ALPHA
 10
46.382502
 20
40.003854
 30
0.0
 11
46.181756
 21
39.823093
 31
0.0
  0
LINE
  5
9B1C
  8
ALPHA
 10
46.447376
 20
40.023739
 30
0.0
 11
46.379661
 21
40.023739
 31
0.0
  0
LINE
  5
9B1D
  8
ALPHA
 10
45.953528
 20
39.523739
 30
0.0
 11
45.879661
 21
39.523739
 31
0.0
  0
LINE
  5
9B1E
  8
ALPHA
 10
45.879661
 20
39.498739
 30
0.0
 11
45.882265
 21
39.49405
 31
0.0
  0
LINE
  5
9B1F
  8
ALPHA
 10
45.882265
 20
38.494049
 30
0.0
 11
45.879661
 21
38.498739
 31
0.0
  0
LINE
  5
9B20
  8
ALPHA
 10
45.882265
 20
37.494049
 30
0.0
 11
45.879661
 21
37.498738
 31
0.0
  0
LINE
  5
9B21
  8
ALPHA
 10
45.882265
 20
36.49405
 30
0.0
 11
45.879661
 21
36.49874
 31
0.0
  0
LINE
  5
9B22
  8
ALPHA
 10
45.882265
 20
35.49405
 30
0.0
 11
45.879661
 21
35.498739
 31
0.0
  0
LINE
  5
9B23
  8
ALPHA
 10
45.882265
 20
34.494049
 30
0.0
 11
45.879661
 21
34.498737
 31
0.0
  0
LINE
  5
9B24
  8
ALPHA
 10
45.882265
 20
34.553428
 30
0.0
 11
45.879661
 21
34.548739
 31
0.0
  0
LINE
  5
9B25
  8
ALPHA
 10
45.882265
 20
35.553429
 30
0.0
 11
45.879661
 21
35.54874
 31
0.0
  0
LINE
  5
9B26
  8
ALPHA
 10
46.379661
 20
35.048739
 30
0.0
 11
46.379661
 21
34.998739
 31
0.0
  0
LINE
  5
9B27
  8
ALPHA
 10
46.379661
 20
36.048739
 30
0.0
 11
46.379661
 21
35.998739
 31
0.0
  0
LINE
  5
9B28
  8
ALPHA
 10
46.379661
 20
37.048738
 30
0.0
 11
46.379661
 21
36.998738
 31
0.0
  0
LINE
  5
9B29
  8
ALPHA
 10
46.379661
 20
38.048739
 30
0.0
 11
46.379661
 21
37.998739
 31
0.0
  0
LINE
  5
9B2A
  8
ALPHA
 10
46.379661
 20
39.048739
 30
0.0
 11
46.379661
 21
38.998739
 31
0.0
  0
LINE
  5
9B2B
  8
ALPHA
 10
46.379661
 20
40.023739
 30
0.0
 11
46.379661
 21
39.998739
 31
0.0
  0
LINE
  5
9B2C
  8
ALPHA
 10
45.879661
 20
34.548739
 30
0.0
 11
45.879661
 21
34.498738
 31
0.0
  0
LINE
  5
9B2D
  8
ALPHA
 10
45.879661
 20
35.548739
 30
0.0
 11
45.879661
 21
35.498739
 31
0.0
  0
LINE
  5
9B2E
  8
ALPHA
 10
45.879661
 20
36.548738
 30
0.0
 11
45.879661
 21
36.498739
 31
0.0
  0
LINE
  5
9B2F
  8
ALPHA
 10
45.879661
 20
37.548739
 30
0.0
 11
45.879661
 21
37.498738
 31
0.0
  0
LINE
  5
9B30
  8
ALPHA
 10
45.879661
 20
38.548739
 30
0.0
 11
45.879661
 21
38.498739
 31
0.0
  0
LINE
  5
9B31
  8
ALPHA
 10
45.879661
 20
39.523739
 30
0.0
 11
45.879661
 21
39.498739
 31
0.0
  0
LINE
  5
9B32
  8
ALPHA
 10
46.382502
 20
40.003854
 30
0.0
 11
46.447376
 21
40.023739
 31
0.0
  0
LINE
  5
9B33
  8
ALPHA
 10
45.882265
 20
36.553428
 30
0.0
 11
45.879661
 21
36.548738
 31
0.0
  0
LINE
  5
9B34
  8
ALPHA
 10
45.882265
 20
37.553428
 30
0.0
 11
45.879661
 21
37.548739
 31
0.0
  0
LINE
  5
9B35
  8
ALPHA
 10
45.882265
 20
38.553429
 30
0.0
 11
45.879661
 21
38.548738
 31
0.0
  0
LINE
  5
9B36
  8
ALPHA
 10
46.12956
 20
39.773637
 30
0.0
 11
46.181756
 21
39.823093
 31
0.0
  0
LINE
  5
9B37
  8
ALPHA
 10
45.879661
 20
39.523739
 30
0.0
 11
46.12966
 21
39.773737
 31
0.0
  0
POLYLINE
  5
9B38
  8
ALPHA
 66
     1
 10
0.0
 20
0.0
 30
0.0
 70
   128
210
0.0
220
0.0
230
-1.0
  0
VERTEX
  5
9FD5
  8
ALPHA
 10
-48.379661
 20
53.548739
 30
0.0
  0
VERTEX
  5
9FD6
  8
ALPHA
 10
-48.634438
 20
52.625887
 30
0.0
  0
VERTEX
  5
9FD7
  8
ALPHA
 10
-48.729452
 20
51.673739
 30
0.0
  0
VERTEX
  5
9FD8
  8
ALPHA
 10
-48.634438
 20
50.72159
 30
0.0
  0
VERTEX
  5
9FD9
  8
ALPHA
 10
-48.379661
 20
49.798739
 30
0.0
  0
SEQEND
  5
9FDA
  8
ALPHA
  0
LINE
  5
9B39
  8
ALPHA
 10
46.629661
 20
48.273739
 30
0.0
 11
47.429661
 21
49.073739
 31
0.0
  0
LINE
  5
9B3A
  8
ALPHA
 10
48.379661
 20
49.798739
 30
0.0
 11
48.379661
 21
49.073739
 31
0.0
  0
LINE
  5
9B3B
  8
ALPHA
 10
48.379661
 20
54.173739
 30
0.0
 11
48.379661
 21
53.548739
 31
0.0
  0
LINE
  5
9B3C
  8
ALPHA
 10
48.579661
 20
54.373739
 30
0.0
 11
48.379661
 21
54.173739
 31
0.0
  0
LINE
  5
9B3D
  8
ALPHA
 10
57.787913
 20
38.02087
 30
0.0
 11
51.879661
 21
37.798739
 31
0.0
  0
LINE
  5
9B3E
  8
ALPHA
 10
57.789329
 20
37.021086
 30
0.0
 11
51.879661
 21
36.798738
 31
0.0
  0
LINE
  5
9B3F
  8
ALPHA
 10
57.869115
 20
36.034207
 30
0.0
 11
56.33853
 21
35.932072
 31
0.0
  0
POLYLINE
  5
9B40
  8
ALPHA
 66
     1
 10
0.0
 20
0.0
 30
0.0
 70
   128
210
0.0
220
0.0
230
-1.0
  0
VERTEX
  5
9FDB
  8
ALPHA
 10
-57.87744
 20
38.993613
 30
0.0
  0
VERTEX
  5
9FDC
  8
ALPHA
 10
-54.881334
 20
38.832122
 30
0.0
  0
VERTEX
  5
9FDD
  8
ALPHA
 10
-51.879661
 20
38.748739
 30
0.0
  0
SEQEND
  5
9FDE
  8
ALPHA
  0
LINE
  5
9B41
  8
ALPHA
 10
57.78591
 20
35.020567
 30
0.0
 11
51.879661
 21
34.798739
 31
0.0
  0
LINE
  5
9B42
  8
ALPHA
 10
51.879661
 20
38.798739
 30
0.0
 11
57.788506
 21
39.020961
 31
0.0
  0
POLYLINE
  5
9B43
  8
ALPHA
 66
     1
 10
0.0
 20
0.0
 30
0.0
 70
   128
  0
VERTEX
  5
9FDF
  8
ALPHA
 10
51.879661
 20
37.748738
 30
0.0
  0
VERTEX
  5
9FE0
  8
ALPHA
 10
54.881137
 20
37.832114
 30
0.0
  0
VERTEX
  5
9FE1
  8
ALPHA
 10
57.876811
 20
37.994365
 30
0.0
  0
SEQEND
  5
9FE2
  8
ALPHA
  0
LINE
  5
9B44
  8
ALPHA
 10
56.33853
 20
36.882072
 30
0.0
 11
57.877801
 21
36.994452
 31
0.0
  0
POLYLINE
  5
9B45
  8
ALPHA
 66
     1
 10
0.0
 20
0.0
 30
0.0
 70
   128
  0
VERTEX
  5
9FE3
  8
ALPHA
 10
51.879661
 20
35.748739
 30
0.0
  0
VERTEX
  5
9FE4
  8
ALPHA
 10
54.881178
 20
35.832117
 30
0.0
  0
VERTEX
  5
9FE5
  8
ALPHA
 10
57.876966
 20
35.994163
 30
0.0
  0
SEQEND
  5
9FE6
  8
ALPHA
  0
POLYLINE
  5
9B46
  8
ALPHA
 66
     1
 10
0.0
 20
0.0
 30
0.0
 70
   128
  0
VERTEX
  5
9FE7
  8
ALPHA
 10
51.879661
 20
34.748738
 30
0.0
  0
VERTEX
  5
9FE8
  8
ALPHA
 10
54.881031
 20
34.832115
 30
0.0
  0
VERTEX
  5
9FE9
  8
ALPHA
 10
57.876442
 20
34.994872
 30
0.0
  0
SEQEND
  5
9FEA
  8
ALPHA
  0
LINE
  5
9B47
  8
ALPHA
 10
57.37682
 20
34.543623
 30
0.0
 11
57.877057
 21
34.994049
 31
0.0
  0
LINE
  5
9B48
  8
ALPHA
 10
57.37682
 20
35.543624
 30
0.0
 11
57.877057
 21
35.99405
 31
0.0
  0
LINE
  5
9B49
  8
ALPHA
 10
57.877057
 20
35.053429
 30
0.0
 11
57.380933
 21
35.500152
 31
0.0
  0
LINE
  5
9B4A
  8
ALPHA
 10
57.37682
 20
36.543623
 30
0.0
 11
57.877057
 21
36.994049
 31
0.0
  0
LINE
  5
9B4B
  8
ALPHA
 10
57.37682
 20
37.543623
 30
0.0
 11
57.877057
 21
37.994049
 31
0.0
  0
LINE
  5
9B4C
  8
ALPHA
 10
57.37682
 20
38.543623
 30
0.0
 11
57.877057
 21
38.99405
 31
0.0
  0
LINE
  5
9B4D
  8
ALPHA
 10
57.37682
 20
39.543624
 30
0.0
 11
57.629519
 21
39.771165
 31
0.0
  0
LINE
  5
9B4E
  8
ALPHA
 10
57.877057
 20
36.053428
 30
0.0
 11
57.380933
 21
36.500151
 31
0.0
  0
LINE
  5
9B4F
  8
ALPHA
 10
57.877057
 20
37.053428
 30
0.0
 11
57.380933
 21
37.500151
 31
0.0
  0
LINE
  5
9B50
  8
ALPHA
 10
57.877057
 20
38.053428
 30
0.0
 11
57.380933
 21
38.500151
 31
0.0
  0
LINE
  5
9B51
  8
ALPHA
 10
57.877057
 20
39.053429
 30
0.0
 11
57.380933
 21
39.500151
 31
0.0
  0
LINE
  5
9B52
  8
ALPHA
 10
57.629661
 20
39.773739
 30
0.0
 11
57.129661
 21
40.273739
 31
0.0
  0
LINE
  5
9B53
  8
ALPHA
 10
57.129661
 20
40.273739
 30
0.0
 11
57.129661
 21
48.273739
 31
0.0
  0
LINE
  5
9B54
  8
ALPHA
 10
53.679661
 20
40.273739
 30
0.0
 11
53.679661
 21
49.073739
 31
0.0
  0
LINE
  5
9B55
  8
ALPHA
 10
53.629661
 20
54.373739
 30
0.0
 11
53.629661
 21
45.423693
 31
0.0
  0
LINE
  5
9B56
  8
ALPHA
 10
50.129661
 20
45.423693
 30
0.0
 11
50.129661
 21
54.373739
 31
0.0
  0
LINE
  5
9B57
  8
ALPHA
 10
50.079661
 20
49.073739
 30
0.0
 11
50.079661
 21
40.273739
 31
0.0
  0
LINE
  5
9B58
  8
ALPHA
 10
51.879661
 20
36.748739
 30
0.0
 11
56.33853
 21
36.882072
 31
0.0
  0
LINE
  5
9B59
  8
ALPHA
 10
56.33853
 20
35.932072
 30
0.0
 11
51.879661
 21
35.798739
 31
0.0
  0
LINE
  5
9B5A
  8
ALPHA
 10
53.629661
 20
45.423693
 30
0.0
 11
50.129661
 21
45.423693
 31
0.0
  0
LINE
  5
9B5B
  8
ALPHA
 10
55.378217
 20
39.358319
 30
0.0
 11
57.371813
 21
39.504992
 31
0.0
  0
LINE
  5
9B5C
  8
ALPHA
 10
55.37645
 20
39.408248
 30
0.0
 11
57.36117
 21
39.545449
 31
0.0
  0
LINE
  5
9B5D
  8
ALPHA
 10
57.356096
 20
34.534
 30
0.0
 11
57.357826
 21
34.545075
 31
0.0
  0
LINE
  5
9B5E
  8
ALPHA
 10
57.361884
 20
35.545297
 30
0.0
 11
57.369717
 21
35.551374
 31
0.0
  0
LINE
  5
9B5F
  8
ALPHA
 10
55.966958
 20
36.382072
 30
0.0
 11
57.379653
 21
36.498739
 31
0.0
  0
LINE
  5
9B60
  8
ALPHA
 10
55.966958
 20
36.432072
 30
0.0
 11
57.376434
 21
36.544125
 31
0.0
  0
LINE
  5
9B61
  8
ALPHA
 10
57.374214
 20
37.54185
 30
0.0
 11
57.372264
 21
37.544246
 31
0.0
  0
LINE
  5
9B62
  8
ALPHA
 10
57.357823
 20
38.534551
 30
0.0
 11
57.358309
 21
38.543382
 31
0.0
  0
LINE
  5
9B63
  8
ALPHA
 10
57.36117
 20
39.545449
 30
0.0
 11
57.368889
 21
39.551813
 31
0.0
  0
LINE
  5
9B64
  8
ALPHA
 10
57.379661
 20
39.498739
 30
0.0
 11
57.379661
 21
39.548739
 31
0.0
  0
LINE
  5
9B65
  8
ALPHA
 10
57.379661
 20
38.498739
 30
0.0
 11
57.379661
 21
38.548739
 31
0.0
  0
LINE
  5
9B66
  8
ALPHA
 10
57.379661
 20
37.498738
 30
0.0
 11
57.379661
 21
37.548738
 31
0.0
  0
LINE
  5
9B67
  8
ALPHA
 10
57.379661
 20
36.498738
 30
0.0
 11
57.379661
 21
36.548738
 31
0.0
  0
LINE
  5
9B68
  8
ALPHA
 10
57.379661
 20
35.498739
 30
0.0
 11
57.379661
 21
35.548739
 31
0.0
  0
LINE
  5
9B69
  8
ALPHA
 10
57.379661
 20
34.498739
 30
0.0
 11
57.379661
 21
34.548739
 31
0.0
  0
ARC
  5
9B6A
  8
ALPHA
 10
53.354661
 20
46.756692
 30
0.0
 40
0.2
 50
286.811008
 51
0.0
  0
ARC
  5
9B6B
  8
ALPHA
 10
53.354661
 20
56.520785
 30
0.0
 40
0.2
 50
0.0
 51
73.188992
  0
LINE
  5
9B6C
  8
ALPHA
 10
53.412504
 20
56.712238
 30
0.0
 11
53.412504
 21
46.56524
 31
0.0
  0
LINE
  5
9B6D
  8
ALPHA
 10
50.346818
 20
46.56524
 30
0.0
 11
50.346818
 21
56.712238
 31
0.0
  0
LINE
  5
9B6E
  8
ALPHA
 10
50.204661
 20
46.756719
 30
0.0
 11
50.204661
 21
56.520758
 31
0.0
  0
ARC
  5
9B6F
  8
ALPHA
 10
51.879661
 20
51.638739
 30
0.0
 40
5.3
 50
253.188994
 51
286.811006
  0
ARC
  5
9B70
  8
ALPHA
 10
50.404661
 20
46.756692
 30
0.0
 40
0.2
 50
180.0
 51
253.188992
  0
LINE
  5
9B71
  8
ALPHA
 10
50.129661
 20
50.283739
 30
0.0
 11
50.204661
 21
50.283739
 31
0.0
  0
ARC
  5
9B72
  8
ALPHA
 10
51.879661
 20
51.638739
 30
0.0
 40
5.3
 50
73.188994
 51
106.811006
  0
ARC
  5
9B73
  8
ALPHA
 10
50.404661
 20
56.520785
 30
0.0
 40
0.2
 50
106.811008
 51
180.0
  0
LINE
  5
9B74
  8
ALPHA
 10
50.129661
 20
53.063739
 30
0.0
 11
50.204661
 21
53.063739
 31
0.0
  0
POLYLINE
  5
9B75
  8
ALPHA
 66
     1
 10
0.0
 20
0.0
 30
0.0
 70
   128
210
0.0
220
0.0
230
-1.0
  0
VERTEX
  5
9FEB
  8
ALPHA
 10
-55.379661
 20
49.798739
 30
0.0
  0
VERTEX
  5
9FEC
  8
ALPHA
 10
-55.124884
 20
50.72159
 30
0.0
  0
VERTEX
  5
9FED
  8
ALPHA
 10
-55.02987
 20
51.673739
 30
0.0
  0
VERTEX
  5
9FEE
  8
ALPHA
 10
-55.124884
 20
52.625887
 30
0.0
  0
VERTEX
  5
9FEF
  8
ALPHA
 10
-55.379661
 20
53.548739
 30
0.0
  0
SEQEND
  5
9FF0
  8
ALPHA
  0
LINE
  5
9B76
  8
ALPHA
 10
53.554661
 20
56.520758
 30
0.0
 11
53.554661
 21
46.756719
 31
0.0
  0
LINE
  5
9B77
  8
ALPHA
 10
53.679661
 20
49.073739
 30
0.0
 11
56.329459
 21
49.073739
 31
0.0
  0
LINE
  5
9B78
  8
ALPHA
 10
53.679661
 20
48.273739
 30
0.0
 11
57.129661
 21
48.273739
 31
0.0
  0
LINE
  5
9B79
  8
ALPHA
 10
53.554661
 20
50.283739
 30
0.0
 11
53.629661
 21
50.283739
 31
0.0
  0
LINE
  5
9B7A
  8
ALPHA
 10
55.379661
 20
49.798739
 30
0.0
 11
55.379661
 21
49.073739
 31
0.0
  0
LINE
  5
9B7B
  8
ALPHA
 10
57.129661
 20
48.273739
 30
0.0
 11
56.329661
 21
49.073739
 31
0.0
  0
LINE
  5
9B7C
  8
ALPHA
 10
53.629661
 20
54.373739
 30
0.0
 11
55.179573
 21
54.373739
 31
0.0
  0
LINE
  5
9B7D
  8
ALPHA
 10
55.379661
 20
54.173739
 30
0.0
 11
53.629661
 21
54.173739
 31
0.0
  0
LINE
  5
9B7E
  8
ALPHA
 10
53.554661
 20
53.063739
 30
0.0
 11
53.629661
 21
53.063739
 31
0.0
  0
LINE
  5
9B7F
  8
ALPHA
 10
55.179661
 20
54.373739
 30
0.0
 11
55.379661
 21
54.173739
 31
0.0
  0
LINE
  5
9B80
  8
ALPHA
 10
55.379661
 20
54.173739
 30
0.0
 11
55.379661
 21
53.548739
 31
0.0
  0
LINE
  5
9B81
  8
ALPHA
 10
57.863852
 20
38.038405
 30
0.0
 11
57.787913
 21
38.02087
 31
0.0
  0
LINE
  5
9B82
  8
ALPHA
 10
57.867642
 20
38.039841
 30
0.0
 11
57.863852
 21
38.038405
 31
0.0
  0
LINE
  5
9B83
  8
ALPHA
 10
57.879647
 20
38.04874
 30
0.0
 11
57.867642
 21
38.039841
 31
0.0
  0
LINE
  5
9B84
  8
ALPHA
 10
57.863812
 20
37.038124
 30
0.0
 11
57.789329
 21
37.021086
 31
0.0
  0
LINE
  5
9B85
  8
ALPHA
 10
57.867626
 20
37.039554
 30
0.0
 11
57.863812
 21
37.038124
 31
0.0
  0
LINE
  5
9B86
  8
ALPHA
 10
57.879661
 20
37.048738
 30
0.0
 11
57.867626
 21
37.039554
 31
0.0
  0
LINE
  5
9B87
  8
ALPHA
 10
57.878389
 20
36.041842
 30
0.0
 11
57.869115
 21
36.034207
 31
0.0
  0
LINE
  5
9B88
  8
ALPHA
 10
57.876646
 20
36.046052
 30
0.0
 11
57.878389
 21
36.041842
 31
0.0
  0
LINE
  5
9B89
  8
ALPHA
 10
57.864146
 20
35.037974
 30
0.0
 11
57.78591
 21
35.020567
 31
0.0
  0
LINE
  5
9B8A
  8
ALPHA
 10
57.867962
 20
35.039405
 30
0.0
 11
57.864146
 21
35.037974
 31
0.0
  0
LINE
  5
9B8B
  8
ALPHA
 10
57.879634
 20
35.048736
 30
0.0
 11
57.867962
 21
35.039405
 31
0.0
  0
LINE
  5
9B8C
  8
ALPHA
 10
57.867673
 20
39.039615
 30
0.0
 11
57.879661
 21
39.048739
 31
0.0
  0
LINE
  5
9B8D
  8
ALPHA
 10
57.863866
 20
39.038184
 30
0.0
 11
57.867673
 21
39.039615
 31
0.0
  0
LINE
  5
9B8E
  8
ALPHA
 10
57.788506
 20
39.020961
 30
0.0
 11
57.863866
 21
39.038184
 31
0.0
  0
LINE
  5
9B8F
  8
ALPHA
 10
57.879661
 20
39.048739
 30
0.0
 11
57.877057
 21
39.053429
 31
0.0
  0
LINE
  5
9B90
  8
ALPHA
 10
57.877057
 20
38.053428
 30
0.0
 11
57.879661
 21
38.048739
 31
0.0
  0
LINE
  5
9B91
  8
ALPHA
 10
57.877057
 20
37.053428
 30
0.0
 11
57.879661
 21
37.048738
 31
0.0
  0
LINE
  5
9B92
  8
ALPHA
 10
57.877057
 20
36.053428
 30
0.0
 11
57.879661
 21
36.048738
 31
0.0
  0
LINE
  5
9B93
  8
ALPHA
 10
57.877057
 20
35.053429
 30
0.0
 11
57.879661
 21
35.048739
 31
0.0
  0
LINE
  5
9B94
  8
ALPHA
 10
57.629661
 20
39.773739
 30
0.0
 11
57.629519
 21
39.771165
 31
0.0
  0
LINE
  5
9B95
  8
ALPHA
 10
57.879661
 20
35.048739
 30
0.0
 11
57.879661
 21
34.998739
 31
0.0
  0
LINE
  5
9B96
  8
ALPHA
 10
57.879661
 20
36.048738
 30
0.0
 11
57.879661
 21
35.998739
 31
0.0
  0
LINE
  5
9B97
  8
ALPHA
 10
57.879661
 20
37.048738
 30
0.0
 11
57.879661
 21
36.998738
 31
0.0
  0
LINE
  5
9B98
  8
ALPHA
 10
57.879661
 20
38.048739
 30
0.0
 11
57.879661
 21
37.998738
 31
0.0
  0
LINE
  5
9B99
  8
ALPHA
 10
57.879661
 20
39.048739
 30
0.0
 11
57.879661
 21
38.998739
 31
0.0
  0
LINE
  5
9B9A
  8
ALPHA
 10
57.877057
 20
35.99405
 30
0.0
 11
57.879661
 21
35.998739
 31
0.0
  0
LINE
  5
9B9B
  8
ALPHA
 10
57.877057
 20
36.994049
 30
0.0
 11
57.879661
 21
36.998738
 31
0.0
  0
LINE
  5
9B9C
  8
ALPHA
 10
57.877057
 20
34.994049
 30
0.0
 11
57.879661
 21
34.99874
 31
0.0
  0
LINE
  5
9B9D
  8
ALPHA
 10
57.877057
 20
37.994049
 30
0.0
 11
57.879661
 21
37.998738
 31
0.0
  0
LINE
  5
9B9E
  8
ALPHA
 10
57.879661
 20
38.998739
 30
0.0
 11
57.877057
 21
38.99405
 31
0.0
  0
VIEWPORT
  5
494D
 67
     1
  8
0
 10
4.995325
 20
6.556512
 30
0.0
 40
22.70986
 41
13.988421
 68
    -1
 69
     1
1001
ACAD
1000
MVIEW
1002
{
1070
    16
1010
0.0
1020
0.0
1030
0.0
1010
0.0
1020
0.0
1030
1.0
1040
0.0
1040
13.988421
1040
4.995325
1040
6.556512
1040
50.0
1040
0.0
1040
0.0
1070
     0
1070
   100
1070
     1
1070
     1
1070
     0
1070
     0
1070
     0
1070
     0
1040
0.0
1040
0.0
1040
0.0
1040
10.0
1040
10.0
1040
10.0
1040
10.0
1070
     0
1002
{
1002
}
1002
}
  0
ENDSEC
  0
EOF
