  0
SECTION
  2
HEADER
  9
$ACADVER
  1
AC1009
  9
$INSBASE
 10
402.590624
 20
-1.041018
 30
0.0
  9
$EXTMIN
 10
-7.672906
 20
2.609249
 30
0.0
  9
$EXTMAX
 10
89.545591
 20
73.774249
 30
0.0
  9
$LIMMIN
 10
-407.970438
 20
-367.832444
  9
$LIMMAX
 10
429.804077
 20
234.370848
  9
$ORTHOMODE
 70
     1
  9
$REGENMODE
 70
     1
  9
$FILLMODE
 70
     1
  9
$QTEXTMODE
 70
     0
  9
$MIRRTEXT
 70
     1
  9
$DRAGMODE
 70
     2
  9
$LTSCALE
 40
10.0
  9
$OSMODE
 70
    39
  9
$ATTMODE
 70
     1
  9
$TEXTSIZE
 40
6.0
  9
$TRACEWID
 40
1.0
  9
$TEXTSTYLE
  7
ROMANS
  9
$CLAYER
  8
ALPHA
  9
$CELTYPE
  6
BYLAYER
  9
$CECOLOR
 62
   256
  9
$DIMSCALE
 40
1.0
  9
$DIMASZ
 40
5.0
  9
$DIMEXO
 40
2.0
  9
$DIMDLI
 40
0.38
  9
$DIMRND
 40
0.0
  9
$DIMDLE
 40
0.0
  9
$DIMEXE
 40
2.5
  9
$DIMTP
 40
0.0
  9
$DIMTM
 40
0.0
  9
$DIMTXT
 40
2.5
  9
$DIMCEN
 40
0.0
  9
$DIMTSZ
 40
0.0
  9
$DIMTOL
 70
     0
  9
$DIMLIM
 70
     0
  9
$DIMTIH
 70
     1
  9
$DIMTOH
 70
     1
  9
$DIMSE1
 70
     0
  9
$DIMSE2
 70
     0
  9
$DIMTAD
 70
     1
  9
$DIMZIN
 70
    12
  9
$DIMBLK
  1
OPEN30
  9
$DIMASO
 70
     1
  9
$DIMSHO
 70
     1
  9
$DIMPOST
  1

  9
$DIMAPOST
  1

  9
$DIMALT
 70
     0
  9
$DIMALTD
 70
     2
  9
$DIMALTF
 40
25.4
  9
$DIMLFAC
 40
1.0
  9
$DIMTOFL
 70
     0
  9
$DIMTVP
 40
0.0
  9
$DIMTIX
 70
     0
  9
$DIMSOXD
 70
     0
  9
$DIMSAH
 70
     0
  9
$DIMBLK1
  1

  9
$DIMBLK2
  1

  9
$DIMSTYLE
  2
SC_DEFAUT
  9
$DIMCLRD
 70
     0
  9
$DIMCLRE
 70
     0
  9
$DIMCLRT
 70
     0
  9
$DIMTFAC
 40
1.0
  9
$DIMGAP
 40
2.0
  9
$LUNITS
 70
     2
  9
$LUPREC
 70
     1
  9
$SKETCHINC
 40
0.1
  9
$FILLETRAD
 40
0.0
  9
$AUNITS
 70
     0
  9
$AUPREC
 70
     0
  9
$MENU
  1
acad
  9
$ELEVATION
 40
0.0
  9
$PELEVATION
 40
0.0
  9
$THICKNESS
 40
0.0
  9
$LIMCHECK
 70
     0
  9
$BLIPMODE
 70
     0
  9
$CHAMFERA
 40
0.0
  9
$CHAMFERB
 40
0.0
  9
$SKPOLY
 70
     0
  9
$TDCREATE
 40
2450373.687919
  9
$TDUPDATE
 40
2452996.433292
  9
$TDINDWG
 40
0.877533
  9
$TDUSRTIMER
 40
0.877533
  9
$USRTIMER
 70
     1
  9
$ANGBASE
 50
0.0
  9
$ANGDIR
 70
     0
  9
$PDMODE
 70
    32
  9
$PDSIZE
 40
0.0
  9
$PLINEWID
 40
0.0
  9
$COORDS
 70
     1
  9
$SPLFRAME
 70
     0
  9
$SPLINETYPE
 70
     6
  9
$SPLINESEGS
 70
     8
  9
$ATTDIA
 70
     0
  9
$ATTREQ
 70
     1
  9
$HANDLING
 70
     1
  9
$HANDSEED
  5
A008
  9
$SURFTAB1
 70
     6
  9
$SURFTAB2
 70
     6
  9
$SURFTYPE
 70
     6
  9
$SURFU
 70
     6
  9
$SURFV
 70
     6
  9
$UCSNAME
  2

  9
$UCSORG
 10
0.0
 20
0.0
 30
0.0
  9
$UCSXDIR
 10
1.0
 20
0.0
 30
0.0
  9
$UCSYDIR
 10
0.0
 20
1.0
 30
0.0
  9
$PUCSNAME
  2

  9
$PUCSORG
 10
0.0
 20
0.0
 30
0.0
  9
$PUCSXDIR
 10
1.0
 20
0.0
 30
0.0
  9
$PUCSYDIR
 10
0.0
 20
1.0
 30
0.0
  9
$USERI1
 70
     0
  9
$USERI2
 70
     0
  9
$USERI3
 70
     0
  9
$USERI4
 70
     0
  9
$USERI5
 70
     0
  9
$USERR1
 40
0.0
  9
$USERR2
 40
0.0
  9
$USERR3
 40
0.0
  9
$USERR4
 40
0.0
  9
$USERR5
 40
0.0
  9
$WORLDVIEW
 70
     1
  9
$SHADEDGE
 70
     3
  9
$SHADEDIF
 70
    70
  9
$TILEMODE
 70
     1
  9
$MAXACTVP
 70
    16
  9
$PLIMCHECK
 70
     0
  9
$PEXTMIN
 10
-1.452248
 20
-0.437698
 30
0.0
  9
$PEXTMAX
 10
12.749749
 20
8.310198
 30
0.0
  9
$PLIMMIN
 10
0.0
 20
0.0
  9
$PLIMMAX
 10
12.0
 20
9.0
  9
$UNITMODE
 70
     0
  9
$VISRETAIN
 70
     0
  9
$PLINEGEN
 70
     0
  9
$PSLTSCALE
 70
     0
  0
ENDSEC
  0
SECTION
  2
TABLES
  0
TABLE
  2
VPORT
 70
     2
  0
VPORT
  2
*ACTIVE
 70
     0
 10
0.0
 20
0.0
 11
1.0
 21
1.0
 12
40.957869
 22
38.206362
 13
0.0
 23
0.0
 14
1.0
 24
1.0
 15
10.0
 25
10.0
 16
0.0
 26
0.0
 36
1.0
 17
0.0
 27
0.0
 37
0.0
 40
71.726866
 41
1.466346
 42
50.0
 43
0.0
 44
0.0
 50
0.0
 51
0.0
 71
     0
 72
   100
 73
     1
 74
     0
 75
     0
 76
     0
 77
     0
 78
     0
  0
ENDTAB
  0
TABLE
  2
LTYPE
 70
     2
  0
LTYPE
  2
CONTINUOUS
 70
     0
  3
Solid line
 72
    65
 73
     0
 40
0.0
  0
LTYPE
  2
AXES2
 70
     0
  3
___ _ ___ _ ___ _ ___ _ ___ _ ___ _ ___ _ ___ _
 72
    65
 73
     4
 40
1.125
 49
0.75
 49
-0.125
 49
0.125
 49
-0.125
  0
ENDTAB
  0
TABLE
  2
LAYER
 70
     5
  0
LAYER
  2
0
 70
     0
 62
   255
  6
CONTINUOUS
  0
LAYER
  2
COTATION1
 70
     0
 62
     2
  6
CONTINUOUS
  0
LAYER
  2
AXE
 70
     0
 62
    80
  6
AXES2
  0
LAYER
  2
DEFPOINTS
 70
     0
 62
     7
  6
CONTINUOUS
  0
LAYER
  2
ALPHA
 70
     0
 62
   254
  6
CONTINUOUS
  0
ENDTAB
  0
TABLE
  2
STYLE
 70
     2
  0
STYLE
  2
ROMANS
 70
     0
 40
0.0
 41
1.0
 50
0.0
 71
     0
 42
6.0
  3
romans
  4

  0
STYLE
  2
STANDARD
 70
     0
 40
0.0
 41
1.0
 50
0.0
 71
     0
 42
0.2
  3
txt
  4

  0
ENDTAB
  0
TABLE
  2
VIEW
 70
     0
  0
ENDTAB
  0
TABLE
  2
UCS
 70
     0
  0
ENDTAB
  0
TABLE
  2
APPID
 70
     1
  0
APPID
  2
ACAD
 70
     0
  0
ENDTAB
  0
TABLE
  2
DIMSTYLE
 70
     2
  0
DIMSTYLE
  2
SC_DEFAUT
 70
     0
  3

  4

  5
OPEN30
  6

  7

 40
1.0
 41
5.0
 42
2.0
 43
0.38
 44
2.5
 45
0.0
 46
0.0
 47
0.0
 48
0.0
140
2.5
141
0.0
142
0.0
143
25.4
144
1.0
145
0.0
146
1.0
147
2.0
 71
     0
 72
     0
 73
     1
 74
     1
 75
     0
 76
     0
 77
     1
 78
    12
170
     0
171
     2
172
     0
173
     0
174
     0
175
     0
176
     0
177
     0
178
     0
  0
DIMSTYLE
  2
STANDARD
 70
     0
  3

  4

  5

  6

  7

 40
1.0
 41
0.18
 42
0.0625
 43
0.38
 44
0.18
 45
0.0
 46
0.0
 47
0.0
 48
0.0
140
0.18
141
0.09
142
0.0
143
25.4
144
1.0
145
0.0
146
1.0
147
0.09
 71
     0
 72
     0
 73
     1
 74
     1
 75
     0
 76
     0
 77
     0
 78
     0
170
     0
171
     2
172
     0
173
     0
174
     0
175
     0
176
     0
177
     0
178
     0
  0
ENDTAB
  0
ENDSEC
  0
SECTION
  2
BLOCKS
  0
BLOCK
  8
0
  2
$MODEL_SPACE
 70
     0
 10
0.0
 20
0.0
 30
0.0
  3
$MODEL_SPACE
  1

  0
ENDBLK
  5
9F1B
  8
0
  0
BLOCK
 67
     1
  8
0
  2
$PAPER_SPACE
 70
     0
 10
0.0
 20
0.0
 30
0.0
  3
$PAPER_SPACE
  1

  0
ENDBLK
  5
9F19
 67
     1
  8
0
  0
BLOCK
  8
0
  2
COTE
 70
     0
 10
0.0
 20
0.0
 30
0.0
  3
COTE
  1

  0
ENDBLK
  5
F
  8
0
  0
BLOCK
  8
0
  2
FOND
 70
     0
 10
0.0
 20
0.0
 30
0.0
  3
FOND
  1

  0
ENDBLK
  5
75
  8
0
  0
BLOCK
  8
0
  2
_OPEN30
 70
     0
 10
0.0
 20
0.0
 30
0.0
  3
_OPEN30
  1

  0
LINE
  5
4B05
  8
COTATION1
 62
     0
 10
-1.0
 20
0.267949
 30
0.0
 11
0.0
 21
0.0
 31
0.0
1001
ACAD
1000
RTLwPs
1070
   158
  0
LINE
  5
4B06
  8
COTATION1
 62
     0
 10
0.0
 20
0.0
 30
0.0
 11
-1.0
 21
-0.267949
 31
0.0
1001
ACAD
1000
RTLwPs
1070
   158
  0
LINE
  5
4B07
  8
COTATION1
 62
     0
 10
0.0
 20
0.0
 30
0.0
 11
-1.0
 21
0.0
 31
0.0
1001
ACAD
1000
RTLwPs
1070
   158
  0
ENDBLK
  5
4B09
  8
0
  0
BLOCK
  8
0
  2
*D3
 70
     1
 10
0.0
 20
0.0
 30
0.0
  3
*D3
  1

  0
LINE
  5
9D6D
  8
COTATION1
 62
     0
 10
38.023255
 20
33.911826
 30
0.0
 11
38.023255
 21
71.774249
 31
0.0
1001
ACAD
1000
RTLwPs
1070
   158
  0
LINE
  5
9D6E
  8
COTATION1
 62
     0
 10
65.736068
 20
33.911826
 30
0.0
 11
65.736068
 21
71.774249
 31
0.0
1001
ACAD
1000
RTLwPs
1070
   158
  0
LINE
  5
9D6F
  8
COTATION1
 62
     0
 10
43.023255
 20
69.274249
 30
0.0
 11
60.736068
 21
69.274249
 31
0.0
1001
ACAD
1000
RTLwPs
1070
   158
  0
INSERT
  5
9D70
  8
COTATION1
 62
     0
  2
_OPEN30
 10
38.023255
 20
69.274249
 30
0.0
 41
5.0
 42
5.0
 43
5.0
 50
180.0
1001
ACAD
1000
RTLwPs
1070
   158
  0
INSERT
  5
9D71
  8
COTATION1
 62
     0
  2
_OPEN30
 10
65.736068
 20
69.274249
 30
0.0
 41
5.0
 42
5.0
 43
5.0
1001
ACAD
1000
RTLwPs
1070
   158
  0
TEXT
  5
9D72
  8
COTATION1
 62
     0
 10
47.712994
 20
71.274249
 30
0.0
 40
2.5
  1
27.7
1001
ACAD
1000
MTEXTBEGIN
1070
    73
1070
     1
1070
    44
1040
1.0
1070
    74
1070
     0
1000
MTEXTEND
  0
POINT
  5
9D73
  8
DEFPOINTS
 62
     0
 10
38.023255
 20
31.911826
 30
0.0
  0
POINT
  5
9D74
  8
DEFPOINTS
 62
     0
 10
65.736068
 20
31.911826
 30
0.0
  0
POINT
  5
9D75
  8
DEFPOINTS
 62
     0
 10
65.736068
 20
69.274249
 30
0.0
  0
ENDBLK
  5
7F3E
  8
0
  0
BLOCK
  8
0
  2
*D4
 70
     1
 10
0.0
 20
0.0
 30
0.0
  3
*D4
  1

  0
LINE
  5
9D63
  8
COTATION1
 62
     0
 10
48.404661
 20
59.274249
 30
0.0
 11
25.737846
 21
59.274249
 31
0.0
1001
ACAD
1000
RTLwPs
1070
   158
  0
LINE
  5
9D64
  8
COTATION1
 62
     0
 10
41.879661
 20
20.909249
 30
0.0
 11
25.737846
 21
20.909249
 31
0.0
1001
ACAD
1000
RTLwPs
1070
   158
  0
LINE
  5
9D65
  8
COTATION1
 62
     0
 10
28.237846
 20
54.274249
 30
0.0
 11
28.237846
 21
43.341749
 31
0.0
1001
ACAD
1000
RTLwPs
1070
   158
  0
LINE
  5
9D66
  8
COTATION1
 62
     0
 10
28.237846
 20
25.909249
 30
0.0
 11
28.237846
 21
36.841749
 31
0.0
1001
ACAD
1000
RTLwPs
1070
   158
  0
INSERT
  5
9D67
  8
COTATION1
 62
     0
  2
_OPEN30
 10
28.237846
 20
59.274249
 30
0.0
 41
5.0
 42
5.0
 43
5.0
 50
90.0
1001
ACAD
1000
RTLwPs
1070
   158
  0
INSERT
  5
9D68
  8
COTATION1
 62
     0
  2
_OPEN30
 10
28.237846
 20
20.909249
 30
0.0
 41
5.0
 42
5.0
 43
5.0
 50
270.0
1001
ACAD
1000
RTLwPs
1070
   158
  0
TEXT
  5
9D69
  8
COTATION1
 62
     0
 10
24.011655
 20
38.841749
 30
0.0
 40
2.5
  1
38.4
1001
ACAD
1000
MTEXTBEGIN
1070
    73
1070
     1
1070
    44
1040
1.0
1070
    74
1070
     0
1000
MTEXTEND
  0
POINT
  5
9D6A
  8
DEFPOINTS
 62
     0
 10
50.404661
 20
59.274249
 30
0.0
  0
POINT
  5
9D6B
  8
DEFPOINTS
 62
     0
 10
43.879661
 20
20.909249
 30
0.0
  0
POINT
  5
9D6C
  8
DEFPOINTS
 62
     0
 10
28.237846
 20
20.909249
 30
0.0
  0
ENDBLK
  5
7F4B
  8
0
  0
BLOCK
  8
0
  2
*D5
 70
     1
 10
0.0
 20
0.0
 30
0.0
  3
*D5
  1

  0
LINE
  5
9D80
  8
COTATION1
 62
     0
 10
55.354661
 20
59.274249
 30
0.0
 11
88.236068
 21
59.274249
 31
0.0
1001
ACAD
1000
RTLwPs
1070
   158
  0
LINE
  5
9D81
  8
COTATION1
 62
     0
 10
59.729661
 20
12.609249
 30
0.0
 11
88.236068
 21
12.609249
 31
0.0
1001
ACAD
1000
RTLwPs
1070
   158
  0
LINE
  5
9D82
  8
COTATION1
 62
     0
 10
85.736068
 20
54.274249
 30
0.0
 11
85.736068
 21
39.191749
 31
0.0
1001
ACAD
1000
RTLwPs
1070
   158
  0
LINE
  5
9D83
  8
COTATION1
 62
     0
 10
85.736068
 20
17.609249
 30
0.0
 11
85.736068
 21
32.691749
 31
0.0
1001
ACAD
1000
RTLwPs
1070
   158
  0
TEXT
  5
9D84
  8
COTATION1
 62
     0
 10
81.569401
 20
34.691749
 30
0.0
 40
2.5
  1
46.7
1001
ACAD
1000
MTEXTBEGIN
1070
    73
1070
     1
1070
    44
1040
1.0
1070
    74
1070
     0
1000
MTEXTEND
  0
INSERT
  5
9D85
  8
COTATION1
 62
     0
  2
_OPEN30
 10
85.736068
 20
59.274249
 30
0.0
 41
5.0
 42
5.0
 43
5.0
 50
90.0
1001
ACAD
1000
RTLwPs
1070
   158
  0
INSERT
  5
9D86
  8
COTATION1
 62
     0
  2
_OPEN30
 10
85.736068
 20
12.609249
 30
0.0
 41
5.0
 42
5.0
 43
5.0
 50
270.0
1001
ACAD
1000
RTLwPs
1070
   158
  0
POINT
  5
9D87
  8
DEFPOINTS
 62
     0
 10
53.354661
 20
59.274249
 30
0.0
  0
POINT
  5
9D88
  8
DEFPOINTS
 62
     0
 10
57.729661
 20
12.609249
 30
0.0
  0
POINT
  5
9D89
  8
DEFPOINTS
 62
     0
 10
85.736068
 20
12.609249
 30
0.0
  0
ENDBLK
  5
8EB4
  8
0
  0
ENDSEC
  0
SECTION
  2
ENTITIES
  0
INSERT
  5
A
  8
0
  2
COTE
 10
0.0
 20
0.0
 30
0.0
  0
INSERT
  5
17
  8
0
  2
COTE
 10
284.010391
 20
6.373258
 30
0.0
  0
INSERT
  5
72
  8
0
  2
FOND
 10
0.0
 20
0.0
 30
0.0
  0
DIMENSION
  5
7F30
  8
COTATION1
  2
*D3
 10
65.736068
 20
69.274249
 30
0.0
 11
51.879661
 21
72.524249
 31
0.0
 13
38.023255
 23
31.911826
 33
0.0
 14
65.736068
 24
31.911826
 34
0.0
  0
DIMENSION
  5
7F31
  8
COTATION1
  2
*D4
 10
28.237846
 20
20.909249
 30
0.0
 11
28.237846
 21
40.091749
 31
0.0
 13
50.404661
 23
59.274249
 33
0.0
 14
43.879661
 24
20.909249
 34
0.0
 50
90.0
  0
LINE
  5
8AD3
  8
AXE
 10
51.879661
 20
2.609249
 30
0.0
 11
51.879661
 21
64.274249
 31
0.0
  0
TEXT
  5
8AD4
  8
AXE
 10
46.832042
 20
2.609249
 30
0.0
 40
5.0
  1
Y
 72
     2
 11
50.879661
 21
2.609249
 31
0.0
  0
LINE
  5
8AD5
  8
AXE
 10
38.879661
 20
19.854249
 30
0.0
 11
75.736068
 21
19.854249
 31
0.0
  0
TEXT
  5
8AD6
  8
AXE
 10
71.688449
 20
20.854249
 30
0.0
 40
5.0
  1
X
 72
     2
 11
75.736068
 21
20.854249
 31
0.0
  0
LINE
  5
8B73
  8
COTATION1
 10
5.577094
 20
23.409249
 30
0.0
 11
5.577094
 21
48.368171
 31
0.0
  0
LINE
  5
8B74
  8
COTATION1
 10
-2.523259
 20
20.909249
 30
0.0
 11
42.879661
 21
20.909249
 31
0.0
  0
SOLID
  5
8B75
  8
COTATION1
 10
7.020469
 20
20.909249
 30
0.0
 11
4.133718
 21
20.909249
 31
0.0
 12
5.577094
 22
23.409249
 32
0.0
 13
5.577094
 23
23.409249
 33
0.0
  0
LINE
  5
8B76
  8
COTATION1
 10
-7.672906
 20
53.368171
 30
0.0
 11
18.827094
 21
53.368171
 31
0.0
  0
LINE
  5
8B77
  8
COTATION1
 10
18.827094
 20
48.368171
 30
0.0
 11
-7.672906
 21
48.368171
 31
0.0
  0
TEXT
  5
8B78
  8
COTATION1
 10
-6.422906
 20
49.618171
 30
0.0
 40
2.5
  1
PLANE_TO_LINE_UP
 41
0.626087
  7
STANDARD
 72
     5
 11
17.577094
 21
49.618171
 31
0.0
  0
LINE
  5
8B79
  8
COTATION1
 10
18.827094
 20
53.368171
 30
0.0
 11
18.827094
 21
48.368171
 31
0.0
  0
LINE
  5
8B7A
  8
COTATION1
 10
-7.672906
 20
48.368171
 30
0.0
 11
-7.672906
 21
53.368171
 31
0.0
  0
DIMENSION
  5
8EA7
  8
COTATION1
  2
*D5
 10
85.736068
 20
12.609249
 30
0.0
 11
85.736068
 21
35.941749
 31
0.0
 70
   128
 13
53.354661
 23
59.274249
 33
0.0
 14
57.729661
 24
12.609249
 34
0.0
 50
90.0
  0
LINE
  5
9956
  8
ALPHA
 10
65.736068
 20
29.406672
 30
0.0
 11
65.736068
 21
31.911826
 31
0.0
  0
LINE
  5
9957
  8
ALPHA
 10
58.807864
 20
29.406672
 30
0.0
 11
58.807864
 21
31.911826
 31
0.0
  0
LINE
  5
9958
  8
ALPHA
 10
44.951458
 20
29.406672
 30
0.0
 11
44.951458
 21
31.911826
 31
0.0
  0
LINE
  5
9959
  8
ALPHA
 10
38.023255
 20
29.406672
 30
0.0
 11
38.023255
 21
31.911826
 31
0.0
  0
LINE
  5
995C
  8
ALPHA
 10
42.990321
 20
24.659232
 30
0.0
 11
51.879514
 21
24.884246
 31
0.0
  0
LINE
  5
995D
  8
ALPHA
 10
60.768988
 20
24.159264
 30
0.0
 11
42.879904
 21
23.688284
 31
0.0
  0
LINE
  5
995E
  8
ALPHA
 10
42.98918
 20
23.659102
 30
0.0
 11
60.879416
 21
24.130211
 31
0.0
  0
LINE
  5
995F
  8
ALPHA
 10
50.570002
 20
28.409334
 30
0.0
 11
51.879187
 21
28.43424
 31
0.0
  0
LINE
  5
9960
  8
ALPHA
 10
60.769895
 20
23.159366
 30
0.0
 11
42.879907
 21
22.688286
 31
0.0
  0
LINE
  5
9961
  8
ALPHA
 10
43.489555
 20
23.138836
 30
0.0
 11
60.257507
 21
23.625978
 31
0.0
  0
LINE
  5
9962
  8
ALPHA
 10
43.485998
 20
24.137022
 30
0.0
 11
60.275396
 21
24.629794
 31
0.0
  0
LINE
  5
9963
  8
ALPHA
 10
43.480612
 20
23.183521
 30
0.0
 11
60.258537
 21
23.672959
 31
0.0
  0
LINE
  5
9964
  8
ALPHA
 10
43.483926
 20
24.188704
 30
0.0
 11
60.273324
 21
24.681476
 31
0.0
  0
POLYLINE
  5
9965
  8
ALPHA
 66
     1
 10
0.0
 20
0.0
 30
0.0
 70
   128
  0
VERTEX
  5
9F21
  8
ALPHA
 10
51.879661
 20
22.884249
 30
0.0
  0
VERTEX
  5
9F22
  8
ALPHA
 10
50.247943
 20
22.774975
 30
0.0
  0
VERTEX
  5
9F23
  8
ALPHA
 10
48.648562
 20
22.434249
 30
0.0
  0
SEQEND
  5
9F24
  8
ALPHA
  0
POLYLINE
  5
9966
  8
ALPHA
 66
     1
 10
0.0
 20
0.0
 30
0.0
 70
   128
210
0.0
220
0.0
230
-1.0
  0
VERTEX
  5
9F25
  8
ALPHA
 10
-51.879661
 20
21.934249
 30
0.0
  0
VERTEX
  5
9F26
  8
ALPHA
 10
-50.247943
 20
22.043523
 30
0.0
  0
VERTEX
  5
9F27
  8
ALPHA
 10
-48.648562
 20
22.384249
 30
0.0
  0
SEQEND
  5
9F28
  8
ALPHA
  0
LINE
  5
9967
  8
ALPHA
 10
42.990321
 20
28.659232
 30
0.0
 11
51.879514
 21
28.884246
 31
0.0
  0
POLYLINE
  5
9968
  8
ALPHA
 66
     1
 10
0.0
 20
0.0
 30
0.0
 70
   128
210
0.0
220
0.0
230
-1.0
  0
VERTEX
  5
9F29
  8
ALPHA
 10
-44.951458
 20
27.911826
 30
0.0
  0
VERTEX
  5
9F2A
  8
ALPHA
 10
-48.407316
 20
28.277111
 30
0.0
  0
VERTEX
  5
9F2B
  8
ALPHA
 10
-51.879661
 20
28.409249
 30
0.0
  0
SEQEND
  5
9F2C
  8
ALPHA
  0
POLYLINE
  5
9969
  8
ALPHA
 66
     1
 10
0.0
 20
0.0
 30
0.0
 70
   128
  0
VERTEX
  5
9F2D
  8
ALPHA
 10
44.951458
 20
25.406672
 30
0.0
  0
VERTEX
  5
9F2E
  8
ALPHA
 10
48.407316
 20
25.041387
 30
0.0
  0
VERTEX
  5
9F2F
  8
ALPHA
 10
51.879661
 20
24.909249
 30
0.0
  0
SEQEND
  5
9F30
  8
ALPHA
  0
POLYLINE
  5
996A
  8
ALPHA
 66
     1
 10
0.0
 20
0.0
 30
0.0
 70
   128
  0
VERTEX
  5
9F31
  8
ALPHA
 10
44.951458
 20
29.406672
 30
0.0
  0
VERTEX
  5
9F32
  8
ALPHA
 10
48.407316
 20
29.041387
 30
0.0
  0
VERTEX
  5
9F33
  8
ALPHA
 10
51.879661
 20
28.909249
 30
0.0
  0
SEQEND
  5
9F34
  8
ALPHA
  0
LINE
  5
996B
  8
ALPHA
 10
39.879661
 20
28.909249
 30
0.0
 11
63.879661
 21
28.909249
 31
0.0
  0
LINE
  5
996C
  8
ALPHA
 10
39.879661
 20
28.409249
 30
0.0
 11
63.879661
 21
28.409249
 31
0.0
  0
LINE
  5
996D
  8
ALPHA
 10
39.879661
 20
24.909249
 30
0.0
 11
63.879661
 21
24.909249
 31
0.0
  0
LINE
  5
996E
  8
ALPHA
 10
51.879661
 20
22.434249
 30
0.0
 11
48.648562
 21
22.434249
 31
0.0
  0
LINE
  5
996F
  8
ALPHA
 10
51.879661
 20
22.384249
 30
0.0
 11
48.648562
 21
22.384249
 31
0.0
  0
LINE
  5
9970
  8
ALPHA
 10
60.879661
 20
21.909249
 30
0.0
 11
42.879661
 21
21.909249
 31
0.0
  0
LINE
  5
9971
  8
ALPHA
 10
59.879661
 20
20.909249
 30
0.0
 11
43.879661
 21
20.909249
 31
0.0
  0
LINE
  5
9972
  8
ALPHA
 10
51.452095
 20
18.909249
 30
0.0
 11
58.604213
 21
18.909249
 31
0.0
  0
LINE
  5
9973
  8
ALPHA
 10
45.529754
 20
17.459249
 30
0.0
 11
58.229637
 21
17.459249
 31
0.0
  0
LINE
  5
9974
  8
ALPHA
 10
58.229637
 20
16.309249
 30
0.0
 11
45.529754
 21
16.309249
 31
0.0
  0
LINE
  5
9975
  8
ALPHA
 10
45.879661
 20
16.109249
 30
0.0
 11
57.879661
 21
16.109249
 31
0.0
  0
LINE
  5
9976
  8
ALPHA
 10
45.529754
 20
15.109249
 30
0.0
 11
58.229637
 21
15.109249
 31
0.0
  0
LINE
  5
9977
  8
ALPHA
 10
51.25799
 20
13.109249
 30
0.0
 11
58.229661
 21
13.109249
 31
0.0
  0
LINE
  5
9978
  8
ALPHA
 10
46.029661
 20
12.609249
 30
0.0
 11
57.729661
 21
12.609249
 31
0.0
  0
POLYLINE
  5
9979
  8
ALPHA
 66
     1
 10
0.0
 20
0.0
 30
0.0
 70
   128
  0
VERTEX
  5
9F35
  8
ALPHA
 10
50.471716
 20
24.909249
 30
0.0
  0
VERTEX
  5
9F36
  8
ALPHA
 10
46.67388
 20
24.836075
 30
0.0
  0
VERTEX
  5
9F37
  8
ALPHA
 10
42.879906
 20
24.688287
 30
0.0
  0
SEQEND
  5
9F38
  8
ALPHA
  0
POLYLINE
  5
997A
  8
ALPHA
 66
     1
 10
0.0
 20
0.0
 30
0.0
 70
   128
  0
VERTEX
  5
9F39
  8
ALPHA
 10
50.471716
 20
28.909249
 30
0.0
  0
VERTEX
  5
9F3A
  8
ALPHA
 10
46.67388
 20
28.836075
 30
0.0
  0
VERTEX
  5
9F3B
  8
ALPHA
 10
42.879906
 20
28.688287
 30
0.0
  0
SEQEND
  5
9F3C
  8
ALPHA
  0
LINE
  5
997B
  8
ALPHA
 10
43.48234
 20
23.138268
 30
0.0
 11
42.882162
 21
22.688
 31
0.0
  0
LINE
  5
997C
  8
ALPHA
 10
43.48234
 20
24.138269
 30
0.0
 11
42.882162
 21
23.688001
 31
0.0
  0
LINE
  5
997D
  8
ALPHA
 10
42.882162
 20
23.630496
 30
0.0
 11
43.48234
 21
23.180228
 31
0.0
  0
LINE
  5
997E
  8
ALPHA
 10
42.882162
 20
24.630497
 30
0.0
 11
43.48234
 21
24.180229
 31
0.0
  0
POLYLINE
  5
997F
  8
ALPHA
 66
     1
 10
0.0
 20
0.0
 30
0.0
 70
   128
  0
VERTEX
  5
9F3D
  8
ALPHA
 10
41.487356
 20
24.909249
 30
0.0
  0
VERTEX
  5
9F3E
  8
ALPHA
 10
43.23559
 20
25.043185
 30
0.0
  0
VERTEX
  5
9F3F
  8
ALPHA
 10
44.951458
 20
25.406672
 30
0.0
  0
SEQEND
  5
9F40
  8
ALPHA
  0
POLYLINE
  5
9980
  8
ALPHA
 66
     1
 10
0.0
 20
0.0
 30
0.0
 70
   128
210
0.0
220
0.0
230
-1.0
  0
VERTEX
  5
9F41
  8
ALPHA
 10
-41.487356
 20
28.409249
 30
0.0
  0
VERTEX
  5
9F42
  8
ALPHA
 10
-43.23559
 20
28.275313
 30
0.0
  0
VERTEX
  5
9F43
  8
ALPHA
 10
-44.951458
 20
27.911826
 30
0.0
  0
SEQEND
  5
9F44
  8
ALPHA
  0
POLYLINE
  5
9981
  8
ALPHA
 66
     1
 10
0.0
 20
0.0
 30
0.0
 70
   128
  0
VERTEX
  5
9F45
  8
ALPHA
 10
41.487356
 20
28.909249
 30
0.0
  0
VERTEX
  5
9F46
  8
ALPHA
 10
43.23559
 20
29.043185
 30
0.0
  0
VERTEX
  5
9F47
  8
ALPHA
 10
44.951458
 20
29.406672
 30
0.0
  0
SEQEND
  5
9F48
  8
ALPHA
  0
LINE
  5
9982
  8
ALPHA
 10
42.879661
 20
21.909249
 30
0.0
 11
43.879661
 21
20.909249
 31
0.0
  0
POLYLINE
  5
9983
  8
ALPHA
 66
     1
 10
0.0
 20
0.0
 30
0.0
 70
   128
  0
VERTEX
  5
9F49
  8
ALPHA
 10
38.023255
 20
25.406672
 30
0.0
  0
VERTEX
  5
9F4A
  8
ALPHA
 10
39.739122
 20
25.043185
 30
0.0
  0
VERTEX
  5
9F4B
  8
ALPHA
 10
41.487356
 20
24.909249
 30
0.0
  0
SEQEND
  5
9F4C
  8
ALPHA
  0
POLYLINE
  5
9984
  8
ALPHA
 66
     1
 10
0.0
 20
0.0
 30
0.0
 70
   128
210
0.0
220
0.0
230
-1.0
  0
VERTEX
  5
9F4D
  8
ALPHA
 10
-38.023255
 20
27.911826
 30
0.0
  0
VERTEX
  5
9F4E
  8
ALPHA
 10
-39.739122
 20
28.275313
 30
0.0
  0
VERTEX
  5
9F4F
  8
ALPHA
 10
-41.487356
 20
28.409249
 30
0.0
  0
SEQEND
  5
9F50
  8
ALPHA
  0
POLYLINE
  5
9985
  8
ALPHA
 66
     1
 10
0.0
 20
0.0
 30
0.0
 70
   128
  0
VERTEX
  5
9F51
  8
ALPHA
 10
38.023255
 20
29.406672
 30
0.0
  0
VERTEX
  5
9F52
  8
ALPHA
 10
39.739122
 20
29.043185
 30
0.0
  0
VERTEX
  5
9F53
  8
ALPHA
 10
41.487356
 20
28.909249
 30
0.0
  0
SEQEND
  5
9F54
  8
ALPHA
  0
LINE
  5
9986
  8
ALPHA
 10
38.023255
 20
27.911826
 30
0.0
 11
39.879661
 21
28.409249
 31
0.0
  0
LINE
  5
9987
  8
ALPHA
 10
39.879661
 20
28.909249
 30
0.0
 11
38.023255
 21
29.406672
 31
0.0
  0
LINE
  5
9988
  8
ALPHA
 10
39.879661
 20
24.909249
 30
0.0
 11
38.023255
 21
25.406672
 31
0.0
  0
LINE
  5
9989
  8
ALPHA
 10
38.023255
 20
25.406672
 30
0.0
 11
38.023255
 21
27.911826
 31
0.0
  0
LINE
  5
998A
  8
ALPHA
 10
42.880177
 20
23.639989
 30
0.0
 11
42.98918
 21
23.659102
 31
0.0
  0
LINE
  5
998B
  8
ALPHA
 10
42.87986
 20
23.637897
 30
0.0
 11
42.880177
 21
23.639989
 31
0.0
  0
LINE
  5
998C
  8
ALPHA
 10
42.879663
 20
23.634621
 30
0.0
 11
42.87986
 21
23.637897
 31
0.0
  0
LINE
  5
998D
  8
ALPHA
 10
42.879661
 20
23.634248
 30
0.0
 11
42.879663
 21
23.634621
 31
0.0
  0
LINE
  5
998E
  8
ALPHA
 10
42.882162
 20
22.688
 30
0.0
 11
42.879661
 21
22.684248
 31
0.0
  0
LINE
  5
998F
  8
ALPHA
 10
42.882162
 20
23.688001
 30
0.0
 11
42.879661
 21
23.684249
 31
0.0
  0
LINE
  5
9990
  8
ALPHA
 10
42.879661
 20
22.684248
 30
0.0
 11
42.879661
 21
21.909249
 31
0.0
  0
LINE
  5
9991
  8
ALPHA
 10
42.879661
 20
23.684249
 30
0.0
 11
42.879661
 21
23.634248
 31
0.0
  0
LINE
  5
9992
  8
ALPHA
 10
42.880147
 20
24.639859
 30
0.0
 11
42.990321
 21
24.659232
 31
0.0
  0
LINE
  5
9993
  8
ALPHA
 10
42.879851
 20
24.637832
 30
0.0
 11
42.880147
 21
24.639859
 31
0.0
  0
LINE
  5
9994
  8
ALPHA
 10
42.879663
 20
24.63462
 30
0.0
 11
42.879851
 21
24.637832
 31
0.0
  0
LINE
  5
9995
  8
ALPHA
 10
42.879661
 20
24.634249
 30
0.0
 11
42.879663
 21
24.63462
 31
0.0
  0
LINE
  5
9996
  8
ALPHA
 10
42.880147
 20
28.639859
 30
0.0
 11
42.990321
 21
28.659232
 31
0.0
  0
LINE
  5
9997
  8
ALPHA
 10
42.879851
 20
28.637832
 30
0.0
 11
42.880147
 21
28.639859
 31
0.0
  0
LINE
  5
9998
  8
ALPHA
 10
42.879663
 20
28.63462
 30
0.0
 11
42.879851
 21
28.637832
 31
0.0
  0
LINE
  5
9999
  8
ALPHA
 10
42.879661
 20
28.634249
 30
0.0
 11
42.879663
 21
28.63462
 31
0.0
  0
LINE
  5
999A
  8
ALPHA
 10
43.177073
 20
24.909249
 30
0.0
 11
42.882162
 21
24.688002
 31
0.0
  0
LINE
  5
999B
  8
ALPHA
 10
43.177073
 20
28.909249
 30
0.0
 11
42.882162
 21
28.688002
 31
0.0
  0
LINE
  5
999C
  8
ALPHA
 10
42.882162
 20
28.630497
 30
0.0
 11
43.177074
 21
28.409249
 31
0.0
  0
LINE
  5
999D
  8
ALPHA
 10
42.882162
 20
24.688002
 30
0.0
 11
42.879661
 21
24.68425
 31
0.0
  0
LINE
  5
999E
  8
ALPHA
 10
42.882162
 20
28.688002
 30
0.0
 11
42.879661
 21
28.68425
 31
0.0
  0
LINE
  5
999F
  8
ALPHA
 10
42.879661
 20
24.68425
 30
0.0
 11
42.879661
 21
24.634249
 31
0.0
  0
LINE
  5
99A0
  8
ALPHA
 10
42.879661
 20
28.68425
 30
0.0
 11
42.879661
 21
28.634249
 31
0.0
  0
LINE
  5
99A1
  8
ALPHA
 10
46.379661
 20
18.909249
 30
0.0
 11
46.379661
 21
17.459249
 31
0.0
  0
LINE
  5
99A2
  8
ALPHA
 10
45.529661
 20
13.109249
 30
0.0
 11
50.844544
 21
13.109249
 31
0.0
  0
ARC
  5
99A3
  8
ALPHA
 10
46.029661
 20
13.109249
 30
0.0
 40
0.5
 50
180.0
 51
270.0
  0
ARC
  5
99A4
  8
ALPHA
 10
45.879661
 20
15.609249
 30
0.0
 40
0.5
 50
90.0
 51
270.0
  0
LINE
  5
99A5
  8
ALPHA
 10
46.279661
 20
16.309249
 30
0.0
 11
46.279661
 21
16.109249
 31
0.0
  0
LINE
  5
99A6
  8
ALPHA
 10
45.529661
 20
15.109249
 30
0.0
 11
45.529661
 21
13.109249
 31
0.0
  0
LINE
  5
99A7
  8
ALPHA
 10
45.529661
 20
17.459249
 30
0.0
 11
45.529661
 21
16.309249
 31
0.0
  0
POLYLINE
  5
99A8
  8
ALPHA
 66
     1
 10
0.0
 20
0.0
 30
0.0
 70
   128
210
0.0
220
0.0
230
-1.0
  0
VERTEX
  5
9F55
  8
ALPHA
 10
-51.25799
 20
13.109249
 30
0.0
  0
VERTEX
  5
9F56
  8
ALPHA
 10
-51.203413
 20
12.954478
 30
0.0
  0
VERTEX
  5
9F57
  8
ALPHA
 10
-51.053388
 20
12.891339
 30
0.0
  0
VERTEX
  5
9F58
  8
ALPHA
 10
-50.90334
 20
12.956298
 30
0.0
  0
VERTEX
  5
9F59
  8
ALPHA
 10
-50.844544
 20
13.109249
 30
0.0
  0
SEQEND
  5
9F5A
  8
ALPHA
  0
LINE
  5
99A9
  8
ALPHA
 10
51.25799
 20
15.109249
 30
0.0
 11
51.25799
 21
13.109249
 31
0.0
  0
LINE
  5
99AA
  8
ALPHA
 10
51.25799
 20
17.459249
 30
0.0
 11
51.25799
 21
16.309249
 31
0.0
  0
LINE
  5
99AB
  8
ALPHA
 10
50.844544
 20
15.109249
 30
0.0
 11
50.844544
 21
13.109249
 31
0.0
  0
LINE
  5
99AC
  8
ALPHA
 10
50.844544
 20
17.459249
 30
0.0
 11
50.844544
 21
16.309249
 31
0.0
  0
LINE
  5
99AD
  8
ALPHA
 10
45.179764
 20
18.909249
 30
0.0
 11
51.444798
 21
18.909249
 31
0.0
  0
LINE
  5
99AE
  8
ALPHA
 10
43.483688
 20
23.13603
 30
0.0
 11
43.489555
 21
23.138836
 31
0.0
  0
LINE
  5
99AF
  8
ALPHA
 10
43.485998
 20
24.137022
 30
0.0
 11
43.483402
 21
24.139239
 31
0.0
  0
LINE
  5
99B0
  8
ALPHA
 10
45.179661
 20
20.909249
 30
0.0
 11
45.179661
 21
18.909249
 31
0.0
  0
LINE
  5
99B1
  8
ALPHA
 10
43.479661
 20
23.184248
 30
0.0
 11
43.479661
 21
23.134248
 31
0.0
  0
LINE
  5
99B2
  8
ALPHA
 10
43.479661
 20
24.184249
 30
0.0
 11
43.479661
 21
24.134249
 31
0.0
  0
LINE
  5
99B3
  8
ALPHA
 10
44.951458
 20
25.406672
 30
0.0
 11
44.951458
 21
27.911826
 31
0.0
  0
LINE
  5
99B4
  8
ALPHA
 10
48.648562
 20
22.434249
 30
0.0
 11
48.648562
 21
22.384249
 31
0.0
  0
LINE
  5
99B5
  8
ALPHA
 10
51.498388
 20
19.109249
 30
0.0
 11
51.444798
 21
18.909249
 31
0.0
  0
LINE
  5
99B6
  8
ALPHA
 10
51.498388
 20
20.909249
 30
0.0
 11
51.498388
 21
19.109249
 31
0.0
  0
LINE
  5
99B7
  8
ALPHA
 10
51.481431
 20
19.045963
 30
0.0
 11
51.481431
 21
18.909249
 31
0.0
  0
LINE
  5
99B8
  8
ALPHA
 10
50.5333
 20
18.941635
 30
0.0
 11
50.5333
 21
18.909249
 31
0.0
  0
LINE
  5
99B9
  8
ALPHA
 10
50.488388
 20
20.909249
 30
0.0
 11
50.488388
 21
19.109249
 31
0.0
  0
LINE
  5
99BA
  8
ALPHA
 10
50.488388
 20
19.109249
 30
0.0
 11
50.541978
 21
18.909249
 31
0.0
  0
LINE
  5
99BB
  8
ALPHA
 10
51.498388
 20
19.109249
 30
0.0
 11
50.488388
 21
19.109249
 31
0.0
  0
POLYLINE
  5
99BC
  8
ALPHA
 66
     1
 10
0.0
 20
0.0
 30
0.0
 70
   128
  0
VERTEX
  5
9F5B
  8
ALPHA
 10
53.18932
 20
28.409164
 30
0.0
  0
VERTEX
  5
9F5C
  8
ALPHA
 10
56.734172
 20
28.482475
 30
0.0
  0
VERTEX
  5
9F5D
  8
ALPHA
 10
60.275396
 20
28.629794
 30
0.0
  0
SEQEND
  5
9F5E
  8
ALPHA
  0
POLYLINE
  5
99BD
  8
ALPHA
 66
     1
 10
0.0
 20
0.0
 30
0.0
 70
   128
  0
VERTEX
  5
9F5F
  8
ALPHA
 10
51.879187
 20
28.43424
 30
0.0
  0
VERTEX
  5
9F60
  8
ALPHA
 10
56.081371
 20
28.517559
 30
0.0
  0
VERTEX
  5
9F61
  8
ALPHA
 10
60.273324
 20
28.681476
 30
0.0
  0
SEQEND
  5
9F62
  8
ALPHA
  0
POLYLINE
  5
99BE
  8
ALPHA
 66
     1
 10
0.0
 20
0.0
 30
0.0
 70
   128
  0
VERTEX
  5
9F63
  8
ALPHA
 10
51.879661
 20
22.884249
 30
0.0
  0
VERTEX
  5
9F64
  8
ALPHA
 10
56.381512
 20
22.967637
 30
0.0
  0
VERTEX
  5
9F65
  8
ALPHA
 10
60.879415
 20
23.13021
 30
0.0
  0
SEQEND
  5
9F66
  8
ALPHA
  0
POLYLINE
  5
99BF
  8
ALPHA
 66
     1
 10
0.0
 20
0.0
 30
0.0
 70
   128
210
0.0
220
0.0
230
-1.0
  0
VERTEX
  5
9F67
  8
ALPHA
 10
-60.879659
 20
22.183876
 30
0.0
  0
VERTEX
  5
9F68
  8
ALPHA
 10
-56.382002
 20
22.017655
 30
0.0
  0
VERTEX
  5
9F69
  8
ALPHA
 10
-51.879661
 20
21.934249
 30
0.0
  0
SEQEND
  5
9F6A
  8
ALPHA
  0
POLYLINE
  5
99C0
  8
ALPHA
 66
     1
 10
0.0
 20
0.0
 30
0.0
 70
   128
  0
VERTEX
  5
9F6B
  8
ALPHA
 10
51.879661
 20
22.434249
 30
0.0
  0
VERTEX
  5
9F6C
  8
ALPHA
 10
56.078058
 20
22.517621
 30
0.0
  0
VERTEX
  5
9F6D
  8
ALPHA
 10
58.176811
 20
22.569851
 30
0.0
  0
VERTEX
  5
9F6E
  8
ALPHA
 10
60.267177
 20
22.690591
 30
0.0
  0
SEQEND
  5
9F6F
  8
ALPHA
  0
POLYLINE
  5
99C1
  8
ALPHA
 66
     1
 10
0.0
 20
0.0
 30
0.0
 70
   128
  0
VERTEX
  5
9F70
  8
ALPHA
 10
51.879661
 20
22.384249
 30
0.0
  0
VERTEX
  5
9F71
  8
ALPHA
 10
56.079648
 20
22.467658
 30
0.0
  0
VERTEX
  5
9F72
  8
ALPHA
 10
58.17918
 20
22.519947
 30
0.0
  0
VERTEX
  5
9F73
  8
ALPHA
 10
60.269452
 20
22.642963
 30
0.0
  0
SEQEND
  5
9F74
  8
ALPHA
  0
POLYLINE
  5
99C2
  8
ALPHA
 66
     1
 10
0.0
 20
0.0
 30
0.0
 70
   128
  0
VERTEX
  5
9F75
  8
ALPHA
 10
58.807864
 20
25.406672
 30
0.0
  0
VERTEX
  5
9F76
  8
ALPHA
 10
60.523732
 20
25.043185
 30
0.0
  0
VERTEX
  5
9F77
  8
ALPHA
 10
62.271966
 20
24.909249
 30
0.0
  0
SEQEND
  5
9F78
  8
ALPHA
  0
POLYLINE
  5
99C3
  8
ALPHA
 66
     1
 10
0.0
 20
0.0
 30
0.0
 70
   128
210
0.0
220
0.0
230
-1.0
  0
VERTEX
  5
9F79
  8
ALPHA
 10
-58.807864
 20
27.911826
 30
0.0
  0
VERTEX
  5
9F7A
  8
ALPHA
 10
-60.523732
 20
28.275313
 30
0.0
  0
VERTEX
  5
9F7B
  8
ALPHA
 10
-62.271966
 20
28.409249
 30
0.0
  0
SEQEND
  5
9F7C
  8
ALPHA
  0
POLYLINE
  5
99C4
  8
ALPHA
 66
     1
 10
0.0
 20
0.0
 30
0.0
 70
   128
  0
VERTEX
  5
9F7D
  8
ALPHA
 10
58.807864
 20
29.406672
 30
0.0
  0
VERTEX
  5
9F7E
  8
ALPHA
 10
60.523732
 20
29.043185
 30
0.0
  0
VERTEX
  5
9F7F
  8
ALPHA
 10
62.271966
 20
28.909249
 30
0.0
  0
SEQEND
  5
9F80
  8
ALPHA
  0
LINE
  5
99C5
  8
ALPHA
 10
57.379661
 20
18.909249
 30
0.0
 11
57.379661
 21
17.459249
 31
0.0
  0
ARC
  5
99C6
  8
ALPHA
 10
57.729661
 20
13.109249
 30
0.0
 40
0.5
 50
270.0
 51
0.0
  0
LINE
  5
99C7
  8
ALPHA
 10
57.479661
 20
16.309249
 30
0.0
 11
57.479661
 21
16.109249
 31
0.0
  0
ARC
  5
99C8
  8
ALPHA
 10
57.879661
 20
15.609249
 30
0.0
 40
0.5
 50
270.0
 51
90.0
  0
LINE
  5
99C9
  8
ALPHA
 10
58.229661
 20
15.109249
 30
0.0
 11
58.229661
 21
13.109249
 31
0.0
  0
LINE
  5
99CA
  8
ALPHA
 10
58.229661
 20
17.459249
 30
0.0
 11
58.229661
 21
16.309249
 31
0.0
  0
POLYLINE
  5
99CB
  8
ALPHA
 66
     1
 10
0.0
 20
0.0
 30
0.0
 70
   128
  0
VERTEX
  5
9F81
  8
ALPHA
 10
51.879661
 20
24.909249
 30
0.0
  0
VERTEX
  5
9F82
  8
ALPHA
 10
55.352007
 20
25.041389
 30
0.0
  0
VERTEX
  5
9F83
  8
ALPHA
 10
58.807864
 20
25.406672
 30
0.0
  0
SEQEND
  5
9F84
  8
ALPHA
  0
POLYLINE
  5
99CC
  8
ALPHA
 66
     1
 10
0.0
 20
0.0
 30
0.0
 70
   128
210
0.0
220
0.0
230
-1.0
  0
VERTEX
  5
9F85
  8
ALPHA
 10
-51.879661
 20
28.409249
 30
0.0
  0
VERTEX
  5
9F86
  8
ALPHA
 10
-55.352007
 20
28.27711
 30
0.0
  0
VERTEX
  5
9F87
  8
ALPHA
 10
-58.807864
 20
27.911826
 30
0.0
  0
SEQEND
  5
9F88
  8
ALPHA
  0
POLYLINE
  5
99CD
  8
ALPHA
 66
     1
 10
0.0
 20
0.0
 30
0.0
 70
   128
  0
VERTEX
  5
9F89
  8
ALPHA
 10
51.879661
 20
28.909249
 30
0.0
  0
VERTEX
  5
9F8A
  8
ALPHA
 10
55.352007
 20
29.041389
 30
0.0
  0
VERTEX
  5
9F8B
  8
ALPHA
 10
58.807864
 20
29.406672
 30
0.0
  0
SEQEND
  5
9F8C
  8
ALPHA
  0
LINE
  5
99CE
  8
ALPHA
 10
51.879661
 20
21.934249
 30
0.0
 11
51.879661
 21
22.884249
 31
0.0
  0
LINE
  5
99CF
  8
ALPHA
 10
51.879514
 20
24.884246
 30
0.0
 11
53.28744
 21
24.909247
 31
0.0
  0
LINE
  5
99D0
  8
ALPHA
 10
51.879514
 20
28.884246
 30
0.0
 11
53.28744
 21
28.909247
 31
0.0
  0
LINE
  5
99D1
  8
ALPHA
 10
58.657803
 20
19.109249
 30
0.0
 11
58.604213
 21
18.909249
 31
0.0
  0
LINE
  5
99D2
  8
ALPHA
 10
58.657803
 20
20.909249
 30
0.0
 11
58.657803
 21
19.109249
 31
0.0
  0
LINE
  5
99D3
  8
ALPHA
 10
58.579661
 20
20.909249
 30
0.0
 11
58.579661
 21
18.909249
 31
0.0
  0
LINE
  5
99D4
  8
ALPHA
 10
58.657803
 20
19.109249
 30
0.0
 11
58.579661
 21
19.109249
 31
0.0
  0
LINE
  5
99D5
  8
ALPHA
 10
58.807864
 20
25.406672
 30
0.0
 11
58.807864
 21
27.911826
 31
0.0
  0
POLYLINE
  5
99D6
  8
ALPHA
 66
     1
 10
0.0
 20
0.0
 30
0.0
 70
   128
  0
VERTEX
  5
9F8D
  8
ALPHA
 10
62.271966
 20
24.909249
 30
0.0
  0
VERTEX
  5
9F8E
  8
ALPHA
 10
64.0202
 20
25.043185
 30
0.0
  0
VERTEX
  5
9F8F
  8
ALPHA
 10
65.736068
 20
25.406672
 30
0.0
  0
SEQEND
  5
9F90
  8
ALPHA
  0
POLYLINE
  5
99D7
  8
ALPHA
 66
     1
 10
0.0
 20
0.0
 30
0.0
 70
   128
210
0.0
220
0.0
230
-1.0
  0
VERTEX
  5
9F91
  8
ALPHA
 10
-62.271966
 20
28.409249
 30
0.0
  0
VERTEX
  5
9F92
  8
ALPHA
 10
-64.0202
 20
28.275313
 30
0.0
  0
VERTEX
  5
9F93
  8
ALPHA
 10
-65.736068
 20
27.911826
 30
0.0
  0
SEQEND
  5
9F94
  8
ALPHA
  0
POLYLINE
  5
99D8
  8
ALPHA
 66
     1
 10
0.0
 20
0.0
 30
0.0
 70
   128
  0
VERTEX
  5
9F95
  8
ALPHA
 10
62.271966
 20
28.909249
 30
0.0
  0
VERTEX
  5
9F96
  8
ALPHA
 10
64.0202
 20
29.043185
 30
0.0
  0
VERTEX
  5
9F97
  8
ALPHA
 10
65.736068
 20
29.406672
 30
0.0
  0
SEQEND
  5
9F98
  8
ALPHA
  0
LINE
  5
99D9
  8
ALPHA
 10
65.736068
 20
27.911826
 30
0.0
 11
63.879661
 21
28.409249
 31
0.0
  0
LINE
  5
99DA
  8
ALPHA
 10
63.879661
 20
28.909249
 30
0.0
 11
65.736068
 21
29.406672
 31
0.0
  0
LINE
  5
99DB
  8
ALPHA
 10
63.879661
 20
24.909249
 30
0.0
 11
65.736068
 21
25.406672
 31
0.0
  0
LINE
  5
99DC
  8
ALPHA
 10
60.87716
 20
24.188001
 30
0.0
 11
60.276982
 21
24.638269
 31
0.0
  0
LINE
  5
99DD
  8
ALPHA
 10
60.879176
 20
24.17864
 30
0.0
 11
60.768988
 21
24.159264
 31
0.0
  0
LINE
  5
99DE
  8
ALPHA
 10
60.879471
 20
24.180666
 30
0.0
 11
60.879176
 21
24.17864
 31
0.0
  0
LINE
  5
99DF
  8
ALPHA
 10
60.879661
 20
24.184249
 30
0.0
 11
60.879471
 21
24.180666
 31
0.0
  0
LINE
  5
99E0
  8
ALPHA
 10
60.879153
 20
23.178537
 30
0.0
 11
60.769895
 21
23.159366
 31
0.0
  0
LINE
  5
99E1
  8
ALPHA
 10
60.879464
 20
23.180614
 30
0.0
 11
60.879153
 21
23.178537
 31
0.0
  0
LINE
  5
99E2
  8
ALPHA
 10
60.879661
 20
23.184248
 30
0.0
 11
60.879464
 21
23.180614
 31
0.0
  0
LINE
  5
99E3
  8
ALPHA
 10
60.258537
 20
23.672959
 30
0.0
 11
60.258202
 21
23.674005
 31
0.0
  0
LINE
  5
99E4
  8
ALPHA
 10
60.879661
 20
22.184249
 30
0.0
 11
60.879659
 21
22.183876
 31
0.0
  0
LINE
  5
99E5
  8
ALPHA
 10
60.87716
 20
22.188001
 30
0.0
 11
60.276982
 21
22.638268
 31
0.0
  0
LINE
  5
99E6
  8
ALPHA
 10
60.87716
 20
23.188
 30
0.0
 11
60.276982
 21
23.638268
 31
0.0
  0
LINE
  5
99E7
  8
ALPHA
 10
60.276982
 20
22.680229
 30
0.0
 11
60.87716
 21
23.130497
 31
0.0
  0
LINE
  5
99E8
  8
ALPHA
 10
60.276982
 20
23.680229
 30
0.0
 11
60.87716
 21
24.130496
 31
0.0
  0
LINE
  5
99E9
  8
ALPHA
 10
60.879661
 20
21.909249
 30
0.0
 11
59.879661
 21
20.909249
 31
0.0
  0
LINE
  5
99EA
  8
ALPHA
 10
60.87716
 20
23.130497
 30
0.0
 11
60.879661
 21
23.134249
 31
0.0
  0
LINE
  5
99EB
  8
ALPHA
 10
60.87716
 20
24.130496
 30
0.0
 11
60.879661
 21
24.134248
 31
0.0
  0
LINE
  5
99EC
  8
ALPHA
 10
60.879661
 20
22.184249
 30
0.0
 11
60.879661
 21
21.909249
 31
0.0
  0
LINE
  5
99ED
  8
ALPHA
 10
60.879661
 20
23.184248
 30
0.0
 11
60.879661
 21
23.134249
 31
0.0
  0
LINE
  5
99EE
  8
ALPHA
 10
60.879661
 20
24.184249
 30
0.0
 11
60.879661
 21
24.134248
 31
0.0
  0
LINE
  5
99EF
  8
ALPHA
 10
60.279661
 20
23.634248
 30
0.0
 11
60.279661
 21
23.684248
 31
0.0
  0
LINE
  5
99F0
  8
ALPHA
 10
60.279661
 20
22.634249
 30
0.0
 11
60.279661
 21
22.684249
 31
0.0
  0
LINE
  5
99F1
  8
ALPHA
 10
60.27592
 20
28.679259
 30
0.0
 11
60.273324
 21
28.681476
 31
0.0
  0
LINE
  5
99F2
  8
ALPHA
 10
60.27592
 20
24.679259
 30
0.0
 11
60.273324
 21
24.681476
 31
0.0
  0
LINE
  5
99F3
  8
ALPHA
 10
60.276982
 20
24.680229
 30
0.0
 11
60.582248
 21
24.909249
 31
0.0
  0
LINE
  5
99F4
  8
ALPHA
 10
60.582248
 20
28.409249
 30
0.0
 11
60.276982
 21
28.638269
 31
0.0
  0
LINE
  5
99F5
  8
ALPHA
 10
60.276982
 20
28.680229
 30
0.0
 11
60.582248
 21
28.909249
 31
0.0
  0
LINE
  5
99F6
  8
ALPHA
 10
60.279661
 20
28.634249
 30
0.0
 11
60.279661
 21
28.684249
 31
0.0
  0
LINE
  5
99F7
  8
ALPHA
 10
60.279661
 20
24.634249
 30
0.0
 11
60.279661
 21
24.684249
 31
0.0
  0
LINE
  5
99F8
  8
ALPHA
 10
65.736068
 20
25.406672
 30
0.0
 11
65.736068
 21
27.911826
 31
0.0
  0
LINE
  5
9A80
  8
ALPHA
 10
43.179661
 20
41.409249
 30
0.0
 11
60.272658
 21
41.678736
 31
0.0
  0
LINE
  5
9A81
  8
ALPHA
 10
50.570002
 20
32.409334
 30
0.0
 11
51.879187
 21
32.43424
 31
0.0
  0
LINE
  5
9A82
  8
ALPHA
 10
43.501816
 20
33.19252
 30
0.0
 11
60.269767
 21
33.679662
 31
0.0
  0
LINE
  5
9A83
  8
ALPHA
 10
60.768854
 20
41.109249
 30
0.0
 11
42.990464
 21
40.659249
 31
0.0
  0
LINE
  5
9A84
  8
ALPHA
 10
43.49034
 20
39.137825
 30
0.0
 11
60.25319
 21
39.633615
 31
0.0
  0
POLYLINE
  5
9A85
  8
ALPHA
 66
     1
 10
0.0
 20
0.0
 30
0.0
 70
   128
210
0.0
220
0.0
230
-1.0
  0
VERTEX
  5
9F99
  8
ALPHA
 10
-43.48987
 20
34.175535
 30
0.0
  0
VERTEX
  5
9F9A
  8
ALPHA
 10
-45.580142
 20
34.298551
 30
0.0
  0
VERTEX
  5
9F9B
  8
ALPHA
 10
-47.679675
 20
34.35084
 30
0.0
  0
VERTEX
  5
9F9C
  8
ALPHA
 10
-51.879661
 20
34.434249
 30
0.0
  0
SEQEND
  5
9F9D
  8
ALPHA
  0
LINE
  5
9A86
  8
ALPHA
 10
43.485946
 20
40.143884
 30
0.0
 11
60.270678
 21
40.626166
 31
0.0
  0
LINE
  5
9A87
  8
ALPHA
 10
43.490125
 20
41.142195
 30
0.0
 11
60.278094
 21
41.63283
 31
0.0
  0
POLYLINE
  5
9A88
  8
ALPHA
 66
     1
 10
0.0
 20
0.0
 30
0.0
 70
   128
210
0.0
220
0.0
230
-1.0
  0
VERTEX
  5
9F9E
  8
ALPHA
 10
-42.882352
 20
40.687708
 30
0.0
  0
VERTEX
  5
9F9F
  8
ALPHA
 10
-47.13353
 20
40.845816
 30
0.0
  0
VERTEX
  5
9FA0
  8
ALPHA
 10
-51.388778
 20
40.925565
 30
0.0
  0
VERTEX
  5
9FA1
  8
ALPHA
 10
-59.898699
 20
41.109249
 30
0.0
  0
SEQEND
  5
9FA2
  8
ALPHA
  0
LINE
  5
9A89
  8
ALPHA
 10
43.481084
 20
39.182996
 30
0.0
 11
60.254978
 21
39.672044
 31
0.0
  0
LINE
  5
9A8A
  8
ALPHA
 10
43.48241
 20
40.187059
 30
0.0
 11
60.271565
 21
40.678766
 31
0.0
  0
LINE
  5
9A8B
  8
ALPHA
 10
43.493422
 20
41.194084
 30
0.0
 11
60.272068
 21
41.675841
 31
0.0
  0
LINE
  5
9A8C
  8
ALPHA
 10
43.489555
 20
35.138836
 30
0.0
 11
60.257507
 21
35.625978
 31
0.0
  0
LINE
  5
9A8D
  8
ALPHA
 10
60.768988
 20
40.159264
 30
0.0
 11
42.879904
 21
39.688284
 31
0.0
  0
LINE
  5
9A8E
  8
ALPHA
 10
43.485998
 20
36.137022
 30
0.0
 11
60.275396
 21
36.629794
 31
0.0
  0
LINE
  5
9A8F
  8
ALPHA
 10
42.98918
 20
39.659102
 30
0.0
 11
60.879416
 21
40.130211
 31
0.0
  0
LINE
  5
9A90
  8
ALPHA
 10
43.500786
 20
37.145539
 30
0.0
 11
60.27871
 21
37.634977
 31
0.0
  0
LINE
  5
9A91
  8
ALPHA
 10
60.769895
 20
39.159366
 30
0.0
 11
42.879907
 21
38.688286
 31
0.0
  0
LINE
  5
9A92
  8
ALPHA
 10
42.9891
 20
38.659095
 30
0.0
 11
51.879661
 21
38.884249
 31
0.0
  0
POLYLINE
  5
9A93
  8
ALPHA
 66
     1
 10
0.0
 20
0.0
 30
0.0
 70
   128
210
0.0
220
0.0
230
-1.0
  0
VERTEX
  5
9FA3
  8
ALPHA
 10
-43.492145
 20
38.127908
 30
0.0
  0
VERTEX
  5
9FA4
  8
ALPHA
 10
-45.582511
 20
38.248647
 30
0.0
  0
VERTEX
  5
9FA5
  8
ALPHA
 10
-47.681264
 20
38.300878
 30
0.0
  0
VERTEX
  5
9FA6
  8
ALPHA
 10
-51.879661
 20
38.384249
 30
0.0
  0
SEQEND
  5
9FA7
  8
ALPHA
  0
POLYLINE
  5
9A94
  8
ALPHA
 66
     1
 10
0.0
 20
0.0
 30
0.0
 70
   128
  0
VERTEX
  5
9FA8
  8
ALPHA
 10
51.879661
 20
37.934249
 30
0.0
  0
VERTEX
  5
9FA9
  8
ALPHA
 10
47.37781
 20
37.850861
 30
0.0
  0
VERTEX
  5
9FAA
  8
ALPHA
 10
42.879907
 20
37.688288
 30
0.0
  0
SEQEND
  5
9FAB
  8
ALPHA
  0
LINE
  5
9A95
  8
ALPHA
 10
42.989413
 20
37.65913
 30
0.0
 11
60.879415
 21
38.130212
 31
0.0
  0
LINE
  5
9A96
  8
ALPHA
 10
60.770154
 20
37.159397
 30
0.0
 11
42.879906
 21
36.688287
 31
0.0
  0
LINE
  5
9A97
  8
ALPHA
 10
42.990321
 20
36.659232
 30
0.0
 11
60.879418
 21
37.130214
 31
0.0
  0
LINE
  5
9A98
  8
ALPHA
 10
60.768988
 20
36.159264
 30
0.0
 11
42.879904
 21
35.688284
 31
0.0
  0
LINE
  5
9A99
  8
ALPHA
 10
43.480612
 20
35.183521
 30
0.0
 11
60.258537
 21
35.672959
 31
0.0
  0
LINE
  5
9A9A
  8
ALPHA
 10
42.98918
 20
35.659102
 30
0.0
 11
60.879416
 21
36.130211
 31
0.0
  0
LINE
  5
9A9B
  8
ALPHA
 10
43.483926
 20
36.188704
 30
0.0
 11
60.273324
 21
36.681476
 31
0.0
  0
LINE
  5
9A9C
  8
ALPHA
 10
43.501816
 20
37.19252
 30
0.0
 11
60.269767
 21
37.679662
 31
0.0
  0
LINE
  5
9A9D
  8
ALPHA
 10
60.769895
 20
35.159366
 30
0.0
 11
42.879907
 21
34.688286
 31
0.0
  0
POLYLINE
  5
9A9E
  8
ALPHA
 66
     1
 10
0.0
 20
0.0
 30
0.0
 70
   128
210
0.0
220
0.0
230
-1.0
  0
VERTEX
  5
9FAC
  8
ALPHA
 10
-43.48987
 20
38.175535
 30
0.0
  0
VERTEX
  5
9FAD
  8
ALPHA
 10
-45.580142
 20
38.298551
 30
0.0
  0
VERTEX
  5
9FAE
  8
ALPHA
 10
-47.679675
 20
38.35084
 30
0.0
  0
VERTEX
  5
9FAF
  8
ALPHA
 10
-51.879661
 20
38.434249
 30
0.0
  0
SEQEND
  5
9FB0
  8
ALPHA
  0
LINE
  5
9A9F
  8
ALPHA
 10
42.9891
 20
34.659095
 30
0.0
 11
51.879661
 21
34.884249
 31
0.0
  0
POLYLINE
  5
9AA0
  8
ALPHA
 66
     1
 10
0.0
 20
0.0
 30
0.0
 70
   128
  0
VERTEX
  5
9FB1
  8
ALPHA
 10
51.879661
 20
33.934249
 30
0.0
  0
VERTEX
  5
9FB2
  8
ALPHA
 10
47.37781
 20
33.850861
 30
0.0
  0
VERTEX
  5
9FB3
  8
ALPHA
 10
42.879907
 20
33.688288
 30
0.0
  0
SEQEND
  5
9FB4
  8
ALPHA
  0
LINE
  5
9AA1
  8
ALPHA
 10
42.989413
 20
33.65913
 30
0.0
 11
60.879415
 21
34.130212
 31
0.0
  0
LINE
  5
9AA2
  8
ALPHA
 10
60.770154
 20
33.159397
 30
0.0
 11
42.879906
 21
32.688287
 31
0.0
  0
LINE
  5
9AA3
  8
ALPHA
 10
43.500786
 20
33.145539
 30
0.0
 11
60.27871
 21
33.634977
 31
0.0
  0
LINE
  5
9AA4
  8
ALPHA
 10
42.990321
 20
32.659232
 30
0.0
 11
60.879418
 21
33.130214
 31
0.0
  0
POLYLINE
  5
9AA5
  8
ALPHA
 66
     1
 10
0.0
 20
0.0
 30
0.0
 70
   128
210
0.0
220
0.0
230
-1.0
  0
VERTEX
  5
9FB5
  8
ALPHA
 10
-43.492145
 20
34.127908
 30
0.0
  0
VERTEX
  5
9FB6
  8
ALPHA
 10
-45.582511
 20
34.248647
 30
0.0
  0
VERTEX
  5
9FB7
  8
ALPHA
 10
-47.681264
 20
34.300878
 30
0.0
  0
VERTEX
  5
9FB8
  8
ALPHA
 10
-51.879661
 20
34.384249
 30
0.0
  0
SEQEND
  5
9FB9
  8
ALPHA
  0
LINE
  5
9AA6
  8
ALPHA
 10
53.629661
 20
47.259203
 30
0.0
 11
50.129661
 21
47.259203
 31
0.0
  0
POLYLINE
  5
9AA7
  8
ALPHA
 66
     1
 10
0.0
 20
0.0
 30
0.0
 70
   128
210
0.0
220
0.0
230
-1.0
  0
VERTEX
  5
9FBA
  8
ALPHA
 10
-44.951458
 20
31.911826
 30
0.0
  0
VERTEX
  5
9FBB
  8
ALPHA
 10
-48.407316
 20
32.277111
 30
0.0
  0
VERTEX
  5
9FBC
  8
ALPHA
 10
-51.879661
 20
32.409249
 30
0.0
  0
SEQEND
  5
9FBD
  8
ALPHA
  0
LINE
  5
9AA8
  8
ALPHA
 10
53.354661
 20
59.274249
 30
0.0
 11
50.404661
 21
59.274249
 31
0.0
  0
LINE
  5
9AA9
  8
ALPHA
 10
53.354661
 20
47.674249
 30
0.0
 11
50.404661
 21
47.674249
 31
0.0
  0
LINE
  5
9AAA
  8
ALPHA
 10
59.879661
 20
42.109249
 30
0.0
 11
43.879661
 21
42.109249
 31
0.0
  0
LINE
  5
9AAB
  8
ALPHA
 10
39.879661
 20
32.409249
 30
0.0
 11
63.879661
 21
32.409249
 31
0.0
  0
POLYLINE
  5
9AAC
  8
ALPHA
 66
     1
 10
0.0
 20
0.0
 30
0.0
 70
   128
210
0.0
220
0.0
230
-1.0
  0
VERTEX
  5
9FBE
  8
ALPHA
 10
-48.379661
 20
55.384249
 30
0.0
  0
VERTEX
  5
9FBF
  8
ALPHA
 10
-48.634438
 20
54.461398
 30
0.0
  0
VERTEX
  5
9FC0
  8
ALPHA
 10
-48.729452
 20
53.509249
 30
0.0
  0
VERTEX
  5
9FC1
  8
ALPHA
 10
-48.634438
 20
52.557101
 30
0.0
  0
VERTEX
  5
9FC2
  8
ALPHA
 10
-48.379661
 20
51.634249
 30
0.0
  0
SEQEND
  5
9FC3
  8
ALPHA
  0
LINE
  5
9AAD
  8
ALPHA
 10
50.404661
 20
47.674249
 30
0.0
 11
50.404661
 21
59.274249
 31
0.0
  0
LINE
  5
9AAE
  8
ALPHA
 10
50.204661
 20
47.874249
 30
0.0
 11
50.204661
 21
59.074249
 31
0.0
  0
LINE
  5
9AAF
  8
ALPHA
 10
50.129661
 20
47.259203
 30
0.0
 11
50.129661
 21
56.209249
 31
0.0
  0
LINE
  5
9AB0
  8
ALPHA
 10
43.48234
 20
33.13827
 30
0.0
 11
42.882162
 21
32.688002
 31
0.0
  0
LINE
  5
9AB1
  8
ALPHA
 10
43.48234
 20
34.138269
 30
0.0
 11
42.882162
 21
33.688001
 31
0.0
  0
LINE
  5
9AB2
  8
ALPHA
 10
42.882162
 20
33.630498
 30
0.0
 11
43.48234
 21
33.18023
 31
0.0
  0
LINE
  5
9AB3
  8
ALPHA
 10
42.882162
 20
34.630498
 30
0.0
 11
43.48234
 21
34.18023
 31
0.0
  0
LINE
  5
9AB4
  8
ALPHA
 10
43.48234
 20
35.138268
 30
0.0
 11
42.882162
 21
34.688
 31
0.0
  0
LINE
  5
9AB5
  8
ALPHA
 10
43.48234
 20
36.138269
 30
0.0
 11
42.882162
 21
35.688001
 31
0.0
  0
LINE
  5
9AB6
  8
ALPHA
 10
43.48234
 20
37.13827
 30
0.0
 11
42.882162
 21
36.688002
 31
0.0
  0
LINE
  5
9AB7
  8
ALPHA
 10
43.48234
 20
38.138269
 30
0.0
 11
42.882162
 21
37.688001
 31
0.0
  0
LINE
  5
9AB8
  8
ALPHA
 10
42.882162
 20
35.630496
 30
0.0
 11
43.48234
 21
35.180228
 31
0.0
  0
LINE
  5
9AB9
  8
ALPHA
 10
42.882162
 20
36.630497
 30
0.0
 11
43.48234
 21
36.180229
 31
0.0
  0
LINE
  5
9ABA
  8
ALPHA
 10
42.882162
 20
37.630498
 30
0.0
 11
43.48234
 21
37.18023
 31
0.0
  0
LINE
  5
9ABB
  8
ALPHA
 10
42.882162
 20
38.630498
 30
0.0
 11
43.48234
 21
38.18023
 31
0.0
  0
LINE
  5
9ABC
  8
ALPHA
 10
43.48234
 20
39.138268
 30
0.0
 11
42.882162
 21
38.688
 31
0.0
  0
LINE
  5
9ABD
  8
ALPHA
 10
43.48234
 20
40.138269
 30
0.0
 11
42.882162
 21
39.688001
 31
0.0
  0
LINE
  5
9ABE
  8
ALPHA
 10
43.48234
 20
41.13827
 30
0.0
 11
42.882162
 21
40.688002
 31
0.0
  0
LINE
  5
9ABF
  8
ALPHA
 10
42.882162
 20
39.630496
 30
0.0
 11
43.48234
 21
39.180228
 31
0.0
  0
LINE
  5
9AC0
  8
ALPHA
 10
42.882162
 20
40.630497
 30
0.0
 11
43.48234
 21
40.180229
 31
0.0
  0
LINE
  5
9AC1
  8
ALPHA
 10
43.18003
 20
41.407032
 30
0.0
 11
43.48234
 21
41.18023
 31
0.0
  0
POLYLINE
  5
9AC2
  8
ALPHA
 66
     1
 10
0.0
 20
0.0
 30
0.0
 70
   128
210
0.0
220
0.0
230
-1.0
  0
VERTEX
  5
9FC4
  8
ALPHA
 10
-41.487356
 20
32.409249
 30
0.0
  0
VERTEX
  5
9FC5
  8
ALPHA
 10
-43.23559
 20
32.275313
 30
0.0
  0
VERTEX
  5
9FC6
  8
ALPHA
 10
-44.951458
 20
31.911826
 30
0.0
  0
SEQEND
  5
9FC7
  8
ALPHA
  0
LINE
  5
9AC3
  8
ALPHA
 10
43.879661
 20
42.109249
 30
0.0
 11
43.179661
 21
41.409249
 31
0.0
  0
POLYLINE
  5
9AC4
  8
ALPHA
 66
     1
 10
0.0
 20
0.0
 30
0.0
 70
   128
210
0.0
220
0.0
230
-1.0
  0
VERTEX
  5
9FC8
  8
ALPHA
 10
-38.023255
 20
31.911826
 30
0.0
  0
VERTEX
  5
9FC9
  8
ALPHA
 10
-39.739122
 20
32.275313
 30
0.0
  0
VERTEX
  5
9FCA
  8
ALPHA
 10
-41.487356
 20
32.409249
 30
0.0
  0
SEQEND
  5
9FCB
  8
ALPHA
  0
LINE
  5
9AC5
  8
ALPHA
 10
38.023255
 20
31.911826
 30
0.0
 11
39.879661
 21
32.409249
 31
0.0
  0
LINE
  5
9AC6
  8
ALPHA
 10
42.880177
 20
35.639989
 30
0.0
 11
42.98918
 21
35.659102
 31
0.0
  0
LINE
  5
9AC7
  8
ALPHA
 10
42.87986
 20
35.637897
 30
0.0
 11
42.880177
 21
35.639989
 31
0.0
  0
LINE
  5
9AC8
  8
ALPHA
 10
42.879663
 20
35.634621
 30
0.0
 11
42.87986
 21
35.637897
 31
0.0
  0
LINE
  5
9AC9
  8
ALPHA
 10
42.879661
 20
35.634248
 30
0.0
 11
42.879663
 21
35.634621
 31
0.0
  0
LINE
  5
9ACA
  8
ALPHA
 10
42.88018
 20
34.640004
 30
0.0
 11
42.9891
 21
34.659095
 31
0.0
  0
LINE
  5
9ACB
  8
ALPHA
 10
42.879861
 20
34.637904
 30
0.0
 11
42.88018
 21
34.640004
 31
0.0
  0
LINE
  5
9ACC
  8
ALPHA
 10
42.879663
 20
34.634622
 30
0.0
 11
42.879861
 21
34.637904
 31
0.0
  0
LINE
  5
9ACD
  8
ALPHA
 10
42.879661
 20
34.634249
 30
0.0
 11
42.879663
 21
34.634622
 31
0.0
  0
LINE
  5
9ACE
  8
ALPHA
 10
42.88017
 20
33.639963
 30
0.0
 11
42.989413
 21
33.65913
 31
0.0
  0
LINE
  5
9ACF
  8
ALPHA
 10
42.879858
 20
33.637885
 30
0.0
 11
42.88017
 21
33.639963
 31
0.0
  0
LINE
  5
9AD0
  8
ALPHA
 10
42.879663
 20
33.634622
 30
0.0
 11
42.879858
 21
33.637885
 31
0.0
  0
LINE
  5
9AD1
  8
ALPHA
 10
42.879661
 20
33.63425
 30
0.0
 11
42.879663
 21
33.634622
 31
0.0
  0
LINE
  5
9AD2
  8
ALPHA
 10
42.880147
 20
32.639859
 30
0.0
 11
42.990321
 21
32.659232
 31
0.0
  0
LINE
  5
9AD3
  8
ALPHA
 10
42.879851
 20
32.637832
 30
0.0
 11
42.880147
 21
32.639859
 31
0.0
  0
LINE
  5
9AD4
  8
ALPHA
 10
42.879663
 20
32.63462
 30
0.0
 11
42.879851
 21
32.637832
 31
0.0
  0
LINE
  5
9AD5
  8
ALPHA
 10
42.879661
 20
32.634249
 30
0.0
 11
42.879663
 21
32.63462
 31
0.0
  0
LINE
  5
9AD6
  8
ALPHA
 10
42.882162
 20
32.630497
 30
0.0
 11
43.177074
 21
32.409249
 31
0.0
  0
LINE
  5
9AD7
  8
ALPHA
 10
42.882162
 20
32.688002
 30
0.0
 11
42.879661
 21
32.68425
 31
0.0
  0
LINE
  5
9AD8
  8
ALPHA
 10
42.882162
 20
33.688001
 30
0.0
 11
42.879661
 21
33.684249
 31
0.0
  0
LINE
  5
9AD9
  8
ALPHA
 10
42.882162
 20
34.688
 30
0.0
 11
42.879661
 21
34.684248
 31
0.0
  0
LINE
  5
9ADA
  8
ALPHA
 10
42.882162
 20
35.688001
 30
0.0
 11
42.879661
 21
35.684249
 31
0.0
  0
LINE
  5
9ADB
  8
ALPHA
 10
42.879661
 20
32.68425
 30
0.0
 11
42.879661
 21
32.634249
 31
0.0
  0
LINE
  5
9ADC
  8
ALPHA
 10
42.879661
 20
33.684249
 30
0.0
 11
42.879661
 21
33.63425
 31
0.0
  0
LINE
  5
9ADD
  8
ALPHA
 10
42.879661
 20
34.684248
 30
0.0
 11
42.879661
 21
34.634249
 31
0.0
  0
LINE
  5
9ADE
  8
ALPHA
 10
42.879661
 20
35.684249
 30
0.0
 11
42.879661
 21
35.634248
 31
0.0
  0
LINE
  5
9ADF
  8
ALPHA
 10
42.888921
 20
40.640719
 30
0.0
 11
42.879661
 21
40.634249
 31
0.0
  0
LINE
  5
9AE0
  8
ALPHA
 10
42.892173
 20
40.641822
 30
0.0
 11
42.888921
 21
40.640719
 31
0.0
  0
LINE
  5
9AE1
  8
ALPHA
 10
42.990464
 20
40.659249
 30
0.0
 11
42.892173
 21
40.641822
 31
0.0
  0
LINE
  5
9AE2
  8
ALPHA
 10
42.880177
 20
39.639989
 30
0.0
 11
42.98918
 21
39.659102
 31
0.0
  0
LINE
  5
9AE3
  8
ALPHA
 10
42.87986
 20
39.637897
 30
0.0
 11
42.880177
 21
39.639989
 31
0.0
  0
LINE
  5
9AE4
  8
ALPHA
 10
42.879663
 20
39.634621
 30
0.0
 11
42.87986
 21
39.637897
 31
0.0
  0
LINE
  5
9AE5
  8
ALPHA
 10
42.879661
 20
39.634248
 30
0.0
 11
42.879663
 21
39.634621
 31
0.0
  0
LINE
  5
9AE6
  8
ALPHA
 10
42.88018
 20
38.640004
 30
0.0
 11
42.9891
 21
38.659095
 31
0.0
  0
LINE
  5
9AE7
  8
ALPHA
 10
42.879861
 20
38.637904
 30
0.0
 11
42.88018
 21
38.640004
 31
0.0
  0
LINE
  5
9AE8
  8
ALPHA
 10
42.879663
 20
38.634622
 30
0.0
 11
42.879861
 21
38.637904
 31
0.0
  0
LINE
  5
9AE9
  8
ALPHA
 10
42.879661
 20
38.634249
 30
0.0
 11
42.879663
 21
38.634622
 31
0.0
  0
LINE
  5
9AEA
  8
ALPHA
 10
42.88017
 20
37.639963
 30
0.0
 11
42.989413
 21
37.65913
 31
0.0
  0
LINE
  5
9AEB
  8
ALPHA
 10
42.879858
 20
37.637885
 30
0.0
 11
42.88017
 21
37.639963
 31
0.0
  0
LINE
  5
9AEC
  8
ALPHA
 10
42.879663
 20
37.634622
 30
0.0
 11
42.879858
 21
37.637885
 31
0.0
  0
LINE
  5
9AED
  8
ALPHA
 10
42.879661
 20
37.63425
 30
0.0
 11
42.879663
 21
37.634622
 31
0.0
  0
LINE
  5
9AEE
  8
ALPHA
 10
42.880147
 20
36.639859
 30
0.0
 11
42.990321
 21
36.659232
 31
0.0
  0
LINE
  5
9AEF
  8
ALPHA
 10
42.879851
 20
36.637832
 30
0.0
 11
42.880147
 21
36.639859
 31
0.0
  0
LINE
  5
9AF0
  8
ALPHA
 10
42.879663
 20
36.63462
 30
0.0
 11
42.879851
 21
36.637832
 31
0.0
  0
LINE
  5
9AF1
  8
ALPHA
 10
42.879661
 20
36.634249
 30
0.0
 11
42.879663
 21
36.63462
 31
0.0
  0
LINE
  5
9AF2
  8
ALPHA
 10
42.879661
 20
40.634249
 30
0.0
 11
42.882162
 21
40.630497
 31
0.0
  0
LINE
  5
9AF3
  8
ALPHA
 10
42.882162
 20
36.688002
 30
0.0
 11
42.879661
 21
36.68425
 31
0.0
  0
LINE
  5
9AF4
  8
ALPHA
 10
42.882162
 20
37.688001
 30
0.0
 11
42.879661
 21
37.684249
 31
0.0
  0
LINE
  5
9AF5
  8
ALPHA
 10
42.882162
 20
38.688
 30
0.0
 11
42.879661
 21
38.684248
 31
0.0
  0
LINE
  5
9AF6
  8
ALPHA
 10
42.882162
 20
39.688001
 30
0.0
 11
42.879661
 21
39.684249
 31
0.0
  0
LINE
  5
9AF7
  8
ALPHA
 10
42.879661
 20
40.68425
 30
0.0
 11
42.882162
 21
40.688002
 31
0.0
  0
LINE
  5
9AF8
  8
ALPHA
 10
42.879661
 20
36.68425
 30
0.0
 11
42.879661
 21
36.634249
 31
0.0
  0
LINE
  5
9AF9
  8
ALPHA
 10
42.879661
 20
37.684249
 30
0.0
 11
42.879661
 21
37.63425
 31
0.0
  0
LINE
  5
9AFA
  8
ALPHA
 10
42.879661
 20
38.684248
 30
0.0
 11
42.879661
 21
38.634249
 31
0.0
  0
LINE
  5
9AFB
  8
ALPHA
 10
42.879661
 20
39.684249
 30
0.0
 11
42.879661
 21
39.634248
 31
0.0
  0
LINE
  5
9AFC
  8
ALPHA
 10
42.879661
 20
40.68425
 30
0.0
 11
42.879661
 21
40.634249
 31
0.0
  0
LINE
  5
9AFD
  8
ALPHA
 10
43.483688
 20
35.13603
 30
0.0
 11
43.489555
 21
35.138836
 31
0.0
  0
LINE
  5
9AFE
  8
ALPHA
 10
43.50112
 20
33.144493
 30
0.0
 11
43.500786
 21
33.145539
 31
0.0
  0
LINE
  5
9AFF
  8
ALPHA
 10
43.479661
 20
33.18425
 30
0.0
 11
43.479661
 21
33.13425
 31
0.0
  0
LINE
  5
9B00
  8
ALPHA
 10
43.479661
 20
34.184249
 30
0.0
 11
43.479661
 21
34.134249
 31
0.0
  0
LINE
  5
9B01
  8
ALPHA
 10
43.479661
 20
35.184248
 30
0.0
 11
43.479661
 21
35.134248
 31
0.0
  0
LINE
  5
9B02
  8
ALPHA
 10
43.484376
 20
39.134902
 30
0.0
 11
43.49034
 21
39.137825
 31
0.0
  0
LINE
  5
9B03
  8
ALPHA
 10
43.480596
 20
40.137485
 30
0.0
 11
43.485946
 21
40.143884
 31
0.0
  0
LINE
  5
9B04
  8
ALPHA
 10
43.490125
 20
41.142195
 30
0.0
 11
43.488981
 21
41.143527
 31
0.0
  0
LINE
  5
9B05
  8
ALPHA
 10
43.485998
 20
36.137022
 30
0.0
 11
43.483402
 21
36.139239
 31
0.0
  0
LINE
  5
9B06
  8
ALPHA
 10
43.50112
 20
37.144493
 30
0.0
 11
43.500786
 21
37.145539
 31
0.0
  0
LINE
  5
9B07
  8
ALPHA
 10
43.479661
 20
36.184249
 30
0.0
 11
43.479661
 21
36.134249
 31
0.0
  0
LINE
  5
9B08
  8
ALPHA
 10
43.479661
 20
37.18425
 30
0.0
 11
43.479661
 21
37.13425
 31
0.0
  0
LINE
  5
9B09
  8
ALPHA
 10
43.479661
 20
38.184249
 30
0.0
 11
43.479661
 21
38.134249
 31
0.0
  0
LINE
  5
9B0A
  8
ALPHA
 10
43.479661
 20
39.184248
 30
0.0
 11
43.479661
 21
39.134248
 31
0.0
  0
LINE
  5
9B0B
  8
ALPHA
 10
43.479661
 20
40.184249
 30
0.0
 11
43.479661
 21
40.134249
 31
0.0
  0
LINE
  5
9B0C
  8
ALPHA
 10
43.479661
 20
41.18425
 30
0.0
 11
43.479661
 21
41.13425
 31
0.0
  0
ARC
  5
9B0D
  8
ALPHA
 10
48.117109
 20
48.909249
 30
0.0
 40
2.0
 50
90.0
 51
130.480259
  0
LINE
  5
9B0E
  8
ALPHA
 10
50.079661
 20
50.430508
 30
0.0
 11
46.818737
 21
50.430508
 31
0.0
  0
LINE
  5
9B0F
  8
ALPHA
 10
50.079661
 20
50.119185
 30
0.0
 11
46.453969
 21
50.119185
 31
0.0
  0
LINE
  5
9B10
  8
ALPHA
 10
50.079661
 20
42.530692
 30
0.0
 11
45.246709
 21
42.530692
 31
0.0
  0
LINE
  5
9B11
  8
ALPHA
 10
46.453969
 20
50.119185
 30
0.0
 11
45.246709
 21
42.530692
 31
0.0
  0
ARC
  5
9B12
  8
ALPHA
 10
44.752919
 20
42.609249
 30
0.0
 40
0.5
 50
270.0
 51
350.960517
  0
LINE
  5
9B13
  8
ALPHA
 10
46.818737
 20
50.430508
 30
0.0
 11
46.453969
 21
50.119185
 31
0.0
  0
LINE
  5
9B14
  8
ALPHA
 10
50.079661
 20
42.109249
 30
0.0
 11
50.079661
 21
50.909249
 31
0.0
  0
LINE
  5
9B15
  8
ALPHA
 10
50.079661
 20
50.909249
 30
0.0
 11
48.117109
 21
50.909249
 31
0.0
  0
LINE
  5
9B16
  8
ALPHA
 10
48.379661
 20
51.634249
 30
0.0
 11
48.379661
 21
50.909249
 31
0.0
  0
LINE
  5
9B17
  8
ALPHA
 10
50.204661
 20
52.119249
 30
0.0
 11
50.129661
 21
52.119249
 31
0.0
  0
LINE
  5
9B18
  8
ALPHA
 10
50.404661
 20
47.674249
 30
0.0
 11
50.204661
 21
47.874249
 31
0.0
  0
LINE
  5
9B19
  8
ALPHA
 10
50.404661
 20
59.274249
 30
0.0
 11
50.204661
 21
59.074249
 31
0.0
  0
LINE
  5
9B1A
  8
ALPHA
 10
48.579749
 20
56.209249
 30
0.0
 11
50.129661
 21
56.209249
 31
0.0
  0
LINE
  5
9B1B
  8
ALPHA
 10
50.129661
 20
56.009249
 30
0.0
 11
48.379661
 21
56.009249
 31
0.0
  0
LINE
  5
9B1C
  8
ALPHA
 10
48.379661
 20
56.009249
 30
0.0
 11
48.379661
 21
55.384249
 31
0.0
  0
LINE
  5
9B1D
  8
ALPHA
 10
48.579661
 20
56.209249
 30
0.0
 11
48.379661
 21
56.009249
 31
0.0
  0
LINE
  5
9B1E
  8
ALPHA
 10
50.204661
 20
54.899249
 30
0.0
 11
50.129661
 21
54.899249
 31
0.0
  0
POLYLINE
  5
9B1F
  8
ALPHA
 66
     1
 10
0.0
 20
0.0
 30
0.0
 70
   128
210
0.0
220
0.0
230
-1.0
  0
VERTEX
  5
9FCC
  8
ALPHA
 10
-55.379661
 20
51.634249
 30
0.0
  0
VERTEX
  5
9FCD
  8
ALPHA
 10
-55.124884
 20
52.557101
 30
0.0
  0
VERTEX
  5
9FCE
  8
ALPHA
 10
-55.02987
 20
53.509249
 30
0.0
  0
VERTEX
  5
9FCF
  8
ALPHA
 10
-55.124884
 20
54.461398
 30
0.0
  0
VERTEX
  5
9FD0
  8
ALPHA
 10
-55.379661
 20
55.384249
 30
0.0
  0
SEQEND
  5
9FD1
  8
ALPHA
  0
LINE
  5
9B20
  8
ALPHA
 10
53.629661
 20
56.209249
 30
0.0
 11
53.629661
 21
47.259203
 31
0.0
  0
LINE
  5
9B21
  8
ALPHA
 10
53.554661
 20
47.874249
 30
0.0
 11
53.554661
 21
59.074249
 31
0.0
  0
LINE
  5
9B22
  8
ALPHA
 10
53.354661
 20
47.674249
 30
0.0
 11
53.354661
 21
59.274249
 31
0.0
  0
POLYLINE
  5
9B23
  8
ALPHA
 66
     1
 10
0.0
 20
0.0
 30
0.0
 70
   128
  0
VERTEX
  5
9FD2
  8
ALPHA
 10
51.879187
 20
32.43424
 30
0.0
  0
VERTEX
  5
9FD3
  8
ALPHA
 10
56.081371
 20
32.517559
 30
0.0
  0
VERTEX
  5
9FD4
  8
ALPHA
 10
60.273324
 20
32.681476
 30
0.0
  0
SEQEND
  5
9FD5
  8
ALPHA
  0
POLYLINE
  5
9B24
  8
ALPHA
 66
     1
 10
0.0
 20
0.0
 30
0.0
 70
   128
  0
VERTEX
  5
9FD6
  8
ALPHA
 10
51.879661
 20
38.884249
 30
0.0
  0
VERTEX
  5
9FD7
  8
ALPHA
 10
56.381512
 20
38.967637
 30
0.0
  0
VERTEX
  5
9FD8
  8
ALPHA
 10
60.879415
 20
39.13021
 30
0.0
  0
SEQEND
  5
9FD9
  8
ALPHA
  0
POLYLINE
  5
9B25
  8
ALPHA
 66
     1
 10
0.0
 20
0.0
 30
0.0
 70
   128
  0
VERTEX
  5
9FDA
  8
ALPHA
 10
51.879661
 20
34.884249
 30
0.0
  0
VERTEX
  5
9FDB
  8
ALPHA
 10
56.381512
 20
34.967637
 30
0.0
  0
VERTEX
  5
9FDC
  8
ALPHA
 10
60.879415
 20
35.13021
 30
0.0
  0
SEQEND
  5
9FDD
  8
ALPHA
  0
POLYLINE
  5
9B26
  8
ALPHA
 66
     1
 10
0.0
 20
0.0
 30
0.0
 70
   128
  0
VERTEX
  5
9FDE
  8
ALPHA
 10
53.18932
 20
32.409164
 30
0.0
  0
VERTEX
  5
9FDF
  8
ALPHA
 10
56.734172
 20
32.482475
 30
0.0
  0
VERTEX
  5
9FE0
  8
ALPHA
 10
60.275396
 20
32.629794
 30
0.0
  0
SEQEND
  5
9FE1
  8
ALPHA
  0
POLYLINE
  5
9B27
  8
ALPHA
 66
     1
 10
0.0
 20
0.0
 30
0.0
 70
   128
  0
VERTEX
  5
9FE2
  8
ALPHA
 10
51.879661
 20
38.434249
 30
0.0
  0
VERTEX
  5
9FE3
  8
ALPHA
 10
56.078166
 20
38.517621
 30
0.0
  0
VERTEX
  5
9FE4
  8
ALPHA
 10
58.176985
 20
38.569839
 30
0.0
  0
VERTEX
  5
9FE5
  8
ALPHA
 10
60.267626
 20
38.690387
 30
0.0
  0
SEQEND
  5
9FE6
  8
ALPHA
  0
POLYLINE
  5
9B28
  8
ALPHA
 66
     1
 10
0.0
 20
0.0
 30
0.0
 70
   128
  0
VERTEX
  5
9FE7
  8
ALPHA
 10
51.879661
 20
38.384249
 30
0.0
  0
VERTEX
  5
9FE8
  8
ALPHA
 10
56.079818
 20
38.467658
 30
0.0
  0
VERTEX
  5
9FE9
  8
ALPHA
 10
58.179454
 20
38.519927
 30
0.0
  0
VERTEX
  5
9FEA
  8
ALPHA
 10
60.270223
 20
38.642576
 30
0.0
  0
SEQEND
  5
9FEB
  8
ALPHA
  0
POLYLINE
  5
9B29
  8
ALPHA
 66
     1
 10
0.0
 20
0.0
 30
0.0
 70
   128
  0
VERTEX
  5
9FEC
  8
ALPHA
 10
51.879661
 20
34.434249
 30
0.0
  0
VERTEX
  5
9FED
  8
ALPHA
 10
56.078058
 20
34.517621
 30
0.0
  0
VERTEX
  5
9FEE
  8
ALPHA
 10
58.176811
 20
34.569851
 30
0.0
  0
VERTEX
  5
9FEF
  8
ALPHA
 10
60.267177
 20
34.690591
 30
0.0
  0
SEQEND
  5
9FF0
  8
ALPHA
  0
POLYLINE
  5
9B2A
  8
ALPHA
 66
     1
 10
0.0
 20
0.0
 30
0.0
 70
   128
  0
VERTEX
  5
9FF1
  8
ALPHA
 10
51.879661
 20
34.384249
 30
0.0
  0
VERTEX
  5
9FF2
  8
ALPHA
 10
56.079648
 20
34.467658
 30
0.0
  0
VERTEX
  5
9FF3
  8
ALPHA
 10
58.17918
 20
34.519947
 30
0.0
  0
VERTEX
  5
9FF4
  8
ALPHA
 10
60.269452
 20
34.642963
 30
0.0
  0
SEQEND
  5
9FF5
  8
ALPHA
  0
LINE
  5
9B2B
  8
ALPHA
 10
60.770241
 20
34.159406
 30
0.0
 11
51.879661
 21
33.934249
 31
0.0
  0
LINE
  5
9B2C
  8
ALPHA
 10
60.770241
 20
38.159406
 30
0.0
 11
51.879661
 21
37.934249
 31
0.0
  0
POLYLINE
  5
9B2D
  8
ALPHA
 66
     1
 10
0.0
 20
0.0
 30
0.0
 70
   128
210
0.0
220
0.0
230
-1.0
  0
VERTEX
  5
9FF6
  8
ALPHA
 10
-58.807864
 20
31.911826
 30
0.0
  0
VERTEX
  5
9FF7
  8
ALPHA
 10
-60.523732
 20
32.275313
 30
0.0
  0
VERTEX
  5
9FF8
  8
ALPHA
 10
-62.271966
 20
32.409249
 30
0.0
  0
SEQEND
  5
9FF9
  8
ALPHA
  0
POLYLINE
  5
9B2E
  8
ALPHA
 66
     1
 10
0.0
 20
0.0
 30
0.0
 70
   128
210
0.0
220
0.0
230
-1.0
  0
VERTEX
  5
9FFA
  8
ALPHA
 10
-51.879661
 20
32.409249
 30
0.0
  0
VERTEX
  5
9FFB
  8
ALPHA
 10
-55.352007
 20
32.27711
 30
0.0
  0
VERTEX
  5
9FFC
  8
ALPHA
 10
-58.807864
 20
31.911826
 30
0.0
  0
SEQEND
  5
9FFD
  8
ALPHA
  0
ARC
  5
9B2F
  8
ALPHA
 10
55.642214
 20
48.909249
 30
0.0
 40
2.0
 50
49.519741
 51
90.0
  0
LINE
  5
9B30
  8
ALPHA
 10
56.940586
 20
50.430508
 30
0.0
 11
53.679661
 21
50.430508
 31
0.0
  0
LINE
  5
9B31
  8
ALPHA
 10
57.305353
 20
50.119185
 30
0.0
 11
53.679661
 21
50.119185
 31
0.0
  0
LINE
  5
9B32
  8
ALPHA
 10
58.512613
 20
42.530692
 30
0.0
 11
53.679661
 21
42.530692
 31
0.0
  0
LINE
  5
9B33
  8
ALPHA
 10
53.679661
 20
42.109249
 30
0.0
 11
53.679661
 21
50.909249
 31
0.0
  0
LINE
  5
9B34
  8
ALPHA
 10
55.642214
 20
50.909249
 30
0.0
 11
53.679661
 21
50.909249
 31
0.0
  0
LINE
  5
9B35
  8
ALPHA
 10
53.629661
 20
52.119249
 30
0.0
 11
53.554661
 21
52.119249
 31
0.0
  0
LINE
  5
9B36
  8
ALPHA
 10
53.554661
 20
47.874249
 30
0.0
 11
53.354661
 21
47.674249
 31
0.0
  0
LINE
  5
9B37
  8
ALPHA
 10
55.379661
 20
51.634249
 30
0.0
 11
55.379661
 21
50.909249
 31
0.0
  0
LINE
  5
9B38
  8
ALPHA
 10
57.305353
 20
50.119185
 30
0.0
 11
58.512613
 21
42.530692
 31
0.0
  0
ARC
  5
9B39
  8
ALPHA
 10
59.006404
 20
42.609249
 30
0.0
 40
0.5
 50
189.039483
 51
270.0
  0
LINE
  5
9B3A
  8
ALPHA
 10
56.940586
 20
50.430508
 30
0.0
 11
57.305353
 21
50.119185
 31
0.0
  0
LINE
  5
9B3B
  8
ALPHA
 10
59.879661
 20
42.109249
 30
0.0
 11
60.293946
 21
41.694964
 31
0.0
  0
POLYLINE
  5
9B3C
  8
ALPHA
 66
     1
 10
0.0
 20
0.0
 30
0.0
 70
   128
210
0.0
220
0.0
230
-1.0
  0
VERTEX
  5
9FFE
  8
ALPHA
 10
-62.271966
 20
32.409249
 30
0.0
  0
VERTEX
  5
9FFF
  8
ALPHA
 10
-64.0202
 20
32.275313
 30
0.0
  0
VERTEX
  5
A000
  8
ALPHA
 10
-65.736068
 20
31.911826
 30
0.0
  0
SEQEND
  5
A001
  8
ALPHA
  0
LINE
  5
9B3D
  8
ALPHA
 10
65.736068
 20
31.911826
 30
0.0
 11
63.879661
 21
32.409249
 31
0.0
  0
LINE
  5
9B3E
  8
ALPHA
 10
60.276982
 20
35.680229
 30
0.0
 11
60.87716
 21
36.130496
 31
0.0
  0
LINE
  5
9B3F
  8
ALPHA
 10
60.27592
 20
32.679259
 30
0.0
 11
60.273324
 21
32.681476
 31
0.0
  0
LINE
  5
9B40
  8
ALPHA
 10
60.269767
 20
33.679662
 30
0.0
 11
60.275634
 21
33.682468
 31
0.0
  0
LINE
  5
9B41
  8
ALPHA
 10
60.258537
 20
35.672959
 30
0.0
 11
60.258202
 21
35.674005
 31
0.0
  0
LINE
  5
9B42
  8
ALPHA
 10
60.879153
 20
35.178537
 30
0.0
 11
60.769895
 21
35.159366
 31
0.0
  0
LINE
  5
9B43
  8
ALPHA
 10
60.879464
 20
35.180614
 30
0.0
 11
60.879153
 21
35.178537
 31
0.0
  0
LINE
  5
9B44
  8
ALPHA
 10
60.879661
 20
35.184248
 30
0.0
 11
60.879464
 21
35.180614
 31
0.0
  0
LINE
  5
9B45
  8
ALPHA
 10
60.879142
 20
34.178492
 30
0.0
 11
60.770241
 21
34.159406
 31
0.0
  0
LINE
  5
9B46
  8
ALPHA
 10
60.879461
 20
34.180593
 30
0.0
 11
60.879142
 21
34.178492
 31
0.0
  0
LINE
  5
9B47
  8
ALPHA
 10
60.879659
 20
34.183876
 30
0.0
 11
60.879461
 21
34.180593
 31
0.0
  0
LINE
  5
9B48
  8
ALPHA
 10
60.879661
 20
34.184249
 30
0.0
 11
60.879659
 21
34.183876
 31
0.0
  0
LINE
  5
9B49
  8
ALPHA
 10
60.879145
 20
33.178507
 30
0.0
 11
60.770154
 21
33.159397
 31
0.0
  0
LINE
  5
9B4A
  8
ALPHA
 10
60.879462
 20
33.180601
 30
0.0
 11
60.879145
 21
33.178507
 31
0.0
  0
LINE
  5
9B4B
  8
ALPHA
 10
60.879661
 20
33.18425
 30
0.0
 11
60.879462
 21
33.180601
 31
0.0
  0
LINE
  5
9B4C
  8
ALPHA
 10
60.582248
 20
32.409249
 30
0.0
 11
60.276982
 21
32.638269
 31
0.0
  0
LINE
  5
9B4D
  8
ALPHA
 10
60.87716
 20
33.188002
 30
0.0
 11
60.276982
 21
33.63827
 31
0.0
  0
LINE
  5
9B4E
  8
ALPHA
 10
60.276982
 20
32.680229
 30
0.0
 11
60.87716
 21
33.130497
 31
0.0
  0
LINE
  5
9B4F
  8
ALPHA
 10
60.276982
 20
33.68023
 30
0.0
 11
60.87716
 21
34.130498
 31
0.0
  0
LINE
  5
9B50
  8
ALPHA
 10
60.87716
 20
34.188001
 30
0.0
 11
60.276982
 21
34.638268
 31
0.0
  0
LINE
  5
9B51
  8
ALPHA
 10
60.87716
 20
35.188
 30
0.0
 11
60.276982
 21
35.638268
 31
0.0
  0
LINE
  5
9B52
  8
ALPHA
 10
60.276982
 20
34.680229
 30
0.0
 11
60.87716
 21
35.130497
 31
0.0
  0
LINE
  5
9B53
  8
ALPHA
 10
60.87716
 20
33.130497
 30
0.0
 11
60.879661
 21
33.134249
 31
0.0
  0
LINE
  5
9B54
  8
ALPHA
 10
60.87716
 20
34.130498
 30
0.0
 11
60.879661
 21
34.13425
 31
0.0
  0
LINE
  5
9B55
  8
ALPHA
 10
60.87716
 20
35.130497
 30
0.0
 11
60.879661
 21
35.134249
 31
0.0
  0
LINE
  5
9B56
  8
ALPHA
 10
60.879661
 20
33.18425
 30
0.0
 11
60.879661
 21
33.134249
 31
0.0
  0
LINE
  5
9B57
  8
ALPHA
 10
60.879661
 20
34.184249
 30
0.0
 11
60.879661
 21
34.13425
 31
0.0
  0
LINE
  5
9B58
  8
ALPHA
 10
60.879661
 20
35.184248
 30
0.0
 11
60.879661
 21
35.134249
 31
0.0
  0
LINE
  5
9B59
  8
ALPHA
 10
60.279661
 20
35.634248
 30
0.0
 11
60.279661
 21
35.684248
 31
0.0
  0
LINE
  5
9B5A
  8
ALPHA
 10
60.279661
 20
34.634249
 30
0.0
 11
60.279661
 21
34.684249
 31
0.0
  0
LINE
  5
9B5B
  8
ALPHA
 10
60.279661
 20
33.63425
 30
0.0
 11
60.279661
 21
33.68425
 31
0.0
  0
LINE
  5
9B5C
  8
ALPHA
 10
60.279661
 20
32.634249
 30
0.0
 11
60.279661
 21
32.684249
 31
0.0
  0
LINE
  5
9B5D
  8
ALPHA
 10
60.279875
 20
41.679219
 30
0.0
 11
60.294941
 21
41.693923
 31
0.0
  0
LINE
  5
9B5E
  8
ALPHA
 10
60.272658
 20
41.678736
 30
0.0
 11
60.279875
 21
41.679219
 31
0.0
  0
POLYLINE
  5
9B5F
  8
ALPHA
 66
     1
 10
0.0
 20
0.0
 30
0.0
 70
   128
210
0.0
220
0.0
230
-1.0
  0
VERTEX
  5
A002
  8
ALPHA
 10
-59.898699
 20
41.109249
 30
0.0
  0
VERTEX
  5
A003
  8
ALPHA
 10
-60.284612
 20
41.198176
 30
0.0
  0
VERTEX
  5
A004
  8
ALPHA
 10
-60.504415
 20
41.248515
 30
0.0
  0
VERTEX
  5
A005
  8
ALPHA
 10
-60.580404
 20
41.409503
 30
0.0
  0
SEQEND
  5
A006
  8
ALPHA
  0
LINE
  5
9B60
  8
ALPHA
 10
60.254978
 20
39.672044
 30
0.0
 11
60.254504
 21
39.677297
 31
0.0
  0
LINE
  5
9B61
  8
ALPHA
 10
60.273367
 20
40.677013
 30
0.0
 11
60.271565
 21
40.678766
 31
0.0
  0
LINE
  5
9B62
  8
ALPHA
 10
60.272068
 20
41.675841
 30
0.0
 11
60.277988
 21
41.678967
 31
0.0
  0
LINE
  5
9B63
  8
ALPHA
 10
60.879176
 20
40.17864
 30
0.0
 11
60.768988
 21
40.159264
 31
0.0
  0
LINE
  5
9B64
  8
ALPHA
 10
60.879471
 20
40.180666
 30
0.0
 11
60.879176
 21
40.17864
 31
0.0
  0
LINE
  5
9B65
  8
ALPHA
 10
60.879661
 20
40.184249
 30
0.0
 11
60.879471
 21
40.180666
 31
0.0
  0
LINE
  5
9B66
  8
ALPHA
 10
60.879153
 20
39.178537
 30
0.0
 11
60.769895
 21
39.159366
 31
0.0
  0
LINE
  5
9B67
  8
ALPHA
 10
60.879464
 20
39.180614
 30
0.0
 11
60.879153
 21
39.178537
 31
0.0
  0
LINE
  5
9B68
  8
ALPHA
 10
60.879661
 20
39.184248
 30
0.0
 11
60.879464
 21
39.180614
 31
0.0
  0
LINE
  5
9B69
  8
ALPHA
 10
60.879145
 20
37.178507
 30
0.0
 11
60.770154
 21
37.159397
 31
0.0
  0
LINE
  5
9B6A
  8
ALPHA
 10
60.879462
 20
37.180601
 30
0.0
 11
60.879145
 21
37.178507
 31
0.0
  0
LINE
  5
9B6B
  8
ALPHA
 10
60.879661
 20
37.18425
 30
0.0
 11
60.879462
 21
37.180601
 31
0.0
  0
LINE
  5
9B6C
  8
ALPHA
 10
60.879176
 20
36.17864
 30
0.0
 11
60.768988
 21
36.159264
 31
0.0
  0
LINE
  5
9B6D
  8
ALPHA
 10
60.879471
 20
36.180666
 30
0.0
 11
60.879176
 21
36.17864
 31
0.0
  0
LINE
  5
9B6E
  8
ALPHA
 10
60.879661
 20
36.184249
 30
0.0
 11
60.879471
 21
36.180666
 31
0.0
  0
LINE
  5
9B6F
  8
ALPHA
 10
60.27592
 20
36.679259
 30
0.0
 11
60.273324
 21
36.681476
 31
0.0
  0
LINE
  5
9B70
  8
ALPHA
 10
60.269767
 20
37.679662
 30
0.0
 11
60.275634
 21
37.682468
 31
0.0
  0
LINE
  5
9B71
  8
ALPHA
 10
60.879142
 20
38.178492
 30
0.0
 11
60.770241
 21
38.159406
 31
0.0
  0
LINE
  5
9B72
  8
ALPHA
 10
60.879461
 20
38.180593
 30
0.0
 11
60.879142
 21
38.178492
 31
0.0
  0
LINE
  5
9B73
  8
ALPHA
 10
60.879659
 20
38.183876
 30
0.0
 11
60.879461
 21
38.180593
 31
0.0
  0
LINE
  5
9B74
  8
ALPHA
 10
60.879661
 20
38.184249
 30
0.0
 11
60.879659
 21
38.183876
 31
0.0
  0
LINE
  5
9B75
  8
ALPHA
 10
60.87716
 20
36.188001
 30
0.0
 11
60.276982
 21
36.638269
 31
0.0
  0
LINE
  5
9B76
  8
ALPHA
 10
60.87716
 20
37.188002
 30
0.0
 11
60.276982
 21
37.63827
 31
0.0
  0
LINE
  5
9B77
  8
ALPHA
 10
60.276982
 20
36.680229
 30
0.0
 11
60.87716
 21
37.130497
 31
0.0
  0
LINE
  5
9B78
  8
ALPHA
 10
60.276982
 20
37.68023
 30
0.0
 11
60.87716
 21
38.130498
 31
0.0
  0
LINE
  5
9B79
  8
ALPHA
 10
60.87716
 20
38.188001
 30
0.0
 11
60.276982
 21
38.638268
 31
0.0
  0
LINE
  5
9B7A
  8
ALPHA
 10
60.87716
 20
39.188
 30
0.0
 11
60.276982
 21
39.638268
 31
0.0
  0
LINE
  5
9B7B
  8
ALPHA
 10
60.87716
 20
40.188001
 30
0.0
 11
60.276982
 21
40.638269
 31
0.0
  0
LINE
  5
9B7C
  8
ALPHA
 10
60.561514
 20
41.424805
 30
0.0
 11
60.276982
 21
41.63827
 31
0.0
  0
LINE
  5
9B7D
  8
ALPHA
 10
60.276982
 20
38.680229
 30
0.0
 11
60.87716
 21
39.130497
 31
0.0
  0
LINE
  5
9B7E
  8
ALPHA
 10
60.276982
 20
39.680229
 30
0.0
 11
60.87716
 21
40.130496
 31
0.0
  0
LINE
  5
9B7F
  8
ALPHA
 10
60.797658
 20
41.070854
 30
0.0
 11
60.865018
 21
41.121388
 31
0.0
  0
LINE
  5
9B80
  8
ALPHA
 10
60.276982
 20
40.680229
 30
0.0
 11
60.797658
 21
41.070854
 31
0.0
  0
LINE
  5
9B81
  8
ALPHA
 10
60.579658
 20
41.409252
 30
0.0
 11
60.865375
 21
41.123535
 31
0.0
  0
LINE
  5
9B82
  8
ALPHA
 10
60.57966
 20
41.409251
 30
0.0
 11
60.561514
 21
41.424805
 31
0.0
  0
LINE
  5
9B83
  8
ALPHA
 10
60.865375
 20
41.123535
 30
0.0
 11
60.865018
 21
41.121388
 31
0.0
  0
LINE
  5
9B84
  8
ALPHA
 10
60.879661
 20
36.184249
 30
0.0
 11
60.879661
 21
36.134248
 31
0.0
  0
LINE
  5
9B85
  8
ALPHA
 10
60.879661
 20
37.18425
 30
0.0
 11
60.879661
 21
37.134249
 31
0.0
  0
LINE
  5
9B86
  8
ALPHA
 10
60.879661
 20
38.184249
 30
0.0
 11
60.879661
 21
38.13425
 31
0.0
  0
LINE
  5
9B87
  8
ALPHA
 10
60.879661
 20
39.184248
 30
0.0
 11
60.879661
 21
39.134249
 31
0.0
  0
LINE
  5
9B88
  8
ALPHA
 10
60.879661
 20
40.184249
 30
0.0
 11
60.879661
 21
40.134248
 31
0.0
  0
LINE
  5
9B89
  8
ALPHA
 10
60.279661
 20
41.63425
 30
0.0
 11
60.279661
 21
41.68425
 31
0.0
  0
LINE
  5
9B8A
  8
ALPHA
 10
60.279661
 20
40.634249
 30
0.0
 11
60.279661
 21
40.684249
 31
0.0
  0
LINE
  5
9B8B
  8
ALPHA
 10
60.279661
 20
39.634248
 30
0.0
 11
60.279661
 21
39.684248
 31
0.0
  0
LINE
  5
9B8C
  8
ALPHA
 10
60.279661
 20
38.634249
 30
0.0
 11
60.279661
 21
38.684249
 31
0.0
  0
LINE
  5
9B8D
  8
ALPHA
 10
60.279661
 20
37.63425
 30
0.0
 11
60.279661
 21
37.68425
 31
0.0
  0
LINE
  5
9B8E
  8
ALPHA
 10
60.279661
 20
36.634249
 30
0.0
 11
60.279661
 21
36.684249
 31
0.0
  0
LINE
  5
9B8F
  8
ALPHA
 10
60.87716
 20
36.130496
 30
0.0
 11
60.879661
 21
36.134248
 31
0.0
  0
LINE
  5
9B90
  8
ALPHA
 10
60.87716
 20
37.130497
 30
0.0
 11
60.879661
 21
37.134249
 31
0.0
  0
LINE
  5
9B91
  8
ALPHA
 10
60.87716
 20
38.130498
 30
0.0
 11
60.879661
 21
38.13425
 31
0.0
  0
LINE
  5
9B92
  8
ALPHA
 10
60.87716
 20
39.130497
 30
0.0
 11
60.879661
 21
39.134249
 31
0.0
  0
LINE
  5
9B93
  8
ALPHA
 10
60.293565
 20
41.692671
 30
0.0
 11
60.293946
 21
41.694964
 31
0.0
  0
LINE
  5
9B94
  8
ALPHA
 10
60.768854
 20
41.109249
 30
0.0
 11
59.898699
 21
41.109249
 31
0.0
  0
LINE
  5
9B95
  8
ALPHA
 10
60.865018
 20
41.121388
 30
0.0
 11
60.768854
 21
41.109249
 31
0.0
  0
LINE
  5
9B96
  8
ALPHA
 10
60.87716
 20
40.130496
 30
0.0
 11
60.879661
 21
40.134248
 31
0.0
  0
LINE
  5
9B97
  8
ALPHA
 10
53.554661
 20
59.074249
 30
0.0
 11
53.354661
 21
59.274249
 31
0.0
  0
LINE
  5
9B98
  8
ALPHA
 10
53.629661
 20
56.209249
 30
0.0
 11
55.179573
 21
56.209249
 31
0.0
  0
LINE
  5
9B99
  8
ALPHA
 10
55.379661
 20
56.009249
 30
0.0
 11
53.629661
 21
56.009249
 31
0.0
  0
LINE
  5
9B9A
  8
ALPHA
 10
53.629661
 20
54.899249
 30
0.0
 11
53.554661
 21
54.899249
 31
0.0
  0
LINE
  5
9B9B
  8
ALPHA
 10
55.179661
 20
56.209249
 30
0.0
 11
55.379661
 21
56.009249
 31
0.0
  0
LINE
  5
9B9C
  8
ALPHA
 10
55.379661
 20
56.009249
 30
0.0
 11
55.379661
 21
55.384249
 31
0.0
  0
VIEWPORT
  5
494D
 67
     1
  8
0
 10
4.995325
 20
6.556512
 30
0.0
 40
22.70986
 41
13.988421
 68
    -1
 69
     1
1001
ACAD
1000
MVIEW
1002
{
1070
    16
1010
0.0
1020
0.0
1030
0.0
1010
0.0
1020
0.0
1030
1.0
1040
0.0
1040
13.988421
1040
4.995325
1040
6.556512
1040
50.0
1040
0.0
1040
0.0
1070
     0
1070
   100
1070
     1
1070
     1
1070
     0
1070
     0
1070
     0
1070
     0
1040
0.0
1040
0.0
1040
0.0
1040
10.0
1040
10.0
1040
10.0
1040
10.0
1070
     0
1002
{
1002
}
1002
}
  0
ENDSEC
  0
EOF
