  0
SECTION
  2
HEADER
  9
$ACADVER
  1
AC1009
  9
$INSBASE
 10
402.590624
 20
-1.041018
 30
0.0
  9
$EXTMIN
 10
90.495034
 20
-208.230929
 30
0.0
  9
$EXTMAX
 10
334.387891
 20
-110.701748
 30
0.0
  9
$LIMMIN
 10
-407.970438
 20
-367.832444
  9
$LIMMAX
 10
429.804077
 20
234.370848
  9
$ORTHOMODE
 70
     1
  9
$REGENMODE
 70
     1
  9
$FILLMODE
 70
     1
  9
$QTEXTMODE
 70
     0
  9
$MIRRTEXT
 70
     1
  9
$DRAGMODE
 70
     2
  9
$LTSCALE
 40
10.0
  9
$OSMODE
 70
   161
  9
$ATTMODE
 70
     1
  9
$TEXTSIZE
 40
6.0
  9
$TRACEWID
 40
1.0
  9
$TEXTSTYLE
  7
ROMANS
  9
$CLAYER
  8
ALPHA
  9
$CELTYPE
  6
BYLAYER
  9
$CECOLOR
 62
   256
  9
$DIMSCALE
 40
1.0
  9
$DIMASZ
 40
5.0
  9
$DIMEXO
 40
2.0
  9
$DIMDLI
 40
0.38
  9
$DIMRND
 40
0.0
  9
$DIMDLE
 40
0.0
  9
$DIMEXE
 40
2.5
  9
$DIMTP
 40
0.0
  9
$DIMTM
 40
0.0
  9
$DIMTXT
 40
2.5
  9
$DIMCEN
 40
0.0
  9
$DIMTSZ
 40
0.0
  9
$DIMTOL
 70
     0
  9
$DIMLIM
 70
     0
  9
$DIMTIH
 70
     1
  9
$DIMTOH
 70
     1
  9
$DIMSE1
 70
     0
  9
$DIMSE2
 70
     0
  9
$DIMTAD
 70
     1
  9
$DIMZIN
 70
    12
  9
$DIMBLK
  1
OPEN30
  9
$DIMASO
 70
     1
  9
$DIMSHO
 70
     1
  9
$DIMPOST
  1

  9
$DIMAPOST
  1

  9
$DIMALT
 70
     0
  9
$DIMALTD
 70
     2
  9
$DIMALTF
 40
25.4
  9
$DIMLFAC
 40
1.0
  9
$DIMTOFL
 70
     0
  9
$DIMTVP
 40
0.0
  9
$DIMTIX
 70
     0
  9
$DIMSOXD
 70
     0
  9
$DIMSAH
 70
     0
  9
$DIMBLK1
  1

  9
$DIMBLK2
  1

  9
$DIMSTYLE
  2
SC_DEFAUT
  9
$DIMCLRD
 70
     0
  9
$DIMCLRE
 70
     0
  9
$DIMCLRT
 70
     0
  9
$DIMTFAC
 40
1.0
  9
$DIMGAP
 40
2.0
  9
$LUNITS
 70
     2
  9
$LUPREC
 70
     1
  9
$SKETCHINC
 40
0.1
  9
$FILLETRAD
 40
0.0
  9
$AUNITS
 70
     0
  9
$AUPREC
 70
     0
  9
$MENU
  1
acad
  9
$ELEVATION
 40
0.0
  9
$PELEVATION
 40
0.0
  9
$THICKNESS
 40
0.0
  9
$LIMCHECK
 70
     0
  9
$BLIPMODE
 70
     0
  9
$CHAMFERA
 40
0.0
  9
$CHAMFERB
 40
0.0
  9
$SKPOLY
 70
     0
  9
$TDCREATE
 40
2450373.687919
  9
$TDUPDATE
 40
2453031.665724
  9
$TDINDWG
 40
1.050864
  9
$TDUSRTIMER
 40
1.050864
  9
$USRTIMER
 70
     1
  9
$ANGBASE
 50
0.0
  9
$ANGDIR
 70
     0
  9
$PDMODE
 70
    32
  9
$PDSIZE
 40
0.0
  9
$PLINEWID
 40
0.0
  9
$COORDS
 70
     1
  9
$SPLFRAME
 70
     0
  9
$SPLINETYPE
 70
     6
  9
$SPLINESEGS
 70
     8
  9
$ATTDIA
 70
     0
  9
$ATTREQ
 70
     1
  9
$HANDLING
 70
     1
  9
$HANDSEED
  5
A02D
  9
$SURFTAB1
 70
     6
  9
$SURFTAB2
 70
     6
  9
$SURFTYPE
 70
     6
  9
$SURFU
 70
     6
  9
$SURFV
 70
     6
  9
$UCSNAME
  2

  9
$UCSORG
 10
0.0
 20
0.0
 30
0.0
  9
$UCSXDIR
 10
1.0
 20
0.0
 30
0.0
  9
$UCSYDIR
 10
0.0
 20
1.0
 30
0.0
  9
$PUCSNAME
  2

  9
$PUCSORG
 10
0.0
 20
0.0
 30
0.0
  9
$PUCSXDIR
 10
1.0
 20
0.0
 30
0.0
  9
$PUCSYDIR
 10
0.0
 20
1.0
 30
0.0
  9
$USERI1
 70
     0
  9
$USERI2
 70
     0
  9
$USERI3
 70
     0
  9
$USERI4
 70
     0
  9
$USERI5
 70
     0
  9
$USERR1
 40
0.0
  9
$USERR2
 40
0.0
  9
$USERR3
 40
0.0
  9
$USERR4
 40
0.0
  9
$USERR5
 40
0.0
  9
$WORLDVIEW
 70
     1
  9
$SHADEDGE
 70
     3
  9
$SHADEDIF
 70
    70
  9
$TILEMODE
 70
     1
  9
$MAXACTVP
 70
    16
  9
$PLIMCHECK
 70
     0
  9
$PEXTMIN
 10
-1.452248
 20
-0.437698
 30
0.0
  9
$PEXTMAX
 10
12.749749
 20
8.310198
 30
0.0
  9
$PLIMMIN
 10
0.0
 20
0.0
  9
$PLIMMAX
 10
12.0
 20
9.0
  9
$UNITMODE
 70
     0
  9
$VISRETAIN
 70
     0
  9
$PLINEGEN
 70
     0
  9
$PSLTSCALE
 70
     0
  0
ENDSEC
  0
SECTION
  2
TABLES
  0
TABLE
  2
VPORT
 70
     2
  0
VPORT
  2
*ACTIVE
 70
     0
 10
0.0
 20
0.0
 11
1.0
 21
1.0
 12
212.447511
 22
-159.469699
 13
0.0
 23
0.0
 14
1.0
 24
1.0
 15
10.0
 25
10.0
 16
0.0
 26
0.0
 36
1.0
 17
0.0
 27
0.0
 37
0.0
 40
167.154151
 41
1.466346
 42
50.0
 43
0.0
 44
0.0
 50
0.0
 51
0.0
 71
     0
 72
   100
 73
     1
 74
     0
 75
     0
 76
     0
 77
     0
 78
     0
  0
ENDTAB
  0
TABLE
  2
LTYPE
 70
     2
  0
LTYPE
  2
CONTINUOUS
 70
     0
  3
Solid line
 72
    65
 73
     0
 40
0.0
  0
LTYPE
  2
AXES2
 70
     0
  3
___ _ ___ _ ___ _ ___ _ ___ _ ___ _ ___ _ ___ _
 72
    65
 73
     4
 40
1.125
 49
0.75
 49
-0.125
 49
0.125
 49
-0.125
  0
ENDTAB
  0
TABLE
  2
LAYER
 70
     5
  0
LAYER
  2
0
 70
     0
 62
   255
  6
CONTINUOUS
  0
LAYER
  2
COTATION1
 70
     0
 62
     2
  6
CONTINUOUS
  0
LAYER
  2
AXE
 70
     0
 62
    80
  6
AXES2
  0
LAYER
  2
DEFPOINTS
 70
     0
 62
     7
  6
CONTINUOUS
  0
LAYER
  2
ALPHA
 70
     0
 62
   254
  6
CONTINUOUS
  0
ENDTAB
  0
TABLE
  2
STYLE
 70
     2
  0
STYLE
  2
ROMANS
 70
     0
 40
0.0
 41
1.0
 50
0.0
 71
     0
 42
6.0
  3
romans
  4

  0
STYLE
  2
STANDARD
 70
     0
 40
0.0
 41
1.0
 50
0.0
 71
     0
 42
0.2
  3
txt
  4

  0
ENDTAB
  0
TABLE
  2
VIEW
 70
     0
  0
ENDTAB
  0
TABLE
  2
UCS
 70
     0
  0
ENDTAB
  0
TABLE
  2
APPID
 70
     1
  0
APPID
  2
ACAD
 70
     0
  0
ENDTAB
  0
TABLE
  2
DIMSTYLE
 70
     2
  0
DIMSTYLE
  2
SC_DEFAUT
 70
     0
  3

  4

  5
OPEN30
  6

  7

 40
1.0
 41
5.0
 42
2.0
 43
0.38
 44
2.5
 45
0.0
 46
0.0
 47
0.0
 48
0.0
140
2.5
141
0.0
142
0.0
143
25.4
144
1.0
145
0.0
146
1.0
147
2.0
 71
     0
 72
     0
 73
     1
 74
     1
 75
     0
 76
     0
 77
     1
 78
    12
170
     0
171
     2
172
     0
173
     0
174
     0
175
     0
176
     0
177
     0
178
     0
  0
DIMSTYLE
  2
STANDARD
 70
     0
  3

  4

  5

  6

  7

 40
1.0
 41
0.18
 42
0.0625
 43
0.38
 44
0.18
 45
0.0
 46
0.0
 47
0.0
 48
0.0
140
0.18
141
0.09
142
0.0
143
25.4
144
1.0
145
0.0
146
1.0
147
0.09
 71
     0
 72
     0
 73
     1
 74
     1
 75
     0
 76
     0
 77
     0
 78
     0
170
     0
171
     2
172
     0
173
     0
174
     0
175
     0
176
     0
177
     0
178
     0
  0
ENDTAB
  0
ENDSEC
  0
SECTION
  2
BLOCKS
  0
BLOCK
  8
0
  2
$MODEL_SPACE
 70
     0
 10
0.0
 20
0.0
 30
0.0
  3
$MODEL_SPACE
  1

  0
ENDBLK
  5
9FCE
  8
0
  0
BLOCK
 67
     1
  8
0
  2
$PAPER_SPACE
 70
     0
 10
0.0
 20
0.0
 30
0.0
  3
$PAPER_SPACE
  1

  0
ENDBLK
  5
9FCC
 67
     1
  8
0
  0
BLOCK
  8
0
  2
COTE
 70
     0
 10
0.0
 20
0.0
 30
0.0
  3
COTE
  1

  0
ENDBLK
  5
F
  8
0
  0
BLOCK
  8
0
  2
FOND
 70
     0
 10
0.0
 20
0.0
 30
0.0
  3
FOND
  1

  0
ENDBLK
  5
75
  8
0
  0
BLOCK
  8
0
  2
_OPEN30
 70
     0
 10
0.0
 20
0.0
 30
0.0
  3
_OPEN30
  1

  0
LINE
  5
4B05
  8
COTATION1
 62
     0
 10
-1.0
 20
0.267949
 30
0.0
 11
0.0
 21
0.0
 31
0.0
1001
ACAD
1000
RTLwPs
1070
   158
  0
LINE
  5
4B06
  8
COTATION1
 62
     0
 10
0.0
 20
0.0
 30
0.0
 11
-1.0
 21
-0.267949
 31
0.0
1001
ACAD
1000
RTLwPs
1070
   158
  0
LINE
  5
4B07
  8
COTATION1
 62
     0
 10
0.0
 20
0.0
 30
0.0
 11
-1.0
 21
0.0
 31
0.0
1001
ACAD
1000
RTLwPs
1070
   158
  0
ENDBLK
  5
4B09
  8
0
  0
BLOCK
  8
0
  2
*D3
 70
     1
 10
0.0
 20
0.0
 30
0.0
  3
*D3
  1

  0
LINE
  5
9E08
  8
COTATION1
 62
     0
 10
312.495034
 20
-191.580929
 30
0.0
 11
312.495034
 21
-164.077551
 31
0.0
1001
ACAD
1000
RTLwPs
1070
   158
  0
LINE
  5
9E09
  8
COTATION1
 62
     0
 10
248.995034
 20
-181.378056
 30
0.0
 11
248.995034
 21
-164.077551
 31
0.0
1001
ACAD
1000
RTLwPs
1070
   158
  0
LINE
  5
9E0A
  8
COTATION1
 62
     0
 10
307.495034
 20
-166.577551
 30
0.0
 11
253.995034
 21
-166.577551
 31
0.0
1001
ACAD
1000
RTLwPs
1070
   158
  0
INSERT
  5
9E0B
  8
COTATION1
 62
     0
  2
_OPEN30
 10
312.495034
 20
-166.577551
 30
0.0
 41
5.0
 42
5.0
 43
5.0
1001
ACAD
1000
RTLwPs
1070
   158
  0
INSERT
  5
9E0C
  8
COTATION1
 62
     0
  2
_OPEN30
 10
248.995034
 20
-166.577551
 30
0.0
 41
5.0
 42
5.0
 43
5.0
 50
180.0
1001
ACAD
1000
RTLwPs
1070
   158
  0
TEXT
  5
9E0D
  8
COTATION1
 62
     0
 10
276.518844
 20
-164.577551
 30
0.0
 40
2.5
  1
63.5
1001
ACAD
1000
MTEXTBEGIN
1070
    73
1070
     1
1070
    44
1040
1.0
1070
    74
1070
     0
1000
MTEXTEND
  0
POINT
  5
9E0E
  8
DEFPOINTS
 62
     0
 10
312.495034
 20
-193.580929
 30
0.0
  0
POINT
  5
9E0F
  8
DEFPOINTS
 62
     0
 10
248.995034
 20
-183.378056
 30
0.0
  0
POINT
  5
9E10
  8
DEFPOINTS
 62
     0
 10
248.995034
 20
-166.577551
 30
0.0
  0
ENDBLK
  5
9723
  8
0
  0
BLOCK
  8
0
  2
*D4
 70
     1
 10
0.0
 20
0.0
 30
0.0
  3
*D4
  1

  0
LINE
  5
9E1A
  8
COTATION1
 62
     0
 10
310.783976
 20
-178.531552
 30
0.0
 11
333.495034
 21
-178.531552
 31
0.0
1001
ACAD
1000
RTLwPs
1070
   158
  0
LINE
  5
9E1B
  8
COTATION1
 62
     0
 10
309.929894
 20
-200.523744
 30
0.0
 11
333.495034
 21
-200.523744
 31
0.0
1001
ACAD
1000
RTLwPs
1070
   158
  0
LINE
  5
9E1C
  8
COTATION1
 62
     0
 10
330.995034
 20
-183.531552
 30
0.0
 11
330.995034
 21
-186.200821
 31
0.0
1001
ACAD
1000
RTLwPs
1070
   158
  0
LINE
  5
9E1D
  8
COTATION1
 62
     0
 10
330.995034
 20
-195.523744
 30
0.0
 11
330.995034
 21
-192.700821
 31
0.0
1001
ACAD
1000
RTLwPs
1070
   158
  0
TEXT
  5
9E1E
  8
COTATION1
 62
     0
 10
327.125987
 20
-190.700821
 30
0.0
 40
2.5
  1
M22
1001
ACAD
1000
MTEXTBEGIN
1070
    73
1070
     1
1070
    44
1040
1.0
1070
    74
1070
     0
1000
MTEXTEND
  0
INSERT
  5
9E1F
  8
COTATION1
 62
     0
  2
_OPEN30
 10
330.995034
 20
-178.531552
 30
0.0
 41
5.0
 42
5.0
 43
5.0
 50
90.0
1001
ACAD
1000
RTLwPs
1070
   158
  0
INSERT
  5
9E20
  8
COTATION1
 62
     0
  2
_OPEN30
 10
330.995034
 20
-200.523744
 30
0.0
 41
5.0
 42
5.0
 43
5.0
 50
270.0
1001
ACAD
1000
RTLwPs
1070
   158
  0
POINT
  5
9E21
  8
DEFPOINTS
 62
     0
 10
308.783976
 20
-178.531552
 30
0.0
  0
POINT
  5
9E22
  8
DEFPOINTS
 62
     0
 10
307.929894
 20
-200.523744
 30
0.0
  0
POINT
  5
9E23
  8
DEFPOINTS
 62
     0
 10
330.995034
 20
-200.523744
 30
0.0
  0
ENDBLK
  5
9809
  8
0
  0
BLOCK
  8
0
  2
*D5
 70
     1
 10
0.0
 20
0.0
 30
0.0
  3
*D5
  1

  0
LINE
  5
9D9A
  8
COTATION1
 62
     0
 10
127.995034
 20
-140.405866
 30
0.0
 11
127.995034
 21
-112.701748
 31
0.0
1001
ACAD
1000
RTLwPs
1070
   158
  0
LINE
  5
9D9B
  8
COTATION1
 62
     0
 10
157.995034
 20
-140.405866
 30
0.0
 11
157.995034
 21
-112.701748
 31
0.0
1001
ACAD
1000
RTLwPs
1070
   158
  0
LINE
  5
9D9C
  8
COTATION1
 62
     0
 10
132.995034
 20
-115.201748
 30
0.0
 11
152.995034
 21
-115.201748
 31
0.0
1001
ACAD
1000
RTLwPs
1070
   158
  0
INSERT
  5
9D9D
  8
COTATION1
 62
     0
  2
_OPEN30
 10
127.995034
 20
-115.201748
 30
0.0
 41
5.0
 42
5.0
 43
5.0
 50
180.0
1001
ACAD
1000
RTLwPs
1070
   158
  0
INSERT
  5
9D9E
  8
COTATION1
 62
     0
  2
_OPEN30
 10
157.995034
 20
-115.201748
 30
0.0
 41
5.0
 42
5.0
 43
5.0
1001
ACAD
1000
RTLwPs
1070
   158
  0
TEXT
  5
9D9F
  8
COTATION1
 62
     0
 10
140.614082
 20
-113.201748
 30
0.0
 40
2.5
  1
30
1001
ACAD
1000
MTEXTBEGIN
1070
    73
1070
     1
1070
    44
1040
1.0
1070
    74
1070
     0
1000
MTEXTEND
  0
POINT
  5
9DA0
  8
DEFPOINTS
 62
     0
 10
127.995034
 20
-142.405866
 30
0.0
  0
POINT
  5
9DA1
  8
DEFPOINTS
 62
     0
 10
157.995034
 20
-142.405866
 30
0.0
  0
POINT
  5
9DA2
  8
DEFPOINTS
 62
     0
 10
157.995034
 20
-115.201748
 30
0.0
  0
ENDBLK
  5
9D45
  8
0
  0
BLOCK
  8
0
  2
*D6
 70
     1
 10
0.0
 20
0.0
 30
0.0
  3
*D6
  1

  0
LINE
  5
9DA3
  8
COTATION1
 62
     0
 10
123.920034
 20
-150.201748
 30
0.0
 11
100.495034
 21
-150.201748
 31
0.0
1001
ACAD
1000
RTLwPs
1070
   158
  0
LINE
  5
9DA4
  8
COTATION1
 62
     0
 10
127.195034
 20
-190.201748
 30
0.0
 11
100.495034
 21
-190.201748
 31
0.0
1001
ACAD
1000
RTLwPs
1070
   158
  0
LINE
  5
9DA5
  8
COTATION1
 62
     0
 10
102.995034
 20
-155.201748
 30
0.0
 11
102.995034
 21
-166.951748
 31
0.0
1001
ACAD
1000
RTLwPs
1070
   158
  0
LINE
  5
9DA6
  8
COTATION1
 62
     0
 10
102.995034
 20
-185.201748
 30
0.0
 11
102.995034
 21
-173.451748
 31
0.0
1001
ACAD
1000
RTLwPs
1070
   158
  0
INSERT
  5
9DA7
  8
COTATION1
 62
     0
  2
_OPEN30
 10
102.995034
 20
-150.201748
 30
0.0
 41
5.0
 42
5.0
 43
5.0
 50
90.0
1001
ACAD
1000
RTLwPs
1070
   158
  0
INSERT
  5
9DA8
  8
COTATION1
 62
     0
  2
_OPEN30
 10
102.995034
 20
-190.201748
 30
0.0
 41
5.0
 42
5.0
 43
5.0
 50
270.0
1001
ACAD
1000
RTLwPs
1070
   158
  0
TEXT
  5
9DA9
  8
COTATION1
 62
     0
 10
100.614082
 20
-171.451748
 30
0.0
 40
2.5
  1
40
1001
ACAD
1000
MTEXTBEGIN
1070
    73
1070
     1
1070
    44
1040
1.0
1070
    74
1070
     0
1000
MTEXTEND
  0
POINT
  5
9DAA
  8
DEFPOINTS
 62
     0
 10
125.920034
 20
-150.201748
 30
0.0
  0
POINT
  5
9DAB
  8
DEFPOINTS
 62
     0
 10
129.195034
 20
-190.201748
 30
0.0
  0
POINT
  5
9DAC
  8
DEFPOINTS
 62
     0
 10
102.995034
 20
-190.201748
 30
0.0
  0
ENDBLK
  5
9D52
  8
0
  0
BLOCK
  8
0
  2
*D7
 70
     1
 10
0.0
 20
0.0
 30
0.0
  3
*D7
  1

  0
LINE
  5
9E24
  8
COTATION1
 62
     0
 10
248.995034
 20
-184.230929
 30
0.0
 11
248.995034
 21
-164.077551
 31
0.0
1001
ACAD
1000
RTLwPs
1070
   158
  0
LINE
  5
9E25
  8
COTATION1
 62
     0
 10
157.988241
 20
-182.374537
 30
0.0
 11
157.988241
 21
-164.077551
 31
0.0
1001
ACAD
1000
RTLwPs
1070
   158
  0
LINE
  5
9E26
  8
COTATION1
 62
     0
 10
243.995034
 20
-166.577551
 30
0.0
 11
162.988241
 21
-166.577551
 31
0.0
1001
ACAD
1000
RTLwPs
1070
   158
  0
INSERT
  5
9E27
  8
COTATION1
 62
     0
  2
_OPEN30
 10
248.995034
 20
-166.577551
 30
0.0
 41
5.0
 42
5.0
 43
5.0
1001
ACAD
1000
RTLwPs
1070
   158
  0
INSERT
  5
9E28
  8
COTATION1
 62
     0
  2
_OPEN30
 10
157.988241
 20
-166.577551
 30
0.0
 41
5.0
 42
5.0
 43
5.0
 50
180.0
1001
ACAD
1000
RTLwPs
1070
   158
  0
TEXT
  5
9E29
  8
COTATION1
 62
     0
 10
199.920209
 20
-164.577551
 30
0.0
 40
2.5
  1
800
1001
ACAD
1000
MTEXTBEGIN
1070
    73
1070
     1
1070
    44
1040
1.0
1070
    74
1070
     0
1000
MTEXTEND
  0
POINT
  5
9E2A
  8
DEFPOINTS
 62
     0
 10
248.995034
 20
-186.230929
 30
0.0
  0
POINT
  5
9E2B
  8
DEFPOINTS
 62
     0
 10
157.988241
 20
-184.374537
 30
0.0
  0
POINT
  5
9E2C
  8
DEFPOINTS
 62
     0
 10
157.988241
 20
-166.577551
 30
0.0
  0
ENDBLK
  5
9D6A
  8
0
  0
BLOCK
  8
0
  2
*D8
 70
     1
 10
0.0
 20
0.0
 30
0.0
  3
*D8
  1

  0
LINE
  5
9F38
  8
COTATION1
 62
     0
 10
97.359681
 20
-130.358997
 30
0.0
 11
111.264443
 21
-130.358997
 31
0.0
  0
LINE
  5
9F39
  8
COTATION1
 62
     0
 10
111.264443
 20
-130.358997
 30
0.0
 11
127.733539
 21
-145.397344
 31
0.0
  0
TEXT
  5
9F3A
  8
COTATION1
 62
     0
 10
97.002538
 20
-128.358997
 30
0.0
 40
2.5
  1
2x%%c4.3
  0
INSERT
  5
9F3B
  8
COTATION1
 62
     0
  2
_OPEN30
 10
131.425817
 20
-148.768856
 30
0.0
 41
5.0
 42
5.0
 43
5.0
 50
317.600007
  0
POINT
  5
9F3C
  8
DEFPOINTS
 62
     0
 10
131.425817
 20
-148.768856
 30
0.0
  0
POINT
  5
9F3D
  8
DEFPOINTS
 62
     0
 10
134.564252
 20
-151.634641
 30
0.0
  0
ENDBLK
  5
9D80
  8
0
  0
BLOCK
  8
0
  2
*D9
 70
     1
 10
0.0
 20
0.0
 30
0.0
  3
*D9
  1

  0
LINE
  5
9DCF
  8
COTATION1
 62
     0
 10
132.995034
 20
-140.201748
 30
0.0
 11
90.495034
 21
-140.201748
 31
0.0
1001
ACAD
1000
RTLwPs
1070
   158
  0
LINE
  5
9DD0
  8
COTATION1
 62
     0
 10
127.195034
 20
-190.201748
 30
0.0
 11
90.495034
 21
-190.201748
 31
0.0
1001
ACAD
1000
RTLwPs
1070
   158
  0
LINE
  5
9DD1
  8
COTATION1
 62
     0
 10
92.995034
 20
-145.201748
 30
0.0
 11
92.995034
 21
-161.951748
 31
0.0
1001
ACAD
1000
RTLwPs
1070
   158
  0
LINE
  5
9DD2
  8
COTATION1
 62
     0
 10
92.995034
 20
-185.201748
 30
0.0
 11
92.995034
 21
-168.451748
 31
0.0
1001
ACAD
1000
RTLwPs
1070
   158
  0
INSERT
  5
9DD3
  8
COTATION1
 62
     0
  2
_OPEN30
 10
92.995034
 20
-140.201748
 30
0.0
 41
5.0
 42
5.0
 43
5.0
 50
90.0
1001
ACAD
1000
RTLwPs
1070
   158
  0
INSERT
  5
9DD4
  8
COTATION1
 62
     0
  2
_OPEN30
 10
92.995034
 20
-190.201748
 30
0.0
 41
5.0
 42
5.0
 43
5.0
 50
270.0
1001
ACAD
1000
RTLwPs
1070
   158
  0
TEXT
  5
9DD5
  8
COTATION1
 62
     0
 10
90.614082
 20
-166.451748
 30
0.0
 40
2.5
  1
50
1001
ACAD
1000
MTEXTBEGIN
1070
    73
1070
     1
1070
    44
1040
1.0
1070
    74
1070
     0
1000
MTEXTEND
  0
POINT
  5
9DD6
  8
DEFPOINTS
 62
     0
 10
134.995034
 20
-140.201748
 30
0.0
  0
POINT
  5
9DD7
  8
DEFPOINTS
 62
     0
 10
129.195034
 20
-190.201748
 30
0.0
  0
POINT
  5
9DD8
  8
DEFPOINTS
 62
     0
 10
92.995034
 20
-190.201748
 30
0.0
  0
ENDBLK
  5
9D8D
  8
0
  0
BLOCK
  8
0
  2
*D10
 70
     1
 10
0.0
 20
0.0
 30
0.0
  3
*D10
  1

  0
LINE
  5
9DD9
  8
COTATION1
 62
     0
 10
132.995034
 20
-141.126748
 30
0.0
 11
132.995034
 21
-122.701748
 31
0.0
1001
ACAD
1000
RTLwPs
1070
   158
  0
LINE
  5
9DDA
  8
COTATION1
 62
     0
 10
152.995034
 20
-141.126748
 30
0.0
 11
152.995034
 21
-122.701748
 31
0.0
1001
ACAD
1000
RTLwPs
1070
   158
  0
LINE
  5
9DDB
  8
COTATION1
 62
     0
 10
137.995034
 20
-125.201748
 30
0.0
 11
147.995034
 21
-125.201748
 31
0.0
1001
ACAD
1000
RTLwPs
1070
   158
  0
INSERT
  5
9DDC
  8
COTATION1
 62
     0
  2
_OPEN30
 10
132.995034
 20
-125.201748
 30
0.0
 41
5.0
 42
5.0
 43
5.0
 50
180.0
1001
ACAD
1000
RTLwPs
1070
   158
  0
INSERT
  5
9DDD
  8
COTATION1
 62
     0
  2
_OPEN30
 10
152.995034
 20
-125.201748
 30
0.0
 41
5.0
 42
5.0
 43
5.0
1001
ACAD
1000
RTLwPs
1070
   158
  0
TEXT
  5
9DDE
  8
COTATION1
 62
     0
 10
140.614082
 20
-123.201748
 30
0.0
 40
2.5
  1
20
1001
ACAD
1000
MTEXTBEGIN
1070
    73
1070
     1
1070
    44
1040
1.0
1070
    74
1070
     0
1000
MTEXTEND
  0
POINT
  5
9DDF
  8
DEFPOINTS
 62
     0
 10
132.995034
 20
-143.126748
 30
0.0
  0
POINT
  5
9DE0
  8
DEFPOINTS
 62
     0
 10
152.995034
 20
-143.126748
 30
0.0
  0
POINT
  5
9DE1
  8
DEFPOINTS
 62
     0
 10
152.995034
 20
-125.201748
 30
0.0
  0
ENDBLK
  5
9D99
  8
0
  0
ENDSEC
  0
SECTION
  2
ENTITIES
  0
INSERT
  5
A
  8
0
  2
COTE
 10
0.0
 20
0.0
 30
0.0
  0
INSERT
  5
17
  8
0
  2
COTE
 10
284.010391
 20
6.373258
 30
0.0
  0
INSERT
  5
72
  8
0
  2
FOND
 10
0.0
 20
0.0
 30
0.0
  0
LINE
  5
95E4
  8
ALPHA
 10
292.195034
 20
-182.503147
 30
0.0
 11
292.995034
 21
-182.101612
 31
0.0
  0
LINE
  5
95E5
  8
ALPHA
 10
292.195034
 20
-178.458453
 30
0.0
 11
292.460814
 21
-178.22736
 31
0.0
  0
LINE
  5
95E6
  8
ALPHA
 10
292.460829
 20
-200.834512
 30
0.0
 11
292.195034
 21
-200.603405
 31
0.0
  0
LINE
  5
95E7
  8
ALPHA
 10
292.995034
 20
-196.960246
 30
0.0
 11
292.195034
 21
-196.558711
 31
0.0
  0
LINE
  5
95E8
  8
ALPHA
 10
292.995034
 20
-176.577551
 30
0.0
 11
292.195034
 21
-177.38062
 31
0.0
  0
LINE
  5
95E9
  8
ALPHA
 10
292.195034
 20
-201.681238
 30
0.0
 11
292.995034
 21
-202.484307
 31
0.0
  0
LINE
  5
95EA
  8
ALPHA
 10
292.195034
 20
-199.503405
 30
0.0
 11
292.995034
 21
-200.198883
 31
0.0
  0
LINE
  5
95EB
  8
ALPHA
 10
292.195034
 20
-194.653455
 30
0.0
 11
292.995034
 21
-195.05499
 31
0.0
  0
LINE
  5
95EC
  8
ALPHA
 10
292.995034
 20
-184.006868
 30
0.0
 11
292.195034
 21
-184.408403
 31
0.0
  0
LINE
  5
95ED
  8
ALPHA
 10
292.995034
 20
-178.862975
 30
0.0
 11
292.195034
 21
-179.558453
 31
0.0
  0
LINE
  5
95EE
  8
ALPHA
 10
292.195034
 20
-178.458453
 30
0.0
 11
299.995034
 21
-178.458453
 31
0.0
  0
LINE
  5
95EF
  8
ALPHA
 10
292.195034
 20
-182.503147
 30
0.0
 11
299.995034
 21
-182.503147
 31
0.0
  0
LINE
  5
95F0
  8
ALPHA
 10
299.995034
 20
-188.430929
 30
0.0
 11
292.195034
 21
-188.430929
 31
0.0
  0
LINE
  5
95F1
  8
ALPHA
 10
299.995034
 20
-190.630929
 30
0.0
 11
292.195034
 21
-190.630929
 31
0.0
  0
LINE
  5
95F2
  8
ALPHA
 10
292.195034
 20
-196.558711
 30
0.0
 11
299.995034
 21
-196.558711
 31
0.0
  0
LINE
  5
95F3
  8
ALPHA
 10
292.195034
 20
-200.603405
 30
0.0
 11
299.995034
 21
-200.603405
 31
0.0
  0
LINE
  5
95F4
  8
ALPHA
 10
303.710641
 20
-193.02243
 30
0.0
 11
303.401648
 21
-199.46658
 31
0.0
  0
LINE
  5
95F5
  8
ALPHA
 10
308.356298
 20
-189.563543
 30
0.0
 11
307.928054
 21
-200.525917
 31
0.0
  0
LINE
  5
95F6
  8
ALPHA
 10
306.476916
 20
-194.544235
 30
0.0
 11
306.201086
 21
-200.491106
 31
0.0
  0
LINE
  5
95F7
  8
ALPHA
 10
307.232751
 20
-199.465787
 30
0.0
 11
307.656844
 21
-189.540833
 31
0.0
  0
LINE
  5
95F8
  8
ALPHA
 10
305.469776
 20
-199.46231
 30
0.0
 11
305.738259
 21
-195.022137
 31
0.0
  0
LINE
  5
95F9
  8
ALPHA
 10
303.695025
 20
-199.479056
 30
0.0
 11
303.98875
 21
-195.030702
 31
0.0
  0
POLYLINE
  5
95FA
  8
ALPHA
 66
     1
 10
0.0
 20
0.0
 30
0.0
 70
   128
  0
VERTEX
  5
9FD4
  8
ALPHA
 10
301.950148
 20
-199.509424
 30
0.0
  0
VERTEX
  5
9FD5
  8
ALPHA
 10
302.259869
 20
-194.530855
 30
0.0
  0
VERTEX
  5
9FD6
  8
ALPHA
 10
302.407119
 20
-189.530929
 30
0.0
  0
SEQEND
  5
9FD7
  8
ALPHA
  0
LINE
  5
95FB
  8
ALPHA
 10
302.057534
 20
-189.530929
 30
0.0
 11
301.681375
 21
-199.289387
 31
0.0
  0
LINE
  5
95FC
  8
ALPHA
 10
303.531754
 20
-178.535659
 30
0.0
 11
302.683908
 21
-200.519686
 31
0.0
  0
LINE
  5
95FD
  8
ALPHA
 10
309.057505
 20
-189.531978
 30
0.0
 11
308.640287
 21
-199.467096
 31
0.0
  0
LINE
  5
95FE
  8
ALPHA
 10
305.495034
 20
-191.756138
 30
0.0
 11
305.158901
 21
-199.433722
 31
0.0
  0
POLYLINE
  5
95FF
  8
ALPHA
 66
     1
 10
0.0
 20
0.0
 30
0.0
 70
   128
210
0.0
220
0.0
230
-1.0
  0
VERTEX
  5
9FD8
  8
ALPHA
 10
-304.794827
 20
-191.978659
 30
0.0
  0
VERTEX
  5
9FD9
  8
ALPHA
 10
-304.671925
 20
-196.247896
 30
0.0
  0
VERTEX
  5
9FDA
  8
ALPHA
 10
-304.401187
 20
-200.497305
 30
0.0
  0
SEQEND
  5
9FDB
  8
ALPHA
  0
LINE
  5
9600
  8
ALPHA
 10
307.307534
 20
-189.530929
 30
0.0
 11
306.903281
 21
-199.45977
 31
0.0
  0
LINE
  5
9601
  8
ALPHA
 10
292.995034
 20
-196.960246
 30
0.0
 11
292.995034
 21
-200.198883
 31
0.0
  0
LINE
  5
9602
  8
ALPHA
 10
301.495034
 20
-202.530345
 30
0.0
 11
301.495034
 21
-176.531513
 31
0.0
  0
LINE
  5
9603
  8
ALPHA
 10
309.495034
 20
-199.530929
 30
0.0
 11
309.495034
 21
-179.530929
 31
0.0
  0
LINE
  5
9604
  8
ALPHA
 10
310.995034
 20
-198.530213
 30
0.0
 11
310.995034
 21
-180.531645
 31
0.0
  0
LINE
  5
9605
  8
ALPHA
 10
309.495034
 20
-199.530929
 30
0.0
 11
308.620035
 21
-199.530929
 31
0.0
  0
LINE
  5
9606
  8
ALPHA
 10
310.995034
 20
-198.530929
 30
0.0
 11
309.495034
 21
-198.530929
 31
0.0
  0
LINE
  5
9607
  8
ALPHA
 10
301.495034
 20
-202.530929
 30
0.0
 11
299.995034
 21
-202.530929
 31
0.0
  0
LINE
  5
9608
  8
ALPHA
 10
305.131107
 20
-199.523027
 30
0.0
 11
304.429894
 21
-200.523744
 31
0.0
  0
LINE
  5
9609
  8
ALPHA
 10
306.881107
 20
-199.523027
 30
0.0
 11
306.179894
 21
-200.523744
 31
0.0
  0
LINE
  5
960A
  8
ALPHA
 10
306.903281
 20
-199.45977
 30
0.0
 11
306.878842
 21
-199.46216
 31
0.0
  0
LINE
  5
960B
  8
ALPHA
 10
307.90976
 20
-200.523744
 30
0.0
 11
307.208547
 21
-199.523027
 31
0.0
  0
LINE
  5
960C
  8
ALPHA
 10
308.631107
 20
-199.523027
 30
0.0
 11
307.929894
 21
-200.523744
 31
0.0
  0
LINE
  5
960D
  8
ALPHA
 10
307.219619
 20
-199.530929
 30
0.0
 11
306.870034
 21
-199.530929
 31
0.0
  0
LINE
  5
960E
  8
ALPHA
 10
307.929894
 20
-200.523744
 30
0.0
 11
307.90976
 21
-200.523744
 31
0.0
  0
LINE
  5
960F
  8
ALPHA
 10
305.158901
 20
-199.433722
 30
0.0
 11
305.104183
 21
-199.474535
 31
0.0
  0
LINE
  5
9610
  8
ALPHA
 10
306.159759
 20
-200.523744
 30
0.0
 11
305.458546
 21
-199.523027
 31
0.0
  0
LINE
  5
9611
  8
ALPHA
 10
305.469619
 20
-199.530929
 30
0.0
 11
305.120034
 21
-199.530929
 31
0.0
  0
LINE
  5
9612
  8
ALPHA
 10
306.179894
 20
-200.523744
 30
0.0
 11
306.159759
 21
-200.523744
 31
0.0
  0
LINE
  5
9613
  8
ALPHA
 10
303.381107
 20
-199.523027
 30
0.0
 11
302.679894
 21
-200.523744
 31
0.0
  0
LINE
  5
9614
  8
ALPHA
 10
303.401648
 20
-199.46658
 30
0.0
 11
303.38802
 21
-199.465469
 31
0.0
  0
LINE
  5
9615
  8
ALPHA
 10
304.40976
 20
-200.523744
 30
0.0
 11
303.708547
 21
-199.523027
 31
0.0
  0
LINE
  5
9616
  8
ALPHA
 10
303.719619
 20
-199.530929
 30
0.0
 11
303.370034
 21
-199.530929
 31
0.0
  0
LINE
  5
9617
  8
ALPHA
 10
304.429894
 20
-200.523744
 30
0.0
 11
304.40976
 21
-200.523744
 31
0.0
  0
LINE
  5
9618
  8
ALPHA
 10
301.681375
 20
-199.289387
 30
0.0
 11
301.629421
 21
-199.522007
 31
0.0
  0
LINE
  5
9619
  8
ALPHA
 10
302.65976
 20
-200.523744
 30
0.0
 11
301.958546
 21
-199.523027
 31
0.0
  0
LINE
  5
961A
  8
ALPHA
 10
301.969619
 20
-199.530929
 30
0.0
 11
301.620034
 21
-199.530929
 31
0.0
  0
LINE
  5
961B
  8
ALPHA
 10
302.679894
 20
-200.523744
 30
0.0
 11
302.65976
 21
-200.523744
 31
0.0
  0
LINE
  5
961C
  8
ALPHA
 10
301.631107
 20
-199.523027
 30
0.0
 11
301.495034
 21
-199.717209
 31
0.0
  0
LINE
  5
961D
  8
ALPHA
 10
299.995034
 20
-200.198883
 30
0.0
 11
292.995034
 21
-200.198883
 31
0.0
  0
LINE
  5
961E
  8
ALPHA
 10
299.995034
 20
-201.298883
 30
0.0
 11
292.995034
 21
-201.298883
 31
0.0
  0
LINE
  5
961F
  8
ALPHA
 10
299.995034
 20
-202.484307
 30
0.0
 11
292.995034
 21
-202.484307
 31
0.0
  0
LINE
  5
9620
  8
ALPHA
 10
299.995034
 20
-202.484307
 30
0.0
 11
299.995034
 21
-202.530929
 31
0.0
  0
LINE
  5
9621
  8
ALPHA
 10
299.995034
 20
-200.198883
 30
0.0
 11
299.995034
 21
-201.298883
 31
0.0
  0
LINE
  5
9622
  8
ALPHA
 10
292.995034
 20
-201.298883
 30
0.0
 11
292.460829
 21
-200.834512
 31
0.0
  0
LINE
  5
9623
  8
ALPHA
 10
292.995034
 20
-201.298883
 30
0.0
 11
292.995034
 21
-202.484307
 31
0.0
  0
LINE
  5
9624
  8
ALPHA
 10
308.794827
 20
-178.530929
 30
0.0
 11
309.495034
 21
-179.530929
 31
0.0
  0
LINE
  5
9625
  8
ALPHA
 10
309.217185
 20
-184.046491
 30
0.0
 11
309.057476
 21
-189.533027
 31
0.0
  0
ARC
  5
9626
  8
ALPHA
 10
311.545034
 20
-193.480929
 30
0.0
 40
0.95
 50
0.0
 51
90.0
  0
ARC
  5
9627
  8
ALPHA
 10
311.545034
 20
-193.580929
 30
0.0
 40
0.95
 50
270.0
 51
0.0
  0
LINE
  5
9628
  8
ALPHA
 10
310.995034
 20
-192.530929
 30
0.0
 11
311.545034
 21
-192.530929
 31
0.0
  0
LINE
  5
9629
  8
ALPHA
 10
310.995034
 20
-194.530929
 30
0.0
 11
311.545034
 21
-194.530929
 31
0.0
  0
LINE
  5
962A
  8
ALPHA
 10
311.545034
 20
-194.530929
 30
0.0
 11
311.545034
 21
-192.530929
 31
0.0
  0
LINE
  5
962B
  8
ALPHA
 10
312.495034
 20
-193.483376
 30
0.0
 11
312.495034
 21
-193.578482
 31
0.0
  0
LINE
  5
962C
  8
ALPHA
 10
309.495034
 20
-179.530929
 30
0.0
 11
309.370172
 21
-180.520382
 31
0.0
  0
LINE
  5
962D
  8
ALPHA
 10
310.995034
 20
-180.530929
 30
0.0
 11
309.495034
 21
-180.530929
 31
0.0
  0
LINE
  5
962E
  8
ALPHA
 10
309.370172
 20
-180.520382
 30
0.0
 11
309.217185
 21
-184.046491
 31
0.0
  0
LINE
  5
9630
  8
ALPHA
 10
301.495034
 20
-176.530929
 30
0.0
 11
299.995034
 21
-176.530929
 31
0.0
  0
LINE
  5
9631
  8
ALPHA
 10
308.500647
 20
-184.023883
 30
0.0
 11
308.357528
 21
-189.514735
 31
0.0
  0
LINE
  5
9632
  8
ALPHA
 10
307.057898
 20
-178.555123
 30
0.0
 11
306.683154
 21
-186.549294
 31
0.0
  0
LINE
  5
9633
  8
ALPHA
 10
305.287052
 20
-178.607265
 30
0.0
 11
304.794827
 21
-191.978659
 31
0.0
  0
POLYLINE
  5
9634
  8
ALPHA
 66
     1
 10
0.0
 20
0.0
 30
0.0
 70
   128
  0
VERTEX
  5
9FDC
  8
ALPHA
 10
307.761602
 20
-179.593481
 30
0.0
  0
VERTEX
  5
9FDD
  8
ALPHA
 10
307.455613
 20
-184.543628
 30
0.0
  0
VERTEX
  5
9FDE
  8
ALPHA
 10
307.307534
 20
-189.530929
 30
0.0
  0
SEQEND
  5
9FDF
  8
ALPHA
  0
LINE
  5
9635
  8
ALPHA
 10
305.978921
 20
-179.593894
 30
0.0
 11
305.655048
 21
-186.020766
 31
0.0
  0
LINE
  5
9636
  8
ALPHA
 10
303.977014
 20
-184.030353
 30
0.0
 11
303.904704
 21
-186.028237
 31
0.0
  0
POLYLINE
  5
9637
  8
ALPHA
 66
     1
 10
0.0
 20
0.0
 30
0.0
 70
   128
  0
VERTEX
  5
9FE0
  8
ALPHA
 10
302.513876
 20
-179.591209
 30
0.0
  0
VERTEX
  5
9FE1
  8
ALPHA
 10
302.205668
 20
-184.542551
 30
0.0
  0
VERTEX
  5
9FE2
  8
ALPHA
 10
302.057534
 20
-189.530929
 30
0.0
  0
SEQEND
  5
9FE3
  8
ALPHA
  0
LINE
  5
9638
  8
ALPHA
 10
302.407119
 20
-189.530929
 30
0.0
 11
302.812303
 21
-179.598168
 31
0.0
  0
LINE
  5
9639
  8
ALPHA
 10
304.254126
 20
-186.038683
 30
0.0
 11
304.325407
 21
-184.042226
 31
0.0
  0
LINE
  5
963A
  8
ALPHA
 10
306.004342
 20
-186.031211
 30
0.0
 11
306.308484
 21
-179.614973
 31
0.0
  0
LINE
  5
963B
  8
ALPHA
 10
308.03208
 20
-179.781965
 30
0.0
 11
307.656982
 21
-189.535881
 31
0.0
  0
LINE
  5
963C
  8
ALPHA
 10
306.581342
 20
-190.546014
 30
0.0
 11
306.52995
 21
-192.544692
 31
0.0
  0
LINE
  5
963D
  8
ALPHA
 10
305.839448
 20
-191.936752
 30
0.0
 11
305.878863
 21
-190.527661
 31
0.0
  0
LINE
  5
963E
  8
ALPHA
 10
306.52816
 20
-192.615627
 30
0.0
 11
306.476916
 21
-194.544235
 31
0.0
  0
LINE
  5
963F
  8
ALPHA
 10
306.52995
 20
-192.544692
 30
0.0
 11
306.52816
 21
-192.615627
 31
0.0
  0
LINE
  5
9640
  8
ALPHA
 10
305.837056
 20
-192.026203
 30
0.0
 11
305.839448
 21
-191.936752
 31
0.0
  0
LINE
  5
9641
  8
ALPHA
 10
305.82383
 20
-192.525802
 30
0.0
 11
305.837056
 21
-192.026203
 31
0.0
  0
LINE
  5
9642
  8
ALPHA
 10
305.810231
 20
-193.025396
 30
0.0
 11
305.82383
 21
-192.525802
 31
0.0
  0
LINE
  5
9643
  8
ALPHA
 10
305.770731
 20
-194.234415
 30
0.0
 11
305.810231
 21
-193.025396
 31
0.0
  0
LINE
  5
9644
  8
ALPHA
 10
305.759077
 20
-194.522871
 30
0.0
 11
305.770731
 21
-194.234415
 31
0.0
  0
LINE
  5
9645
  8
ALPHA
 10
305.738259
 20
-195.022137
 30
0.0
 11
305.759077
 21
-194.522871
 31
0.0
  0
LINE
  5
9646
  8
ALPHA
 10
308.357528
 20
-189.514735
 30
0.0
 11
308.356298
 21
-189.563543
 31
0.0
  0
LINE
  5
9647
  8
ALPHA
 10
306.632621
 20
-188.547157
 30
0.0
 11
306.581342
 21
-190.546014
 31
0.0
  0
LINE
  5
9648
  8
ALPHA
 10
306.683154
 20
-186.549294
 30
0.0
 11
306.632621
 21
-188.547157
 31
0.0
  0
LINE
  5
9649
  8
ALPHA
 10
305.893116
 20
-190.028062
 30
0.0
 11
305.907119
 21
-189.530929
 31
0.0
  0
LINE
  5
964A
  8
ALPHA
 10
305.878863
 20
-190.527661
 30
0.0
 11
305.893116
 21
-190.028062
 31
0.0
  0
LINE
  5
964B
  8
ALPHA
 10
305.571945
 20
-189.019028
 30
0.0
 11
305.557534
 21
-189.530929
 31
0.0
  0
LINE
  5
964C
  8
ALPHA
 10
305.655048
 20
-186.020766
 30
0.0
 11
305.571945
 21
-189.019028
 31
0.0
  0
LINE
  5
964D
  8
ALPHA
 10
305.990583
 20
-186.530802
 30
0.0
 11
306.004342
 21
-186.031211
 31
0.0
  0
LINE
  5
964E
  8
ALPHA
 10
305.935477
 20
-188.529254
 30
0.0
 11
305.990583
 21
-186.530802
 31
0.0
  0
LINE
  5
964F
  8
ALPHA
 10
305.92125
 20
-189.028854
 30
0.0
 11
305.935477
 21
-188.529254
 31
0.0
  0
LINE
  5
9650
  8
ALPHA
 10
305.907119
 20
-189.530929
 30
0.0
 11
305.92125
 21
-189.028854
 31
0.0
  0
LINE
  5
9651
  8
ALPHA
 10
305.557534
 20
-189.530929
 30
0.0
 11
305.495034
 21
-191.756138
 31
0.0
  0
LINE
  5
9652
  8
ALPHA
 10
303.793616
 20
-190.025264
 30
0.0
 11
303.74023
 21
-191.923981
 31
0.0
  0
LINE
  5
9653
  8
ALPHA
 10
304.086818
 20
-192.033652
 30
0.0
 11
304.094619
 21
-191.756138
 31
0.0
  0
LINE
  5
9654
  8
ALPHA
 10
303.737571
 20
-192.023238
 30
0.0
 11
303.710641
 21
-193.02243
 31
0.0
  0
LINE
  5
9655
  8
ALPHA
 10
303.74023
 20
-191.923981
 30
0.0
 11
303.737571
 21
-192.023238
 31
0.0
  0
LINE
  5
9656
  8
ALPHA
 10
304.05909
 20
-193.032828
 30
0.0
 11
304.086818
 21
-192.033652
 31
0.0
  0
LINE
  5
9657
  8
ALPHA
 10
303.98875
 20
-195.030702
 30
0.0
 11
304.05909
 21
-193.032828
 31
0.0
  0
LINE
  5
9658
  8
ALPHA
 10
303.807534
 20
-189.530929
 30
0.0
 11
303.793616
 21
-190.025264
 31
0.0
  0
LINE
  5
9659
  8
ALPHA
 10
304.094619
 20
-191.756138
 30
0.0
 11
304.157119
 21
-189.530929
 31
0.0
  0
LINE
  5
965A
  8
ALPHA
 10
303.821755
 20
-189.026056
 30
0.0
 11
303.807534
 21
-189.530929
 31
0.0
  0
LINE
  5
965B
  8
ALPHA
 10
303.904704
 20
-186.028237
 30
0.0
 11
303.821755
 21
-189.026056
 31
0.0
  0
LINE
  5
965C
  8
ALPHA
 10
304.171052
 20
-189.03588
 30
0.0
 11
304.254126
 21
-186.038683
 31
0.0
  0
LINE
  5
965D
  8
ALPHA
 10
304.157119
 20
-189.530929
 30
0.0
 11
304.171052
 21
-189.03588
 31
0.0
  0
LINE
  5
965E
  8
ALPHA
 10
304.583546
 20
-179.538831
 30
0.0
 11
305.284759
 21
-178.538114
 31
0.0
  0
LINE
  5
965F
  8
ALPHA
 10
308.661493
 20
-179.767487
 30
0.0
 11
308.500647
 21
-184.023883
 31
0.0
  0
LINE
  5
9660
  8
ALPHA
 10
306.333546
 20
-179.538831
 30
0.0
 11
307.03476
 21
-178.538114
 31
0.0
  0
LINE
  5
9661
  8
ALPHA
 10
308.783976
 20
-178.531552
 30
0.0
 11
308.661493
 21
-179.767487
 31
0.0
  0
LINE
  5
9662
  8
ALPHA
 10
308.083546
 20
-179.538831
 30
0.0
 11
308.78476
 21
-178.538114
 31
0.0
  0
LINE
  5
9663
  8
ALPHA
 10
308.082355
 20
-179.531933
 30
0.0
 11
308.03208
 21
-179.781965
 31
0.0
  0
LINE
  5
9664
  8
ALPHA
 10
307.632532
 20
-179.362484
 30
0.0
 11
307.756107
 21
-179.538831
 31
0.0
  0
LINE
  5
9665
  8
ALPHA
 10
307.054894
 20
-178.538114
 30
0.0
 11
307.632532
 21
-179.362484
 31
0.0
  0
LINE
  5
9666
  8
ALPHA
 10
307.054894
 20
-178.538114
 30
0.0
 11
307.03476
 21
-178.538114
 31
0.0
  0
LINE
  5
9667
  8
ALPHA
 10
308.094619
 20
-179.530929
 30
0.0
 11
307.745034
 21
-179.530929
 31
0.0
  0
LINE
  5
9668
  8
ALPHA
 10
308.794827
 20
-178.530929
 30
0.0
 11
308.78476
 21
-178.538114
 31
0.0
  0
LINE
  5
9669
  8
ALPHA
 10
306.308484
 20
-179.614973
 30
0.0
 11
306.351852
 21
-179.596218
 31
0.0
  0
LINE
  5
966A
  8
ALPHA
 10
305.304894
 20
-178.538114
 30
0.0
 11
306.006107
 21
-179.538831
 31
0.0
  0
LINE
  5
966B
  8
ALPHA
 10
305.304894
 20
-178.538114
 30
0.0
 11
305.284759
 21
-178.538114
 31
0.0
  0
LINE
  5
966C
  8
ALPHA
 10
306.344619
 20
-179.530929
 30
0.0
 11
305.995034
 21
-179.530929
 31
0.0
  0
LINE
  5
966D
  8
ALPHA
 10
304.23863
 20
-179.598959
 30
0.0
 11
303.977014
 21
-184.030353
 31
0.0
  0
LINE
  5
966E
  8
ALPHA
 10
301.805516
 20
-178.600807
 30
0.0
 11
301.495034
 21
-184.311148
 31
0.0
  0
LINE
  5
966F
  8
ALPHA
 10
304.325407
 20
-184.042226
 30
0.0
 11
304.564117
 21
-179.590836
 31
0.0
  0
LINE
  5
9670
  8
ALPHA
 10
302.844619
 20
-179.530929
 30
0.0
 11
302.495034
 21
-179.530929
 31
0.0
  0
LINE
  5
9671
  8
ALPHA
 10
302.812303
 20
-179.598168
 30
0.0
 11
302.830168
 21
-179.598347
 31
0.0
  0
LINE
  5
9672
  8
ALPHA
 10
302.833547
 20
-179.538831
 30
0.0
 11
303.53476
 21
-178.538114
 31
0.0
  0
LINE
  5
9673
  8
ALPHA
 10
303.554894
 20
-178.538114
 30
0.0
 11
304.256107
 21
-179.538831
 31
0.0
  0
LINE
  5
9674
  8
ALPHA
 10
303.554894
 20
-178.538114
 30
0.0
 11
303.53476
 21
-178.538114
 31
0.0
  0
LINE
  5
9675
  8
ALPHA
 10
304.594619
 20
-179.530929
 30
0.0
 11
304.245035
 21
-179.530929
 31
0.0
  0
LINE
  5
9676
  8
ALPHA
 10
301.495034
 20
-178.951603
 30
0.0
 11
301.784759
 21
-178.538114
 31
0.0
  0
LINE
  5
9677
  8
ALPHA
 10
301.952892
 20
-178.749336
 30
0.0
 11
302.506107
 21
-179.538831
 31
0.0
  0
LINE
  5
9678
  8
ALPHA
 10
301.804894
 20
-178.538114
 30
0.0
 11
301.952892
 21
-178.749336
 31
0.0
  0
LINE
  5
9679
  8
ALPHA
 10
301.804894
 20
-178.538114
 30
0.0
 11
301.784759
 21
-178.538114
 31
0.0
  0
LINE
  5
967A
  8
ALPHA
 10
292.995034
 20
-188.430929
 30
0.0
 11
292.995034
 21
-184.006868
 31
0.0
  0
LINE
  5
967B
  8
ALPHA
 10
299.995034
 20
-195.05499
 30
0.0
 11
292.995034
 21
-195.05499
 31
0.0
  0
LINE
  5
967C
  8
ALPHA
 10
299.995034
 20
-196.960246
 30
0.0
 11
292.995034
 21
-196.960246
 31
0.0
  0
LINE
  5
967D
  8
ALPHA
 10
299.995034
 20
-195.05499
 30
0.0
 11
299.995034
 21
-196.960246
 31
0.0
  0
LINE
  5
967E
  8
ALPHA
 10
299.995034
 20
-188.430929
 30
0.0
 11
299.995034
 21
-190.630929
 31
0.0
  0
LINE
  5
967F
  8
ALPHA
 10
292.995034
 20
-190.630929
 30
0.0
 11
292.995034
 21
-195.05499
 31
0.0
  0
LINE
  5
9680
  8
ALPHA
 10
299.995034
 20
-176.577551
 30
0.0
 11
292.995034
 21
-176.577551
 31
0.0
  0
LINE
  5
9681
  8
ALPHA
 10
299.995034
 20
-177.762975
 30
0.0
 11
292.995034
 21
-177.762975
 31
0.0
  0
LINE
  5
9682
  8
ALPHA
 10
299.995034
 20
-178.862975
 30
0.0
 11
292.995034
 21
-178.862975
 31
0.0
  0
LINE
  5
9683
  8
ALPHA
 10
299.995034
 20
-182.101612
 30
0.0
 11
292.995034
 21
-182.101612
 31
0.0
  0
LINE
  5
9684
  8
ALPHA
 10
299.995034
 20
-184.006868
 30
0.0
 11
292.995034
 21
-184.006868
 31
0.0
  0
LINE
  5
9685
  8
ALPHA
 10
299.995034
 20
-182.101612
 30
0.0
 11
299.995034
 21
-184.006868
 31
0.0
  0
LINE
  5
9686
  8
ALPHA
 10
299.995034
 20
-177.762975
 30
0.0
 11
299.995034
 21
-178.862975
 31
0.0
  0
LINE
  5
9687
  8
ALPHA
 10
299.995034
 20
-176.530929
 30
0.0
 11
299.995034
 21
-176.577551
 31
0.0
  0
LINE
  5
9688
  8
ALPHA
 10
292.995034
 20
-182.101612
 30
0.0
 11
292.995034
 21
-178.862975
 31
0.0
  0
LINE
  5
9689
  8
ALPHA
 10
292.460814
 20
-178.22736
 30
0.0
 11
292.995034
 21
-177.762975
 31
0.0
  0
LINE
  5
968A
  8
ALPHA
 10
292.995034
 20
-177.762975
 30
0.0
 11
292.995034
 21
-176.577551
 31
0.0
  0
ARC
  5
968B
  8
ALPHA
 10
271.134636
 20
-216.325325
 30
0.0
 40
20.0
 50
60.665666
 51
81.777366
  0
LINE
  5
968C
  8
ALPHA
 10
280.932735
 20
-198.889808
 30
0.0
 11
280.932735
 21
-180.17205
 31
0.0
  0
LINE
  5
968D
  8
ALPHA
 10
283.382259
 20
-199.530929
 30
0.0
 11
283.382259
 21
-179.530929
 31
0.0
  0
LINE
  5
968E
  8
ALPHA
 10
291.995034
 20
-201.530929
 30
0.0
 11
291.995034
 21
-177.530929
 31
0.0
  0
LINE
  5
968F
  8
ALPHA
 10
291.995034
 20
-199.530929
 30
0.0
 11
283.382259
 21
-199.530929
 31
0.0
  0
LINE
  5
9690
  8
ALPHA
 10
292.170189
 20
-201.706083
 30
0.0
 11
291.995034
 21
-201.530929
 31
0.0
  0
LINE
  5
9691
  8
ALPHA
 10
292.195034
 20
-201.681238
 30
0.0
 11
292.195034
 21
-201.725404
 31
0.0
  0
LINE
  5
9692
  8
ALPHA
 10
292.195034
 20
-199.503405
 30
0.0
 11
292.195034
 21
-200.603405
 31
0.0
  0
ARC
  5
9693
  8
ALPHA
 10
283.38226
 20
-194.530929
 30
0.0
 40
5.0
 50
240.665659
 51
269.999987
  0
LINE
  5
9694
  8
ALPHA
 10
266.995034
 20
-182.030929
 30
0.0
 11
251.995034
 21
-182.030929
 31
0.0
  0
LINE
  5
9695
  8
ALPHA
 10
266.995034
 20
-197.030929
 30
0.0
 11
251.995034
 21
-197.030929
 31
0.0
  0
ARC
  5
9696
  8
ALPHA
 10
271.134636
 20
-162.736533
 30
0.0
 40
20.0
 50
278.222634
 51
299.334334
  0
LINE
  5
9697
  8
ALPHA
 10
291.995034
 20
-179.530929
 30
0.0
 11
283.382259
 21
-179.530929
 31
0.0
  0
LINE
  5
9698
  8
ALPHA
 10
292.195034
 20
-194.653455
 30
0.0
 11
292.195034
 21
-196.558711
 31
0.0
  0
LINE
  5
9699
  8
ALPHA
 10
292.195034
 20
-188.430929
 30
0.0
 11
292.195034
 21
-190.630929
 31
0.0
  0
LINE
  5
969A
  8
ALPHA
 10
292.195034
 20
-182.503147
 30
0.0
 11
292.195034
 21
-184.408403
 31
0.0
  0
LINE
  5
969B
  8
ALPHA
 10
292.170189
 20
-177.355775
 30
0.0
 11
291.995034
 21
-177.530929
 31
0.0
  0
LINE
  5
969C
  8
ALPHA
 10
292.195034
 20
-178.458453
 30
0.0
 11
292.195034
 21
-179.558453
 31
0.0
  0
LINE
  5
969D
  8
ALPHA
 10
292.195034
 20
-177.330929
 30
0.0
 11
292.195034
 21
-177.38062
 31
0.0
  0
ARC
  5
969E
  8
ALPHA
 10
283.38226
 20
-184.530929
 30
0.0
 40
5.0
 50
90.000013
 51
119.334341
  0
LINE
  5
969F
  8
ALPHA
 10
270.995034
 20
-182.530929
 30
0.0
 11
266.995034
 21
-182.530929
 31
0.0
  0
LINE
  5
96A0
  8
ALPHA
 10
270.995034
 20
-196.530929
 30
0.0
 11
266.995034
 21
-196.530929
 31
0.0
  0
LINE
  5
96A1
  8
ALPHA
 10
270.995034
 20
-197.530293
 30
0.0
 11
270.995034
 21
-181.531565
 31
0.0
  0
LINE
  5
96A2
  8
ALPHA
 10
273.995034
 20
-197.530293
 30
0.0
 11
273.995034
 21
-181.531565
 31
0.0
  0
LINE
  5
96A3
  8
ALPHA
 10
273.995034
 20
-197.530929
 30
0.0
 11
270.995034
 21
-197.530929
 31
0.0
  0
LINE
  5
96A4
  8
ALPHA
 10
273.995034
 20
-181.530929
 30
0.0
 11
270.995034
 21
-181.530929
 31
0.0
  0
LINE
  5
96A5
  8
ALPHA
 10
266.995034
 20
-197.030332
 30
0.0
 11
266.995034
 21
-182.031526
 31
0.0
  0
LINE
  5
96A6
  8
ALPHA
 10
251.995034
 20
-197.030929
 30
0.0
 11
249.830635
 21
-196.670196
 31
0.0
  0
LINE
  5
96A7
  8
ALPHA
 10
251.995034
 20
-182.030929
 30
0.0
 11
249.830635
 21
-182.391662
 31
0.0
  0
LINE
  5
96A8
  8
ALPHA
 10
251.995034
 20
-197.030929
 30
0.0
 11
251.995034
 21
-182.030929
 31
0.0
  0
LINE
  5
96A9
  8
ALPHA
 10
248.995034
 20
-195.683802
 30
0.0
 11
248.995034
 21
-183.378056
 31
0.0
  0
LINE
  5
96AA
  8
ALPHA
 10
249.830635
 20
-196.670196
 30
0.0
 11
249.830635
 21
-182.391662
 31
0.0
  0
ARC
  5
96AB
  8
ALPHA
 10
249.995034
 20
-195.683802
 30
0.0
 40
1.0
 50
180.0
 51
260.537676
  0
ARC
  5
96AC
  8
ALPHA
 10
249.995034
 20
-183.378056
 30
0.0
 40
1.0
 50
99.462324
 51
180.0
  0
DIMENSION
  5
9716
  8
COTATION1
  2
*D3
 10
248.995034
 20
-166.577551
 30
0.0
 11
280.745034
 21
-163.327551
 31
0.0
 13
312.495034
 23
-193.580929
 33
0.0
 14
248.995034
 24
-183.378056
 34
0.0
 50
180.0
  0
DIMENSION
  5
97FC
  8
COTATION1
  2
*D4
 10
330.995034
 20
-200.523744
 30
0.0
 11
330.995034
 21
-189.450821
 31
0.0
 70
   128
  1
M<>
 13
308.783976
 23
-178.531552
 33
0.0
 14
307.929894
 24
-200.523744
 34
0.0
 50
90.0
  0
DIMENSION
  5
9B67
  8
COTATION1
  2
*D8
 10
134.564252
 20
-151.634641
 30
0.0
 11
111.264443
 21
-130.358997
 31
0.0
 70
   131
  1
2x<>
 15
131.425817
 25
-148.768856
 35
0.0
 40
0.0
1001
ACAD
1000
DSTYLE
1002
{
1070
   287
1070
     4
1070
   287
1070
     4
1070
   287
1070
     4
1070
   287
1070
     4
1070
   287
1070
     4
1070
   279
1070
     1
1070
   289
1070
     3
1002
}
  0
DIMENSION
  5
9B68
  8
COTATION1
  2
*D9
 10
92.995034
 20
-190.201748
 30
0.0
 11
92.995034
 21
-165.201748
 31
0.0
 13
134.995034
 23
-140.201748
 33
0.0
 14
129.195034
 24
-190.201748
 34
0.0
 50
90.0
  0
LINE
  5
9B69
  8
ALPHA
 10
136.442435
 20
-141.076725
 30
0.0
 11
133.800234
 21
-141.401147
 31
0.0
  0
LINE
  5
9B6A
  8
ALPHA
 10
136.442435
 20
-141.479729
 30
0.0
 11
133.688576
 21
-141.817861
 31
0.0
  0
CIRCLE
  5
9B6B
  8
ALPHA
 10
132.995034
 20
-150.201748
 30
0.0
 40
2.125
  0
CIRCLE
  5
9B6C
  8
ALPHA
 10
132.995034
 20
-150.201748
 30
0.0
 40
2.25
  0
LINE
  5
9B6D
  8
ALPHA
 10
132.684949
 20
-145.563446
 30
0.0
 11
135.292949
 21
-146.262258
 31
0.0
  0
LINE
  5
9B6E
  8
ALPHA
 10
132.581422
 20
-145.949816
 30
0.0
 11
135.189421
 21
-146.648628
 31
0.0
  0
LINE
  5
9B6F
  8
ALPHA
 10
132.555498
 20
-146.046398
 30
0.0
 11
135.16354
 21
-146.74522
 31
0.0
  0
LINE
  5
9B70
  8
AXE
 10
125.920034
 20
-150.201748
 30
0.0
 11
140.070034
 21
-150.201748
 31
0.0
  0
ARC
  5
9B71
  8
ALPHA
 10
132.995034
 20
-150.201748
 30
0.0
 40
4.375
 50
190.624332
 51
47.807538
  0
ARC
  5
9B72
  8
ALPHA
 10
132.995034
 20
-150.201748
 30
0.0
 40
4.075
 50
128.467
 51
47.807538
  0
ARC
  5
9B73
  8
ALPHA
 10
142.995034
 20
-203.611748
 30
0.0
 40
63.4
 50
91.961682
 51
103.327962
  0
ARC
  5
9B74
  8
ALPHA
 10
132.995034
 20
-150.201748
 30
0.0
 40
4.0
 50
180.0
 51
358.041398
  0
DIMENSION
  5
9B75
  8
COTATION1
  2
*D10
 10
152.995034
 20
-125.201748
 30
0.0
 11
142.995034
 21
-121.951748
 31
0.0
 13
132.995034
 23
-143.126748
 33
0.0
 14
152.995034
 24
-143.126748
 34
0.0
  0
DIMENSION
  5
9B76
  8
COTATION1
  2
*D5
 10
157.995034
 20
-115.201748
 30
0.0
 11
142.995034
 21
-111.951748
 31
0.0
 13
127.995034
 23
-142.405866
 33
0.0
 14
157.995034
 24
-142.405866
 34
0.0
  0
LINE
  5
9B77
  8
AXE
 10
122.995034
 20
-158.803789
 30
0.0
 11
172.995034
 21
-158.803789
 31
0.0
  0
LINE
  5
9B78
  8
ALPHA
 10
129.195034
 20
-189.901748
 30
0.0
 11
152.995034
 21
-189.901748
 31
0.0
  0
LINE
  5
9B79
  8
ALPHA
 10
129.195034
 20
-190.201748
 30
0.0
 11
152.995034
 21
-190.201748
 31
0.0
  0
DIMENSION
  5
9B7A
  8
COTATION1
  2
*D6
 10
102.995034
 20
-190.201748
 30
0.0
 11
102.995034
 21
-170.201748
 31
0.0
 13
125.920034
 23
-150.201748
 33
0.0
 14
129.195034
 24
-190.201748
 34
0.0
 50
90.0
  0
LINE
  5
9B7B
  8
AXE
 10
132.995034
 20
-157.276748
 30
0.0
 11
132.995034
 21
-143.126748
 31
0.0
  0
LINE
  5
9B7C
  8
ALPHA
 10
128.695034
 20
-189.681737
 30
0.0
 11
128.695034
 21
-151.008362
 31
0.0
  0
LINE
  5
9B7D
  8
ALPHA
 10
127.995034
 20
-189.001748
 30
0.0
 11
127.995034
 21
-142.405866
 31
0.0
  0
ARC
  5
9B7E
  8
ALPHA
 10
129.195034
 20
-189.001748
 30
0.0
 40
1.2
 50
180.0
 51
270.0
  0
LINE
  5
9B7F
  8
ALPHA
 10
129.195034
 20
-189.901748
 30
0.0
 11
129.195034
 21
-190.201748
 31
0.0
  0
LINE
  5
9B80
  8
ALPHA
 10
128.827722
 20
-189.803129
 30
0.0
 11
128.695035
 21
-190.09262
 31
0.0
  0
LINE
  5
9B81
  8
ALPHA
 10
128.827722
 20
-189.803129
 30
0.0
 11
129.195034
 21
-189.901748
 31
0.0
  0
LINE
  5
9B82
  8
ALPHA
 10
128.695034
 20
-189.681737
 30
0.0
 11
128.484159
 21
-189.968524
 31
0.0
  0
LINE
  5
9B83
  8
ALPHA
 10
128.695034
 20
-189.681737
 30
0.0
 11
128.827722
 21
-189.803129
 31
0.0
  0
LINE
  5
9B84
  8
ALPHA
 10
127.995034
 20
-189.001748
 30
0.0
 11
128.695034
 21
-189.681737
 31
0.0
  0
LINE
  5
9B85
  8
ALPHA
 10
132.556866
 20
-146.041459
 30
0.0
 11
133.800234
 21
-141.401147
 31
0.0
  0
LINE
  5
9B86
  8
ALPHA
 10
128.695034
 20
-142.15347
 30
0.0
 11
128.695034
 21
-149.395135
 31
0.0
  0
ARC
  5
9B87
  8
ALPHA
 10
132.995034
 20
-150.201748
 30
0.0
 40
4.975
 50
92.624102
 51
119.709398
  0
ARC
  5
9B88
  8
ALPHA
 10
132.995034
 20
-150.201748
 30
0.0
 40
4.675
 50
93.822521
 51
119.709398
  0
LINE
  5
9B89
  8
ALPHA
 10
130.678099
 20
-146.141276
 30
0.0
 11
130.529419
 21
-145.880711
 31
0.0
  0
ARC
  5
9B8A
  8
ALPHA
 10
130.273505
 20
-146.77627
 30
0.0
 40
0.3
 50
308.467
 51
8.0
  0
ARC
  5
9B8B
  8
ALPHA
 10
132.995034
 20
-150.201748
 30
0.0
 40
2.813833
 50
153.999619
 51
180.0
  0
LINE
  5
9B8C
  8
ALPHA
 10
130.232618
 20
-146.485345
 30
0.0
 11
130.529699
 21
-146.443593
 31
0.0
  0
LINE
  5
9B8D
  8
ALPHA
 10
130.273505
 20
-146.77627
 30
0.0
 11
130.570586
 21
-146.734518
 31
0.0
  0
LINE
  5
9B8E
  8
ALPHA
 10
130.460124
 20
-147.01116
 30
0.0
 11
130.273505
 21
-146.77627
 31
0.0
  0
LINE
  5
9B8F
  8
ALPHA
 10
130.529699
 20
-146.443593
 30
0.0
 11
130.570586
 21
-146.734518
 31
0.0
  0
LINE
  5
9B90
  8
ALPHA
 10
130.232618
 20
-146.485345
 30
0.0
 11
130.273505
 21
-146.77627
 31
0.0
  0
ARC
  5
9B91
  8
ALPHA
 10
130.826779
 20
-146.401841
 30
0.0
 40
0.6
 50
119.709398
 51
188.0
  0
ARC
  5
9B92
  8
ALPHA
 10
130.826779
 20
-146.401841
 30
0.0
 40
0.3
 50
119.709398
 51
188.0
  0
ARC
  5
9B93
  8
ALPHA
 10
132.267089
 20
-145.963813
 30
0.0
 40
0.3
 50
279.746525
 51
345.0
  0
LINE
  5
9B94
  8
ALPHA
 10
128.695034
 20
-151.008362
 30
0.0
 11
128.563784
 21
-150.201748
 31
0.0
  0
LINE
  5
9B95
  8
ALPHA
 10
128.695034
 20
-151.008362
 30
0.0
 11
128.989891
 21
-150.953051
 31
0.0
  0
LINE
  5
9B96
  8
ALPHA
 10
128.563784
 20
-150.201748
 30
0.0
 11
128.695034
 21
-149.395135
 31
0.0
  0
LINE
  5
9B97
  8
ALPHA
 10
128.695034
 20
-149.395135
 30
0.0
 11
128.989891
 21
-149.450446
 31
0.0
  0
ARC
  5
9B98
  8
ALPHA
 10
132.995034
 20
-150.201748
 30
0.0
 40
4.375
 50
128.467
 51
169.375668
  0
ARC
  5
9B99
  8
ALPHA
 10
132.995034
 20
-150.201748
 30
0.0
 40
4.0
 50
99.746525
 51
177.897255
  0
LINE
  5
9B9A
  8
ALPHA
 10
130.187532
 20
-150.0131
 30
0.0
 11
129.002048
 21
-149.964982
 31
0.0
  0
LINE
  5
9B9B
  8
ALPHA
 10
128.995034
 20
-150.201748
 30
0.0
 11
130.181202
 21
-150.201748
 31
0.0
  0
LINE
  5
9B9C
  8
ALPHA
 10
130.182979
 20
-150.101748
 30
0.0
 11
128.997728
 21
-150.054982
 31
0.0
  0
LINE
  5
9B9D
  8
ALPHA
 10
130.465986
 20
-148.968228
 30
0.0
 11
129.390839
 21
-148.466879
 31
0.0
  0
LINE
  5
9B9E
  8
ALPHA
 10
130.425507
 20
-149.054933
 30
0.0
 11
129.350371
 21
-148.553588
 31
0.0
  0
ARC
  5
9B9F
  8
ALPHA
 10
130.02977
 20
-142.3691
 30
0.0
 40
0.2
 50
190.0
 51
281.953211
  0
LINE
  5
9BA0
  8
ALPHA
 10
129.832808
 20
-142.40383
 30
0.0
 11
129.731126
 21
-141.827161
 31
0.0
  0
LINE
  5
9BA1
  8
ALPHA
 10
129.748507
 20
-141.925721
 30
0.0
 11
129.731896
 21
-141.831531
 31
0.0
  0
LINE
  5
9BA2
  8
ALPHA
 10
129.731896
 20
-141.831531
 30
0.0
 11
129.731338
 21
-141.828445
 31
0.0
  0
ARC
  5
9BA3
  8
ALPHA
 10
142.995034
 20
-203.611748
 30
0.0
 40
62.2
 50
98.685111
 51
101.953211
  0
ARC
  5
9BA4
  8
ALPHA
 10
142.995034
 20
-203.611748
 30
0.0
 40
62.4
 50
98.605056
 51
101.953211
  0
LINE
  5
9BA5
  8
ALPHA
 10
130.112615
 20
-142.760427
 30
0.0
 11
130.071192
 21
-142.564764
 31
0.0
  0
LINE
  5
9BA6
  8
ALPHA
 10
129.551543
 20
-141.96045
 30
0.0
 11
129.491567
 21
-141.666479
 31
0.0
  0
LINE
  5
9BA7
  8
ALPHA
 10
128.264351
 20
-142.211253
 30
0.0
 11
128.379772
 21
-141.919333
 31
0.0
  0
LINE
  5
9BA8
  8
ALPHA
 10
128.264351
 20
-142.211253
 30
0.0
 11
127.995034
 21
-142.405866
 31
0.0
  0
LINE
  5
9BA9
  8
ALPHA
 10
128.695034
 20
-142.15347
 30
0.0
 11
128.264351
 21
-142.211253
 31
0.0
  0
ARC
  5
9BAA
  8
ALPHA
 10
142.995034
 20
-203.611748
 30
0.0
 40
63.1
 50
102.301184
 51
103.098417
  0
ARC
  5
9BAB
  8
ALPHA
 10
128.495034
 20
-142.405866
 30
0.0
 40
0.5
 50
103.327962
 51
180.0
  0
LINE
  5
9BAC
  8
ALPHA
 10
129.491567
 20
-141.666479
 30
0.0
 11
128.627047
 21
-141.861275
 31
0.0
  0
LINE
  5
9BAD
  8
ALPHA
 10
129.551543
 20
-141.96045
 30
0.0
 11
129.635847
 21
-142.43856
 31
0.0
  0
LINE
  5
9BAE
  8
ALPHA
 10
128.695034
 20
-142.15347
 30
0.0
 11
128.627047
 21
-141.861275
 31
0.0
  0
ARC
  5
9BAF
  8
ALPHA
 10
130.02977
 20
-142.3691
 30
0.0
 40
0.4
 50
190.0
 51
281.953211
  0
LINE
  5
9BB0
  8
ALPHA
 10
129.832808
 20
-142.40383
 30
0.0
 11
129.635847
 21
-142.43856
 31
0.0
  0
ARC
  5
9BB1
  8
ALPHA
 10
129.534164
 20
-141.86189
 30
0.0
 40
0.2
 50
10.0
 51
102.297541
  0
LINE
  5
9BB2
  8
ALPHA
 10
129.551543
 20
-141.96045
 30
0.0
 11
129.748505
 21
-141.925721
 31
0.0
  0
LINE
  5
9BB3
  8
AXE
 10
320.374443
 20
-189.530929
 30
0.0
 11
206.106503
 21
-189.530929
 31
0.0
  0
TEXT
  5
9BB7
  8
AXE
 10
135.518844
 20
-208.230929
 30
0.0
 40
8.0
  1
Y
 72
     2
 11
141.995034
 21
-208.230929
 31
0.0
  0
LINE
  5
9BB8
  8
AXE
 10
142.995034
 20
-135.201748
 30
0.0
 11
142.995034
 21
-208.230929
 31
0.0
  0
LINE
  5
9BB9
  8
AXE
 10
201.487701
 20
-189.530929
 30
0.0
 11
163.537419
 21
-189.530929
 31
0.0
  0
LINE
  5
9BBB
  8
AXE
 10
196.435886
 20
-180.780929
 30
0.0
 11
206.539516
 21
-198.280929
 31
0.0
  0
DIMENSION
  5
9BBC
  8
COTATION1
  2
*D7
 10
157.988241
 20
-166.577551
 30
0.0
 11
203.491637
 21
-163.327551
 31
0.0
  1
800
 13
248.995034
 23
-186.230929
 33
0.0
 14
157.988241
 24
-184.374537
 34
0.0
 50
180.0
  0
LINE
  5
9BBD
  8
AXE
 10
152.995034
 20
-157.276748
 30
0.0
 11
152.995034
 21
-143.126748
 31
0.0
  0
TEXT
  5
9BBE
  8
AXE
 10
166.518844
 20
-157.803789
 30
0.0
 40
8.0
  1
X
 72
     2
 11
172.995034
 21
-157.803789
 31
0.0
  0
LINE
  5
9BBF
  8
ALPHA
 10
157.995034
 20
-142.405866
 30
0.0
 11
157.995034
 21
-185.701748
 31
0.0
  0
LINE
  5
9BC0
  8
ALPHA
 10
157.295034
 20
-151.008362
 30
0.0
 11
157.295034
 21
-186.136771
 31
0.0
  0
LINE
  5
9BC2
  8
ALPHA
 10
139.645034
 20
-188.401748
 30
0.0
 11
142.771428
 21
-188.401748
 31
0.0
  0
POLYLINE
  5
9BC3
  8
ALPHA
 66
     1
 10
0.0
 20
0.0
 30
0.0
 70
   128
210
0.0
220
0.0
230
-1.0
  0
VERTEX
  5
9FE4
  8
ALPHA
 10
-142.621043
 20
-188.315185
 30
0.0
  0
VERTEX
  5
9FE5
  8
ALPHA
 10
-142.995034
 20
-188.109366
 30
0.0
  0
VERTEX
  5
9FE6
  8
ALPHA
 10
-143.369026
 20
-188.315185
 30
0.0
  0
SEQEND
  5
9FE7
  8
ALPHA
  0
LINE
  5
9BC4
  8
ALPHA
 10
142.986045
 20
-187.201748
 30
0.0
 11
142.623405
 21
-187.501748
 31
0.0
  0
LINE
  5
9BC5
  8
ALPHA
 10
146.858378
 20
-186.89778
 30
0.0
 11
138.996203
 21
-186.89778
 31
0.0
  0
LINE
  5
9BC6
  8
ALPHA
 10
138.804678
 20
-187.201748
 30
0.0
 11
147.03539
 21
-187.201748
 31
0.0
  0
LINE
  5
9BC7
  8
ALPHA
 10
146.195034
 20
-186.601748
 30
0.0
 11
139.645034
 21
-186.601748
 31
0.0
  0
LINE
  5
9BC8
  8
ALPHA
 10
142.623405
 20
-187.501748
 30
0.0
 11
139.400943
 21
-187.644582
 31
0.0
  0
LINE
  5
9BC9
  8
ALPHA
 10
138.991292
 20
-188.114036
 30
0.0
 11
142.703374
 21
-188.114036
 31
0.0
  0
LINE
  5
9BCA
  8
ALPHA
 10
138.996203
 20
-186.89778
 30
0.0
 11
140.846399
 21
-187.201748
 31
0.0
  0
LINE
  5
9BCB
  8
ALPHA
 10
139.41207
 20
-187.60309
 30
0.0
 11
139.400943
 21
-187.644582
 31
0.0
  0
LINE
  5
9BCC
  8
ALPHA
 10
139.350303
 20
-187.606223
 30
0.0
 11
139.41207
 21
-187.60309
 31
0.0
  0
LINE
  5
9BCD
  8
ALPHA
 10
139.400943
 20
-187.644582
 30
0.0
 11
139.361942
 21
-187.76516
 31
0.0
  0
LINE
  5
9BCE
  8
ALPHA
 10
139.274632
 20
-188.114036
 30
0.0
 11
139.362299
 21
-187.764059
 31
0.0
  0
LINE
  5
9BCF
  8
ALPHA
 10
139.362299
 20
-187.764059
 30
0.0
 11
138.81181
 21
-187.824436
 31
0.0
  0
LINE
  5
9BD0
  8
ALPHA
 10
138.758894
 20
-187.6457
 30
0.0
 11
139.210958
 21
-187.613937
 31
0.0
  0
POLYLINE
  5
9BD1
  8
ALPHA
 66
     1
 10
0.0
 20
0.0
 30
0.0
 70
   128
210
0.0
220
0.0
230
-1.0
  0
VERTEX
  5
9FE8
  8
ALPHA
 10
-139.085243
 20
-187.201748
 30
0.0
  0
VERTEX
  5
9FE9
  8
ALPHA
 10
-139.301297
 20
-187.344161
 30
0.0
  0
VERTEX
  5
9FEA
  8
ALPHA
 10
-139.350303
 20
-187.606223
 30
0.0
  0
SEQEND
  5
9FEB
  8
ALPHA
  0
LINE
  5
9BD2
  8
ALPHA
 10
139.210958
 20
-187.613937
 30
0.0
 11
139.350303
 21
-187.606223
 31
0.0
  0
LINE
  5
9BD3
  8
ALPHA
 10
138.767412
 20
-187.673387
 30
0.0
 11
139.360831
 21
-187.608117
 31
0.0
  0
ARC
  5
9BD4
  8
ALPHA
 10
139.795034
 20
-187.501748
 30
0.0
 40
0.9
 50
142.059182
 51
160.353821
  0
ARC
  5
9BD5
  8
ALPHA
 10
139.645034
 20
-187.501748
 30
0.0
 40
0.9
 50
90.0
 51
270.0
  0
LINE
  5
9BD6
  8
ALPHA
 10
138.998611
 20
-186.88312
 30
0.0
 11
138.996203
 21
-186.89778
 31
0.0
  0
LINE
  5
9BD7
  8
ALPHA
 10
139.361942
 20
-187.76516
 30
0.0
 11
139.360831
 21
-187.608117
 31
0.0
  0
LINE
  5
9BD8
  8
ALPHA
 10
138.939562
 20
-186.951748
 30
0.0
 11
139.324698
 21
-186.951748
 31
0.0
  0
LINE
  5
9BD9
  8
ALPHA
 10
142.578615
 20
-188.401748
 30
0.0
 11
142.621043
 21
-188.315185
 31
0.0
  0
LINE
  5
9BDA
  8
ALPHA
 10
142.599934
 20
-187.201748
 30
0.0
 11
142.623405
 21
-187.501748
 31
0.0
  0
LINE
  5
9BDB
  8
ALPHA
 10
142.703374
 20
-188.114036
 30
0.0
 11
142.703374
 21
-188.227842
 31
0.0
  0
LINE
  5
9BDC
  8
ALPHA
 10
142.623405
 20
-187.504822
 30
0.0
 11
142.623405
 21
-187.501748
 31
0.0
  0
LINE
  5
9BDD
  8
ALPHA
 10
142.623405
 20
-188.114036
 30
0.0
 11
142.623405
 21
-187.504822
 31
0.0
  0
ARC
  5
9BDE
  8
ALPHA
 10
146.195034
 20
-187.501748
 30
0.0
 40
0.9
 50
270.0
 51
90.0
  0
LINE
  5
9BDF
  8
ALPHA
 10
146.8588
 20
-188.105302
 30
0.0
 11
146.491487
 21
-187.410994
 31
0.0
  0
LINE
  5
9BE0
  8
ALPHA
 10
146.888979
 20
-187.201748
 30
0.0
 11
146.888979
 21
-188.069683
 31
0.0
  0
LINE
  5
9BE1
  8
ALPHA
 10
146.491487
 20
-188.345698
 30
0.0
 11
146.491487
 21
-187.410994
 31
0.0
  0
LINE
  5
9BE2
  8
ALPHA
 10
146.66537
 20
-186.951748
 30
0.0
 11
146.900506
 21
-186.951748
 31
0.0
  0
LINE
  5
9BE3
  8
ALPHA
 10
143.369026
 20
-188.315185
 30
0.0
 11
143.411454
 21
-188.401748
 31
0.0
  0
ARC
  5
9BE4
  8
ALPHA
 10
142.995034
 20
-188.601748
 30
0.0
 40
0.3
 50
41.810315
 51
138.189685
  0
LINE
  5
9BE5
  8
ALPHA
 10
143.775636
 20
-188.401748
 30
0.0
 11
143.775636
 21
-187.201748
 31
0.0
  0
LINE
  5
9BE6
  8
ALPHA
 10
142.991487
 20
-188.116282
 30
0.0
 11
142.991487
 21
-187.201748
 31
0.0
  0
LINE
  5
9BE7
  8
ALPHA
 10
145.707024
 20
-188.401748
 30
0.0
 11
145.707024
 21
-187.201748
 31
0.0
  0
POLYLINE
  5
9BE8
  8
ALPHA
 66
     1
 10
0.0
 20
0.0
 30
0.0
 70
   128
  0
VERTEX
  5
9FEC
  8
ALPHA
 10
146.491487
 20
-187.410994
 30
0.0
  0
VERTEX
  5
9FED
  8
ALPHA
 10
146.093184
 20
-187.227055
 30
0.0
  0
VERTEX
  5
9FEE
  8
ALPHA
 10
145.707024
 20
-187.423523
 30
0.0
  0
SEQEND
  5
9FEF
  8
ALPHA
  0
LINE
  5
9BE9
  8
ALPHA
 10
146.878048
 20
-186.916807
 30
0.0
 11
145.143669
 21
-187.201748
 31
0.0
  0
LINE
  5
9BEA
  8
ALPHA
 10
143.218641
 20
-188.401748
 30
0.0
 11
146.195034
 21
-188.401748
 31
0.0
  0
LINE
  5
9BEC
  8
ALPHA
 10
152.995034
 20
-189.901748
 30
0.0
 11
152.995034
 21
-190.201748
 31
0.0
  0
ARC
  5
9BED
  8
ALPHA
 10
152.995034
 20
-185.201748
 30
0.0
 40
5.0
 50
270.0
 51
0.000411
  0
ARC
  5
9BEF
  8
AXE
 10
163.537419
 20
-174.530929
 30
0.0
 40
15.0
 50
244.534851
 51
270.0
  0
LINE
  5
9BF0
  8
ALPHA
 10
157.295034
 20
-186.136771
 30
0.0
 11
157.880859
 21
-186.264157
 31
0.0
  0
LINE
  5
9BF1
  8
ALPHA
 10
157.295034
 20
-186.136771
 30
0.0
 11
157.995034
 21
-185.201748
 31
0.0
  0
LINE
  5
9BF2
  8
ALPHA
 10
156.895127
 20
-187.515927
 30
0.0
 11
157.295034
 21
-187.753218
 31
0.0
  0
LINE
  5
9BF3
  8
ALPHA
 10
156.895127
 20
-187.515927
 30
0.0
 11
157.295034
 21
-186.136771
 31
0.0
  0
LINE
  5
9BF4
  8
ALPHA
 10
157.995034
 20
-185.701748
 30
0.0
 11
157.969811
 21
-185.701748
 31
0.0
  0
POLYLINE
  5
9BF5
  8
ALPHA
 66
     1
 10
0.0
 20
0.0
 30
0.0
 70
   128
  0
VERTEX
  5
9FF0
  8
ALPHA
 10
152.995034
 20
-189.901748
 30
0.0
  0
VERTEX
  5
9FF1
  8
ALPHA
 10
154.186726
 20
-189.743025
 30
0.0
  0
VERTEX
  5
9FF2
  8
ALPHA
 10
155.292282
 20
-189.271366
 30
0.0
  0
VERTEX
  5
9FF3
  8
ALPHA
 10
156.223497
 20
-188.511878
 30
0.0
  0
VERTEX
  5
9FF4
  8
ALPHA
 10
156.895127
 20
-187.515927
 30
0.0
  0
SEQEND
  5
9FF5
  8
ALPHA
  0
LINE
  5
9BF6
  8
ALPHA
 10
146.987024
 20
-145.676769
 30
0.0
 11
152.370034
 21
-145.14709
 31
0.0
  0
LINE
  5
9BF7
  8
ALPHA
 10
147.044591
 20
-144.951748
 30
0.0
 11
152.370034
 21
-144.951748
 31
0.0
  0
CIRCLE
  5
9BF8
  8
ALPHA
 10
152.995034
 20
-150.201748
 30
0.0
 40
2.125
  0
ARC
  5
9BF9
  8
ALPHA
 10
152.995034
 20
-150.201748
 30
0.0
 40
4.375
 50
10.624332
 51
349.375668
  0
CIRCLE
  5
9BFA
  8
ALPHA
 10
152.995034
 20
-150.201748
 30
0.0
 40
4.075
  0
LINE
  5
9BFB
  8
AXE
 10
145.920034
 20
-150.201748
 30
0.0
 11
160.070034
 21
-150.201748
 31
0.0
  0
LINE
  5
9BFC
  8
ALPHA
 10
152.370034
 20
-142.506407
 30
0.0
 11
142.995034
 21
-141.859809
 31
0.0
  0
ARC
  5
9BFD
  8
ALPHA
 10
142.995034
 20
-203.611748
 30
0.0
 40
63.1
 50
76.901583
 51
95.730045
  0
ARC
  5
9BFE
  8
ALPHA
 10
142.995034
 20
-203.611748
 30
0.0
 40
63.4
 50
76.672038
 51
88.038318
  0
LINE
  5
9BFF
  8
ALPHA
 10
150.995034
 20
-140.201748
 30
0.0
 11
134.995034
 21
-140.201748
 31
0.0
  0
LINE
  5
9C00
  8
ALPHA
 10
136.246985
 20
-142.701748
 30
0.0
 11
152.370034
 21
-142.701748
 31
0.0
  0
LINE
  5
9C01
  8
ALPHA
 10
143.495034
 20
-143.901748
 30
0.0
 11
152.245034
 21
-143.901748
 31
0.0
  0
LINE
  5
9C02
  8
ALPHA
 10
143.495034
 20
-144.701748
 30
0.0
 11
152.245034
 21
-144.701748
 31
0.0
  0
LINE
  5
9C03
  8
ALPHA
 10
135.16354
 20
-146.74522
 30
0.0
 11
136.425398
 21
-142.035899
 31
0.0
  0
LINE
  5
9C04
  8
ALPHA
 10
143.395034
 20
-145.694953
 30
0.0
 11
142.595033
 21
-145.694953
 31
0.0
  0
LINE
  5
9C05
  8
ALPHA
 10
143.395034
 20
-145.744953
 30
0.0
 11
142.595033
 21
-145.744953
 31
0.0
  0
LINE
  5
9C06
  8
ALPHA
 10
143.395034
 20
-146.104039
 30
0.0
 11
142.595034
 21
-146.104039
 31
0.0
  0
LINE
  5
9C07
  8
ALPHA
 10
142.495034
 20
-143.901748
 30
0.0
 11
143.495034
 21
-143.901748
 31
0.0
  0
LINE
  5
9C08
  8
ALPHA
 10
143.395034
 20
-146.449535
 30
0.0
 11
142.595034
 21
-146.449535
 31
0.0
  0
LINE
  5
9C09
  8
ALPHA
 10
143.395034
 20
-146.366184
 30
0.0
 11
142.595034
 21
-146.366184
 31
0.0
  0
POLYLINE
  5
9C0A
  8
ALPHA
 66
     1
 10
0.0
 20
0.0
 30
0.0
 70
   128
210
0.0
220
0.0
230
-1.0
  0
VERTEX
  5
9FF6
  8
ALPHA
 10
-146.965543
 20
-148.183318
 30
0.0
  0
VERTEX
  5
9FF7
  8
ALPHA
 10
-146.619087
 20
-149.844659
 30
0.0
  0
VERTEX
  5
9FF8
  8
ALPHA
 10
-145.798874
 20
-151.519411
 30
0.0
  0
VERTEX
  5
9FF9
  8
ALPHA
 10
-144.513513
 20
-152.880177
 30
0.0
  0
VERTEX
  5
9FFA
  8
ALPHA
 10
-143.768817
 20
-153.291241
 30
0.0
  0
VERTEX
  5
9FFB
  8
ALPHA
 10
-142.994975
 20
-153.441748
 30
0.0
  0
VERTEX
  5
9FFC
  8
ALPHA
 10
-142.221135
 20
-153.291198
 30
0.0
  0
VERTEX
  5
9FFD
  8
ALPHA
 10
-141.476446
 20
-152.880099
 30
0.0
  0
VERTEX
  5
9FFE
  8
ALPHA
 10
-140.191112
 20
-151.519291
 30
0.0
  0
VERTEX
  5
9FFF
  8
ALPHA
 10
-139.370941
 20
-149.84453
 30
0.0
  0
VERTEX
  5
A000
  8
ALPHA
 10
-139.024514
 20
-148.183187
 30
0.0
  0
SEQEND
  5
A001
  8
ALPHA
  0
LINE
  5
9C0B
  8
ALPHA
 10
142.495034
 20
-143.901748
 30
0.0
 11
142.495034
 21
-144.701748
 31
0.0
  0
LINE
  5
9C0C
  8
ALPHA
 10
139.070519
 20
-144.921748
 30
0.0
 11
142.595034
 21
-144.921748
 31
0.0
  0
LINE
  5
9C0D
  8
ALPHA
 10
142.550989
 20
-144.999394
 30
0.0
 11
138.954196
 21
-144.999394
 31
0.0
  0
LINE
  5
9C0E
  8
ALPHA
 10
139.072229
 20
-144.951748
 30
0.0
 11
139.070519
 21
-144.921748
 31
0.0
  0
LINE
  5
9C0F
  8
ALPHA
 10
139.017851
 20
-145.298942
 30
0.0
 11
139.019397
 21
-145.242728
 31
0.0
  0
LINE
  5
9C10
  8
ALPHA
 10
139.003045
 20
-145.676769
 30
0.0
 11
139.017851
 21
-145.298942
 31
0.0
  0
ARC
  5
9C11
  8
ALPHA
 10
139.243973
 20
-144.921748
 30
0.0
 40
0.3
 50
185.73917
 51
195.0
  0
LINE
  5
9C12
  8
ALPHA
 10
139.072229
 20
-144.951748
 30
0.0
 11
138.954196
 21
-144.951748
 31
0.0
  0
LINE
  5
9C13
  8
ALPHA
 10
139.034602
 20
-145.299474
 30
0.0
 11
138.954196
 21
-144.999394
 31
0.0
  0
LINE
  5
9C14
  8
ALPHA
 10
139.070519
 20
-144.921748
 30
0.0
 11
139.070519
 21
-144.701748
 31
0.0
  0
LINE
  5
9C15
  8
ALPHA
 10
142.550989
 20
-144.999394
 30
0.0
 11
142.595034
 21
-144.921748
 31
0.0
  0
LINE
  5
9C16
  8
ALPHA
 10
142.496092
 20
-146.061292
 30
0.0
 11
142.495064
 21
-146.016263
 31
0.0
  0
LINE
  5
9C17
  8
ALPHA
 10
142.496891
 20
-146.079299
 30
0.0
 11
142.496092
 21
-146.061292
 31
0.0
  0
LINE
  5
9C18
  8
ALPHA
 10
142.495034
 20
-145.334449
 30
0.0
 11
142.550989
 21
-144.999394
 31
0.0
  0
LINE
  5
9C19
  8
ALPHA
 10
142.495034
 20
-145.694953
 30
0.0
 11
142.569152
 21
-145.720835
 31
0.0
  0
LINE
  5
9C1A
  8
ALPHA
 10
142.595034
 20
-145.744953
 30
0.0
 11
142.569152
 21
-145.720835
 31
0.0
  0
LINE
  5
9C1B
  8
ALPHA
 10
142.569152
 20
-145.720835
 30
0.0
 11
142.595034
 21
-145.694953
 31
0.0
  0
POLYLINE
  5
9C1C
  8
ALPHA
 66
     1
 10
0.0
 20
0.0
 30
0.0
  0
VERTEX
  5
A002
  8
ALPHA
 10
142.496092
 20
-146.061292
 30
0.0
  0
VERTEX
  5
A003
  8
ALPHA
 10
142.513684
 20
-146.083117
 30
0.0
  0
VERTEX
  5
A004
  8
ALPHA
 10
142.549293
 20
-146.098502
 30
0.0
  0
VERTEX
  5
A005
  8
ALPHA
 10
142.595034
 20
-146.104039
 30
0.0
  0
SEQEND
  5
A006
  8
ALPHA
  0
LINE
  5
9C1D
  8
ALPHA
 10
142.595034
 20
-144.921748
 30
0.0
 11
142.595033
 21
-145.694953
 31
0.0
  0
LINE
  5
9C1E
  8
ALPHA
 10
142.495034
 20
-145.334449
 30
0.0
 11
142.495064
 21
-146.016263
 31
0.0
  0
ARC
  5
9C1F
  8
ALPHA
 10
132.995034
 20
-150.201748
 30
0.0
 40
4.975
 50
56.346868
 51
61.007152
  0
LINE
  5
9C20
  8
ALPHA
 10
135.529968
 20
-145.384109
 30
0.0
 11
139.003045
 21
-145.676769
 31
0.0
  0
LINE
  5
9C21
  8
ALPHA
 10
135.925446
 20
-143.901748
 30
0.0
 11
142.495034
 21
-143.901748
 31
0.0
  0
LINE
  5
9C22
  8
ALPHA
 10
135.711086
 20
-144.701748
 30
0.0
 11
142.495034
 21
-144.701748
 31
0.0
  0
LINE
  5
9C23
  8
ALPHA
 10
135.644099
 20
-144.951748
 30
0.0
 11
138.945477
 21
-144.951748
 31
0.0
  0
POLYLINE
  5
9C24
  8
ALPHA
 66
     1
 10
0.0
 20
0.0
 30
0.0
 70
   128
210
0.0
220
0.0
230
-1.0
  0
VERTEX
  5
A007
  8
ALPHA
 10
-139.995034
 20
-147.99046
 30
0.0
  0
VERTEX
  5
A008
  8
ALPHA
 10
-139.859283
 20
-147.935432
 30
0.0
  0
VERTEX
  5
A009
  8
ALPHA
 10
-139.785001
 20
-147.734792
 30
0.0
  0
VERTEX
  5
A00A
  8
ALPHA
 10
-139.661797
 20
-147.324861
 30
0.0
  0
VERTEX
  5
A00B
  8
ALPHA
 10
-139.434967
 20
-146.499324
 30
0.0
  0
SEQEND
  5
A00C
  8
ALPHA
  0
LINE
  5
9C25
  8
ALPHA
 10
139.024511
 20
-148.18315
 30
0.0
 11
139.434967
 21
-146.499324
 31
0.0
  0
LINE
  5
9C26
  8
ALPHA
 10
142.595034
 20
-146.449535
 30
0.0
 11
142.550942
 21
-146.363747
 31
0.0
  0
POLYLINE
  5
9C27
  8
ALPHA
 66
     1
 10
0.0
 20
0.0
 30
0.0
  0
VERTEX
  5
A00D
  8
ALPHA
 10
142.550942
 20
-146.363747
 30
0.0
  0
VERTEX
  5
A00E
  8
ALPHA
 10
142.56506
 20
-146.36509
 30
0.0
  0
VERTEX
  5
A00F
  8
ALPHA
 10
142.579872
 20
-146.365909
 30
0.0
  0
VERTEX
  5
A010
  8
ALPHA
 10
142.595034
 20
-146.366184
 30
0.0
  0
SEQEND
  5
A011
  8
ALPHA
  0
ARC
  5
9C28
  8
ALPHA
 10
132.995034
 20
-150.201748
 30
0.0
 40
2.813833
 50
333.999619
 51
0.0
  0
LINE
  5
9C29
  8
ALPHA
 10
135.80734
 20
-150.294435
 30
0.0
 11
136.992697
 21
-150.338458
 31
0.0
  0
LINE
  5
9C2A
  8
ALPHA
 10
135.803007
 20
-150.383257
 30
0.0
 11
136.988594
 21
-150.42864
 31
0.0
  0
LINE
  5
9C2B
  8
ALPHA
 10
135.564564
 20
-151.348566
 30
0.0
 11
136.639697
 21
-151.849908
 31
0.0
  0
LINE
  5
9C2C
  8
ALPHA
 10
135.524082
 20
-151.435268
 30
0.0
 11
136.59923
 21
-151.936618
 31
0.0
  0
ARC
  5
9C2D
  8
ALPHA
 10
132.995034
 20
-150.201748
 30
0.0
 40
4.0
 50
0.0
 51
54.58379
  0
LINE
  5
9C2E
  8
ALPHA
 10
135.709278
 20
-146.63761
 30
0.0
 11
135.999056
 21
-146.715256
 31
0.0
  0
LINE
  5
9C2F
  8
ALPHA
 10
136.995034
 20
-150.201748
 30
0.0
 11
135.808867
 21
-150.201748
 31
0.0
  0
LINE
  5
9C30
  8
ALPHA
 10
135.933385
 20
-146.960342
 30
0.0
 11
135.999056
 21
-146.715256
 31
0.0
  0
ARC
  5
9C31
  8
ALPHA
 10
135.933385
 20
-146.960342
 30
0.0
 40
0.3
 50
165.0
 51
227.807538
  0
ARC
  5
9C32
  8
ALPHA
 10
135.4195
 20
-146.559965
 30
0.0
 40
0.3
 50
345.0
 51
56.346868
  0
ARC
  5
9C33
  8
ALPHA
 10
132.995034
 20
-150.201748
 30
0.0
 40
4.675
 50
56.346868
 51
60.071418
  0
ARC
  5
9C34
  8
ALPHA
 10
135.486935
 20
-146.697404
 30
0.0
 40
0.3
 50
173.697974
 51
234.58379
  0
LINE
  5
9C35
  8
ALPHA
 10
135.933385
 20
-146.960342
 30
0.0
 11
135.643608
 21
-146.882696
 31
0.0
  0
LINE
  5
9C36
  8
ALPHA
 10
135.643608
 20
-146.882696
 30
0.0
 11
135.709278
 21
-146.63761
 31
0.0
  0
LINE
  5
9C37
  8
ALPHA
 10
135.731899
 20
-147.182609
 30
0.0
 11
135.933385
 21
-146.960342
 31
0.0
  0
ARC
  5
9C38
  8
ALPHA
 10
135.4195
 20
-146.559965
 30
0.0
 40
0.6
 50
345.0
 51
56.346868
  0
LINE
  5
9C39
  8
ALPHA
 10
135.751999
 20
-146.06052
 30
0.0
 11
135.58575
 21
-146.310242
 31
0.0
  0
POLYLINE
  5
9C3A
  8
ALPHA
 66
     1
 10
0.0
 20
0.0
 30
0.0
 70
   128
  0
VERTEX
  5
A012
  8
ALPHA
 10
142.496891
 20
-146.079299
 30
0.0
  0
VERTEX
  5
A013
  8
ALPHA
 10
141.701959
 20
-146.283841
 30
0.0
  0
VERTEX
  5
A014
  8
ALPHA
 10
140.992937
 20
-146.695874
 30
0.0
  0
VERTEX
  5
A015
  8
ALPHA
 10
139.995034
 20
-147.99046
 30
0.0
  0
SEQEND
  5
A016
  8
ALPHA
  0
LINE
  5
9C3B
  8
ALPHA
 10
139.024514
 20
-148.183187
 30
0.0
 11
139.003045
 21
-145.676769
 31
0.0
  0
LINE
  5
9C3C
  8
ALPHA
 10
139.434967
 20
-146.499324
 30
0.0
 11
139.034602
 21
-145.299474
 31
0.0
  0
LINE
  5
9C3D
  8
ALPHA
 10
139.995034
 20
-144.701748
 30
0.0
 11
139.995034
 21
-147.99046
 31
0.0
  0
LINE
  5
9C3E
  8
ALPHA
 10
142.550942
 20
-146.363747
 30
0.0
 11
142.496896
 21
-146.079404
 31
0.0
  0
LINE
  5
9C3F
  8
ALPHA
 10
142.595033
 20
-145.744953
 30
0.0
 11
142.595034
 21
-146.449535
 31
0.0
  0
LINE
  5
9C40
  8
ALPHA
 10
146.91955
 20
-144.921748
 30
0.0
 11
146.91784
 21
-144.951748
 31
0.0
  0
LINE
  5
9C41
  8
ALPHA
 10
146.972217
 20
-145.298942
 30
0.0
 11
146.987024
 21
-145.676769
 31
0.0
  0
LINE
  5
9C42
  8
ALPHA
 10
146.970672
 20
-145.242728
 30
0.0
 11
146.972217
 21
-145.298942
 31
0.0
  0
ARC
  5
9C43
  8
ALPHA
 10
146.746095
 20
-144.921748
 30
0.0
 40
0.3
 50
345.0
 51
354.26083
  0
LINE
  5
9C44
  8
ALPHA
 10
146.91784
 20
-144.951748
 30
0.0
 11
147.035873
 21
-144.951748
 31
0.0
  0
LINE
  5
9C45
  8
ALPHA
 10
146.91955
 20
-144.701748
 30
0.0
 11
146.91955
 21
-144.921748
 31
0.0
  0
LINE
  5
9C46
  8
ALPHA
 10
147.035873
 20
-144.999394
 30
0.0
 11
146.955467
 21
-145.299474
 31
0.0
  0
LINE
  5
9C47
  8
ALPHA
 10
146.965558
 20
-148.18315
 30
0.0
 11
146.555101
 21
-146.499324
 31
0.0
  0
LINE
  5
9C48
  8
ALPHA
 10
146.987024
 20
-145.676769
 30
0.0
 11
146.965543
 21
-148.183318
 31
0.0
  0
LINE
  5
9C49
  8
ALPHA
 10
146.955467
 20
-145.299474
 30
0.0
 11
146.555101
 21
-146.499324
 31
0.0
  0
LINE
  5
9C4A
  8
ALPHA
 10
143.495034
 20
-143.901748
 30
0.0
 11
143.495034
 21
-144.701748
 31
0.0
  0
LINE
  5
9C4B
  8
ALPHA
 10
143.495034
 20
-145.694953
 30
0.0
 11
143.420916
 21
-145.720835
 31
0.0
  0
LINE
  5
9C4C
  8
ALPHA
 10
143.395034
 20
-144.921748
 30
0.0
 11
143.439079
 21
-144.999394
 31
0.0
  0
LINE
  5
9C4D
  8
ALPHA
 10
143.439079
 20
-144.999394
 30
0.0
 11
143.495034
 21
-145.334449
 31
0.0
  0
LINE
  5
9C4E
  8
ALPHA
 10
143.493977
 20
-146.061292
 30
0.0
 11
143.493178
 21
-146.079299
 31
0.0
  0
LINE
  5
9C4F
  8
ALPHA
 10
143.495005
 20
-146.016263
 30
0.0
 11
143.493977
 21
-146.061292
 31
0.0
  0
LINE
  5
9C50
  8
ALPHA
 10
143.395034
 20
-145.694953
 30
0.0
 11
143.420916
 21
-145.720835
 31
0.0
  0
LINE
  5
9C51
  8
ALPHA
 10
143.420916
 20
-145.720835
 30
0.0
 11
143.395034
 21
-145.744953
 31
0.0
  0
LINE
  5
9C52
  8
ALPHA
 10
143.495034
 20
-145.334449
 30
0.0
 11
143.495004
 21
-146.016263
 31
0.0
  0
LINE
  5
9C53
  8
ALPHA
 10
143.395034
 20
-145.694953
 30
0.0
 11
143.395034
 21
-144.921748
 31
0.0
  0
POLYLINE
  5
9C54
  8
ALPHA
 66
     1
 10
0.0
 20
0.0
 30
0.0
  0
VERTEX
  5
A017
  8
ALPHA
 10
143.493977
 20
-146.061292
 30
0.0
  0
VERTEX
  5
A018
  8
ALPHA
 10
143.476385
 20
-146.083117
 30
0.0
  0
VERTEX
  5
A019
  8
ALPHA
 10
143.440775
 20
-146.098502
 30
0.0
  0
VERTEX
  5
A01A
  8
ALPHA
 10
143.395034
 20
-146.104039
 30
0.0
  0
SEQEND
  5
A01B
  8
ALPHA
  0
LINE
  5
9C55
  8
ALPHA
 10
143.439127
 20
-146.363747
 30
0.0
 11
143.395034
 21
-146.449535
 31
0.0
  0
POLYLINE
  5
9C56
  8
ALPHA
 66
     1
 10
0.0
 20
0.0
 30
0.0
  0
VERTEX
  5
A01C
  8
ALPHA
 10
143.439127
 20
-146.363747
 30
0.0
  0
VERTEX
  5
A01D
  8
ALPHA
 10
143.425008
 20
-146.36509
 30
0.0
  0
VERTEX
  5
A01E
  8
ALPHA
 10
143.410197
 20
-146.365909
 30
0.0
  0
VERTEX
  5
A01F
  8
ALPHA
 10
143.395034
 20
-146.366184
 30
0.0
  0
SEQEND
  5
A020
  8
ALPHA
  0
POLYLINE
  5
9C57
  8
ALPHA
 66
     1
 10
0.0
 20
0.0
 30
0.0
 70
   128
  0
VERTEX
  5
A021
  8
ALPHA
 10
145.995034
 20
-147.99046
 30
0.0
  0
VERTEX
  5
A022
  8
ALPHA
 10
144.997132
 20
-146.695874
 30
0.0
  0
VERTEX
  5
A023
  8
ALPHA
 10
144.288109
 20
-146.283841
 30
0.0
  0
VERTEX
  5
A024
  8
ALPHA
 10
143.493178
 20
-146.079299
 30
0.0
  0
SEQEND
  5
A025
  8
ALPHA
  0
LINE
  5
9C58
  8
ALPHA
 10
143.493173
 20
-146.079404
 30
0.0
 11
143.439127
 21
-146.363747
 31
0.0
  0
LINE
  5
9C59
  8
ALPHA
 10
143.395034
 20
-146.449535
 30
0.0
 11
143.395034
 21
-145.744953
 31
0.0
  0
LINE
  5
9C5A
  8
ALPHA
 10
145.995034
 20
-144.701748
 30
0.0
 11
145.995034
 21
-147.99046
 31
0.0
  0
POLYLINE
  5
9C5B
  8
ALPHA
 66
     1
 10
0.0
 20
0.0
 30
0.0
 70
   128
210
0.0
220
0.0
230
-1.0
  0
VERTEX
  5
A026
  8
ALPHA
 10
-146.555101
 20
-146.499324
 30
0.0
  0
VERTEX
  5
A027
  8
ALPHA
 10
-146.328272
 20
-147.32486
 30
0.0
  0
VERTEX
  5
A028
  8
ALPHA
 10
-146.205068
 20
-147.734789
 30
0.0
  0
VERTEX
  5
A029
  8
ALPHA
 10
-146.130787
 20
-147.935431
 30
0.0
  0
VERTEX
  5
A02A
  8
ALPHA
 10
-145.995034
 20
-147.99046
 30
0.0
  0
SEQEND
  5
A02B
  8
ALPHA
  0
LINE
  5
9C5C
  8
ALPHA
 10
143.395034
 20
-144.921748
 30
0.0
 11
146.91955
 21
-144.921748
 31
0.0
  0
LINE
  5
9C5D
  8
ALPHA
 10
143.439079
 20
-144.999394
 30
0.0
 11
147.035873
 21
-144.999394
 31
0.0
  0
LINE
  5
9C5E
  8
ALPHA
 10
142.995034
 20
-140.511748
 30
0.0
 11
140.824781
 21
-140.248904
 31
0.0
  0
LINE
  5
9C5F
  8
ALPHA
 10
142.995034
 20
-141.859809
 30
0.0
 11
136.383901
 21
-142.180904
 31
0.0
  0
LINE
  5
9C60
  8
ALPHA
 10
134.995034
 20
-140.201748
 30
0.0
 11
134.995034
 21
-140.718505
 31
0.0
  0
LINE
  5
9C61
  8
ALPHA
 10
136.675098
 20
-140.527532
 30
0.0
 11
136.695034
 21
-140.827037
 31
0.0
  0
ARC
  5
9C62
  8
ALPHA
 10
136.295034
 20
-141.371327
 30
0.0
 40
0.4
 50
291.975285
 51
0.0
  0
ARC
  5
9C63
  8
ALPHA
 10
136.295034
 20
-141.371327
 30
0.0
 40
0.2
 50
318.072032
 51
0.0
  0
ARC
  5
9C64
  8
ALPHA
 10
136.695034
 20
-140.726535
 30
0.0
 40
0.2
 50
95.720948
 51
175.373269
  0
ARC
  5
9C65
  8
ALPHA
 10
135.942435
 20
-141.90649
 30
0.0
 40
0.5
 50
345.0
 51
0.0
  0
LINE
  5
9C66
  8
ALPHA
 10
136.695034
 20
-140.827037
 30
0.0
 11
136.495034
 21
-140.827037
 31
0.0
  0
LINE
  5
9C67
  8
ALPHA
 10
136.695034
 20
-141.371327
 30
0.0
 11
136.495034
 21
-141.371327
 31
0.0
  0
LINE
  5
9C68
  8
ALPHA
 10
136.495034
 20
-140.726535
 30
0.0
 11
136.495686
 21
-140.710403
 31
0.0
  0
LINE
  5
9C69
  8
ALPHA
 10
136.695034
 20
-141.371327
 30
0.0
 11
136.695034
 21
-140.827037
 31
0.0
  0
LINE
  5
9C6A
  8
ALPHA
 10
136.495034
 20
-141.371327
 30
0.0
 11
136.495034
 21
-140.726535
 31
0.0
  0
LINE
  5
9C6B
  8
ALPHA
 10
136.442435
 20
-141.90649
 30
0.0
 11
136.442435
 21
-141.076725
 31
0.0
  0
LINE
  5
9C6C
  8
ALPHA
 10
142.995034
 20
-140.511748
 30
0.0
 11
145.165288
 21
-140.248904
 31
0.0
  0
LINE
  5
9C6D
  8
ALPHA
 10
142.995034
 20
-142.701748
 30
0.0
 11
142.995034
 21
-141.859809
 31
0.0
  0
LINE
  5
9C6E
  8
ALPHA
 10
152.370034
 20
-142.506407
 30
0.0
 11
152.370034
 21
-145.14709
 31
0.0
  0
LINE
  5
9C6F
  8
ALPHA
 10
152.245034
 20
-144.701748
 30
0.0
 11
152.245034
 21
-142.701748
 31
0.0
  0
LINE
  5
9C70
  8
ALPHA
 10
157.295034
 20
-149.395135
 30
0.0
 11
157.295034
 21
-142.15347
 31
0.0
  0
LINE
  5
9C71
  8
ALPHA
 10
152.245034
 20
-143.851748
 30
0.0
 11
152.370034
 21
-143.851748
 31
0.0
  0
LINE
  5
9C72
  8
ALPHA
 10
152.245034
 20
-144.201748
 30
0.0
 11
152.370034
 21
-144.201748
 31
0.0
  0
LINE
  5
9C73
  8
ALPHA
 10
157.426284
 20
-150.201748
 30
0.0
 11
157.295034
 21
-151.008362
 31
0.0
  0
LINE
  5
9C74
  8
ALPHA
 10
157.295034
 20
-151.008362
 30
0.0
 11
157.000177
 21
-150.953051
 31
0.0
  0
LINE
  5
9C75
  8
ALPHA
 10
157.295034
 20
-149.395135
 30
0.0
 11
157.426284
 21
-150.201748
 31
0.0
  0
LINE
  5
9C76
  8
ALPHA
 10
157.295034
 20
-149.395135
 30
0.0
 11
157.000177
 21
-149.450446
 31
0.0
  0
LINE
  5
9C77
  8
ALPHA
 10
157.725718
 20
-142.211253
 30
0.0
 11
157.610297
 21
-141.919333
 31
0.0
  0
LINE
  5
9C78
  8
ALPHA
 10
157.995034
 20
-142.405866
 30
0.0
 11
157.725718
 21
-142.211253
 31
0.0
  0
LINE
  5
9C79
  8
ALPHA
 10
157.295034
 20
-142.15347
 30
0.0
 11
157.725718
 21
-142.211253
 31
0.0
  0
ARC
  5
9C7A
  8
ALPHA
 10
157.495034
 20
-142.405866
 30
0.0
 40
0.5
 50
0.0
 51
76.672038
  0
LINE
  5
9C7B
  8
ALPHA
 10
157.295034
 20
-142.15347
 30
0.0
 11
157.363022
 21
-141.861275
 31
0.0
  0
LINE
  5
9C7C
  8
ALPHA
 10
150.995034
 20
-140.201748
 30
0.0
 11
150.995034
 21
-140.718505
 31
0.0
  0
LINE
  5
9C7F
  8
AXE
 10
201.054688
 20
-180.780929
 30
0.0
 11
211.158318
 21
-198.280929
 31
0.0
  0
LINE
  5
9C80
  8
ALPHA
 10
218.334009
 20
-186.080929
 30
0.0
 11
218.334009
 21
-192.980929
 31
0.0
  0
LINE
  5
9C83
  8
ALPHA
 10
248.995034
 20
-186.230929
 30
0.0
 11
248.995034
 21
-192.830929
 31
0.0
  0
LINE
  5
9EB8
  8
ALPHA
 10
248.995034
 20
-186.080929
 30
0.0
 11
204.114644
 21
-186.080929
 31
0.0
  0
LINE
  5
9EB9
  8
ALPHA
 10
248.995034
 20
-192.980929
 30
0.0
 11
208.098361
 21
-192.980929
 31
0.0
  0
ARC
  5
9EBA
  8
ALPHA
 10
163.537419
 20
-174.530929
 30
0.0
 40
11.55
 50
241.323734
 51
270.0
  0
ARC
  5
9EBB
  8
ALPHA
 10
163.537419
 20
-174.530929
 30
0.0
 40
18.45
 50
237.836843
 51
270.0
  0
LINE
  5
9EBC
  8
ALPHA
 10
203.479559
 20
-192.980929
 30
0.0
 11
163.537419
 21
-192.980929
 31
0.0
  0
LINE
  5
9EBD
  8
ALPHA
 10
199.495842
 20
-186.080929
 30
0.0
 11
163.537419
 21
-186.080929
 31
0.0
  0
VIEWPORT
  5
494D
 67
     1
  8
0
 10
4.995325
 20
6.556512
 30
0.0
 40
22.70986
 41
13.988421
 68
    -1
 69
     1
1001
ACAD
1000
MVIEW
1002
{
1070
    16
1010
0.0
1020
0.0
1030
0.0
1010
0.0
1020
0.0
1030
1.0
1040
0.0
1040
13.988421
1040
4.995325
1040
6.556512
1040
50.0
1040
0.0
1040
0.0
1070
     0
1070
   100
1070
     1
1070
     1
1070
     0
1070
     0
1070
     0
1070
     0
1040
0.0
1040
0.0
1040
0.0
1040
10.0
1040
10.0
1040
10.0
1040
10.0
1070
     0
1002
{
1002
}
1002
}
  0
ENDSEC
  0
EOF
