  0
SECTION
  2
HEADER
  9
$ACADVER
  1
AC1009
  9
$INSBASE
 10
-146.27124
 20
-153.796096
 30
0.0
  9
$EXTMIN
 10
944.898226
 20
-145.840196
 30
0.0
  9
$EXTMAX
 10
1064.867357
 20
14.401496
 30
0.0
  9
$LIMMIN
 10
-407.970438
 20
-367.832444
  9
$LIMMAX
 10
429.804077
 20
234.370848
  9
$ORTHOMODE
 70
     0
  9
$REGENMODE
 70
     1
  9
$FILLMODE
 70
     1
  9
$QTEXTMODE
 70
     0
  9
$MIRRTEXT
 70
     1
  9
$DRAGMODE
 70
     2
  9
$LTSCALE
 40
10.0
  9
$OSMODE
 70
    37
  9
$ATTMODE
 70
     1
  9
$TEXTSIZE
 40
6.0
  9
$TRACEWID
 40
1.0
  9
$TEXTSTYLE
  7
ROMANS
  9
$CLAYER
  8
COTATION1
  9
$CELTYPE
  6
BYLAYER
  9
$CECOLOR
 62
   256
  9
$DIMSCALE
 40
1.0
  9
$DIMASZ
 40
2.0
  9
$DIMEXO
 40
0.5
  9
$DIMDLI
 40
0.38
  9
$DIMRND
 40
0.0
  9
$DIMDLE
 40
0.0
  9
$DIMEXE
 40
0.18
  9
$DIMTP
 40
0.0
  9
$DIMTM
 40
0.0
  9
$DIMTXT
 40
2.0
  9
$DIMCEN
 40
0.09
  9
$DIMTSZ
 40
0.0
  9
$DIMTOL
 70
     0
  9
$DIMLIM
 70
     0
  9
$DIMTIH
 70
     0
  9
$DIMTOH
 70
     1
  9
$DIMSE1
 70
     0
  9
$DIMSE2
 70
     0
  9
$DIMTAD
 70
     1
  9
$DIMZIN
 70
    12
  9
$DIMBLK
  1
OPEN30
  9
$DIMASO
 70
     1
  9
$DIMSHO
 70
     1
  9
$DIMPOST
  1

  9
$DIMAPOST
  1

  9
$DIMALT
 70
     0
  9
$DIMALTD
 70
     2
  9
$DIMALTF
 40
25.4
  9
$DIMLFAC
 40
1.0
  9
$DIMTOFL
 70
     0
  9
$DIMTVP
 40
0.0
  9
$DIMTIX
 70
     0
  9
$DIMSOXD
 70
     0
  9
$DIMSAH
 70
     0
  9
$DIMBLK1
  1

  9
$DIMBLK2
  1

  9
$DIMSTYLE
  2
ROMANS
  9
$DIMCLRD
 70
     0
  9
$DIMCLRE
 70
     0
  9
$DIMCLRT
 70
     0
  9
$DIMTFAC
 40
1.0
  9
$DIMGAP
 40
0.5
  9
$LUNITS
 70
     2
  9
$LUPREC
 70
     1
  9
$SKETCHINC
 40
0.1
  9
$FILLETRAD
 40
0.0
  9
$AUNITS
 70
     0
  9
$AUPREC
 70
     0
  9
$MENU
  1
acad
  9
$ELEVATION
 40
0.0
  9
$PELEVATION
 40
0.0
  9
$THICKNESS
 40
0.0
  9
$LIMCHECK
 70
     0
  9
$BLIPMODE
 70
     0
  9
$CHAMFERA
 40
0.0
  9
$CHAMFERB
 40
0.0
  9
$SKPOLY
 70
     0
  9
$TDCREATE
 40
2450365.355314
  9
$TDUPDATE
 40
2452608.424972
  9
$TDINDWG
 40
0.538052
  9
$TDUSRTIMER
 40
0.538052
  9
$USRTIMER
 70
     1
  9
$ANGBASE
 50
0.0
  9
$ANGDIR
 70
     0
  9
$PDMODE
 70
    32
  9
$PDSIZE
 40
0.0
  9
$PLINEWID
 40
0.0
  9
$COORDS
 70
     2
  9
$SPLFRAME
 70
     0
  9
$SPLINETYPE
 70
     6
  9
$SPLINESEGS
 70
     8
  9
$ATTDIA
 70
     0
  9
$ATTREQ
 70
     1
  9
$HANDLING
 70
     1
  9
$HANDSEED
  5
3F38
  9
$SURFTAB1
 70
     6
  9
$SURFTAB2
 70
     6
  9
$SURFTYPE
 70
     6
  9
$SURFU
 70
     6
  9
$SURFV
 70
     6
  9
$UCSNAME
  2

  9
$UCSORG
 10
0.0
 20
0.0
 30
0.0
  9
$UCSXDIR
 10
1.0
 20
0.0
 30
0.0
  9
$UCSYDIR
 10
0.0
 20
1.0
 30
0.0
  9
$PUCSNAME
  2

  9
$PUCSORG
 10
0.0
 20
0.0
 30
0.0
  9
$PUCSXDIR
 10
1.0
 20
0.0
 30
0.0
  9
$PUCSYDIR
 10
0.0
 20
1.0
 30
0.0
  9
$USERI1
 70
     0
  9
$USERI2
 70
     0
  9
$USERI3
 70
     0
  9
$USERI4
 70
     0
  9
$USERI5
 70
     0
  9
$USERR1
 40
0.0
  9
$USERR2
 40
0.0
  9
$USERR3
 40
0.0
  9
$USERR4
 40
0.0
  9
$USERR5
 40
0.0
  9
$WORLDVIEW
 70
     1
  9
$SHADEDGE
 70
     3
  9
$SHADEDIF
 70
    70
  9
$TILEMODE
 70
     1
  9
$MAXACTVP
 70
    16
  9
$PLIMCHECK
 70
     0
  9
$PEXTMIN
 10
1.000000E+020
 20
1.000000E+020
 30
1.000000E+020
  9
$PEXTMAX
 10
-1.000000E+020
 20
-1.000000E+020
 30
-1.000000E+020
  9
$PLIMMIN
 10
0.0
 20
0.0
  9
$PLIMMAX
 10
12.0
 20
9.0
  9
$UNITMODE
 70
     0
  9
$VISRETAIN
 70
     0
  9
$PLINEGEN
 70
     0
  9
$PSLTSCALE
 70
     0
  0
ENDSEC
  0
SECTION
  2
TABLES
  0
TABLE
  2
VPORT
 70
     2
  0
VPORT
  2
*ACTIVE
 70
     0
 10
0.0
 20
0.0
 11
1.0
 21
1.0
 12
1004.876863
 22
-65.720018
 13
0.0
 23
0.0
 14
1.0
 24
1.0
 15
10.0
 25
10.0
 16
0.0
 26
0.0
 36
1.0
 17
0.0
 27
0.0
 37
0.0
 40
161.704559
 41
1.63142
 42
50.0
 43
0.0
 44
0.0
 50
0.0
 51
0.0
 71
     0
 72
   100
 73
     1
 74
     0
 75
     0
 76
     0
 77
     0
 78
     0
  0
ENDTAB
  0
TABLE
  2
LTYPE
 70
    26
  0
LTYPE
  2
CONTINUOUS
 70
     0
  3
Solid line
 72
    65
 73
     0
 40
0.0
  0
LTYPE
  2
AXES2
 70
     0
  3
___ _ ___ _ ___ _ ___ _ ___ _ ___ _ ___ _ ___ _
 72
    65
 73
     4
 40
1.125
 49
0.75
 49
-0.125
 49
0.125
 49
-0.125
  0
LTYPE
  2
ACAD_ISO04W100
 70
     0
  3
ISO Lang gestrichelt punktiert ____ . ____ . __
 72
    65
 73
     4
 40
30.5
 49
24.0
 49
-3.0
 49
0.5
 49
-3.0
  0
LTYPE
  2
AXES
 70
     0
  3
____ _ ____ _ ____ _ ____ _ ____ _ ____ _ ____ 
 72
    65
 73
     4
 40
2.0
 49
1.25
 49
-0.25
 49
0.25
 49
-0.25
  0
LTYPE
  2
AXESX2
 70
     0
  3
________  __  ________  __  ________  __  _____
 72
    65
 73
     4
 40
4.0
 49
2.5
 49
-0.5
 49
0.5
 49
-0.5
  0
LTYPE
  2
TIRETPT
 70
     0
  3
__ . __ . __ . __ . __ . __ . __ . __ . __ . __
 72
    65
 73
     4
 40
1.0
 49
0.5
 49
-0.25
 49
0.0
 49
-0.25
  0
LTYPE
  2
TIRETPT2
 70
     0
  3
_._._._._._._._._._._._._._._._._._._._._._._._
 72
    65
 73
     4
 40
0.5
 49
0.25
 49
-0.125
 49
0.0
 49
-0.125
  0
LTYPE
  2
TIRETPTX2
 70
     0
  3
____  .  ____  .  ____  .  ____  .  ____  .  __
 72
    65
 73
     4
 40
2.0
 49
1.0
 49
-0.5
 49
0.0
 49
-0.5
  0
LTYPE
  2
DISCONTINU
 70
     0
  3
__ __ __ __ __ __ __ __ __ __ __ __ __ __ __ __
 72
    65
 73
     2
 40
0.75
 49
0.5
 49
-0.25
  0
LTYPE
  2
DISCONTINU2
 70
     0
  3
_ _ _ _ _ _ _ _ _ _ _ _ _ _ _ _ _ _ _ _ _ _ _ _
 72
    65
 73
     2
 40
0.375
 49
0.25
 49
-0.125
  0
LTYPE
  2
DISCONTINUX2
 70
     0
  3
____  ____  ____  ____  ____  ____  ____  ____ 
 72
    65
 73
     2
 40
1.5
 49
1.0
 49
-0.5
  0
LTYPE
  2
DIVISE
 70
     0
  3
____ . . ____ . . ____ . . ____ . . ____ . . __
 72
    65
 73
     6
 40
1.25
 49
0.5
 49
-0.25
 49
0.0
 49
-0.25
 49
0.0
 49
-0.25
  0
LTYPE
  2
DIVISE2
 70
     0
  3
__..__..__..__..__..__..__..__..__..__..__..__.
 72
    65
 73
     6
 40
0.625
 49
0.25
 49
-0.125
 49
0.0
 49
-0.125
 49
0.0
 49
-0.125
  0
LTYPE
  2
DIVISEX2
 70
     0
  3
________  .  .  ________  .  .  ________  .  . 
 72
    65
 73
     6
 40
2.5
 49
1.0
 49
-0.5
 49
0.0
 49
-0.5
 49
0.0
 49
-0.5
  0
LTYPE
  2
POINTILLE
 70
     0
  3
. . . . . . . . . . . . . . . . . . . . . . . .
 72
    65
 73
     2
 40
0.25
 49
0.0
 49
-0.25
  0
LTYPE
  2
POINTILLE2
 70
     0
  3
...............................................
 72
    65
 73
     2
 40
0.125
 49
0.0
 49
-0.125
  0
LTYPE
  2
POINTILLEX2
 70
     0
  3
.  .  .  .  .  .  .  .  .  .  .  .  .  .  .  . 
 72
    65
 73
     2
 40
0.5
 49
0.0
 49
-0.5
  0
LTYPE
  2
CACHE
 70
     0
  3
__ __ __ __ __ __ __ __ __ __ __ __ __ __ __ __
 72
    65
 73
     2
 40
0.375
 49
0.25
 49
-0.125
  0
LTYPE
  2
CACHE2
 70
     0
  3
_ _ _ _ _ _ _ _ _ _ _ _ _ _ _ _ _ _ _ _ _ _ _ _
 72
    65
 73
     2
 40
0.1875
 49
0.125
 49
-0.0625
  0
LTYPE
  2
CACHEX2
 70
     0
  3
____ ____ ____ ____ ____ ____ ____ ____ ____ __
 72
    65
 73
     2
 40
0.75
 49
0.5
 49
-0.25
  0
LTYPE
  2
FANTOME
 70
     0
  3
______  __  __  ______  __  __  ______  __  __ 
 72
    65
 73
     6
 40
2.5
 49
1.25
 49
-0.25
 49
0.25
 49
-0.25
 49
0.25
 49
-0.25
  0
LTYPE
  2
FANTOME2
 70
     0
  3
___ _ _ ___ _ _ ___ _ _ ___ _ _ ___ _ _ ___ _ _
 72
    65
 73
     6
 40
1.25
 49
0.625
 49
-0.125
 49
0.125
 49
-0.125
 49
0.125
 49
-0.125
  0
LTYPE
  2
FANTOMEX2
 70
     0
  3
____________    ____    ____    ____________   
 72
    65
 73
     6
 40
5.0
 49
2.5
 49
-0.5
 49
0.5
 49
-0.5
 49
0.5
 49
-0.5
  0
LTYPE
  2
0
 70
     0
  3
MEDUSA PEN 0
 72
    65
 73
     0
 40
0.0
  0
LTYPE
  2
AI9-LTYPE1
 70
     0
  3
Illustrator Dash Style No.1
 72
    65
 73
     4
 40
5.64621
 49
4.106333
 49
-0.307975
 49
0.923926
 49
-0.307975
  0
LTYPE
  2
AI9-LTYPE2
 70
     0
  3
Illustrator Dash Style No.2
 72
    65
 73
     2
 40
1.33456
 49
1.026585
 49
-0.307975
  0
ENDTAB
  0
TABLE
  2
LAYER
 70
    20
  0
LAYER
  2
0
 70
     0
 62
     7
  6
CONTINUOUS
  0
LAYER
  2
TEXTE_MOYEN
 70
     0
 62
   131
  6
CONTINUOUS
  0
LAYER
  2
ALPHA
 70
     0
 62
   254
  6
CONTINUOUS
  0
LAYER
  2
COTATION1
 70
     0
 62
    50
  6
CONTINUOUS
  0
LAYER
  2
AXE
 70
     0
 62
    80
  6
AXES2
  0
LAYER
  2
DEFPOINTS
 70
     0
 62
     7
  6
CONTINUOUS
  0
LAYER
  2
MC_1_7_050
 70
     0
 62
     7
  6
CONTINUOUS
  0
LAYER
  2
MC_1_2_025
 70
     0
 62
     2
  6
CONTINUOUS
  0
LAYER
  2
MC_14_3_025
 70
     0
 62
     3
  6
ACAD_ISO04W100
  0
LAYER
  2
HACHURES1
 70
     0
 62
   130
  6
CONTINUOUS
  0
LAYER
  2
FMULT
 70
     0
 62
   210
  6
CONTINUOUS
  0
LAYER
  2
FDP_CARTOUCHE
 70
     0
 62
   136
  6
CONTINUOUS
  0
LAYER
  2
FDP_TEXTES
 70
     0
 62
   171
  6
CONTINUOUS
  0
LAYER
  2
FDP_LOGO_MG
 70
     0
 62
    30
  6
CONTINUOUS
  0
LAYER
  2
FDP_LOGO_SCH
 70
     0
 62
    90
  6
CONTINUOUS
  0
LAYER
  2
FDP_FDP
 70
     0
 62
   170
  6
CONTINUOUS
  0
LAYER
  2
POINTILLE_COURT2
 70
     0
 62
    41
  6
CACHE2
  0
LAYER
  2
POINTILLE_MOYEN2
 70
     0
 62
   141
  6
CACHE
  0
LAYER
  2
POINTILLE_LONG2
 70
     0
 62
   241
  6
CACHEX2
  0
LAYER
  2
ALPHA_FIN
 70
     0
 62
   255
  6
CONTINUOUS
  0
ENDTAB
  0
TABLE
  2
STYLE
 70
     5
  0
STYLE
  2
ROMANS
 70
     0
 40
0.0
 41
1.0
 50
0.0
 71
     0
 42
6.0
  3
romans
  4

  0
STYLE
  2
STANDARD
 70
     0
 40
0.2
 41
1.0
 50
0.0
 71
     0
 42
0.2
  3
txt
  4

  0
STYLE
  2
STD
 70
     0
 40
0.0
 41
1.0
 50
0.0
 71
     0
 42
0.0
  3
txt
  4

  0
STYLE
  2
INFOCAR
 70
     0
 40
0.0
 41
1.34
 50
0.0
 71
     0
 42
2.0
  3
ROMANS.SHX
  4

  0
STYLE
  2
CARTOUCHE
 70
     0
 40
0.0
 41
1.0
 50
0.0
 71
     0
 42
0.2
  3
ROMANS.SHX
  4

  0
ENDTAB
  0
TABLE
  2
VIEW
 70
     0
  0
ENDTAB
  0
TABLE
  2
UCS
 70
     0
  0
ENDTAB
  0
TABLE
  2
APPID
 70
     3
  0
APPID
  2
ACAD
 70
     0
  0
APPID
  2
AVE_RENDER
 70
     0
  0
APPID
  2
AVE_MATERIAL
 70
     0
  0
ENDTAB
  0
TABLE
  2
DIMSTYLE
 70
     1
  0
DIMSTYLE
  2
ROMANS
 70
     0
  3

  4

  5
OPEN30
  6

  7

 40
1.0
 41
2.0
 42
0.5
 43
0.38
 44
0.18
 45
0.0
 46
0.0
 47
0.0
 48
0.0
140
2.0
141
0.09
142
0.0
143
25.4
144
1.0
145
0.0
146
1.0
147
0.5
 71
     0
 72
     0
 73
     0
 74
     1
 75
     0
 76
     0
 77
     1
 78
    12
170
     0
171
     2
172
     0
173
     0
174
     0
175
     0
176
     0
177
     0
178
     0
  0
ENDTAB
  0
ENDSEC
  0
SECTION
  2
BLOCKS
  0
BLOCK
  8
0
  2
$MODEL_SPACE
 70
     0
 10
0.0
 20
0.0
 30
0.0
  3
$MODEL_SPACE
  1

  0
ENDBLK
  5
3D1B
  8
0
  0
BLOCK
 67
     1
  8
0
  2
$PAPER_SPACE
 70
     0
 10
0.0
 20
0.0
 30
0.0
  3
$PAPER_SPACE
  1

  0
ENDBLK
  5
3D19
 67
     1
  8
0
  0
BLOCK
  8
0
  2
COTE
 70
     0
 10
0.0
 20
0.0
 30
0.0
  3
COTE
  1

  0
ENDBLK
  5
35
  8
0
  0
BLOCK
  8
0
  2
FOND
 70
     0
 10
0.0
 20
0.0
 30
0.0
  3
FOND
  1

  0
ENDBLK
  5
39
  8
0
  0
BLOCK
  8
0
  2
SCH_ISO
 70
     0
 10
0.0
 20
0.0
 30
0.0
  3
SCH_ISO
  1

  0
ENDBLK
  5
24AD
  8
0
  0
BLOCK
  8
0
  2
_OPEN30
 70
     0
 10
0.0
 20
0.0
 30
0.0
  3
_OPEN30
  1

  0
LINE
  5
27E1
  8
COTATION1
 62
     0
 10
-1.0
 20
0.267949
 30
0.0
 11
0.0
 21
0.0
 31
0.0
1001
ACAD
1000
RTLwPs
1070
   158
  0
LINE
  5
27E2
  8
COTATION1
 62
     0
 10
0.0
 20
0.0
 30
0.0
 11
-1.0
 21
-0.267949
 31
0.0
1001
ACAD
1000
RTLwPs
1070
   158
  0
LINE
  5
27E3
  8
COTATION1
 62
     0
 10
0.0
 20
0.0
 30
0.0
 11
-1.0
 21
0.0
 31
0.0
1001
ACAD
1000
RTLwPs
1070
   158
  0
ENDBLK
  5
27E5
  8
0
  0
BLOCK
  8
0
  2
*D4
 70
     1
 10
0.0
 20
0.0
 30
0.0
  3
*D4
  1

  0
LINE
  5
3A09
  8
COTATION1
 62
     0
 10
1000.945348
 20
1.422859
 30
0.0
 11
947.218226
 21
1.422859
 31
0.0
1001
ACAD
1000
RTLwPs
1070
   158
  0
LINE
  5
3A0A
  8
COTATION1
 62
     0
 10
1004.395917
 20
-131.048731
 30
0.0
 11
947.218226
 21
-131.048731
 31
0.0
1001
ACAD
1000
RTLwPs
1070
   158
  0
LINE
  5
3A0B
  8
COTATION1
 62
     0
 10
947.398226
 20
-0.577141
 30
0.0
 11
947.398226
 21
-129.048731
 31
0.0
1001
ACAD
1000
RTLwPs
1070
   158
  0
INSERT
  5
3A0C
  8
COTATION1
 62
     0
  2
_OPEN30
 10
947.398226
 20
1.422859
 30
0.0
 41
2.0
 42
2.0
 43
2.0
 50
90.0
1001
ACAD
1000
RTLwPs
1070
   158
  0
INSERT
  5
3A0D
  8
COTATION1
 62
     0
  2
_OPEN30
 10
947.398226
 20
-131.048731
 30
0.0
 41
2.0
 42
2.0
 43
2.0
 50
270.0
1001
ACAD
1000
RTLwPs
1070
   158
  0
TEXT
  5
3A0E
  8
COTATION1
 62
     0
 10
946.898226
 20
-67.812936
 30
0.0
 40
2.0
  1
132
 50
90.0
1001
ACAD
1000
MTEXTBEGIN
1070
    73
1070
     1
1070
    44
1040
1.0
1070
    74
1070
     0
1000
MTEXTEND
  0
POINT
  5
3A0F
  8
DEFPOINTS
 62
     0
 10
1001.445348
 20
1.422859
 30
0.0
  0
POINT
  5
3A10
  8
DEFPOINTS
 62
     0
 10
1004.895917
 20
-131.048731
 30
0.0
  0
POINT
  5
3A11
  8
DEFPOINTS
 62
     0
 10
947.398226
 20
-131.048731
 30
0.0
  0
ENDBLK
  5
361E
  8
0
  0
BLOCK
  8
0
  2
*D5
 70
     1
 10
0.0
 20
0.0
 30
0.0
  3
*D5
  1

  0
LINE
  5
3A2D
  8
COTATION1
 62
     0
 10
1003.510833
 20
-91.048746
 30
0.0
 11
977.218226
 21
-91.048746
 31
0.0
1001
ACAD
1000
RTLwPs
1070
   158
  0
LINE
  5
3A2E
  8
COTATION1
 62
     0
 10
1004.095917
 20
-131.048731
 30
0.0
 11
977.218226
 21
-131.048731
 31
0.0
1001
ACAD
1000
RTLwPs
1070
   158
  0
LINE
  5
3A2F
  8
COTATION1
 62
     0
 10
977.398226
 20
-93.048746
 30
0.0
 11
977.398226
 21
-129.048731
 31
0.0
1001
ACAD
1000
RTLwPs
1070
   158
  0
INSERT
  5
3A30
  8
COTATION1
 62
     0
  2
_OPEN30
 10
977.398226
 20
-91.048746
 30
0.0
 41
2.0
 42
2.0
 43
2.0
 50
90.0
1001
ACAD
1000
RTLwPs
1070
   158
  0
INSERT
  5
3A31
  8
COTATION1
 62
     0
  2
_OPEN30
 10
977.398226
 20
-131.048731
 30
0.0
 41
2.0
 42
2.0
 43
2.0
 50
270.0
1001
ACAD
1000
RTLwPs
1070
   158
  0
TEXT
  5
3A32
  8
COTATION1
 62
     0
 10
976.898226
 20
-112.9535
 30
0.0
 40
2.0
  1
40
 50
90.0
1001
ACAD
1000
MTEXTBEGIN
1070
    73
1070
     1
1070
    44
1040
1.0
1070
    74
1070
     0
1000
MTEXTEND
  0
POINT
  5
3A33
  8
DEFPOINTS
 62
     0
 10
1004.010833
 20
-91.048746
 30
0.0
  0
POINT
  5
3A34
  8
DEFPOINTS
 62
     0
 10
1004.595917
 20
-131.048731
 30
0.0
  0
POINT
  5
3A35
  8
DEFPOINTS
 62
     0
 10
977.398226
 20
-131.048731
 30
0.0
  0
ENDBLK
  5
370F
  8
0
  0
BLOCK
  8
0
  2
*D6
 70
     1
 10
0.0
 20
0.0
 30
0.0
  3
*D6
  1

  0
LINE
  5
3A12
  8
COTATION1
 62
     0
 10
1009.750403
 20
-5.048739
 30
0.0
 11
957.218226
 21
-5.048739
 31
0.0
1001
ACAD
1000
RTLwPs
1070
   158
  0
LINE
  5
3A13
  8
COTATION1
 62
     0
 10
1004.395917
 20
-131.048731
 30
0.0
 11
957.218226
 21
-131.048731
 31
0.0
1001
ACAD
1000
RTLwPs
1070
   158
  0
LINE
  5
3A14
  8
COTATION1
 62
     0
 10
957.398226
 20
-7.048739
 30
0.0
 11
957.398226
 21
-129.048731
 31
0.0
1001
ACAD
1000
RTLwPs
1070
   158
  0
INSERT
  5
3A15
  8
COTATION1
 62
     0
  2
_OPEN30
 10
957.398226
 20
-5.048739
 30
0.0
 41
2.0
 42
2.0
 43
2.0
 50
90.0
1001
ACAD
1000
RTLwPs
1070
   158
  0
INSERT
  5
3A16
  8
COTATION1
 62
     0
  2
_OPEN30
 10
957.398226
 20
-131.048731
 30
0.0
 41
2.0
 42
2.0
 43
2.0
 50
270.0
1001
ACAD
1000
RTLwPs
1070
   158
  0
TEXT
  5
3A17
  8
COTATION1
 62
     0
 10
956.898226
 20
-72.572801
 30
0.0
 40
2.0
  1
126
 50
90.0
1001
ACAD
1000
MTEXTBEGIN
1070
    73
1070
     1
1070
    44
1040
1.0
1070
    74
1070
     0
1000
MTEXTEND
  0
POINT
  5
3A18
  8
DEFPOINTS
 62
     0
 10
1010.250403
 20
-5.048739
 30
0.0
  0
POINT
  5
3A19
  8
DEFPOINTS
 62
     0
 10
1004.895917
 20
-131.048731
 30
0.0
  0
POINT
  5
3A1A
  8
DEFPOINTS
 62
     0
 10
957.398226
 20
-131.048731
 30
0.0
  0
ENDBLK
  5
3767
  8
0
  0
BLOCK
  8
0
  2
*D7
 70
     1
 10
0.0
 20
0.0
 30
0.0
  3
*D7
  1

  0
LINE
  5
3A24
  8
COTATION1
 62
     0
 10
1009.750403
 20
-81.048745
 30
0.0
 11
967.218226
 21
-81.048745
 31
0.0
1001
ACAD
1000
RTLwPs
1070
   158
  0
LINE
  5
3A25
  8
COTATION1
 62
     0
 10
1004.395917
 20
-131.048731
 30
0.0
 11
967.218226
 21
-131.048731
 31
0.0
1001
ACAD
1000
RTLwPs
1070
   158
  0
LINE
  5
3A26
  8
COTATION1
 62
     0
 10
967.398226
 20
-83.048745
 30
0.0
 11
967.398226
 21
-129.048731
 31
0.0
1001
ACAD
1000
RTLwPs
1070
   158
  0
INSERT
  5
3A27
  8
COTATION1
 62
     0
  2
_OPEN30
 10
967.398226
 20
-81.048745
 30
0.0
 41
2.0
 42
2.0
 43
2.0
 50
90.0
1001
ACAD
1000
RTLwPs
1070
   158
  0
INSERT
  5
3A28
  8
COTATION1
 62
     0
  2
_OPEN30
 10
967.398226
 20
-131.048731
 30
0.0
 41
2.0
 42
2.0
 43
2.0
 50
270.0
1001
ACAD
1000
RTLwPs
1070
   158
  0
TEXT
  5
3A29
  8
COTATION1
 62
     0
 10
966.898226
 20
-107.9535
 30
0.0
 40
2.0
  1
50
 50
90.0
1001
ACAD
1000
MTEXTBEGIN
1070
    73
1070
     1
1070
    44
1040
1.0
1070
    74
1070
     0
1000
MTEXTEND
  0
POINT
  5
3A2A
  8
DEFPOINTS
 62
     0
 10
1010.250403
 20
-81.048745
 30
0.0
  0
POINT
  5
3A2B
  8
DEFPOINTS
 62
     0
 10
1004.895917
 20
-131.048731
 30
0.0
  0
POINT
  5
3A2C
  8
DEFPOINTS
 62
     0
 10
967.398226
 20
-131.048731
 30
0.0
  0
ENDBLK
  5
377D
  8
0
  0
BLOCK
  8
0
  2
*D8
 70
     1
 10
0.0
 20
0.0
 30
0.0
  3
*D8
  1

  0
LINE
  5
3A1B
  8
COTATION1
 62
     0
 10
1009.750403
 20
-81.048745
 30
0.0
 11
967.218226
 21
-81.048745
 31
0.0
1001
ACAD
1000
RTLwPs
1070
   158
  0
LINE
  5
3A1C
  8
COTATION1
 62
     0
 10
998.510833
 20
-26.048746
 30
0.0
 11
967.218226
 21
-26.048746
 31
0.0
1001
ACAD
1000
RTLwPs
1070
   158
  0
LINE
  5
3A1D
  8
COTATION1
 62
     0
 10
967.398226
 20
-79.048745
 30
0.0
 11
967.398226
 21
-28.048746
 31
0.0
1001
ACAD
1000
RTLwPs
1070
   158
  0
INSERT
  5
3A1E
  8
COTATION1
 62
     0
  2
_OPEN30
 10
967.398226
 20
-81.048745
 30
0.0
 41
2.0
 42
2.0
 43
2.0
 50
270.0
1001
ACAD
1000
RTLwPs
1070
   158
  0
INSERT
  5
3A1F
  8
COTATION1
 62
     0
  2
_OPEN30
 10
967.398226
 20
-26.048746
 30
0.0
 41
2.0
 42
2.0
 43
2.0
 50
90.0
1001
ACAD
1000
RTLwPs
1070
   158
  0
TEXT
  5
3A20
  8
COTATION1
 62
     0
 10
966.898226
 20
-55.453507
 30
0.0
 40
2.0
  1
55
 50
90.0
1001
ACAD
1000
MTEXTBEGIN
1070
    73
1070
     1
1070
    44
1040
1.0
1070
    74
1070
     0
1000
MTEXTEND
  0
POINT
  5
3A21
  8
DEFPOINTS
 62
     0
 10
1010.250403
 20
-81.048745
 30
0.0
  0
POINT
  5
3A22
  8
DEFPOINTS
 62
     0
 10
999.010833
 20
-26.048746
 30
0.0
  0
POINT
  5
3A23
  8
DEFPOINTS
 62
     0
 10
967.398226
 20
-26.048746
 30
0.0
  0
ENDBLK
  5
37A9
  8
0
  0
ENDSEC
  0
SECTION
  2
ENTITIES
  0
INSERT
  5
32
  8
0
  2
COTE
 10
0.0
 20
0.0
 30
0.0
  0
INSERT
  5
36
  8
0
  2
FOND
 10
0.0
 20
0.0
 30
0.0
  0
INSERT
  5
24AE
  8
ALPHA
  2
SCH_ISO
 10
-66.27012
 20
-238.940658
 30
0.0
  0
LINE
  5
3495
  8
AXE
  6
AI9-LTYPE1
 10
999.010833
 20
-26.048746
 30
0.0
 11
1020.983697
 21
-26.048746
 31
0.0
1001
ACAD
1000
RTLwPs
1070
   128
  0
LINE
  5
3499
  8
ALPHA
 10
1000.697904
 20
-127.371954
 30
0.0
 11
999.295774
 21
-125.965037
 31
0.0
  0
LINE
  5
349A
  8
ALPHA
 10
1020.208041
 20
-126.014108
 30
0.0
 11
1018.812494
 21
-127.404868
 31
0.0
  0
POLYLINE
  5
349B
  8
ALPHA
 66
     1
 10
0.0
 20
0.0
 30
0.0
 70
   128
  0
VERTEX
  5
3D21
  8
ALPHA
 10
1016.014217
 20
-130.134325
 30
0.0
  0
VERTEX
  5
3D22
  8
ALPHA
 10
1016.014217
 20
-129.955193
 30
0.0
  0
VERTEX
  5
3D23
  8
ALPHA
 10
1016.014217
 20
-129.428763
 30
0.0
  0
VERTEX
  5
3D24
  8
ALPHA
 10
1016.014217
 20
-128.571478
 30
0.0
  0
VERTEX
  5
3D25
  8
ALPHA
 10
1016.014217
 20
-127.399784
 30
0.0
  0
SEQEND
  5
3D26
  8
ALPHA
  0
POLYLINE
  5
349C
  8
ALPHA
 66
     1
 10
0.0
 20
0.0
 30
0.0
 70
   128
210
0.0
220
0.0
230
-1.0
  0
VERTEX
  5
3D27
  8
ALPHA
 10
-1003.362729
 20
-10.668495
 30
0.0
  0
VERTEX
  5
3D28
  8
ALPHA
 10
-1003.804703
 20
-10.758087
 30
0.0
  0
VERTEX
  5
3D29
  8
ALPHA
 10
-1003.994344
 20
-11.143414
 30
0.0
  0
VERTEX
  5
3D2A
  8
ALPHA
 10
-1004.008215
 20
-11.306442
 30
0.0
  0
VERTEX
  5
3D2B
  8
ALPHA
 10
-1004.010659
 20
-11.399839
 30
0.0
  0
VERTEX
  5
3D2C
  8
ALPHA
 10
-1004.010833
 20
-11.470659
 30
0.0
  0
VERTEX
  5
3D2D
  8
ALPHA
 10
-1004.010833
 20
-11.88856
 30
0.0
  0
VERTEX
  5
3D2E
  8
ALPHA
 10
-1004.010833
 20
-12.74521
 30
0.0
  0
VERTEX
  5
3D2F
  8
ALPHA
 10
-1004.010833
 20
-14.016229
 30
0.0
  0
VERTEX
  5
3D30
  8
ALPHA
 10
-1004.010833
 20
-15.677237
 30
0.0
  0
VERTEX
  5
3D31
  8
ALPHA
 10
-1004.010833
 20
-17.703856
 30
0.0
  0
VERTEX
  5
3D32
  8
ALPHA
 10
-1004.010833
 20
-20.071706
 30
0.0
  0
VERTEX
  5
3D33
  8
ALPHA
 10
-1004.010833
 20
-22.756407
 30
0.0
  0
VERTEX
  5
3D34
  8
ALPHA
 10
-1004.010833
 20
-25.73358
 30
0.0
  0
VERTEX
  5
3D35
  8
ALPHA
 10
-1004.010833
 20
-28.978845
 30
0.0
  0
VERTEX
  5
3D36
  8
ALPHA
 10
-1004.010833
 20
-36.176135
 30
0.0
  0
VERTEX
  5
3D37
  8
ALPHA
 10
-1004.010833
 20
-44.153241
 30
0.0
  0
VERTEX
  5
3D38
  8
ALPHA
 10
-1004.010833
 20
-52.715127
 30
0.0
  0
VERTEX
  5
3D39
  8
ALPHA
 10
-1004.010833
 20
-61.666758
 30
0.0
  0
VERTEX
  5
3D3A
  8
ALPHA
 10
-1004.010833
 20
-79.959111
 30
0.0
  0
VERTEX
  5
3D3B
  8
ALPHA
 10
-1004.010833
 20
-88.909762
 30
0.0
  0
VERTEX
  5
3D3C
  8
ALPHA
 10
-1004.010833
 20
-97.470015
 30
0.0
  0
SEQEND
  5
3D3D
  8
ALPHA
  0
LINE
  5
349D
  8
ALPHA
 10
1015.159056
 20
-91.048746
 30
0.0
 11
1015.159056
 21
-97.470015
 31
0.0
1001
ACAD
1000
RTLwPs
1070
   128
  0
LINE
  5
349E
  8
ALPHA
 10
1004.836672
 20
-91.048746
 30
0.0
 11
1004.836672
 21
-97.470015
 31
0.0
1001
ACAD
1000
RTLwPs
1070
   128
  0
POLYLINE
  5
349F
  8
ALPHA
 66
     1
 10
0.0
 20
0.0
 30
0.0
 70
   128
210
0.0
220
0.0
230
-1.0
  0
VERTEX
  5
3D3E
  8
ALPHA
 10
-1020.252325
 20
-125.880059
 30
0.0
  0
VERTEX
  5
3D3F
  8
ALPHA
 10
-1018.685311
 20
-127.083367
 30
0.0
  0
VERTEX
  5
3D40
  8
ALPHA
 10
-1017.713841
 20
-127.346584
 30
0.0
  0
VERTEX
  5
3D41
  8
ALPHA
 10
-1016.614063
 20
-127.159043
 30
0.0
  0
VERTEX
  5
3D42
  8
ALPHA
 10
-1015.38373
 20
-126.351891
 30
0.0
  0
VERTEX
  5
3D43
  8
ALPHA
 10
-1015.055484
 20
-126.033502
 30
0.0
  0
VERTEX
  5
3D44
  8
ALPHA
 10
-1014.724342
 20
-126.065459
 30
0.0
  0
VERTEX
  5
3D45
  8
ALPHA
 10
-1013.974202
 20
-126.469348
 30
0.0
  0
VERTEX
  5
3D46
  8
ALPHA
 10
-1012.147638
 20
-127.05476
 30
0.0
  0
VERTEX
  5
3D47
  8
ALPHA
 10
-1010.048057
 20
-127.300292
 30
0.0
  0
VERTEX
  5
3D48
  8
ALPHA
 10
-1007.869897
 20
-127.153873
 30
0.0
  0
VERTEX
  5
3D49
  8
ALPHA
 10
-1005.807594
 20
-126.563433
 30
0.0
  0
VERTEX
  5
3D4A
  8
ALPHA
 10
-1004.880651
 20
-126.085433
 30
0.0
  0
VERTEX
  5
3D4B
  8
ALPHA
 10
-1004.544845
 20
-125.945424
 30
0.0
  0
VERTEX
  5
3D4C
  8
ALPHA
 10
-1004.393797
 20
-126.093779
 30
0.0
  0
VERTEX
  5
3D4D
  8
ALPHA
 10
-1003.694898
 20
-126.698595
 30
0.0
  0
VERTEX
  5
3D4E
  8
ALPHA
 10
-1002.842121
 20
-127.177274
 30
0.0
  0
VERTEX
  5
3D4F
  8
ALPHA
 10
-1001.832343
 20
-127.337319
 30
0.0
  0
VERTEX
  5
3D50
  8
ALPHA
 10
-1000.662439
 20
-126.986234
 30
0.0
  0
VERTEX
  5
3D51
  8
ALPHA
 10
-999.329286
 20
-125.931524
 30
0.0
  0
SEQEND
  5
3D52
  8
ALPHA
  0
LINE
  5
34A0
  8
ALPHA
 10
1018.812494
 20
-127.404868
 30
0.0
 11
1000.697904
 21
-127.371954
 31
0.0
  0
POLYLINE
  5
34A1
  8
ALPHA
 66
     1
 10
0.0
 20
0.0
 30
0.0
 70
   128
  0
VERTEX
  5
3D53
  8
ALPHA
 10
1004.895917
 20
-131.048731
 30
0.0
  0
VERTEX
  5
3D54
  8
ALPHA
 10
1005.334314
 20
-131.048731
 30
0.0
  0
VERTEX
  5
3D55
  8
ALPHA
 10
1006.490088
 20
-131.048731
 30
0.0
  0
VERTEX
  5
3D56
  8
ALPHA
 10
1009.997265
 20
-131.048731
 30
0.0
  0
VERTEX
  5
3D57
  8
ALPHA
 10
1013.504442
 20
-131.048731
 30
0.0
  0
VERTEX
  5
3D58
  8
ALPHA
 10
1014.660217
 20
-131.048731
 30
0.0
  0
VERTEX
  5
3D59
  8
ALPHA
 10
1015.098614
 20
-131.048731
 30
0.0
  0
SEQEND
  5
3D5A
  8
ALPHA
  0
LINE
  5
34A2
  8
ALPHA
 10
1004.06948
 20
-130.045158
 30
0.0
 11
1015.925051
 21
-130.045158
 31
0.0
1001
ACAD
1000
RTLwPs
1070
   128
  0
LINE
  5
34A3
  8
ALPHA
 10
1004.010833
 20
-130.163648
 30
0.0
 11
1004.895917
 21
-131.048731
 31
0.0
  0
LINE
  5
34A4
  8
ALPHA
 10
1015.098614
 20
-131.048731
 30
0.0
 11
1016.014217
 21
-130.134325
 31
0.0
  0
LINE
  5
34A5
  8
POINTILLE_COURT2
  6
AI9-LTYPE2
 10
1019.280469
 20
1.668217
 30
0.0
 11
1019.280469
 21
-10.86168
 31
0.0
1001
ACAD
1000
RTLwPs
1070
   128
  0
LINE
  5
34A6
  8
POINTILLE_COURT2
  6
AI9-LTYPE2
 10
1000.563256
 20
-10.86168
 30
0.0
 11
1000.563256
 21
1.668217
 31
0.0
1001
ACAD
1000
RTLwPs
1070
   128
  0
POLYLINE
  5
34A7
  8
POINTILLE_COURT2
  6
AI9-LTYPE2
 66
     1
 10
0.0
 20
0.0
 30
0.0
 70
   128
1001
ACAD
1000
RTLwPs
1070
   128
  0
VERTEX
  5
3D5B
  8
POINTILLE_COURT2
  6
AI9-LTYPE2
 10
1037.863034
 20
0.673021
 30
0.0
  0
VERTEX
  5
3D5C
  8
POINTILLE_COURT2
  6
AI9-LTYPE2
 10
1037.863034
 20
0.417357
 30
0.0
  0
VERTEX
  5
3D5D
  8
POINTILLE_COURT2
  6
AI9-LTYPE2
 10
1037.863034
 20
-0.281459
 30
0.0
  0
VERTEX
  5
3D5E
  8
POINTILLE_COURT2
  6
AI9-LTYPE2
 10
1037.863034
 20
-2.599483
 30
0.0
  0
VERTEX
  5
3D5F
  8
POINTILLE_COURT2
  6
AI9-LTYPE2
 10
1037.863034
 20
-5.462925
 30
0.0
  0
VERTEX
  5
3D60
  8
POINTILLE_COURT2
  6
AI9-LTYPE2
 10
1037.863034
 20
-8.053658
 30
0.0
  0
VERTEX
  5
3D61
  8
POINTILLE_COURT2
  6
AI9-LTYPE2
 10
1037.863034
 20
-8.991094
 30
0.0
  0
VERTEX
  5
3D62
  8
POINTILLE_COURT2
  6
AI9-LTYPE2
 10
1037.863034
 20
-9.553556
 30
0.0
  0
VERTEX
  5
3D63
  8
POINTILLE_COURT2
  6
AI9-LTYPE2
 10
1037.863034
 20
-9.662213
 30
0.0
  0
VERTEX
  5
3D64
  8
POINTILLE_COURT2
  6
AI9-LTYPE2
 10
1037.85763
 20
-9.780592
 30
0.0
  0
VERTEX
  5
3D65
  8
POINTILLE_COURT2
  6
AI9-LTYPE2
 10
1037.834266
 20
-10.105323
 30
0.0
  0
VERTEX
  5
3D66
  8
POINTILLE_COURT2
  6
AI9-LTYPE2
 10
1037.641128
 20
-11.289315
 30
0.0
  0
VERTEX
  5
3D67
  8
POINTILLE_COURT2
  6
AI9-LTYPE2
 10
1036.865544
 20
-13.150099
 30
0.0
  0
VERTEX
  5
3D68
  8
POINTILLE_COURT2
  6
AI9-LTYPE2
 10
1035.753779
 20
-14.425836
 30
0.0
  0
VERTEX
  5
3D69
  8
POINTILLE_COURT2
  6
AI9-LTYPE2
 10
1034.525313
 20
-15.225994
 30
0.0
  0
VERTEX
  5
3D6A
  8
POINTILLE_COURT2
  6
AI9-LTYPE2
 10
1033.399624
 20
-15.660039
 30
0.0
  0
VERTEX
  5
3D6B
  8
POINTILLE_COURT2
  6
AI9-LTYPE2
 10
1031.871422
 20
-16.007394
 30
0.0
  0
VERTEX
  5
3D6C
  8
POINTILLE_COURT2
  6
AI9-LTYPE2
 10
1029.884717
 20
-16.477493
 30
0.0
  0
VERTEX
  5
3D6D
  8
POINTILLE_COURT2
  6
AI9-LTYPE2
 10
1029.009921
 20
-16.689217
 30
0.0
  0
VERTEX
  5
3D6E
  8
POINTILLE_COURT2
  6
AI9-LTYPE2
 10
1028.445482
 20
-16.826977
 30
0.0
  0
SEQEND
  5
3D6F
  8
POINTILLE_COURT2
  6
AI9-LTYPE2
  0
POLYLINE
  5
34A8
  8
POINTILLE_COURT2
  6
AI9-LTYPE2
 66
     1
 10
0.0
 20
0.0
 30
0.0
 70
   128
1001
ACAD
1000
RTLwPs
1070
   128
  0
VERTEX
  5
3D70
  8
POINTILLE_COURT2
  6
AI9-LTYPE2
 10
997.234768
 20
-18.144728
 30
0.0
  0
VERTEX
  5
3D71
  8
POINTILLE_COURT2
  6
AI9-LTYPE2
 10
997.234768
 20
-17.838312
 30
0.0
  0
VERTEX
  5
3D72
  8
POINTILLE_COURT2
  6
AI9-LTYPE2
 10
997.234768
 20
-16.972352
 30
0.0
  0
VERTEX
  5
3D73
  8
POINTILLE_COURT2
  6
AI9-LTYPE2
 10
997.234768
 20
-15.626784
 30
0.0
  0
VERTEX
  5
3D74
  8
POINTILLE_COURT2
  6
AI9-LTYPE2
 10
997.234768
 20
-13.881542
 30
0.0
  0
VERTEX
  5
3D75
  8
POINTILLE_COURT2
  6
AI9-LTYPE2
 10
997.234768
 20
-9.511777
 30
0.0
  0
VERTEX
  5
3D76
  8
POINTILLE_COURT2
  6
AI9-LTYPE2
 10
997.234768
 20
-4.502533
 30
0.0
  0
VERTEX
  5
3D77
  8
POINTILLE_COURT2
  6
AI9-LTYPE2
 10
997.234768
 20
0.50671
 30
0.0
  0
VERTEX
  5
3D78
  8
POINTILLE_COURT2
  6
AI9-LTYPE2
 10
997.234768
 20
4.876476
 30
0.0
  0
VERTEX
  5
3D79
  8
POINTILLE_COURT2
  6
AI9-LTYPE2
 10
997.234768
 20
6.621718
 30
0.0
  0
VERTEX
  5
3D7A
  8
POINTILLE_COURT2
  6
AI9-LTYPE2
 10
997.234768
 20
7.967286
 30
0.0
  0
VERTEX
  5
3D7B
  8
POINTILLE_COURT2
  6
AI9-LTYPE2
 10
997.234768
 20
8.833246
 30
0.0
  0
VERTEX
  5
3D7C
  8
POINTILLE_COURT2
  6
AI9-LTYPE2
 10
997.234768
 20
9.139662
 30
0.0
  0
SEQEND
  5
3D7D
  8
POINTILLE_COURT2
  6
AI9-LTYPE2
  0
LINE
  5
34A9
  8
ALPHA
 10
1019.021946
 20
1.008743
 30
0.0
 11
1019.021946
 21
-10.668495
 31
0.0
  0
LINE
  5
34AA
  8
ALPHA
 10
1000.915135
 20
-10.668495
 30
0.0
 11
1000.915135
 21
0.892646
 31
0.0
  0
LINE
  5
34AB
  8
POINTILLE_COURT2
  6
AI9-LTYPE1
 10
994.103164
 20
-13.526615
 30
0.0
 11
994.103164
 21
4.529927
 31
0.0
  0
LINE
  5
34AC
  8
POINTILLE_COURT2
  6
AI9-LTYPE1
 10
992.398226
 20
-14.341682
 30
0.0
 11
992.398226
 21
5.354569
 31
0.0
  0
LINE
  5
34AD
  8
POINTILLE_COURT2
 10
995.208471
 20
5.139132
 30
0.0
 11
995.208471
 21
-13.953298
 31
0.0
  0
POLYLINE
  5
34AE
  8
POINTILLE_COURT2
  6
AI9-LTYPE2
 66
     1
 10
0.0
 20
0.0
 30
0.0
 70
   128
210
0.0
220
0.0
230
-1.0
  0
VERTEX
  5
3D7E
  8
POINTILLE_COURT2
  6
AI9-LTYPE2
 10
-1036.627268
 20
-4.2096
 30
0.0
  0
VERTEX
  5
3D7F
  8
POINTILLE_COURT2
  6
AI9-LTYPE2
 10
-1036.312427
 20
-7.141355
 30
0.0
  0
VERTEX
  5
3D80
  8
POINTILLE_COURT2
  6
AI9-LTYPE2
 10
-1035.904621
 20
-8.488038
 30
0.0
  0
VERTEX
  5
3D81
  8
POINTILLE_COURT2
  6
AI9-LTYPE2
 10
-1035.224764
 20
-9.830912
 30
0.0
  0
VERTEX
  5
3D82
  8
POINTILLE_COURT2
  6
AI9-LTYPE2
 10
-1034.19401
 20
-11.226721
 30
0.0
  0
VERTEX
  5
3D83
  8
POINTILLE_COURT2
  6
AI9-LTYPE2
 10
-1032.733512
 20
-12.732203
 30
0.0
  0
VERTEX
  5
3D84
  8
POINTILLE_COURT2
  6
AI9-LTYPE2
 10
-1030.764426
 20
-14.404102
 30
0.0
  0
VERTEX
  5
3D85
  8
POINTILLE_COURT2
  6
AI9-LTYPE2
 10
-1028.207904
 20
-16.299158
 30
0.0
  0
SEQEND
  5
3D86
  8
POINTILLE_COURT2
  6
AI9-LTYPE2
  0
POLYLINE
  5
34AF
  8
POINTILLE_COURT2
  6
AI9-LTYPE2
 66
     1
 10
0.0
 20
0.0
 30
0.0
 70
   128
  0
VERTEX
  5
3D87
  8
POINTILLE_COURT2
  6
AI9-LTYPE2
 10
1028.672288
 20
-6.018665
 30
0.0
  0
VERTEX
  5
3D88
  8
POINTILLE_COURT2
  6
AI9-LTYPE2
 10
1028.459395
 20
-6.803651
 30
0.0
  0
VERTEX
  5
3D89
  8
POINTILLE_COURT2
  6
AI9-LTYPE2
 10
1028.396859
 20
-7.881664
 30
0.0
  0
VERTEX
  5
3D8A
  8
POINTILLE_COURT2
  6
AI9-LTYPE2
 10
1028.254207
 20
-9.429709
 30
0.0
  0
VERTEX
  5
3D8B
  8
POINTILLE_COURT2
  6
AI9-LTYPE2
 10
1027.800969
 20
-11.624792
 30
0.0
  0
SEQEND
  5
3D8C
  8
POINTILLE_COURT2
  6
AI9-LTYPE2
  0
POLYLINE
  5
34B0
  8
POINTILLE_COURT2
  6
AI9-LTYPE2
 66
     1
 10
0.0
 20
0.0
 30
0.0
 70
   128
210
0.0
220
0.0
230
-1.0
  0
VERTEX
  5
3D8D
  8
POINTILLE_COURT2
  6
AI9-LTYPE2
 10
-1028.095997
 20
-4.808033
 30
0.0
  0
VERTEX
  5
3D8E
  8
POINTILLE_COURT2
  6
AI9-LTYPE2
 10
-1027.718198
 20
-7.204433
 30
0.0
  0
VERTEX
  5
3D8F
  8
POINTILLE_COURT2
  6
AI9-LTYPE2
 10
-1026.663346
 20
-9.89285
 30
0.0
  0
VERTEX
  5
3D90
  8
POINTILLE_COURT2
  6
AI9-LTYPE2
 10
-1025.788824
 20
-11.381507
 30
0.0
  0
VERTEX
  5
3D91
  8
POINTILLE_COURT2
  6
AI9-LTYPE2
 10
-1024.633197
 20
-12.985098
 30
0.0
  0
VERTEX
  5
3D92
  8
POINTILLE_COURT2
  6
AI9-LTYPE2
 10
-1023.159185
 20
-14.7176
 30
0.0
  0
VERTEX
  5
3D93
  8
POINTILLE_COURT2
  6
AI9-LTYPE2
 10
-1021.329506
 20
-16.592989
 30
0.0
  0
SEQEND
  5
3D94
  8
POINTILLE_COURT2
  6
AI9-LTYPE2
  0
POLYLINE
  5
34B1
  8
POINTILLE_COURT2
  6
AI9-LTYPE2
 66
     1
 10
0.0
 20
0.0
 30
0.0
 70
   128
210
0.0
220
0.0
230
-1.0
  0
VERTEX
  5
3D95
  8
POINTILLE_COURT2
  6
AI9-LTYPE2
 10
-1037.147307
 20
-4.805041
 30
0.0
  0
VERTEX
  5
3D96
  8
POINTILLE_COURT2
  6
AI9-LTYPE2
 10
-1037.028294
 20
-6.388675
 30
0.0
  0
VERTEX
  5
3D97
  8
POINTILLE_COURT2
  6
AI9-LTYPE2
 10
-1036.548425
 20
-8.404246
 30
0.0
  0
VERTEX
  5
3D98
  8
POINTILLE_COURT2
  6
AI9-LTYPE2
 10
-1035.523457
 20
-10.547172
 30
0.0
  0
VERTEX
  5
3D99
  8
POINTILLE_COURT2
  6
AI9-LTYPE2
 10
-1033.769149
 20
-12.512868
 30
0.0
  0
SEQEND
  5
3D9A
  8
POINTILLE_COURT2
  6
AI9-LTYPE2
  0
POLYLINE
  5
34B2
  8
POINTILLE_COURT2
  6
AI9-LTYPE2
 66
     1
 10
0.0
 20
0.0
 30
0.0
 70
   128
210
0.0
220
0.0
230
-1.0
  0
VERTEX
  5
3D9B
  8
POINTILLE_COURT2
  6
AI9-LTYPE2
 10
-1033.156352
 20
6.705234
 30
0.0
  0
VERTEX
  5
3D9C
  8
POINTILLE_COURT2
  6
AI9-LTYPE2
 10
-1034.284699
 20
1.038318
 30
0.0
  0
VERTEX
  5
3D9D
  8
POINTILLE_COURT2
  6
AI9-LTYPE2
 10
-1034.546813
 20
-4.693508
 30
0.0
  0
VERTEX
  5
3D9E
  8
POINTILLE_COURT2
  6
AI9-LTYPE2
 10
-1034.104271
 20
-10.335682
 30
0.0
  0
VERTEX
  5
3D9F
  8
POINTILLE_COURT2
  6
AI9-LTYPE2
 10
-1033.118651
 20
-15.733639
 30
0.0
  0
SEQEND
  5
3DA0
  8
POINTILLE_COURT2
  6
AI9-LTYPE2
  0
LINE
  5
34B3
  8
POINTILLE_COURT2
  6
AI9-LTYPE1
 10
992.440116
 20
-13.526615
 30
0.0
 11
994.103164
 21
-13.526615
 31
0.0
  0
LINE
  5
34B4
  8
POINTILLE_COURT2
  6
AI9-LTYPE2
 10
994.103164
 20
-71.198174
 30
0.0
 11
992.440116
 21
-71.198174
 31
0.0
  0
LINE
  5
34B5
  8
POINTILLE_COURT2
  6
AI9-LTYPE2
 10
992.440116
 20
-89.253519
 30
0.0
 11
994.103164
 21
-89.253519
 31
0.0
  0
LINE
  5
34B6
  8
POINTILLE_COURT2
  6
AI9-LTYPE2
 10
992.398226
 20
-70.371737
 30
0.0
 11
994.754858
 21
-70.371737
 31
0.0
  0
LINE
  5
34B7
  8
POINTILLE_COURT2
  6
AI9-LTYPE2
 10
994.754858
 20
-90.069783
 30
0.0
 11
992.398226
 21
-90.069783
 31
0.0
  0
LINE
  5
34B8
  8
POINTILLE_COURT2
  6
AI9-LTYPE1
 10
994.754858
 20
-14.341682
 30
0.0
 11
992.398226
 21
-14.341682
 31
0.0
  0
LINE
  5
34B9
  8
POINTILLE_COURT2
  6
AI9-LTYPE2
 10
992.398226
 20
-90.069783
 30
0.0
 11
992.398226
 21
-70.371737
 31
0.0
  0
POLYLINE
  5
34BA
  8
POINTILLE_COURT2
  6
AI9-LTYPE2
 66
     1
 10
0.0
 20
0.0
 30
0.0
 70
   128
  0
VERTEX
  5
3DA1
  8
POINTILLE_COURT2
  6
AI9-LTYPE2
 10
997.234768
 20
-66.587242
 30
0.0
  0
VERTEX
  5
3DA2
  8
POINTILLE_COURT2
  6
AI9-LTYPE2
 10
997.506976
 20
-66.575774
 30
0.0
  0
VERTEX
  5
3DA3
  8
POINTILLE_COURT2
  6
AI9-LTYPE2
 10
998.224615
 20
-66.545539
 30
0.0
  0
VERTEX
  5
3DA4
  8
POINTILLE_COURT2
  6
AI9-LTYPE2
 10
1000.402278
 20
-66.453792
 30
0.0
  0
VERTEX
  5
3DA5
  8
POINTILLE_COURT2
  6
AI9-LTYPE2
 10
1002.579941
 20
-66.362044
 30
0.0
  0
VERTEX
  5
3DA6
  8
POINTILLE_COURT2
  6
AI9-LTYPE2
 10
1003.29758
 20
-66.331809
 30
0.0
  0
VERTEX
  5
3DA7
  8
POINTILLE_COURT2
  6
AI9-LTYPE2
 10
1003.569787
 20
-66.320341
 30
0.0
  0
VERTEX
  5
3DA8
  8
POINTILLE_COURT2
  6
AI9-LTYPE2
 10
1005.70071
 20
-66.954062
 30
0.0
  0
VERTEX
  5
3DA9
  8
POINTILLE_COURT2
  6
AI9-LTYPE2
 10
1007.510231
 20
-67.361793
 30
0.0
  0
VERTEX
  5
3DAA
  8
POINTILLE_COURT2
  6
AI9-LTYPE2
 10
1010.548423
 20
-67.616623
 30
0.0
  0
VERTEX
  5
3DAB
  8
POINTILLE_COURT2
  6
AI9-LTYPE2
 10
1013.45107
 20
-67.31951
 30
0.0
  0
VERTEX
  5
3DAC
  8
POINTILLE_COURT2
  6
AI9-LTYPE2
 10
1015.091159
 20
-67.037312
 30
0.0
  0
VERTEX
  5
3DAD
  8
POINTILLE_COURT2
  6
AI9-LTYPE2
 10
1016.984877
 20
-66.705134
 30
0.0
  0
VERTEX
  5
3DAE
  8
POINTILLE_COURT2
  6
AI9-LTYPE2
 10
1022.201723
 20
-66.963367
 30
0.0
  0
VERTEX
  5
3DAF
  8
POINTILLE_COURT2
  6
AI9-LTYPE2
 10
1026.682945
 20
-67.578922
 30
0.0
  0
VERTEX
  5
3DB0
  8
POINTILLE_COURT2
  6
AI9-LTYPE2
 10
1030.272575
 20
-68.313079
 30
0.0
  0
VERTEX
  5
3DB1
  8
POINTILLE_COURT2
  6
AI9-LTYPE2
 10
1031.684304
 20
-68.650033
 30
0.0
  0
VERTEX
  5
3DB2
  8
POINTILLE_COURT2
  6
AI9-LTYPE2
 10
1032.814647
 20
-68.927118
 30
0.0
  0
VERTEX
  5
3DB3
  8
POINTILLE_COURT2
  6
AI9-LTYPE2
 10
1034.490112
 20
-69.523757
 30
0.0
  0
VERTEX
  5
3DB4
  8
POINTILLE_COURT2
  6
AI9-LTYPE2
 10
1036.126978
 20
-70.619938
 30
0.0
  0
VERTEX
  5
3DB5
  8
POINTILLE_COURT2
  6
AI9-LTYPE2
 10
1037.369775
 20
-72.4017
 30
0.0
  0
VERTEX
  5
3DB6
  8
POINTILLE_COURT2
  6
AI9-LTYPE2
 10
1037.732314
 20
-73.60781
 30
0.0
  0
VERTEX
  5
3DB7
  8
POINTILLE_COURT2
  6
AI9-LTYPE2
 10
1037.863034
 20
-75.05508
 30
0.0
  0
SEQEND
  5
3DB8
  8
POINTILLE_COURT2
  6
AI9-LTYPE2
  0
POLYLINE
  5
34BB
  8
POINTILLE_COURT2
  6
AI9-LTYPE2
 66
     1
 10
0.0
 20
0.0
 30
0.0
 70
   128
  0
VERTEX
  5
3DB9
  8
POINTILLE_COURT2
  6
AI9-LTYPE2
 10
997.234768
 20
-93.871633
 30
0.0
  0
VERTEX
  5
3DBA
  8
POINTILLE_COURT2
  6
AI9-LTYPE2
 10
997.234768
 20
-93.565216
 30
0.0
  0
VERTEX
  5
3DBB
  8
POINTILLE_COURT2
  6
AI9-LTYPE2
 10
997.234768
 20
-92.699256
 30
0.0
  0
VERTEX
  5
3DBC
  8
POINTILLE_COURT2
  6
AI9-LTYPE2
 10
997.234768
 20
-91.353688
 30
0.0
  0
VERTEX
  5
3DBD
  8
POINTILLE_COURT2
  6
AI9-LTYPE2
 10
997.234768
 20
-89.608447
 30
0.0
  0
VERTEX
  5
3DBE
  8
POINTILLE_COURT2
  6
AI9-LTYPE2
 10
997.234768
 20
-85.238681
 30
0.0
  0
VERTEX
  5
3DBF
  8
POINTILLE_COURT2
  6
AI9-LTYPE2
 10
997.234768
 20
-80.229437
 30
0.0
  0
VERTEX
  5
3DC0
  8
POINTILLE_COURT2
  6
AI9-LTYPE2
 10
997.234768
 20
-75.220194
 30
0.0
  0
VERTEX
  5
3DC1
  8
POINTILLE_COURT2
  6
AI9-LTYPE2
 10
997.234768
 20
-70.850428
 30
0.0
  0
VERTEX
  5
3DC2
  8
POINTILLE_COURT2
  6
AI9-LTYPE2
 10
997.234768
 20
-69.105187
 30
0.0
  0
VERTEX
  5
3DC3
  8
POINTILLE_COURT2
  6
AI9-LTYPE2
 10
997.234768
 20
-67.759618
 30
0.0
  0
VERTEX
  5
3DC4
  8
POINTILLE_COURT2
  6
AI9-LTYPE2
 10
997.234768
 20
-66.893659
 30
0.0
  0
VERTEX
  5
3DC5
  8
POINTILLE_COURT2
  6
AI9-LTYPE2
 10
997.234768
 20
-66.587242
 30
0.0
  0
SEQEND
  5
3DC6
  8
POINTILLE_COURT2
  6
AI9-LTYPE2
  0
LINE
  5
34BC
  8
POINTILLE_COURT2
  6
AI9-LTYPE2
 10
1016.396617
 20
-74.880688
 30
0.0
 11
1016.396617
 21
-67.037265
 31
0.0
  0
LINE
  5
34BD
  8
POINTILLE_COURT2
  6
AI9-LTYPE2
 10
1003.449502
 20
-74.880688
 30
0.0
 11
1003.449502
 21
-67.037265
 31
0.0
  0
LINE
  5
34BE
  8
POINTILLE_COURT2
  6
AI9-LTYPE2
 10
1019.280469
 20
-87.2174
 30
0.0
 11
1000.563256
 21
-87.2174
 31
0.0
  0
LINE
  5
34BF
  8
POINTILLE_COURT2
  6
AI9-LTYPE2
 10
1000.563256
 20
-74.880688
 30
0.0
 11
1019.280469
 21
-74.880688
 31
0.0
  0
LINE
  5
34C0
  8
ALPHA
 10
1021.764567
 20
-108.299272
 30
0.0
 11
998.171915
 21
-108.299272
 31
0.0
  0
LINE
  5
34C1
  8
ALPHA
 10
998.171915
 20
-110.895278
 30
0.0
 11
1021.764567
 21
-110.895278
 31
0.0
  0
LINE
  5
34C2
  8
ALPHA
 10
1000.937277
 20
-97.470015
 30
0.0
 11
1019.051269
 21
-97.470015
 31
0.0
  0
LINE
  5
34C4
  8
ALPHA
 10
1021.601793
 20
-113.984393
 30
0.0
 11
998.009141
 21
-113.940707
 31
0.0
  0
LINE
  5
34C5
  8
ALPHA
 10
998.004354
 20
-116.536114
 30
0.0
 11
1021.597006
 21
-116.579201
 31
0.0
  0
POLYLINE
  5
34C7
  8
POINTILLE_COURT2
  6
AI9-LTYPE2
 66
     1
 10
0.0
 20
0.0
 30
0.0
 70
   128
  0
VERTEX
  5
3DC7
  8
POINTILLE_COURT2
  6
AI9-LTYPE2
 10
1021.769355
 20
-93.353987
 30
0.0
  0
VERTEX
  5
3DC8
  8
POINTILLE_COURT2
  6
AI9-LTYPE2
 10
1020.434174
 20
-93.42795
 30
0.0
  0
VERTEX
  5
3DC9
  8
POINTILLE_COURT2
  6
AI9-LTYPE2
 10
1018.848101
 20
-93.561494
 30
0.0
  0
VERTEX
  5
3DCA
  8
POINTILLE_COURT2
  6
AI9-LTYPE2
 10
1017.521897
 20
-93.689428
 30
0.0
  0
VERTEX
  5
3DCB
  8
POINTILLE_COURT2
  6
AI9-LTYPE2
 10
1017.115859
 20
-93.730919
 30
0.0
  0
VERTEX
  5
3DCC
  8
POINTILLE_COURT2
  6
AI9-LTYPE2
 10
1016.966326
 20
-93.74656
 30
0.0
  0
VERTEX
  5
3DCD
  8
POINTILLE_COURT2
  6
AI9-LTYPE2
 10
1014.678007
 20
-93.25555
 30
0.0
  0
VERTEX
  5
3DCE
  8
POINTILLE_COURT2
  6
AI9-LTYPE2
 10
1012.79744
 20
-92.957899
 30
0.0
  0
VERTEX
  5
3DCF
  8
POINTILLE_COURT2
  6
AI9-LTYPE2
 10
1009.79477
 20
-92.86402
 30
0.0
  0
VERTEX
  5
3DD0
  8
POINTILLE_COURT2
  6
AI9-LTYPE2
 10
1007.028744
 20
-93.307609
 30
0.0
  0
VERTEX
  5
3DD1
  8
POINTILLE_COURT2
  6
AI9-LTYPE2
 10
1005.44398
 20
-93.681794
 30
0.0
  0
VERTEX
  5
3DD2
  8
POINTILLE_COURT2
  6
AI9-LTYPE2
 10
1003.569787
 20
-94.131353
 30
0.0
  0
SEQEND
  5
3DD3
  8
POINTILLE_COURT2
  6
AI9-LTYPE2
  0
POLYLINE
  5
34C8
  8
ALPHA
 66
     1
 10
0.0
 20
0.0
 30
0.0
 70
   128
  0
VERTEX
  5
3DD4
  8
ALPHA
 10
1020.241404
 20
-118.103657
 30
0.0
  0
VERTEX
  5
3DD5
  8
ALPHA
 10
1018.678651
 20
-116.8953
 30
0.0
  0
VERTEX
  5
3DD6
  8
ALPHA
 10
1017.708304
 20
-116.6288
 30
0.0
  0
VERTEX
  5
3DD7
  8
ALPHA
 10
1016.607939
 20
-116.812555
 30
0.0
  0
VERTEX
  5
3DD8
  8
ALPHA
 10
1015.374525
 20
-117.615415
 30
0.0
  0
VERTEX
  5
3DD9
  8
ALPHA
 10
1015.045027
 20
-117.932652
 30
0.0
  0
VERTEX
  5
3DDA
  8
ALPHA
 10
1014.713968
 20
-117.899489
 30
0.0
  0
VERTEX
  5
3DDB
  8
ALPHA
 10
1013.965293
 20
-117.49283
 30
0.0
  0
VERTEX
  5
3DDC
  8
ALPHA
 10
1012.140797
 20
-116.900698
 30
0.0
  0
VERTEX
  5
3DDD
  8
ALPHA
 10
1010.041999
 20
-116.647443
 30
0.0
  0
VERTEX
  5
3DDE
  8
ALPHA
 10
1007.863169
 20
-116.785824
 30
0.0
  0
VERTEX
  5
3DDF
  8
ALPHA
 10
1005.79858
 20
-117.368597
 30
0.0
  0
VERTEX
  5
3DE0
  8
ALPHA
 10
1004.869835
 20
-117.843117
 30
0.0
  0
VERTEX
  5
3DE1
  8
ALPHA
 10
1004.533468
 20
-117.981869
 30
0.0
  0
VERTEX
  5
3DE2
  8
ALPHA
 10
1004.38287
 20
-117.832983
 30
0.0
  0
VERTEX
  5
3DE3
  8
ALPHA
 10
1003.685903
 20
-117.225717
 30
0.0
  0
VERTEX
  5
3DE4
  8
ALPHA
 10
1002.834743
 20
-116.744052
 30
0.0
  0
VERTEX
  5
3DE5
  8
ALPHA
 10
1001.825557
 20
-116.580461
 30
0.0
  0
VERTEX
  5
3DE6
  8
ALPHA
 10
1000.654509
 20
-116.927415
 30
0.0
  0
VERTEX
  5
3DE7
  8
ALPHA
 10
999.317766
 20
-117.977387
 30
0.0
  0
SEQEND
  5
3DE8
  8
ALPHA
  0
POLYLINE
  5
34C9
  8
ALPHA
 66
     1
 10
0.0
 20
0.0
 30
0.0
 70
   128
  0
VERTEX
  5
3DE9
  8
ALPHA
 10
999.499241
 20
-106.770212
 30
0.0
  0
VERTEX
  5
3DEA
  8
ALPHA
 10
1001.063941
 20
-107.976276
 30
0.0
  0
VERTEX
  5
3DEB
  8
ALPHA
 10
1002.034964
 20
-108.24099
 30
0.0
  0
VERTEX
  5
3DEC
  8
ALPHA
 10
1003.135147
 20
-108.055087
 30
0.0
  0
VERTEX
  5
3DED
  8
ALPHA
 10
1004.367021
 20
-107.249763
 30
0.0
  0
VERTEX
  5
3DEE
  8
ALPHA
 10
1004.695863
 20
-106.931866
 30
0.0
  0
VERTEX
  5
3DEF
  8
ALPHA
 10
1005.027
 20
-106.96445
 30
0.0
  0
VERTEX
  5
3DF0
  8
ALPHA
 10
1005.776482
 20
-107.36983
 30
0.0
  0
VERTEX
  5
3DF1
  8
ALPHA
 10
1007.601922
 20
-107.958631
 30
0.0
  0
VERTEX
  5
3DF2
  8
ALPHA
 10
1009.700891
 20
-108.207875
 30
0.0
  0
VERTEX
  5
3DF3
  8
ALPHA
 10
1011.87926
 20
-108.065231
 30
0.0
  0
VERTEX
  5
3DF4
  8
ALPHA
 10
1013.9429
 20
-107.478369
 30
0.0
  0
VERTEX
  5
3DF5
  8
ALPHA
 10
1014.871032
 20
-107.002002
 30
0.0
  0
VERTEX
  5
3DF6
  8
ALPHA
 10
1015.207234
 20
-106.86262
 30
0.0
  0
VERTEX
  5
3DF7
  8
ALPHA
 10
1015.358012
 20
-107.011324
 30
0.0
  0
VERTEX
  5
3DF8
  8
ALPHA
 10
1016.055753
 20
-107.617679
 30
0.0
  0
VERTEX
  5
3DF9
  8
ALPHA
 10
1016.907559
 20
-108.098085
 30
0.0
  0
VERTEX
  5
3DFA
  8
ALPHA
 10
1017.916982
 20
-108.26
 30
0.0
  0
VERTEX
  5
3DFB
  8
ALPHA
 10
1019.087572
 20
-107.91088
 30
0.0
  0
VERTEX
  5
3DFC
  8
ALPHA
 10
1020.422879
 20
-106.858182
 30
0.0
  0
SEQEND
  5
3DFD
  8
ALPHA
  0
POLYLINE
  5
34CA
  8
ALPHA
 66
     1
 10
0.0
 20
0.0
 30
0.0
 70
   128
210
0.0
220
0.0
230
-1.0
  0
VERTEX
  5
3DFE
  8
ALPHA
 10
-999.499241
 20
-98.996021
 30
0.0
  0
VERTEX
  5
3DFF
  8
ALPHA
 10
-1001.063941
 20
-97.790641
 30
0.0
  0
VERTEX
  5
3E00
  8
ALPHA
 10
-1002.034964
 20
-97.525878
 30
0.0
  0
VERTEX
  5
3E01
  8
ALPHA
 10
-1003.135147
 20
-97.711567
 30
0.0
  0
VERTEX
  5
3E02
  8
ALPHA
 10
-1004.367021
 20
-98.516582
 30
0.0
  0
VERTEX
  5
3E03
  8
ALPHA
 10
-1004.695863
 20
-98.834396
 30
0.0
  0
VERTEX
  5
3E04
  8
ALPHA
 10
-1005.027
 20
-98.801887
 30
0.0
  0
VERTEX
  5
3E05
  8
ALPHA
 10
-1005.776482
 20
-98.396722
 30
0.0
  0
VERTEX
  5
3E06
  8
ALPHA
 10
-1007.601922
 20
-97.808012
 30
0.0
  0
VERTEX
  5
3E07
  8
ALPHA
 10
-1009.700891
 20
-97.558583
 30
0.0
  0
VERTEX
  5
3E08
  8
ALPHA
 10
-1011.87926
 20
-97.700978
 30
0.0
  0
VERTEX
  5
3E09
  8
ALPHA
 10
-1013.9429
 20
-98.287742
 30
0.0
  0
VERTEX
  5
3E0A
  8
ALPHA
 10
-1014.871032
 20
-98.764182
 30
0.0
  0
VERTEX
  5
3E0B
  8
ALPHA
 10
-1015.207234
 20
-98.903669
 30
0.0
  0
VERTEX
  5
3E0C
  8
ALPHA
 10
-1015.358012
 20
-98.75512
 30
0.0
  0
VERTEX
  5
3E0D
  8
ALPHA
 10
-1016.055753
 20
-98.149237
 30
0.0
  0
VERTEX
  5
3E0E
  8
ALPHA
 10
-1016.907559
 20
-97.669082
 30
0.0
  0
VERTEX
  5
3E0F
  8
ALPHA
 10
-1017.916982
 20
-97.507221
 30
0.0
  0
VERTEX
  5
3E10
  8
ALPHA
 10
-1019.087572
 20
-97.856221
 30
0.0
  0
VERTEX
  5
3E11
  8
ALPHA
 10
-1020.422879
 20
-98.90865
 30
0.0
  0
SEQEND
  5
3E12
  8
ALPHA
  0
LINE
  5
34CB
  8
ALPHA
 10
999.543525
 20
-98.863169
 30
0.0
 11
1000.937277
 21
-97.470015
 31
0.0
  0
LINE
  5
34CC
  8
ALPHA
 10
999.310734
 20
-117.880795
 30
0.0
 11
1000.73333
 21
-116.541098
 31
0.0
  0
LINE
  5
34CD
  8
ALPHA
 10
998.009141
 20
-113.940707
 30
0.0
 11
998.004354
 21
-116.536114
 31
0.0
  0
LINE
  5
34CE
  8
ALPHA
 10
999.295774
 20
-125.965037
 30
0.0
 11
999.310734
 21
-117.880795
 31
0.0
  0
LINE
  5
34CF
  8
ALPHA
 10
1004.548825
 20
-125.940501
 30
0.0
 11
1004.563786
 21
-117.933457
 31
0.0
  0
LINE
  5
34D0
  8
ALPHA
 10
998.171915
 20
-108.299272
 30
0.0
 11
998.171915
 21
-110.895278
 31
0.0
  0
LINE
  5
34D1
  8
ALPHA
 10
999.543525
 20
-106.958182
 30
0.0
 11
999.543525
 21
-98.863169
 31
0.0
  0
LINE
  5
34D2
  8
ALPHA
 10
1000.884615
 20
-108.299272
 30
0.0
 11
999.543525
 21
-106.958182
 31
0.0
  0
LINE
  5
34D3
  8
ALPHA
 10
1004.851633
 20
-98.90865
 30
0.0
 11
1004.851633
 21
-106.914496
 31
0.0
  0
LINE
  5
34D4
  8
ALPHA
 10
1014.900532
 20
-125.960249
 30
0.0
 11
1014.913562
 21
-118.035505
 31
0.0
  0
LINE
  5
34D5
  8
ALPHA
 10
1015.202741
 20
-98.90865
 30
0.0
 11
1015.202741
 21
-106.914496
 31
0.0
  0
LINE
  5
34D6
  8
ALPHA
 10
1004.010833
 20
-91.048746
 30
0.0
 11
1016.014217
 21
-91.048746
 31
0.0
1001
ACAD
1000
RTLwPs
1070
   128
  0
LINE
  5
34D7
  8
POINTILLE_COURT2
  6
AI9-LTYPE2
 10
1000.563256
 20
-87.2174
 30
0.0
 11
1000.563256
 21
-74.880688
 31
0.0
  0
LINE
  5
34D8
  8
POINTILLE_COURT2
  6
AI9-LTYPE2
 10
994.103164
 20
-89.253519
 30
0.0
 11
994.103164
 21
-71.198174
 31
0.0
  0
LINE
  5
34D9
  8
POINTILLE_COURT2
  6
AI9-LTYPE2
 10
995.208471
 20
-70.588969
 30
0.0
 11
995.208471
 21
-89.680203
 31
0.0
  0
POLYLINE
  5
34DA
  8
POINTILLE_COURT2
  6
AI9-LTYPE2
 66
     1
 10
0.0
 20
0.0
 30
0.0
 70
   128
  0
VERTEX
  5
3E13
  8
POINTILLE_COURT2
  6
AI9-LTYPE2
 10
1003.569787
 20
-94.131353
 30
0.0
  0
VERTEX
  5
3E14
  8
POINTILLE_COURT2
  6
AI9-LTYPE2
 10
1003.29758
 20
-94.120193
 30
0.0
  0
VERTEX
  5
3E15
  8
POINTILLE_COURT2
  6
AI9-LTYPE2
 10
1002.579941
 20
-94.090772
 30
0.0
  0
VERTEX
  5
3E16
  8
POINTILLE_COURT2
  6
AI9-LTYPE2
 10
1000.402278
 20
-94.001493
 30
0.0
  0
VERTEX
  5
3E17
  8
POINTILLE_COURT2
  6
AI9-LTYPE2
 10
998.224615
 20
-93.912214
 30
0.0
  0
VERTEX
  5
3E18
  8
POINTILLE_COURT2
  6
AI9-LTYPE2
 10
997.506976
 20
-93.882792
 30
0.0
  0
VERTEX
  5
3E19
  8
POINTILLE_COURT2
  6
AI9-LTYPE2
 10
997.234768
 20
-93.871633
 30
0.0
  0
SEQEND
  5
3E1A
  8
POINTILLE_COURT2
  6
AI9-LTYPE2
  0
LINE
  5
34DB
  8
POINTILLE_COURT2
  6
AI9-LTYPE2
 10
995.208471
 20
-89.680203
 30
0.0
 11
994.754858
 21
-90.069783
 31
0.0
  0
LINE
  5
34DC
  8
POINTILLE_COURT2
  6
AI9-LTYPE2
 10
997.234768
 20
-89.680203
 30
0.0
 11
995.208471
 21
-89.680203
 31
0.0
  0
LINE
  5
34DD
  8
POINTILLE_COURT2
  6
AI9-LTYPE2
 10
1003.449502
 20
-93.772293
 30
0.0
 11
1003.449502
 21
-87.2174
 31
0.0
  0
LINE
  5
34DE
  8
POINTILLE_COURT2
  6
AI9-LTYPE2
 10
995.208471
 20
-70.588969
 30
0.0
 11
997.234768
 21
-70.588969
 31
0.0
  0
LINE
  5
34DF
  8
POINTILLE_COURT2
  6
AI9-LTYPE2
 10
994.754858
 20
-70.371737
 30
0.0
 11
995.208471
 21
-70.588969
 31
0.0
  0
POLYLINE
  5
34E0
  8
POINTILLE_COURT2
  6
AI9-LTYPE2
 66
     1
 10
0.0
 20
0.0
 30
0.0
 70
   128
210
0.0
220
0.0
230
-1.0
  0
VERTEX
  5
3E1B
  8
POINTILLE_COURT2
  6
AI9-LTYPE2
 10
-1010.812631
 20
-76.793881
 30
0.0
  0
VERTEX
  5
3E1C
  8
POINTILLE_COURT2
  6
AI9-LTYPE2
 10
-1012.283553
 20
-77.268429
 30
0.0
  0
VERTEX
  5
3E1D
  8
POINTILLE_COURT2
  6
AI9-LTYPE2
 10
-1013.467508
 20
-78.207456
 30
0.0
  0
VERTEX
  5
3E1E
  8
POINTILLE_COURT2
  6
AI9-LTYPE2
 10
-1014.256833
 20
-79.503411
 30
0.0
  0
VERTEX
  5
3E1F
  8
POINTILLE_COURT2
  6
AI9-LTYPE2
 10
-1014.543866
 20
-81.048745
 30
0.0
  0
VERTEX
  5
3E20
  8
POINTILLE_COURT2
  6
AI9-LTYPE2
 10
-1014.254663
 20
-82.600539
 30
0.0
  0
VERTEX
  5
3E21
  8
POINTILLE_COURT2
  6
AI9-LTYPE2
 10
-1013.459579
 20
-83.899982
 30
0.0
  0
VERTEX
  5
3E22
  8
POINTILLE_COURT2
  6
AI9-LTYPE2
 10
-1012.267396
 20
-84.838569
 30
0.0
  0
VERTEX
  5
3E23
  8
POINTILLE_COURT2
  6
AI9-LTYPE2
 10
-1010.786899
 20
-85.307798
 30
0.0
  0
SEQEND
  5
3E24
  8
POINTILLE_COURT2
  6
AI9-LTYPE2
  0
POLYLINE
  5
34E1
  8
POINTILLE_COURT2
  6
AI9-LTYPE2
 66
     1
 10
0.0
 20
0.0
 30
0.0
 70
   128
210
0.0
220
0.0
230
-1.0
  0
VERTEX
  5
3E25
  8
POINTILLE_COURT2
  6
AI9-LTYPE2
 10
-1008.342297
 20
-84.894878
 30
0.0
  0
VERTEX
  5
3E26
  8
POINTILLE_COURT2
  6
AI9-LTYPE2
 10
-1007.373956
 20
-84.234759
 30
0.0
  0
VERTEX
  5
3E27
  8
POINTILLE_COURT2
  6
AI9-LTYPE2
 10
-1006.620603
 20
-83.340521
 30
0.0
  0
VERTEX
  5
3E28
  8
POINTILLE_COURT2
  6
AI9-LTYPE2
 10
-1006.132056
 20
-82.261929
 30
0.0
  0
VERTEX
  5
3E29
  8
POINTILLE_COURT2
  6
AI9-LTYPE2
 10
-1005.958137
 20
-81.048745
 30
0.0
  0
VERTEX
  5
3E2A
  8
POINTILLE_COURT2
  6
AI9-LTYPE2
 10
-1006.130214
 20
-79.841713
 30
0.0
  0
VERTEX
  5
3E2B
  8
POINTILLE_COURT2
  6
AI9-LTYPE2
 10
-1006.613945
 20
-78.76759
 30
0.0
  0
VERTEX
  5
3E2C
  8
POINTILLE_COURT2
  6
AI9-LTYPE2
 10
-1007.360575
 20
-77.875353
 30
0.0
  0
VERTEX
  5
3E2D
  8
POINTILLE_COURT2
  6
AI9-LTYPE2
 10
-1008.321352
 20
-77.213981
 30
0.0
  0
SEQEND
  5
3E2E
  8
POINTILLE_COURT2
  6
AI9-LTYPE2
  0
LINE
  5
34E2
  8
POINTILLE_COURT2
  6
AI9-LTYPE2
 10
1008.342297
 20
-84.894878
 30
0.0
 11
1010.786899
 21
-85.307798
 31
0.0
  0
LINE
  5
34E3
  8
POINTILLE_COURT2
  6
AI9-LTYPE2
 10
1016.396617
 20
-93.41802
 30
0.0
 11
1016.396617
 21
-87.2174
 31
0.0
  0
CIRCLE
  5
34E4
  8
POINTILLE_COURT2
  6
AI9-LTYPE2
 10
1010.250403
 20
-81.048745
 30
0.0
 40
2.592116
  0
CIRCLE
  5
34E5
  8
POINTILLE_COURT2
  6
AI9-LTYPE2
 10
1010.250403
 20
-81.048745
 30
0.0
 40
2.027194
  0
LINE
  5
34E6
  8
POINTILLE_COURT2
  6
AI9-LTYPE2
 10
1010.812631
 20
-76.793881
 30
0.0
 11
1008.321352
 21
-77.213981
 31
0.0
  0
LINE
  5
34E7
  8
ALPHA
 10
1019.051269
 20
-97.470015
 30
0.0
 11
1020.455793
 21
-98.874539
 31
0.0
  0
LINE
  5
34E8
  8
ALPHA
 10
1021.597006
 20
-116.579201
 30
0.0
 11
1021.601793
 21
-113.984393
 31
0.0
  0
LINE
  5
34E9
  8
ALPHA
 10
1020.223002
 20
-117.919095
 30
0.0
 11
1020.208041
 21
-126.014108
 31
0.0
  0
LINE
  5
34EA
  8
ALPHA
 10
1018.883598
 20
-116.574246
 30
0.0
 11
1020.223002
 21
-117.919095
 31
0.0
  0
LINE
  5
34EB
  8
ALPHA
 10
1021.764567
 20
-110.895278
 30
0.0
 11
1021.764567
 21
-108.299272
 31
0.0
  0
LINE
  5
34EC
  8
ALPHA
 10
1020.455793
 20
-106.958182
 30
0.0
 11
1019.036704
 21
-108.299272
 31
0.0
  0
LINE
  5
34ED
  8
ALPHA
 10
1020.455793
 20
-98.874539
 30
0.0
 11
1020.455793
 21
-106.958182
 31
0.0
  0
POLYLINE
  5
34EE
  8
POINTILLE_COURT2
  6
AI9-LTYPE2
 66
     1
 10
0.0
 20
0.0
 30
0.0
 70
   128
210
0.0
220
0.0
230
-1.0
  0
VERTEX
  5
3E2F
  8
POINTILLE_COURT2
  6
AI9-LTYPE2
 10
-1028.095997
 20
-80.535536
 30
0.0
  0
VERTEX
  5
3E30
  8
POINTILLE_COURT2
  6
AI9-LTYPE2
 10
-1028.328862
 20
-80.075565
 30
0.0
  0
VERTEX
  5
3E31
  8
POINTILLE_COURT2
  6
AI9-LTYPE2
 10
-1028.804542
 20
-79.916756
 30
0.0
  0
SEQEND
  5
3E32
  8
POINTILLE_COURT2
  6
AI9-LTYPE2
  0
POLYLINE
  5
34EF
  8
POINTILLE_COURT2
  6
AI9-LTYPE2
 66
     1
 10
0.0
 20
0.0
 30
0.0
 70
   128
  0
VERTEX
  5
3E33
  8
POINTILLE_COURT2
  6
AI9-LTYPE2
 10
1028.445482
 20
-92.553881
 30
0.0
  0
VERTEX
  5
3E34
  8
POINTILLE_COURT2
  6
AI9-LTYPE2
 10
1028.169057
 20
-92.591012
 30
0.0
  0
VERTEX
  5
3E35
  8
POINTILLE_COURT2
  6
AI9-LTYPE2
 10
1027.4403
 20
-92.688903
 30
0.0
  0
VERTEX
  5
3E36
  8
POINTILLE_COURT2
  6
AI9-LTYPE2
 10
1025.2289
 20
-92.985951
 30
0.0
  0
VERTEX
  5
3E37
  8
POINTILLE_COURT2
  6
AI9-LTYPE2
 10
1023.017501
 20
-93.282998
 30
0.0
  0
VERTEX
  5
3E38
  8
POINTILLE_COURT2
  6
AI9-LTYPE2
 10
1022.288744
 20
-93.380889
 30
0.0
  0
VERTEX
  5
3E39
  8
POINTILLE_COURT2
  6
AI9-LTYPE2
 10
1022.012319
 20
-93.41802
 30
0.0
  0
VERTEX
  5
3E3A
  8
POINTILLE_COURT2
  6
AI9-LTYPE2
 10
1021.769355
 20
-93.353987
 30
0.0
  0
SEQEND
  5
3E3B
  8
POINTILLE_COURT2
  6
AI9-LTYPE2
  0
POLYLINE
  5
34F0
  8
POINTILLE_COURT2
  6
AI9-LTYPE2
 66
     1
 10
0.0
 20
0.0
 30
0.0
 70
   128
210
0.0
220
0.0
230
-1.0
  0
VERTEX
  5
3E3C
  8
POINTILLE_COURT2
  6
AI9-LTYPE2
 10
-1036.627268
 20
-79.937701
 30
0.0
  0
VERTEX
  5
3E3D
  8
POINTILLE_COURT2
  6
AI9-LTYPE2
 10
-1036.312427
 20
-82.86926
 30
0.0
  0
VERTEX
  5
3E3E
  8
POINTILLE_COURT2
  6
AI9-LTYPE2
 10
-1035.904621
 20
-84.215729
 30
0.0
  0
VERTEX
  5
3E3F
  8
POINTILLE_COURT2
  6
AI9-LTYPE2
 10
-1035.224764
 20
-85.55834
 30
0.0
  0
VERTEX
  5
3E40
  8
POINTILLE_COURT2
  6
AI9-LTYPE2
 10
-1034.19401
 20
-86.953858
 30
0.0
  0
VERTEX
  5
3E41
  8
POINTILLE_COURT2
  6
AI9-LTYPE2
 10
-1032.733512
 20
-88.459042
 30
0.0
  0
VERTEX
  5
3E42
  8
POINTILLE_COURT2
  6
AI9-LTYPE2
 10
-1030.764426
 20
-90.130657
 30
0.0
  0
VERTEX
  5
3E43
  8
POINTILLE_COURT2
  6
AI9-LTYPE2
 10
-1028.207904
 20
-92.025464
 30
0.0
  0
SEQEND
  5
3E44
  8
POINTILLE_COURT2
  6
AI9-LTYPE2
  0
POLYLINE
  5
34F1
  8
POINTILLE_COURT2
  6
AI9-LTYPE2
 66
     1
 10
0.0
 20
0.0
 30
0.0
 70
   128
  0
VERTEX
  5
3E45
  8
POINTILLE_COURT2
  6
AI9-LTYPE2
 10
1028.672288
 20
-81.745569
 30
0.0
  0
VERTEX
  5
3E46
  8
POINTILLE_COURT2
  6
AI9-LTYPE2
 10
1028.459395
 20
-82.530556
 30
0.0
  0
VERTEX
  5
3E47
  8
POINTILLE_COURT2
  6
AI9-LTYPE2
 10
1028.396859
 20
-83.608568
 30
0.0
  0
VERTEX
  5
3E48
  8
POINTILLE_COURT2
  6
AI9-LTYPE2
 10
1028.254207
 20
-85.156614
 30
0.0
  0
VERTEX
  5
3E49
  8
POINTILLE_COURT2
  6
AI9-LTYPE2
 10
1027.800969
 20
-87.351697
 30
0.0
  0
SEQEND
  5
3E4A
  8
POINTILLE_COURT2
  6
AI9-LTYPE2
  0
LINE
  5
34F2
  8
POINTILLE_COURT2
  6
AI9-LTYPE2
 10
1019.280469
 20
-74.880688
 30
0.0
 11
1019.280469
 21
-87.2174
 31
0.0
  0
POLYLINE
  5
34F3
  8
POINTILLE_COURT2
  6
AI9-LTYPE2
 66
     1
 10
0.0
 20
0.0
 30
0.0
 70
   128
210
0.0
220
0.0
230
-1.0
  0
VERTEX
  5
3E4B
  8
POINTILLE_COURT2
  6
AI9-LTYPE2
 10
-1028.095997
 20
-80.535536
 30
0.0
  0
VERTEX
  5
3E4C
  8
POINTILLE_COURT2
  6
AI9-LTYPE2
 10
-1027.718198
 20
-82.931759
 30
0.0
  0
VERTEX
  5
3E4D
  8
POINTILLE_COURT2
  6
AI9-LTYPE2
 10
-1026.663346
 20
-85.620278
 30
0.0
  0
VERTEX
  5
3E4E
  8
POINTILLE_COURT2
  6
AI9-LTYPE2
 10
-1025.788824
 20
-87.108969
 30
0.0
  0
VERTEX
  5
3E4F
  8
POINTILLE_COURT2
  6
AI9-LTYPE2
 10
-1024.633197
 20
-88.712516
 30
0.0
  0
VERTEX
  5
3E50
  8
POINTILLE_COURT2
  6
AI9-LTYPE2
 10
-1023.159185
 20
-90.444849
 30
0.0
  0
VERTEX
  5
3E51
  8
POINTILLE_COURT2
  6
AI9-LTYPE2
 10
-1021.329506
 20
-92.319894
 30
0.0
  0
SEQEND
  5
3E52
  8
POINTILLE_COURT2
  6
AI9-LTYPE2
  0
POLYLINE
  5
34F4
  8
POINTILLE_COURT2
  6
AI9-LTYPE2
 66
     1
 10
0.0
 20
0.0
 30
0.0
 70
   128
210
0.0
220
0.0
230
-1.0
  0
VERTEX
  5
3E53
  8
POINTILLE_COURT2
  6
AI9-LTYPE2
 10
-1027.800969
 20
-87.351697
 30
0.0
  0
VERTEX
  5
3E54
  8
POINTILLE_COURT2
  6
AI9-LTYPE2
 10
-1027.513113
 20
-87.9447
 30
0.0
  0
VERTEX
  5
3E55
  8
POINTILLE_COURT2
  6
AI9-LTYPE2
 10
-1026.865018
 20
-88.775202
 30
0.0
  0
VERTEX
  5
3E56
  8
POINTILLE_COURT2
  6
AI9-LTYPE2
 10
-1024.959605
 20
-90.768155
 30
0.0
  0
VERTEX
  5
3E57
  8
POINTILLE_COURT2
  6
AI9-LTYPE2
 10
-1023.027711
 20
-92.569459
 30
0.0
  0
VERTEX
  5
3E58
  8
POINTILLE_COURT2
  6
AI9-LTYPE2
 10
-1022.346516
 20
-93.160401
 30
0.0
  0
VERTEX
  5
3E59
  8
POINTILLE_COURT2
  6
AI9-LTYPE2
 10
-1022.012319
 20
-93.41802
 30
0.0
  0
SEQEND
  5
3E5A
  8
POINTILLE_COURT2
  6
AI9-LTYPE2
  0
LINE
  5
34F5
  8
POINTILLE_COURT2
  6
AI9-LTYPE2
 10
1021.462957
 20
-92.64604
 30
0.0
 11
1021.965641
 21
-92.696309
 31
0.0
  0
LINE
  5
34F6
  8
POINTILLE_COURT2
  6
AI9-LTYPE2
 10
1021.915373
 20
-92.739994
 30
0.0
 11
1021.131425
 21
-93.337231
 31
0.0
  0
LINE
  5
34F7
  8
POINTILLE_COURT2
  6
AI9-LTYPE2
 10
1022.074556
 20
-92.452148
 30
0.0
 11
1021.915373
 21
-92.739994
 31
0.0
  0
POLYLINE
  5
34F8
  8
POINTILLE_COURT2
  6
AI9-LTYPE2
 66
     1
 10
0.0
 20
0.0
 30
0.0
 70
   128
  0
VERTEX
  5
3E5B
  8
POINTILLE_COURT2
  6
AI9-LTYPE2
 10
1021.329506
 20
-92.319894
 30
0.0
  0
VERTEX
  5
3E5C
  8
POINTILLE_COURT2
  6
AI9-LTYPE2
 10
1021.258891
 20
-92.481172
 30
0.0
  0
VERTEX
  5
3E5D
  8
POINTILLE_COURT2
  6
AI9-LTYPE2
 10
1021.462957
 20
-92.64604
 30
0.0
  0
SEQEND
  5
3E5E
  8
POINTILLE_COURT2
  6
AI9-LTYPE2
  0
LINE
  5
34F9
  8
POINTILLE_COURT2
  6
AI9-LTYPE2
 10
1022.074556
 20
-91.703507
 30
0.0
 11
1022.074556
 21
-92.452148
 31
0.0
  0
LINE
  5
34FA
  8
POINTILLE_COURT2
  6
AI9-LTYPE2
 10
1021.667621
 20
-92.954832
 30
0.0
 11
1021.791497
 21
-93.367751
 31
0.0
  0
POLYLINE
  5
34FB
  8
POINTILLE_COURT2
  6
AI9-LTYPE2
 66
     1
 10
0.0
 20
0.0
 30
0.0
 70
   128
  0
VERTEX
  5
3E5F
  8
POINTILLE_COURT2
  6
AI9-LTYPE2
 10
1028.207904
 20
-92.025464
 30
0.0
  0
VERTEX
  5
3E60
  8
POINTILLE_COURT2
  6
AI9-LTYPE2
 10
1027.799772
 20
-92.44362
 30
0.0
  0
VERTEX
  5
3E61
  8
POINTILLE_COURT2
  6
AI9-LTYPE2
 10
1027.885928
 20
-92.558164
 30
0.0
  0
VERTEX
  5
3E62
  8
POINTILLE_COURT2
  6
AI9-LTYPE2
 10
1028.310834
 20
-92.587992
 30
0.0
  0
SEQEND
  5
3E63
  8
POINTILLE_COURT2
  6
AI9-LTYPE2
  0
POLYLINE
  5
34FC
  8
POINTILLE_COURT2
  6
AI9-LTYPE2
 66
     1
 10
0.0
 20
0.0
 30
0.0
 70
   128
  0
VERTEX
  5
3E64
  8
POINTILLE_COURT2
  6
AI9-LTYPE2
 10
1037.863034
 20
-75.05508
 30
0.0
  0
VERTEX
  5
3E65
  8
POINTILLE_COURT2
  6
AI9-LTYPE2
 10
1037.863034
 20
-75.310715
 30
0.0
  0
VERTEX
  5
3E66
  8
POINTILLE_COURT2
  6
AI9-LTYPE2
 10
1037.863034
 20
-76.00945
 30
0.0
  0
VERTEX
  5
3E67
  8
POINTILLE_COURT2
  6
AI9-LTYPE2
 10
1037.863034
 20
-78.327206
 30
0.0
  0
VERTEX
  5
3E68
  8
POINTILLE_COURT2
  6
AI9-LTYPE2
 10
1037.863034
 20
-81.190316
 30
0.0
  0
VERTEX
  5
3E69
  8
POINTILLE_COURT2
  6
AI9-LTYPE2
 10
1037.863034
 20
-83.780749
 30
0.0
  0
VERTEX
  5
3E6A
  8
POINTILLE_COURT2
  6
AI9-LTYPE2
 10
1037.863034
 20
-84.718077
 30
0.0
  0
VERTEX
  5
3E6B
  8
POINTILLE_COURT2
  6
AI9-LTYPE2
 10
1037.863034
 20
-85.280473
 30
0.0
  0
VERTEX
  5
3E6C
  8
POINTILLE_COURT2
  6
AI9-LTYPE2
 10
1037.863034
 20
-85.389118
 30
0.0
  0
VERTEX
  5
3E6D
  8
POINTILLE_COURT2
  6
AI9-LTYPE2
 10
1037.85763
 20
-85.507482
 30
0.0
  0
VERTEX
  5
3E6E
  8
POINTILLE_COURT2
  6
AI9-LTYPE2
 10
1037.834266
 20
-85.832174
 30
0.0
  0
VERTEX
  5
3E6F
  8
POINTILLE_COURT2
  6
AI9-LTYPE2
 10
1037.641128
 20
-87.01605
 30
0.0
  0
VERTEX
  5
3E70
  8
POINTILLE_COURT2
  6
AI9-LTYPE2
 10
1036.865544
 20
-88.876775
 30
0.0
  0
VERTEX
  5
3E71
  8
POINTILLE_COURT2
  6
AI9-LTYPE2
 10
1035.753779
 20
-90.152666
 30
0.0
  0
VERTEX
  5
3E72
  8
POINTILLE_COURT2
  6
AI9-LTYPE2
 10
1034.525313
 20
-90.953167
 30
0.0
  0
VERTEX
  5
3E73
  8
POINTILLE_COURT2
  6
AI9-LTYPE2
 10
1033.399624
 20
-91.387721
 30
0.0
  0
VERTEX
  5
3E74
  8
POINTILLE_COURT2
  6
AI9-LTYPE2
 10
1031.871422
 20
-91.735224
 30
0.0
  0
VERTEX
  5
3E75
  8
POINTILLE_COURT2
  6
AI9-LTYPE2
 10
1029.884717
 20
-92.205144
 30
0.0
  0
VERTEX
  5
3E76
  8
POINTILLE_COURT2
  6
AI9-LTYPE2
 10
1029.009921
 20
-92.416625
 30
0.0
  0
VERTEX
  5
3E77
  8
POINTILLE_COURT2
  6
AI9-LTYPE2
 10
1028.445482
 20
-92.553881
 30
0.0
  0
SEQEND
  5
3E78
  8
POINTILLE_COURT2
  6
AI9-LTYPE2
  0
POLYLINE
  5
34FD
  8
POINTILLE_COURT2
  6
AI9-LTYPE2
 66
     1
 10
0.0
 20
0.0
 30
0.0
 70
   128
210
0.0
220
0.0
230
-1.0
  0
VERTEX
  5
3E79
  8
POINTILLE_COURT2
  6
AI9-LTYPE2
 10
-1037.147307
 20
-80.533143
 30
0.0
  0
VERTEX
  5
3E7A
  8
POINTILLE_COURT2
  6
AI9-LTYPE2
 10
-1037.028294
 20
-82.116355
 30
0.0
  0
VERTEX
  5
3E7B
  8
POINTILLE_COURT2
  6
AI9-LTYPE2
 10
-1036.548425
 20
-84.131674
 30
0.0
  0
VERTEX
  5
3E7C
  8
POINTILLE_COURT2
  6
AI9-LTYPE2
 10
-1035.523457
 20
-86.274684
 30
0.0
  0
VERTEX
  5
3E7D
  8
POINTILLE_COURT2
  6
AI9-LTYPE2
 10
-1033.769149
 20
-88.240969
 30
0.0
  0
SEQEND
  5
3E7E
  8
POINTILLE_COURT2
  6
AI9-LTYPE2
  0
POLYLINE
  5
34FE
  8
POINTILLE_COURT2
  6
AI9-LTYPE2
 66
     1
 10
0.0
 20
0.0
 30
0.0
 70
   128
210
0.0
220
0.0
230
-1.0
  0
VERTEX
  5
3E7F
  8
POINTILLE_COURT2
  6
AI9-LTYPE2
 10
-1033.156352
 20
-69.022868
 30
0.0
  0
VERTEX
  5
3E80
  8
POINTILLE_COURT2
  6
AI9-LTYPE2
 10
-1034.284699
 20
-74.689259
 30
0.0
  0
VERTEX
  5
3E81
  8
POINTILLE_COURT2
  6
AI9-LTYPE2
 10
-1034.546813
 20
-80.421011
 30
0.0
  0
VERTEX
  5
3E82
  8
POINTILLE_COURT2
  6
AI9-LTYPE2
 10
-1034.104271
 20
-86.06311
 30
0.0
  0
VERTEX
  5
3E83
  8
POINTILLE_COURT2
  6
AI9-LTYPE2
 10
-1033.118651
 20
-91.460543
 30
0.0
  0
SEQEND
  5
3E84
  8
POINTILLE_COURT2
  6
AI9-LTYPE2
  0
POLYLINE
  5
34FF
  8
POINTILLE_COURT2
  6
AI9-LTYPE2
 66
     1
 10
0.0
 20
0.0
 30
0.0
 70
   128
  0
VERTEX
  5
3E85
  8
POINTILLE_COURT2
  6
AI9-LTYPE2
 10
1033.769149
 20
-88.240969
 30
0.0
  0
VERTEX
  5
3E86
  8
POINTILLE_COURT2
  6
AI9-LTYPE2
 10
1030.792614
 20
-90.622811
 30
0.0
  0
VERTEX
  5
3E87
  8
POINTILLE_COURT2
  6
AI9-LTYPE2
 10
1029.597345
 20
-91.627945
 30
0.0
  0
VERTEX
  5
3E88
  8
POINTILLE_COURT2
  6
AI9-LTYPE2
 10
1029.267972
 20
-92.050612
 30
0.0
  0
VERTEX
  5
3E89
  8
POINTILLE_COURT2
  6
AI9-LTYPE2
 10
1029.191729
 20
-92.407265
 30
0.0
  0
SEQEND
  5
3E8A
  8
POINTILLE_COURT2
  6
AI9-LTYPE2
  0
POLYLINE
  5
3500
  8
POINTILLE_COURT2
  6
AI9-LTYPE2
 66
     1
 10
0.0
 20
0.0
 30
0.0
 70
   128
  0
VERTEX
  5
3E8B
  8
POINTILLE_COURT2
  6
AI9-LTYPE2
 10
1028.804542
 20
-79.916756
 30
0.0
  0
VERTEX
  5
3E8C
  8
POINTILLE_COURT2
  6
AI9-LTYPE2
 10
1029.147798
 20
-79.916756
 30
0.0
  0
VERTEX
  5
3E8D
  8
POINTILLE_COURT2
  6
AI9-LTYPE2
 10
1030.052744
 20
-79.916756
 30
0.0
  0
VERTEX
  5
3E8E
  8
POINTILLE_COURT2
  6
AI9-LTYPE2
 10
1032.798788
 20
-79.916756
 30
0.0
  0
VERTEX
  5
3E8F
  8
POINTILLE_COURT2
  6
AI9-LTYPE2
 10
1035.544832
 20
-79.916756
 30
0.0
  0
VERTEX
  5
3E90
  8
POINTILLE_COURT2
  6
AI9-LTYPE2
 10
1036.449779
 20
-79.916756
 30
0.0
  0
VERTEX
  5
3E91
  8
POINTILLE_COURT2
  6
AI9-LTYPE2
 10
1036.793034
 20
-79.916756
 30
0.0
  0
SEQEND
  5
3E92
  8
POINTILLE_COURT2
  6
AI9-LTYPE2
  0
POLYLINE
  5
3501
  8
POINTILLE_COURT2
  6
AI9-LTYPE2
 66
     1
 10
0.0
 20
0.0
 30
0.0
 70
   128
210
0.0
220
0.0
230
-1.0
  0
VERTEX
  5
3E93
  8
POINTILLE_COURT2
  6
AI9-LTYPE2
 10
-1029.797344
 20
-80.543316
 30
0.0
  0
VERTEX
  5
3E94
  8
POINTILLE_COURT2
  6
AI9-LTYPE2
 10
-1029.165472
 20
-81.314323
 30
0.0
  0
VERTEX
  5
3E95
  8
POINTILLE_COURT2
  6
AI9-LTYPE2
 10
-1028.672288
 20
-81.745569
 30
0.0
  0
SEQEND
  5
3E96
  8
POINTILLE_COURT2
  6
AI9-LTYPE2
  0
POLYLINE
  5
3502
  8
POINTILLE_COURT2
  6
AI9-LTYPE2
 66
     1
 10
0.0
 20
0.0
 30
0.0
 70
   128
  0
VERTEX
  5
3E97
  8
POINTILLE_COURT2
  6
AI9-LTYPE2
 10
1032.401727
 20
-79.937701
 30
0.0
  0
VERTEX
  5
3E98
  8
POINTILLE_COURT2
  6
AI9-LTYPE2
 10
1030.810043
 20
-80.099353
 30
0.0
  0
VERTEX
  5
3E99
  8
POINTILLE_COURT2
  6
AI9-LTYPE2
 10
1030.152944
 20
-80.251682
 30
0.0
  0
VERTEX
  5
3E9A
  8
POINTILLE_COURT2
  6
AI9-LTYPE2
 10
1029.797344
 20
-80.543316
 30
0.0
  0
SEQEND
  5
3E9B
  8
POINTILLE_COURT2
  6
AI9-LTYPE2
  0
POLYLINE
  5
3503
  8
POINTILLE_COURT2
  6
AI9-LTYPE2
 66
     1
 10
0.0
 20
0.0
 30
0.0
 70
   128
  0
VERTEX
  5
3E9C
  8
POINTILLE_COURT2
  6
AI9-LTYPE2
 10
1037.147307
 20
-80.533143
 30
0.0
  0
VERTEX
  5
3E9D
  8
POINTILLE_COURT2
  6
AI9-LTYPE2
 10
1037.028742
 20
-80.083868
 30
0.0
  0
VERTEX
  5
3E9E
  8
POINTILLE_COURT2
  6
AI9-LTYPE2
 10
1036.793034
 20
-79.91915
 30
0.0
  0
SEQEND
  5
3E9F
  8
POINTILLE_COURT2
  6
AI9-LTYPE2
  0
LINE
  5
3504
  8
POINTILLE_COURT2
  6
AI9-LTYPE2
 10
1019.280469
 20
-10.86168
 30
0.0
 11
1000.563256
 21
-10.86168
 31
0.0
1001
ACAD
1000
RTLwPs
1070
   128
  0
POLYLINE
  5
3505
  8
POINTILLE_COURT2
  6
AI9-LTYPE2
 66
     1
 10
0.0
 20
0.0
 30
0.0
 70
   128
1001
ACAD
1000
RTLwPs
1070
   128
  0
VERTEX
  5
3EA0
  8
POINTILLE_COURT2
  6
AI9-LTYPE2
 10
1021.769355
 20
-17.627681
 30
0.0
  0
VERTEX
  5
3EA1
  8
POINTILLE_COURT2
  6
AI9-LTYPE2
 10
1020.434174
 20
-17.701298
 30
0.0
  0
VERTEX
  5
3EA2
  8
POINTILLE_COURT2
  6
AI9-LTYPE2
 10
1018.848101
 20
-17.834665
 30
0.0
  0
VERTEX
  5
3EA3
  8
POINTILLE_COURT2
  6
AI9-LTYPE2
 10
1017.521897
 20
-17.962533
 30
0.0
  0
VERTEX
  5
3EA4
  8
POINTILLE_COURT2
  6
AI9-LTYPE2
 10
1017.115859
 20
-18.004016
 30
0.0
  0
VERTEX
  5
3EA5
  8
POINTILLE_COURT2
  6
AI9-LTYPE2
 10
1016.966326
 20
-18.019656
 30
0.0
  0
VERTEX
  5
3EA6
  8
POINTILLE_COURT2
  6
AI9-LTYPE2
 10
1014.678007
 20
-17.528302
 30
0.0
  0
VERTEX
  5
3EA7
  8
POINTILLE_COURT2
  6
AI9-LTYPE2
 10
1012.79744
 20
-17.23049
 30
0.0
  0
VERTEX
  5
3EA8
  8
POINTILLE_COURT2
  6
AI9-LTYPE2
 10
1009.79477
 20
-17.136667
 30
0.0
  0
VERTEX
  5
3EA9
  8
POINTILLE_COURT2
  6
AI9-LTYPE2
 10
1007.028744
 20
-17.580536
 30
0.0
  0
VERTEX
  5
3EAA
  8
POINTILLE_COURT2
  6
AI9-LTYPE2
 10
1005.44398
 20
-17.95484
 30
0.0
  0
VERTEX
  5
3EAB
  8
POINTILLE_COURT2
  6
AI9-LTYPE2
 10
1003.569787
 20
-18.404448
 30
0.0
  0
SEQEND
  5
3EAC
  8
POINTILLE_COURT2
  6
AI9-LTYPE2
  0
LINE
  5
3506
  8
ALPHA
 10
1019.021946
 20
-10.668495
 30
0.0
 11
1000.915135
 21
-10.668495
 31
0.0
  0
LINE
  5
3507
  8
POINTILLE_COURT2
 10
1003.449502
 20
-11.43449
 30
0.0
 11
1016.396617
 21
-11.43449
 31
0.0
  0
POLYLINE
  5
3508
  8
POINTILLE_COURT2
  6
AI9-LTYPE2
 66
     1
 10
0.0
 20
0.0
 30
0.0
 70
   128
1001
ACAD
1000
RTLwPs
1070
   128
  0
VERTEX
  5
3EAD
  8
POINTILLE_COURT2
  6
AI9-LTYPE2
 10
1003.569787
 20
-18.404448
 30
0.0
  0
VERTEX
  5
3EAE
  8
POINTILLE_COURT2
  6
AI9-LTYPE2
 10
1003.29758
 20
-18.393289
 30
0.0
  0
VERTEX
  5
3EAF
  8
POINTILLE_COURT2
  6
AI9-LTYPE2
 10
1002.579941
 20
-18.363867
 30
0.0
  0
VERTEX
  5
3EB0
  8
POINTILLE_COURT2
  6
AI9-LTYPE2
 10
1000.402278
 20
-18.274588
 30
0.0
  0
VERTEX
  5
3EB1
  8
POINTILLE_COURT2
  6
AI9-LTYPE2
 10
998.224615
 20
-18.185309
 30
0.0
  0
VERTEX
  5
3EB2
  8
POINTILLE_COURT2
  6
AI9-LTYPE2
 10
997.506976
 20
-18.155888
 30
0.0
  0
VERTEX
  5
3EB3
  8
POINTILLE_COURT2
  6
AI9-LTYPE2
 10
997.234768
 20
-18.144728
 30
0.0
  0
SEQEND
  5
3EB4
  8
POINTILLE_COURT2
  6
AI9-LTYPE2
  0
LINE
  5
3509
  8
POINTILLE_COURT2
  6
AI9-LTYPE1
 10
995.208471
 20
-13.953298
 30
0.0
 11
994.754858
 21
-14.341682
 31
0.0
  0
LINE
  5
350A
  8
POINTILLE_COURT2
  6
AI9-LTYPE1
 10
997.234768
 20
-13.953298
 30
0.0
 11
995.208471
 21
-13.953298
 31
0.0
  0
LINE
  5
350B
  8
POINTILLE_COURT2
  6
AI9-LTYPE2
 10
1003.449502
 20
-18.399661
 30
0.0
 11
1003.449502
 21
-10.86168
 31
0.0
1001
ACAD
1000
RTLwPs
1070
   128
  0
LINE
  5
350C
  8
POINTILLE_COURT2
  6
AI9-LTYPE2
 10
1016.396617
 20
-17.888599
 30
0.0
 11
1016.396617
 21
-10.86168
 31
0.0
1001
ACAD
1000
RTLwPs
1070
   128
  0
POLYLINE
  5
350D
  8
POINTILLE_COURT2
  6
AI9-LTYPE2
 66
     1
 10
0.0
 20
0.0
 30
0.0
 70
   128
1001
ACAD
1000
RTLwPs
1070
   128
  0
VERTEX
  5
3EB5
  8
POINTILLE_COURT2
  6
AI9-LTYPE2
 10
1028.445482
 20
-16.826977
 30
0.0
  0
VERTEX
  5
3EB6
  8
POINTILLE_COURT2
  6
AI9-LTYPE2
 10
1028.169057
 20
-16.864108
 30
0.0
  0
VERTEX
  5
3EB7
  8
POINTILLE_COURT2
  6
AI9-LTYPE2
 10
1027.4403
 20
-16.961999
 30
0.0
  0
VERTEX
  5
3EB8
  8
POINTILLE_COURT2
  6
AI9-LTYPE2
 10
1025.2289
 20
-17.259046
 30
0.0
  0
VERTEX
  5
3EB9
  8
POINTILLE_COURT2
  6
AI9-LTYPE2
 10
1023.017501
 20
-17.556094
 30
0.0
  0
VERTEX
  5
3EBA
  8
POINTILLE_COURT2
  6
AI9-LTYPE2
 10
1022.288744
 20
-17.653984
 30
0.0
  0
VERTEX
  5
3EBB
  8
POINTILLE_COURT2
  6
AI9-LTYPE2
 10
1022.012319
 20
-17.691115
 30
0.0
  0
VERTEX
  5
3EBC
  8
POINTILLE_COURT2
  6
AI9-LTYPE2
 10
1021.769355
 20
-17.627681
 30
0.0
  0
SEQEND
  5
3EBD
  8
POINTILLE_COURT2
  6
AI9-LTYPE2
  0
POLYLINE
  5
350E
  8
POINTILLE_COURT2
  6
AI9-LTYPE2
 66
     1
 10
0.0
 20
0.0
 30
0.0
 70
   128
210
0.0
220
0.0
230
-1.0
  0
VERTEX
  5
3EBE
  8
POINTILLE_COURT2
  6
AI9-LTYPE2
 10
-1027.800969
 20
-11.624792
 30
0.0
  0
VERTEX
  5
3EBF
  8
POINTILLE_COURT2
  6
AI9-LTYPE2
 10
-1027.513113
 20
-12.217403
 30
0.0
  0
VERTEX
  5
3EC0
  8
POINTILLE_COURT2
  6
AI9-LTYPE2
 10
-1026.865018
 20
-13.047625
 30
0.0
  0
VERTEX
  5
3EC1
  8
POINTILLE_COURT2
  6
AI9-LTYPE2
 10
-1024.959605
 20
-15.040353
 30
0.0
  0
VERTEX
  5
3EC2
  8
POINTILLE_COURT2
  6
AI9-LTYPE2
 10
-1023.027711
 20
-16.841882
 30
0.0
  0
VERTEX
  5
3EC3
  8
POINTILLE_COURT2
  6
AI9-LTYPE2
 10
-1022.346516
 20
-17.433104
 30
0.0
  0
VERTEX
  5
3EC4
  8
POINTILLE_COURT2
  6
AI9-LTYPE2
 10
-1022.012319
 20
-17.691115
 30
0.0
  0
SEQEND
  5
3EC5
  8
POINTILLE_COURT2
  6
AI9-LTYPE2
  0
LINE
  5
350F
  8
POINTILLE_COURT2
  6
AI9-LTYPE2
 10
1021.462957
 20
-16.919136
 30
0.0
 11
1021.965641
 21
-16.968207
 31
0.0
  0
LINE
  5
3510
  8
POINTILLE_COURT2
  6
AI9-LTYPE2
 10
1021.915373
 20
-17.012492
 30
0.0
 11
1021.131425
 21
-17.610327
 31
0.0
  0
LINE
  5
3511
  8
POINTILLE_COURT2
  6
AI9-LTYPE2
 10
1022.074556
 20
-16.725243
 30
0.0
 11
1021.915373
 21
-17.012492
 31
0.0
  0
POLYLINE
  5
3512
  8
POINTILLE_COURT2
  6
AI9-LTYPE2
 66
     1
 10
0.0
 20
0.0
 30
0.0
 70
   128
  0
VERTEX
  5
3EC6
  8
POINTILLE_COURT2
  6
AI9-LTYPE2
 10
1021.329506
 20
-16.592989
 30
0.0
  0
VERTEX
  5
3EC7
  8
POINTILLE_COURT2
  6
AI9-LTYPE2
 10
1021.258891
 20
-16.753819
 30
0.0
  0
VERTEX
  5
3EC8
  8
POINTILLE_COURT2
  6
AI9-LTYPE2
 10
1021.462957
 20
-16.919136
 30
0.0
  0
SEQEND
  5
3EC9
  8
POINTILLE_COURT2
  6
AI9-LTYPE2
  0
LINE
  5
3513
  8
POINTILLE_COURT2
  6
AI9-LTYPE2
 10
1022.074556
 20
-15.976603
 30
0.0
 11
1022.074556
 21
-16.725243
 31
0.0
  0
LINE
  5
3514
  8
POINTILLE_COURT2
  6
AI9-LTYPE2
 10
1021.667621
 20
-17.226731
 30
0.0
 11
1021.791497
 21
-17.640847
 31
0.0
  0
POLYLINE
  5
3515
  8
POINTILLE_COURT2
  6
AI9-LTYPE2
 66
     1
 10
0.0
 20
0.0
 30
0.0
 70
   128
  0
VERTEX
  5
3ECA
  8
POINTILLE_COURT2
  6
AI9-LTYPE2
 10
1028.207904
 20
-16.299158
 30
0.0
  0
VERTEX
  5
3ECB
  8
POINTILLE_COURT2
  6
AI9-LTYPE2
 10
1027.799772
 20
-16.716865
 30
0.0
  0
VERTEX
  5
3ECC
  8
POINTILLE_COURT2
  6
AI9-LTYPE2
 10
1027.885928
 20
-16.831521
 30
0.0
  0
VERTEX
  5
3ECD
  8
POINTILLE_COURT2
  6
AI9-LTYPE2
 10
1028.310834
 20
-16.861686
 30
0.0
  0
SEQEND
  5
3ECE
  8
POINTILLE_COURT2
  6
AI9-LTYPE2
  0
POLYLINE
  5
3516
  8
POINTILLE_COURT2
  6
AI9-LTYPE2
 66
     1
 10
0.0
 20
0.0
 30
0.0
 70
   128
  0
VERTEX
  5
3ECF
  8
POINTILLE_COURT2
  6
AI9-LTYPE2
 10
1033.769149
 20
-12.512868
 30
0.0
  0
VERTEX
  5
3ED0
  8
POINTILLE_COURT2
  6
AI9-LTYPE2
 10
1030.792614
 20
-14.895308
 30
0.0
  0
VERTEX
  5
3ED1
  8
POINTILLE_COURT2
  6
AI9-LTYPE2
 10
1029.597345
 20
-15.900854
 30
0.0
  0
VERTEX
  5
3ED2
  8
POINTILLE_COURT2
  6
AI9-LTYPE2
 10
1029.267972
 20
-16.323656
 30
0.0
  0
VERTEX
  5
3ED3
  8
POINTILLE_COURT2
  6
AI9-LTYPE2
 10
1029.191729
 20
-16.680361
 30
0.0
  0
SEQEND
  5
3ED4
  8
POINTILLE_COURT2
  6
AI9-LTYPE2
  0
LINE
  5
3517
  8
POINTILLE_COURT2
  6
AI9-LTYPE1
 10
994.103164
 20
4.529927
 30
0.0
 11
992.440116
 21
4.529927
 31
0.0
  0
LINE
  5
3518
  8
POINTILLE_COURT2
  6
AI9-LTYPE1
 10
992.398226
 20
5.354569
 30
0.0
 11
994.754858
 21
5.354569
 31
0.0
  0
LINE
  5
3519
  8
POINTILLE_COURT2
  6
AI9-LTYPE2
 10
1000.563256
 20
1.668217
 30
0.0
 11
1019.280469
 21
1.668217
 31
0.0
1001
ACAD
1000
RTLwPs
1070
   128
  0
POLYLINE
  5
351A
  8
POINTILLE_COURT2
  6
AI9-LTYPE2
 66
     1
 10
0.0
 20
0.0
 30
0.0
 70
   128
1001
ACAD
1000
RTLwPs
1070
   128
  0
VERTEX
  5
3ED5
  8
POINTILLE_COURT2
  6
AI9-LTYPE2
 10
997.234768
 20
9.139662
 30
0.0
  0
VERTEX
  5
3ED6
  8
POINTILLE_COURT2
  6
AI9-LTYPE2
 10
997.506976
 20
9.15113
 30
0.0
  0
VERTEX
  5
3ED7
  8
POINTILLE_COURT2
  6
AI9-LTYPE2
 10
998.224615
 20
9.181365
 30
0.0
  0
VERTEX
  5
3ED8
  8
POINTILLE_COURT2
  6
AI9-LTYPE2
 10
1000.402278
 20
9.273113
 30
0.0
  0
VERTEX
  5
3ED9
  8
POINTILLE_COURT2
  6
AI9-LTYPE2
 10
1002.579941
 20
9.36486
 30
0.0
  0
VERTEX
  5
3EDA
  8
POINTILLE_COURT2
  6
AI9-LTYPE2
 10
1003.29758
 20
9.395095
 30
0.0
  0
VERTEX
  5
3EDB
  8
POINTILLE_COURT2
  6
AI9-LTYPE2
 10
1003.569787
 20
9.406564
 30
0.0
  0
VERTEX
  5
3EDC
  8
POINTILLE_COURT2
  6
AI9-LTYPE2
 10
1005.70071
 20
8.772842
 30
0.0
  0
VERTEX
  5
3EDD
  8
POINTILLE_COURT2
  6
AI9-LTYPE2
 10
1007.510231
 20
8.365111
 30
0.0
  0
VERTEX
  5
3EDE
  8
POINTILLE_COURT2
  6
AI9-LTYPE2
 10
1010.548423
 20
8.110281
 30
0.0
  0
VERTEX
  5
3EDF
  8
POINTILLE_COURT2
  6
AI9-LTYPE2
 10
1013.45107
 20
8.407394
 30
0.0
  0
VERTEX
  5
3EE0
  8
POINTILLE_COURT2
  6
AI9-LTYPE2
 10
1015.091159
 20
8.689592
 30
0.0
  0
VERTEX
  5
3EE1
  8
POINTILLE_COURT2
  6
AI9-LTYPE2
 10
1016.984877
 20
9.021771
 30
0.0
  0
VERTEX
  5
3EE2
  8
POINTILLE_COURT2
  6
AI9-LTYPE2
 10
1022.201723
 20
8.763537
 30
0.0
  0
VERTEX
  5
3EE3
  8
POINTILLE_COURT2
  6
AI9-LTYPE2
 10
1026.682945
 20
8.147983
 30
0.0
  0
VERTEX
  5
3EE4
  8
POINTILLE_COURT2
  6
AI9-LTYPE2
 10
1030.272575
 20
7.413826
 30
0.0
  0
VERTEX
  5
3EE5
  8
POINTILLE_COURT2
  6
AI9-LTYPE2
 10
1031.684304
 20
7.076871
 30
0.0
  0
VERTEX
  5
3EE6
  8
POINTILLE_COURT2
  6
AI9-LTYPE2
 10
1032.814647
 20
6.799786
 30
0.0
  0
VERTEX
  5
3EE7
  8
POINTILLE_COURT2
  6
AI9-LTYPE2
 10
1034.490112
 20
6.203587
 30
0.0
  0
VERTEX
  5
3EE8
  8
POINTILLE_COURT2
  6
AI9-LTYPE2
 10
1036.126978
 20
5.107341
 30
0.0
  0
VERTEX
  5
3EE9
  8
POINTILLE_COURT2
  6
AI9-LTYPE2
 10
1037.369775
 20
3.325626
 30
0.0
  0
VERTEX
  5
3EEA
  8
POINTILLE_COURT2
  6
AI9-LTYPE2
 10
1037.732314
 20
2.119773
 30
0.0
  0
VERTEX
  5
3EEB
  8
POINTILLE_COURT2
  6
AI9-LTYPE2
 10
1037.863034
 20
0.673021
 30
0.0
  0
SEQEND
  5
3EEC
  8
POINTILLE_COURT2
  6
AI9-LTYPE2
  0
LINE
  5
351B
  8
ALPHA
 10
1001.445348
 20
1.422859
 30
0.0
 11
1018.549781
 21
1.422859
 31
0.0
  0
LINE
  5
351C
  8
ALPHA
 10
1000.915135
 20
0.951293
 30
0.0
 11
1019.021946
 21
0.951293
 31
0.0
1001
ACAD
1000
RTLwPs
1070
   128
  0
LINE
  5
351D
  8
POINTILLE_COURT2
  6
AI9-LTYPE2
 10
1003.449502
 20
1.668217
 30
0.0
 11
1003.449502
 21
9.401776
 31
0.0
1001
ACAD
1000
RTLwPs
1070
   128
  0
LINE
  5
351E
  8
ALPHA
 10
1000.915135
 20
0.892646
 30
0.0
 11
1001.445348
 21
1.422859
 31
0.0
  0
LINE
  5
351F
  8
POINTILLE_COURT2
  6
AI9-LTYPE1
 10
995.208471
 20
5.139132
 30
0.0
 11
997.234768
 21
5.139132
 31
0.0
  0
LINE
  5
3520
  8
POINTILLE_COURT2
  6
AI9-LTYPE1
 10
994.754858
 20
5.354569
 30
0.0
 11
995.208471
 21
5.139132
 31
0.0
  0
LINE
  5
3521
  8
POINTILLE_COURT2
  6
AI9-LTYPE2
 10
1016.396617
 20
1.668217
 30
0.0
 11
1016.396617
 21
8.920037
 31
0.0
1001
ACAD
1000
RTLwPs
1070
   128
  0
POLYLINE
  5
3522
  8
POINTILLE_COURT2
  6
AI9-LTYPE2
 66
     1
 10
0.0
 20
0.0
 30
0.0
 70
   128
210
0.0
220
0.0
230
-1.0
  0
VERTEX
  5
3EED
  8
POINTILLE_COURT2
  6
AI9-LTYPE2
 10
-1010.812631
 20
-0.793276
 30
0.0
  0
VERTEX
  5
3EEE
  8
POINTILLE_COURT2
  6
AI9-LTYPE2
 10
-1012.283553
 20
-1.267413
 30
0.0
  0
VERTEX
  5
3EEF
  8
POINTILLE_COURT2
  6
AI9-LTYPE2
 10
-1013.467508
 20
-2.206253
 30
0.0
  0
VERTEX
  5
3EF0
  8
POINTILLE_COURT2
  6
AI9-LTYPE2
 10
-1014.256833
 20
-3.50247
 30
0.0
  0
VERTEX
  5
3EF1
  8
POINTILLE_COURT2
  6
AI9-LTYPE2
 10
-1014.543866
 20
-5.048739
 30
0.0
  0
VERTEX
  5
3EF2
  8
POINTILLE_COURT2
  6
AI9-LTYPE2
 10
-1014.254663
 20
-6.599682
 30
0.0
  0
VERTEX
  5
3EF3
  8
POINTILLE_COURT2
  6
AI9-LTYPE2
 10
-1013.459579
 20
-7.899004
 30
0.0
  0
VERTEX
  5
3EF4
  8
POINTILLE_COURT2
  6
AI9-LTYPE2
 10
-1012.267396
 20
-8.837806
 30
0.0
  0
VERTEX
  5
3EF5
  8
POINTILLE_COURT2
  6
AI9-LTYPE2
 10
-1010.786899
 20
-9.307193
 30
0.0
  0
SEQEND
  5
3EF6
  8
POINTILLE_COURT2
  6
AI9-LTYPE2
  0
CIRCLE
  5
3523
  8
POINTILLE_COURT2
  6
AI9-LTYPE2
 10
1010.250403
 20
-5.048739
 30
0.0
 40
2.592116
  0
CIRCLE
  5
3524
  8
POINTILLE_COURT2
  6
AI9-LTYPE2
 10
1010.250403
 20
-5.048739
 30
0.0
 40
2.027194
  0
LINE
  5
3525
  8
POINTILLE_COURT2
  6
AI9-LTYPE2
 10
1008.342297
 20
-8.894274
 30
0.0
 11
1010.786899
 21
-9.307193
 31
0.0
  0
LINE
  5
3526
  8
POINTILLE_COURT2
 10
1010.812631
 20
-0.793276
 30
0.0
 11
1008.321352
 21
-1.213377
 31
0.0
  0
POLYLINE
  5
3527
  8
POINTILLE_COURT2
  6
AI9-LTYPE2
 66
     1
 10
0.0
 20
0.0
 30
0.0
 70
   128
210
0.0
220
0.0
230
-1.0
  0
VERTEX
  5
3EF7
  8
POINTILLE_COURT2
  6
AI9-LTYPE2
 10
-1008.342297
 20
-8.894274
 30
0.0
  0
VERTEX
  5
3EF8
  8
POINTILLE_COURT2
  6
AI9-LTYPE2
 10
-1007.373956
 20
-8.234248
 30
0.0
  0
VERTEX
  5
3EF9
  8
POINTILLE_COURT2
  6
AI9-LTYPE2
 10
-1006.620603
 20
-7.340216
 30
0.0
  0
VERTEX
  5
3EFA
  8
POINTILLE_COURT2
  6
AI9-LTYPE2
 10
-1006.132056
 20
-6.261829
 30
0.0
  0
VERTEX
  5
3EFB
  8
POINTILLE_COURT2
  6
AI9-LTYPE2
 10
-1005.958137
 20
-5.048739
 30
0.0
  0
VERTEX
  5
3EFC
  8
POINTILLE_COURT2
  6
AI9-LTYPE2
 10
-1006.130214
 20
-3.841361
 30
0.0
  0
VERTEX
  5
3EFD
  8
POINTILLE_COURT2
  6
AI9-LTYPE2
 10
-1006.613945
 20
-2.76706
 30
0.0
  0
VERTEX
  5
3EFE
  8
POINTILLE_COURT2
  6
AI9-LTYPE2
 10
-1007.360575
 20
-1.874758
 30
0.0
  0
VERTEX
  5
3EFF
  8
POINTILLE_COURT2
  6
AI9-LTYPE2
 10
-1008.321352
 20
-1.213377
 30
0.0
  0
SEQEND
  5
3F00
  8
POINTILLE_COURT2
  6
AI9-LTYPE2
  0
POLYLINE
  5
3528
  8
POINTILLE_COURT2
  6
AI9-LTYPE2
 66
     1
 10
0.0
 20
0.0
 30
0.0
 70
   128
210
0.0
220
0.0
230
-1.0
  0
VERTEX
  5
3F01
  8
POINTILLE_COURT2
  6
AI9-LTYPE2
 10
-1028.095997
 20
-4.808033
 30
0.0
  0
VERTEX
  5
3F02
  8
POINTILLE_COURT2
  6
AI9-LTYPE2
 10
-1028.328862
 20
-4.347988
 30
0.0
  0
VERTEX
  5
3F03
  8
POINTILLE_COURT2
  6
AI9-LTYPE2
 10
-1028.804542
 20
-4.188655
 30
0.0
  0
SEQEND
  5
3F04
  8
POINTILLE_COURT2
  6
AI9-LTYPE2
  0
LINE
  5
3529
  8
ALPHA
 10
1018.549781
 20
1.422859
 30
0.0
 11
1019.021946
 21
1.008743
 31
0.0
  0
POLYLINE
  5
352A
  8
POINTILLE_COURT2
  6
AI9-LTYPE2
 66
     1
 10
0.0
 20
0.0
 30
0.0
 70
   128
  0
VERTEX
  5
3F05
  8
POINTILLE_COURT2
  6
AI9-LTYPE2
 10
1028.804542
 20
-4.188655
 30
0.0
  0
VERTEX
  5
3F06
  8
POINTILLE_COURT2
  6
AI9-LTYPE2
 10
1029.147798
 20
-4.188655
 30
0.0
  0
VERTEX
  5
3F07
  8
POINTILLE_COURT2
  6
AI9-LTYPE2
 10
1030.052744
 20
-4.188655
 30
0.0
  0
VERTEX
  5
3F08
  8
POINTILLE_COURT2
  6
AI9-LTYPE2
 10
1032.798788
 20
-4.188655
 30
0.0
  0
VERTEX
  5
3F09
  8
POINTILLE_COURT2
  6
AI9-LTYPE2
 10
1035.544832
 20
-4.188655
 30
0.0
  0
VERTEX
  5
3F0A
  8
POINTILLE_COURT2
  6
AI9-LTYPE2
 10
1036.449779
 20
-4.188655
 30
0.0
  0
VERTEX
  5
3F0B
  8
POINTILLE_COURT2
  6
AI9-LTYPE2
 10
1036.793034
 20
-4.188655
 30
0.0
  0
SEQEND
  5
3F0C
  8
POINTILLE_COURT2
  6
AI9-LTYPE2
  0
POLYLINE
  5
352B
  8
POINTILLE_COURT2
  6
AI9-LTYPE2
 66
     1
 10
0.0
 20
0.0
 30
0.0
 70
   128
210
0.0
220
0.0
230
-1.0
  0
VERTEX
  5
3F0D
  8
POINTILLE_COURT2
  6
AI9-LTYPE2
 10
-1029.797344
 20
-4.816412
 30
0.0
  0
VERTEX
  5
3F0E
  8
POINTILLE_COURT2
  6
AI9-LTYPE2
 10
-1029.165472
 20
-5.587643
 30
0.0
  0
VERTEX
  5
3F0F
  8
POINTILLE_COURT2
  6
AI9-LTYPE2
 10
-1028.672288
 20
-6.018665
 30
0.0
  0
SEQEND
  5
3F10
  8
POINTILLE_COURT2
  6
AI9-LTYPE2
  0
POLYLINE
  5
352C
  8
POINTILLE_COURT2
  6
AI9-LTYPE2
 66
     1
 10
0.0
 20
0.0
 30
0.0
 70
   128
  0
VERTEX
  5
3F11
  8
POINTILLE_COURT2
  6
AI9-LTYPE2
 10
1032.401727
 20
-4.2096
 30
0.0
  0
VERTEX
  5
3F12
  8
POINTILLE_COURT2
  6
AI9-LTYPE2
 10
1030.810043
 20
-4.372075
 30
0.0
  0
VERTEX
  5
3F13
  8
POINTILLE_COURT2
  6
AI9-LTYPE2
 10
1030.152944
 20
-4.524338
 30
0.0
  0
VERTEX
  5
3F14
  8
POINTILLE_COURT2
  6
AI9-LTYPE2
 10
1029.797344
 20
-4.816412
 30
0.0
  0
SEQEND
  5
3F15
  8
POINTILLE_COURT2
  6
AI9-LTYPE2
  0
POLYLINE
  5
352D
  8
POINTILLE_COURT2
  6
AI9-LTYPE2
 66
     1
 10
0.0
 20
0.0
 30
0.0
 70
   128
  0
VERTEX
  5
3F16
  8
POINTILLE_COURT2
  6
AI9-LTYPE2
 10
1037.147307
 20
-4.805041
 30
0.0
  0
VERTEX
  5
3F17
  8
POINTILLE_COURT2
  6
AI9-LTYPE2
 10
1037.028742
 20
-4.356216
 30
0.0
  0
VERTEX
  5
3F18
  8
POINTILLE_COURT2
  6
AI9-LTYPE2
 10
1036.793034
 20
-4.191048
 30
0.0
  0
SEQEND
  5
3F19
  8
POINTILLE_COURT2
  6
AI9-LTYPE2
  0
LINE
  5
3542
  8
ALPHA
 10
1051.382251
 20
-130.653765
 30
0.0
 11
1051.382251
 21
-130.653765
 31
0.0
  0
LINE
  5
3589
  8
ALPHA
 10
1064.867357
 20
-4.885231
 30
0.0
 11
1064.867357
 21
-4.885231
 31
0.0
  0
DIMENSION
  5
3612
  8
COTATION1
  2
*D4
 10
947.398226
 20
-131.048731
 30
0.0
 11
945.898226
 21
-64.812936
 31
0.0
  1
132
 13
1001.445348
 23
1.422859
 33
0.0
 14
1004.895917
 24
-131.048731
 34
0.0
 50
90.0
  0
LINE
  5
3652
  8
AXE
 10
1009.997265
 20
14.401496
 30
0.0
 11
1009.997265
 21
-145.716749
 31
0.0
  0
LINE
  5
3653
  8
AXE
 10
987.398226
 20
-50.786871
 30
0.0
 11
1052.863034
 21
-50.786871
 31
0.0
  0
TEXT
  5
3654
  8
AXE
 10
1046.018364
 20
-49.10522
 30
0.0
 40
8.0
  1
Z
 72
     2
 11
1052.494554
 21
-49.10522
 31
0.0
  0
TEXT
  5
3655
  8
AXE
 10
1002.287066
 20
-145.840196
 30
0.0
 40
8.0
  1
Y
 72
     2
 11
1008.763256
 21
-145.840196
 31
0.0
  0
LINE
  5
3656
  8
ALPHA
 10
1004.010833
 20
-90.222907
 30
0.0
 11
1004.836672
 21
-91.048746
 31
0.0
  0
LINE
  5
3657
  8
ALPHA
 10
1015.157936
 20
-91.048746
 30
0.0
 11
1016.014217
 21
-90.193584
 31
0.0
  0
LINE
  5
3658
  8
ALPHA
 10
1004.836672
 20
-110.895278
 30
0.0
 11
1004.836672
 21
-113.953349
 31
0.0
1001
ACAD
1000
RTLwPs
1070
   128
  0
LINE
  5
3659
  8
ALPHA
 10
1004.010833
 20
-110.895278
 30
0.0
 11
1004.010833
 21
-113.95182
 31
0.0
  0
LINE
  5
365A
  8
ALPHA
 10
1015.159056
 20
-110.895278
 30
0.0
 11
1015.159056
 21
-113.972463
 31
0.0
1001
ACAD
1000
RTLwPs
1070
   128
  0
POLYLINE
  5
365B
  8
ALPHA
 66
     1
 10
0.0
 20
0.0
 30
0.0
 70
   128
  0
VERTEX
  5
3F1A
  8
ALPHA
 10
1016.014217
 20
-97.470015
 30
0.0
  0
VERTEX
  5
3F1B
  8
ALPHA
 10
1016.014217
 20
-88.887181
 30
0.0
  0
VERTEX
  5
3F1C
  8
ALPHA
 10
1016.014217
 20
-79.912194
 30
0.0
  0
VERTEX
  5
3F1D
  8
ALPHA
 10
1016.014217
 20
-61.573164
 30
0.0
  0
VERTEX
  5
3F1E
  8
ALPHA
 10
1016.014217
 20
-52.602825
 30
0.0
  0
VERTEX
  5
3F1F
  8
ALPHA
 10
1016.014217
 20
-44.027738
 30
0.0
  0
VERTEX
  5
3F20
  8
ALPHA
 10
1016.014217
 20
-36.044754
 30
0.0
  0
VERTEX
  5
3F21
  8
ALPHA
 10
1016.014217
 20
-28.850725
 30
0.0
  0
VERTEX
  5
3F22
  8
ALPHA
 10
1016.014217
 20
-25.611085
 30
0.0
  0
VERTEX
  5
3F23
  8
ALPHA
 10
1016.014217
 20
-22.642503
 30
0.0
  0
VERTEX
  5
3F24
  8
ALPHA
 10
1016.014217
 20
-19.969585
 30
0.0
  0
VERTEX
  5
3F25
  8
ALPHA
 10
1016.014217
 20
-17.616939
 30
0.0
  0
VERTEX
  5
3F26
  8
ALPHA
 10
1016.014217
 20
-15.609169
 30
0.0
  0
VERTEX
  5
3F27
  8
ALPHA
 10
1016.014217
 20
-13.970884
 30
0.0
  0
VERTEX
  5
3F28
  8
ALPHA
 10
1016.014217
 20
-12.726688
 30
0.0
  0
VERTEX
  5
3F29
  8
ALPHA
 10
1016.014217
 20
-11.90119
 30
0.0
  0
VERTEX
  5
3F2A
  8
ALPHA
 10
1016.014217
 20
-11.518994
 30
0.0
  0
VERTEX
  5
3F2B
  8
ALPHA
 10
1016.014193
 20
-11.469674
 30
0.0
  0
VERTEX
  5
3F2C
  8
ALPHA
 10
1016.013995
 20
-11.398176
 30
0.0
  0
VERTEX
  5
3F2D
  8
ALPHA
 10
1016.014842
 20
-11.26181
 30
0.0
  0
VERTEX
  5
3F2E
  8
ALPHA
 10
1016.114097
 20
-10.833601
 30
0.0
  0
VERTEX
  5
3F2F
  8
ALPHA
 10
1016.574351
 20
-10.668495
 30
0.0
  0
SEQEND
  5
3F30
  8
ALPHA
  0
LINE
  5
365C
  8
ALPHA
 10
1004.836672
 20
-127.379474
 30
0.0
 11
1004.836672
 21
-131.048731
 31
0.0
1001
ACAD
1000
RTLwPs
1070
   128
  0
POLYLINE
  5
365D
  8
ALPHA
 66
     1
 10
0.0
 20
0.0
 30
0.0
 70
   128
  0
VERTEX
  5
3F31
  8
ALPHA
 10
1004.010833
 20
-127.377974
 30
0.0
  0
VERTEX
  5
3F32
  8
ALPHA
 10
1004.010833
 20
-128.571331
 30
0.0
  0
VERTEX
  5
3F33
  8
ALPHA
 10
1004.010833
 20
-129.444674
 30
0.0
  0
VERTEX
  5
3F34
  8
ALPHA
 10
1004.010833
 20
-129.981085
 30
0.0
  0
VERTEX
  5
3F35
  8
ALPHA
 10
1004.010833
 20
-130.163648
 30
0.0
  0
SEQEND
  5
3F36
  8
ALPHA
  0
LINE
  5
365E
  8
ALPHA
 10
1015.159056
 20
-127.39823
 30
0.0
 11
1015.159056
 21
-131.048731
 31
0.0
1001
ACAD
1000
RTLwPs
1070
   128
  0
LINE
  5
365F
  8
ALPHA
 10
1016.014217
 20
-113.974046
 30
0.0
 11
1016.014217
 21
-110.895278
 31
0.0
  0
DIMENSION
  5
3703
  8
COTATION1
  2
*D5
 10
977.398226
 20
-131.048731
 30
0.0
 11
975.898226
 21
-111.048739
 31
0.0
 13
1004.010833
 23
-91.048746
 33
0.0
 14
1004.595917
 24
-131.048731
 34
0.0
 50
90.0
  0
DIMENSION
  5
375B
  8
COTATION1
  2
*D6
 10
957.398226
 20
-131.048731
 30
0.0
 11
957.398226
 21
-69.572801
 31
0.0
 70
   128
 13
1010.250403
 23
-5.048739
 33
0.0
 14
1004.895917
 24
-131.048731
 34
0.0
 50
90.0
  0
DIMENSION
  5
3771
  8
COTATION1
  2
*D7
 10
967.398226
 20
-131.048731
 30
0.0
 11
967.398226
 21
-106.048738
 31
0.0
 70
   128
 13
1010.250403
 23
-81.048745
 33
0.0
 14
1004.895917
 24
-131.048731
 34
0.0
 50
90.0
  0
DIMENSION
  5
379D
  8
COTATION1
  2
*D8
 10
967.398226
 20
-26.048746
 30
0.0
 11
965.898226
 21
-53.548745
 31
0.0
 13
1010.250403
 23
-81.048745
 33
0.0
 14
999.010833
 24
-26.048746
 34
0.0
 50
90.0
  0
ENDSEC
  0
EOF
