  0
SECTION
  2
HEADER
  9
$ACADVER
  1
AC1009
  9
$INSBASE
 10
402.590624
 20
-1.041018
 30
0.0
  9
$EXTMIN
 10
-5.374874
 20
58.713298
 30
0.0
  9
$EXTMAX
 10
87.987442
 20
121.463298
 30
0.0
  9
$LIMMIN
 10
-407.970438
 20
-367.832444
  9
$LIMMAX
 10
429.804077
 20
234.370848
  9
$ORTHOMODE
 70
     1
  9
$REGENMODE
 70
     1
  9
$FILLMODE
 70
     1
  9
$QTEXTMODE
 70
     0
  9
$MIRRTEXT
 70
     1
  9
$DRAGMODE
 70
     2
  9
$LTSCALE
 40
10.0
  9
$OSMODE
 70
     0
  9
$ATTMODE
 70
     1
  9
$TEXTSIZE
 40
6.0
  9
$TRACEWID
 40
1.0
  9
$TEXTSTYLE
  7
ROMANS
  9
$CLAYER
  8
ALPHA
  9
$CELTYPE
  6
BYLAYER
  9
$CECOLOR
 62
   256
  9
$DIMSCALE
 40
1.0
  9
$DIMASZ
 40
5.0
  9
$DIMEXO
 40
2.0
  9
$DIMDLI
 40
0.38
  9
$DIMRND
 40
0.0
  9
$DIMDLE
 40
0.0
  9
$DIMEXE
 40
2.5
  9
$DIMTP
 40
0.0
  9
$DIMTM
 40
0.0
  9
$DIMTXT
 40
2.5
  9
$DIMCEN
 40
0.0
  9
$DIMTSZ
 40
0.0
  9
$DIMTOL
 70
     0
  9
$DIMLIM
 70
     0
  9
$DIMTIH
 70
     1
  9
$DIMTOH
 70
     1
  9
$DIMSE1
 70
     0
  9
$DIMSE2
 70
     0
  9
$DIMTAD
 70
     1
  9
$DIMZIN
 70
    12
  9
$DIMBLK
  1
OPEN30
  9
$DIMASO
 70
     1
  9
$DIMSHO
 70
     1
  9
$DIMPOST
  1

  9
$DIMAPOST
  1

  9
$DIMALT
 70
     0
  9
$DIMALTD
 70
     2
  9
$DIMALTF
 40
25.4
  9
$DIMLFAC
 40
1.0
  9
$DIMTOFL
 70
     0
  9
$DIMTVP
 40
0.0
  9
$DIMTIX
 70
     0
  9
$DIMSOXD
 70
     0
  9
$DIMSAH
 70
     0
  9
$DIMBLK1
  1

  9
$DIMBLK2
  1

  9
$DIMSTYLE
  2
SC_DEFAUT
  9
$DIMCLRD
 70
     0
  9
$DIMCLRE
 70
     0
  9
$DIMCLRT
 70
     0
  9
$DIMTFAC
 40
1.0
  9
$DIMGAP
 40
2.0
  9
$LUNITS
 70
     2
  9
$LUPREC
 70
     1
  9
$SKETCHINC
 40
0.1
  9
$FILLETRAD
 40
0.0
  9
$AUNITS
 70
     0
  9
$AUPREC
 70
     0
  9
$MENU
  1
acad
  9
$ELEVATION
 40
0.0
  9
$PELEVATION
 40
0.0
  9
$THICKNESS
 40
0.0
  9
$LIMCHECK
 70
     0
  9
$BLIPMODE
 70
     0
  9
$CHAMFERA
 40
0.0
  9
$CHAMFERB
 40
0.0
  9
$SKPOLY
 70
     0
  9
$TDCREATE
 40
2450373.687919
  9
$TDUPDATE
 40
2452993.601035
  9
$TDINDWG
 40
0.931535
  9
$TDUSRTIMER
 40
0.931535
  9
$USRTIMER
 70
     1
  9
$ANGBASE
 50
0.0
  9
$ANGDIR
 70
     0
  9
$PDMODE
 70
    32
  9
$PDSIZE
 40
0.0
  9
$PLINEWID
 40
0.0
  9
$COORDS
 70
     1
  9
$SPLFRAME
 70
     0
  9
$SPLINETYPE
 70
     6
  9
$SPLINESEGS
 70
     8
  9
$ATTDIA
 70
     0
  9
$ATTREQ
 70
     1
  9
$HANDLING
 70
     1
  9
$HANDSEED
  5
BAAF
  9
$SURFTAB1
 70
     6
  9
$SURFTAB2
 70
     6
  9
$SURFTYPE
 70
     6
  9
$SURFU
 70
     6
  9
$SURFV
 70
     6
  9
$UCSNAME
  2

  9
$UCSORG
 10
0.0
 20
0.0
 30
0.0
  9
$UCSXDIR
 10
1.0
 20
0.0
 30
0.0
  9
$UCSYDIR
 10
0.0
 20
1.0
 30
0.0
  9
$PUCSNAME
  2

  9
$PUCSORG
 10
0.0
 20
0.0
 30
0.0
  9
$PUCSXDIR
 10
1.0
 20
0.0
 30
0.0
  9
$PUCSYDIR
 10
0.0
 20
1.0
 30
0.0
  9
$USERI1
 70
     0
  9
$USERI2
 70
     0
  9
$USERI3
 70
     0
  9
$USERI4
 70
     0
  9
$USERI5
 70
     0
  9
$USERR1
 40
0.0
  9
$USERR2
 40
0.0
  9
$USERR3
 40
0.0
  9
$USERR4
 40
0.0
  9
$USERR5
 40
0.0
  9
$WORLDVIEW
 70
     1
  9
$SHADEDGE
 70
     3
  9
$SHADEDIF
 70
    70
  9
$TILEMODE
 70
     1
  9
$MAXACTVP
 70
    16
  9
$PLIMCHECK
 70
     0
  9
$PEXTMIN
 10
-1.452248
 20
-0.437698
 30
0.0
  9
$PEXTMAX
 10
12.749749
 20
8.310198
 30
0.0
  9
$PLIMMIN
 10
0.0
 20
0.0
  9
$PLIMMAX
 10
12.0
 20
9.0
  9
$UNITMODE
 70
     0
  9
$VISRETAIN
 70
     0
  9
$PLINEGEN
 70
     0
  9
$PSLTSCALE
 70
     0
  0
ENDSEC
  0
SECTION
  2
TABLES
  0
TABLE
  2
VPORT
 70
     2
  0
VPORT
  2
*ACTIVE
 70
     0
 10
0.0
 20
0.0
 11
1.0
 21
1.0
 12
41.309413
 22
90.100635
 13
0.0
 23
0.0
 14
1.0
 24
1.0
 15
10.0
 25
10.0
 16
0.0
 26
0.0
 36
1.0
 17
0.0
 27
0.0
 37
0.0
 40
63.996911
 41
1.466346
 42
50.0
 43
0.0
 44
0.0
 50
0.0
 51
0.0
 71
     0
 72
   100
 73
     1
 74
     0
 75
     0
 76
     0
 77
     0
 78
     0
  0
ENDTAB
  0
TABLE
  2
LTYPE
 70
     2
  0
LTYPE
  2
CONTINUOUS
 70
     0
  3
Solid line
 72
    65
 73
     0
 40
0.0
  0
LTYPE
  2
AXES2
 70
     0
  3
___ _ ___ _ ___ _ ___ _ ___ _ ___ _ ___ _ ___ _
 72
    65
 73
     4
 40
1.125
 49
0.75
 49
-0.125
 49
0.125
 49
-0.125
  0
ENDTAB
  0
TABLE
  2
LAYER
 70
     5
  0
LAYER
  2
0
 70
     0
 62
   255
  6
CONTINUOUS
  0
LAYER
  2
COTATION1
 70
     0
 62
     2
  6
CONTINUOUS
  0
LAYER
  2
AXE
 70
     0
 62
    80
  6
AXES2
  0
LAYER
  2
DEFPOINTS
 70
     0
 62
     7
  6
CONTINUOUS
  0
LAYER
  2
ALPHA
 70
     0
 62
   254
  6
CONTINUOUS
  0
ENDTAB
  0
TABLE
  2
STYLE
 70
     2
  0
STYLE
  2
ROMANS
 70
     0
 40
0.0
 41
1.0
 50
0.0
 71
     0
 42
6.0
  3
romans
  4

  0
STYLE
  2
STANDARD
 70
     0
 40
0.0
 41
1.0
 50
0.0
 71
     0
 42
0.2
  3
txt
  4

  0
ENDTAB
  0
TABLE
  2
VIEW
 70
     0
  0
ENDTAB
  0
TABLE
  2
UCS
 70
     0
  0
ENDTAB
  0
TABLE
  2
APPID
 70
     1
  0
APPID
  2
ACAD
 70
     0
  0
ENDTAB
  0
TABLE
  2
DIMSTYLE
 70
     2
  0
DIMSTYLE
  2
SC_DEFAUT
 70
     0
  3

  4

  5
OPEN30
  6

  7

 40
1.0
 41
5.0
 42
2.0
 43
0.38
 44
2.5
 45
0.0
 46
0.0
 47
0.0
 48
0.0
140
2.5
141
0.0
142
0.0
143
25.4
144
1.0
145
0.0
146
1.0
147
2.0
 71
     0
 72
     0
 73
     1
 74
     1
 75
     0
 76
     0
 77
     1
 78
    12
170
     0
171
     2
172
     0
173
     0
174
     0
175
     0
176
     0
177
     0
178
     0
  0
DIMSTYLE
  2
STANDARD
 70
     0
  3

  4

  5

  6

  7

 40
1.0
 41
0.18
 42
0.0625
 43
0.38
 44
0.18
 45
0.0
 46
0.0
 47
0.0
 48
0.0
140
0.18
141
0.09
142
0.0
143
25.4
144
1.0
145
0.0
146
1.0
147
0.09
 71
     0
 72
     0
 73
     1
 74
     1
 75
     0
 76
     0
 77
     0
 78
     0
170
     0
171
     2
172
     0
173
     0
174
     0
175
     0
176
     0
177
     0
178
     0
  0
ENDTAB
  0
ENDSEC
  0
SECTION
  2
BLOCKS
  0
BLOCK
  8
0
  2
$MODEL_SPACE
 70
     0
 10
0.0
 20
0.0
 30
0.0
  3
$MODEL_SPACE
  1

  0
ENDBLK
  5
BA04
  8
0
  0
BLOCK
 67
     1
  8
0
  2
$PAPER_SPACE
 70
     0
 10
0.0
 20
0.0
 30
0.0
  3
$PAPER_SPACE
  1

  0
ENDBLK
  5
BA02
 67
     1
  8
0
  0
BLOCK
  8
0
  2
COTE
 70
     0
 10
0.0
 20
0.0
 30
0.0
  3
COTE
  1

  0
ENDBLK
  5
F
  8
0
  0
BLOCK
  8
0
  2
FOND
 70
     0
 10
0.0
 20
0.0
 30
0.0
  3
FOND
  1

  0
ENDBLK
  5
75
  8
0
  0
BLOCK
  8
0
  2
_OPEN30
 70
     0
 10
0.0
 20
0.0
 30
0.0
  3
_OPEN30
  1

  0
LINE
  5
4B05
  8
COTATION1
 62
     0
 10
-1.0
 20
0.267949
 30
0.0
 11
0.0
 21
0.0
 31
0.0
1001
ACAD
1000
RTLwPs
1070
   158
  0
LINE
  5
4B06
  8
COTATION1
 62
     0
 10
0.0
 20
0.0
 30
0.0
 11
-1.0
 21
-0.267949
 31
0.0
1001
ACAD
1000
RTLwPs
1070
   158
  0
LINE
  5
4B07
  8
COTATION1
 62
     0
 10
0.0
 20
0.0
 30
0.0
 11
-1.0
 21
0.0
 31
0.0
1001
ACAD
1000
RTLwPs
1070
   158
  0
ENDBLK
  5
4B09
  8
0
  0
BLOCK
  8
0
  2
*D3
 70
     1
 10
0.0
 20
0.0
 30
0.0
  3
*D3
  1

  0
LINE
  5
B85D
  8
COTATION1
 62
     0
 10
48.177918
 20
95.150924
 30
0.0
 11
48.177918
 21
119.463298
 31
0.0
1001
ACAD
1000
RTLwPs
1070
   158
  0
LINE
  5
B85E
  8
COTATION1
 62
     0
 10
64.177918
 20
95.150924
 30
0.0
 11
64.177918
 21
119.463298
 31
0.0
1001
ACAD
1000
RTLwPs
1070
   158
  0
LINE
  5
B85F
  8
COTATION1
 62
     0
 10
53.177918
 20
116.963298
 30
0.0
 11
59.177918
 21
116.963298
 31
0.0
1001
ACAD
1000
RTLwPs
1070
   158
  0
INSERT
  5
B860
  8
COTATION1
 62
     0
  2
_OPEN30
 10
48.177918
 20
116.963298
 30
0.0
 41
5.0
 42
5.0
 43
5.0
 50
180.0
1001
ACAD
1000
RTLwPs
1070
   158
  0
INSERT
  5
B861
  8
COTATION1
 62
     0
  2
_OPEN30
 10
64.177918
 20
116.963298
 30
0.0
 41
5.0
 42
5.0
 43
5.0
1001
ACAD
1000
RTLwPs
1070
   158
  0
TEXT
  5
B862
  8
COTATION1
 62
     0
 10
53.618394
 20
118.963298
 30
0.0
 40
2.5
  1
16
1001
ACAD
1000
MTEXTBEGIN
1070
    73
1070
     1
1070
    44
1040
1.0
1070
    74
1070
     0
1000
MTEXTEND
  0
POINT
  5
B863
  8
DEFPOINTS
 62
     0
 10
48.177918
 20
93.150924
 30
0.0
  0
POINT
  5
B864
  8
DEFPOINTS
 62
     0
 10
64.177918
 20
93.150924
 30
0.0
  0
POINT
  5
B865
  8
DEFPOINTS
 62
     0
 10
64.177918
 20
116.963298
 30
0.0
  0
ENDBLK
  5
A0F8
  8
0
  0
BLOCK
  8
0
  2
*D4
 70
     1
 10
0.0
 20
0.0
 30
0.0
  3
*D4
  1

  0
LINE
  5
B870
  8
COTATION1
 62
     0
 10
54.177918
 20
106.963298
 30
0.0
 11
28.695289
 21
106.963298
 31
0.0
1001
ACAD
1000
RTLwPs
1070
   158
  0
LINE
  5
B871
  8
COTATION1
 62
     0
 10
46.177935
 20
77.263298
 30
0.0
 11
28.695289
 21
77.263298
 31
0.0
1001
ACAD
1000
RTLwPs
1070
   158
  0
LINE
  5
B872
  8
COTATION1
 62
     0
 10
31.195289
 20
101.963298
 30
0.0
 11
31.195289
 21
95.363298
 31
0.0
1001
ACAD
1000
RTLwPs
1070
   158
  0
LINE
  5
B873
  8
COTATION1
 62
     0
 10
31.195289
 20
82.263298
 30
0.0
 11
31.195289
 21
88.863298
 31
0.0
1001
ACAD
1000
RTLwPs
1070
   158
  0
TEXT
  5
B874
  8
COTATION1
 62
     0
 10
27.028622
 20
90.863298
 30
0.0
 40
2.5
  1
29.7
1001
ACAD
1000
MTEXTBEGIN
1070
    73
1070
     1
1070
    44
1040
1.0
1070
    74
1070
     0
1000
MTEXTEND
  0
INSERT
  5
B875
  8
COTATION1
 62
     0
  2
_OPEN30
 10
31.195289
 20
106.963298
 30
0.0
 41
5.0
 42
5.0
 43
5.0
 50
90.0
1001
ACAD
1000
RTLwPs
1070
   158
  0
INSERT
  5
B876
  8
COTATION1
 62
     0
  2
_OPEN30
 10
31.195289
 20
77.263298
 30
0.0
 41
5.0
 42
5.0
 43
5.0
 50
270.0
1001
ACAD
1000
RTLwPs
1070
   158
  0
POINT
  5
B877
  8
DEFPOINTS
 62
     0
 10
56.177918
 20
106.963298
 30
0.0
  0
POINT
  5
B878
  8
DEFPOINTS
 62
     0
 10
48.177935
 20
77.263298
 30
0.0
  0
POINT
  5
B879
  8
DEFPOINTS
 62
     0
 10
31.195289
 20
77.263298
 30
0.0
  0
ENDBLK
  5
A105
  8
0
  0
BLOCK
  8
0
  2
*D5
 70
     1
 10
0.0
 20
0.0
 30
0.0
  3
*D5
  1

  0
LINE
  5
B840
  8
COTATION1
 62
     0
 10
58.177918
 20
106.963298
 30
0.0
 11
86.677918
 21
106.963298
 31
0.0
1001
ACAD
1000
RTLwPs
1070
   158
  0
LINE
  5
B841
  8
COTATION1
 62
     0
 10
59.927918
 20
68.713298
 30
0.0
 11
86.677918
 21
68.713298
 31
0.0
1001
ACAD
1000
RTLwPs
1070
   158
  0
LINE
  5
B842
  8
COTATION1
 62
     0
 10
84.177918
 20
101.963298
 30
0.0
 11
84.177918
 21
91.088298
 31
0.0
1001
ACAD
1000
RTLwPs
1070
   158
  0
LINE
  5
B843
  8
COTATION1
 62
     0
 10
84.177918
 20
73.713298
 30
0.0
 11
84.177918
 21
84.588298
 31
0.0
1001
ACAD
1000
RTLwPs
1070
   158
  0
INSERT
  5
B844
  8
COTATION1
 62
     0
  2
_OPEN30
 10
84.177918
 20
106.963298
 30
0.0
 41
5.0
 42
5.0
 43
5.0
 50
90.0
1001
ACAD
1000
RTLwPs
1070
   158
  0
INSERT
  5
B845
  8
COTATION1
 62
     0
  2
_OPEN30
 10
84.177918
 20
68.713298
 30
0.0
 41
5.0
 42
5.0
 43
5.0
 50
270.0
1001
ACAD
1000
RTLwPs
1070
   158
  0
TEXT
  5
B846
  8
COTATION1
 62
     0
 10
80.011251
 20
86.588298
 30
0.0
 40
2.5
  1
38.3
1001
ACAD
1000
MTEXTBEGIN
1070
    73
1070
     1
1070
    44
1040
1.0
1070
    74
1070
     0
1000
MTEXTEND
  0
POINT
  5
B847
  8
DEFPOINTS
 62
     0
 10
56.177918
 20
106.963298
 30
0.0
  0
POINT
  5
B848
  8
DEFPOINTS
 62
     0
 10
57.927918
 20
68.713298
 30
0.0
  0
POINT
  5
B849
  8
DEFPOINTS
 62
     0
 10
84.177918
 20
68.713298
 30
0.0
  0
ENDBLK
  5
A125
  8
0
  0
ENDSEC
  0
SECTION
  2
ENTITIES
  0
INSERT
  5
A
  8
0
  2
COTE
 10
0.0
 20
0.0
 30
0.0
  0
INSERT
  5
17
  8
0
  2
COTE
 10
284.010391
 20
6.373258
 30
0.0
  0
INSERT
  5
72
  8
0
  2
FOND
 10
0.0
 20
0.0
 30
0.0
  0
LINE
  5
9E08
  8
COTATION1
 10
7.875126
 20
79.763298
 30
0.0
 11
7.875126
 21
104.72222
 31
0.0
  0
LINE
  5
9E09
  8
AXE
 10
56.177918
 20
58.713298
 30
0.0
 11
56.177918
 21
112.042261
 31
0.0
  0
DIMENSION
  5
9E0A
  8
COTATION1
  2
*D3
 10
64.177918
 20
116.963298
 30
0.0
 11
56.177918
 21
120.213298
 31
0.0
 13
48.177918
 23
93.150924
 33
0.0
 14
64.177918
 24
93.150924
 34
0.0
  0
LINE
  5
9E0B
  8
COTATION1
 10
-0.225226
 20
77.263298
 30
0.0
 11
47.177918
 21
77.263298
 31
0.0
  0
DIMENSION
  5
9E0C
  8
COTATION1
  2
*D4
 10
31.195289
 20
77.263298
 30
0.0
 11
31.195289
 21
92.113298
 31
0.0
 70
   128
 13
56.177918
 23
106.963298
 33
0.0
 14
48.177935
 24
77.263298
 34
0.0
 50
90.0
  0
SOLID
  5
9E0D
  8
COTATION1
 10
9.318502
 20
77.263298
 30
0.0
 11
6.43175
 21
77.263298
 31
0.0
 12
7.875126
 22
79.763298
 32
0.0
 13
7.875126
 23
79.763298
 33
0.0
  0
DIMENSION
  5
9E0E
  8
COTATION1
  2
*D5
 10
84.177918
 20
68.713298
 30
0.0
 11
84.177918
 21
87.838298
 31
0.0
 13
56.177918
 23
106.963298
 33
0.0
 14
57.927918
 24
68.713298
 34
0.0
 50
90.0
  0
LINE
  5
9E11
  8
AXE
 10
43.177918
 20
86.763298
 30
0.0
 11
74.177918
 21
86.763298
 31
0.0
  0
TEXT
  5
9E34
  8
AXE
 10
51.130299
 20
58.713298
 30
0.0
 40
5.0
  1
Y
 72
     2
 11
55.177918
 21
58.713298
 31
0.0
  0
TEXT
  5
A0E7
  8
AXE
 10
70.130299
 20
87.763298
 30
0.0
 40
5.0
  1
X
 72
     2
 11
74.177918
 21
87.763298
 31
0.0
  0
LINE
  5
A0E8
  8
COTATION1
 10
21.125126
 20
104.72222
 30
0.0
 11
-5.374874
 21
104.72222
 31
0.0
  0
LINE
  5
A0E9
  8
COTATION1
 10
-5.374874
 20
109.72222
 30
0.0
 11
21.125126
 21
109.72222
 31
0.0
  0
LINE
  5
A0EA
  8
COTATION1
 10
-5.374874
 20
104.72222
 30
0.0
 11
-5.374874
 21
109.72222
 31
0.0
  0
TEXT
  5
A0EB
  8
COTATION1
 10
-4.124874
 20
105.97222
 30
0.0
 40
2.5
  1
PLANE_TO_LINE_UP
 41
0.626087
  7
STANDARD
 72
     5
 11
19.875126
 21
105.97222
 31
0.0
  0
LINE
  5
A0EC
  8
COTATION1
 10
21.125126
 20
109.72222
 30
0.0
 11
21.125126
 21
104.72222
 31
0.0
  0
LINE
  5
A94E
  8
ALPHA
 10
62.454741
 20
104.238546
 30
0.0
 11
64.153519
 21
93.462371
 31
0.0
  0
LINE
  5
A94F
  8
ALPHA
 10
49.901094
 20
104.238546
 30
0.0
 11
48.202316
 21
93.462371
 31
0.0
  0
POLYLINE
  5
A956
  8
ALPHA
 66
     1
 10
0.0
 20
0.0
 30
0.0
 70
   128
210
0.0
220
0.0
230
-1.0
  0
VERTEX
  5
BA0A
  8
ALPHA
 10
-51.186689
 20
97.580674
 30
0.0
  0
VERTEX
  5
BA0B
  8
ALPHA
 10
-52.412703
 20
97.889905
 30
0.0
  0
VERTEX
  5
BA0C
  8
ALPHA
 10
-53.657269
 20
98.113709
 30
0.0
  0
VERTEX
  5
BA0D
  8
ALPHA
 10
-54.914287
 20
98.250359
 30
0.0
  0
VERTEX
  5
BA0E
  8
ALPHA
 10
-56.177918
 20
98.296141
 30
0.0
  0
VERTEX
  5
BA0F
  8
ALPHA
 10
-57.441549
 20
98.250359
 30
0.0
  0
VERTEX
  5
BA10
  8
ALPHA
 10
-58.698567
 20
98.113709
 30
0.0
  0
VERTEX
  5
BA11
  8
ALPHA
 10
-59.943133
 20
97.889905
 30
0.0
  0
VERTEX
  5
BA12
  8
ALPHA
 10
-61.169147
 20
97.580674
 30
0.0
  0
SEQEND
  5
BA13
  8
ALPHA
  0
POLYLINE
  5
A957
  8
ALPHA
 66
     1
 10
0.0
 20
0.0
 30
0.0
 70
   128
210
0.0
220
0.0
230
-1.0
  0
VERTEX
  5
BA14
  8
ALPHA
 10
-57.300415
 20
69.463298
 30
0.0
  0
VERTEX
  5
BA15
  8
ALPHA
 10
-57.215179
 20
69.343751
 30
0.0
  0
VERTEX
  5
BA16
  8
ALPHA
 10
-57.078432
 20
69.27836
 30
0.0
  0
VERTEX
  5
BA17
  8
ALPHA
 10
-56.783486
 20
69.206921
 30
0.0
  0
VERTEX
  5
BA18
  8
ALPHA
 10
-56.177949
 20
69.163297
 30
0.0
  0
VERTEX
  5
BA19
  8
ALPHA
 10
-55.572417
 20
69.206911
 30
0.0
  0
VERTEX
  5
BA1A
  8
ALPHA
 10
-55.277477
 20
69.278335
 30
0.0
  0
VERTEX
  5
BA1B
  8
ALPHA
 10
-55.140756
 20
69.343719
 30
0.0
  0
VERTEX
  5
BA1C
  8
ALPHA
 10
-55.055421
 20
69.463298
 30
0.0
  0
SEQEND
  5
BA1D
  8
ALPHA
  0
POLYLINE
  5
A958
  8
ALPHA
 66
     1
 10
0.0
 20
0.0
 30
0.0
 70
   128
210
0.0
220
0.0
230
-1.0
  0
VERTEX
  5
BA1E
  8
ALPHA
 10
-54.563061
 20
86.892286
 30
0.0
  0
VERTEX
  5
BA1F
  8
ALPHA
 10
-54.603335
 20
87.324141
 30
0.0
  0
VERTEX
  5
BA20
  8
ALPHA
 10
-54.756062
 20
87.730704
 30
0.0
  0
VERTEX
  5
BA21
  8
ALPHA
 10
-55.005105
 20
88.085968
 30
0.0
  0
VERTEX
  5
BA22
  8
ALPHA
 10
-55.333831
 20
88.369343
 30
0.0
  0
VERTEX
  5
BA23
  8
ALPHA
 10
-55.720798
 20
88.566091
 30
0.0
  0
VERTEX
  5
BA24
  8
ALPHA
 10
-56.14286
 20
88.666933
 30
0.0
  0
VERTEX
  5
BA25
  8
ALPHA
 10
-56.577287
 20
88.670116
 30
0.0
  0
VERTEX
  5
BA26
  8
ALPHA
 10
-57.000892
 20
88.575152
 30
0.0
  0
SEQEND
  5
BA27
  8
ALPHA
  0
ARC
  5
A95A
  8
ALPHA
 10
56.177918
 20
86.763298
 30
0.0
 40
7.89
 50
179.989552
 51
0.000002
  0
ARC
  5
A95B
  8
ALPHA
 10
56.177918
 20
86.763298
 30
0.0
 40
7.9
 50
0.000002
 51
179.989552
  0
CIRCLE
  5
A95C
  8
ALPHA
 10
56.177918
 20
86.763298
 30
0.0
 40
7.5
  0
ARC
  5
A95D
  8
ALPHA
 10
56.177918
 20
64.063298
 30
0.0
 40
31.7
 50
78.34488
 51
101.65512
  0
ARC
  5
A95E
  8
ALPHA
 10
56.101197
 20
91.162629
 30
0.0
 40
0.399993
 50
193.0
 51
270.999089
  0
CIRCLE
  5
A95F
  8
ALPHA
 10
56.177918
 20
86.763298
 30
0.0
 40
0.753975
  0
ARC
  5
A960
  8
ALPHA
 10
56.101197
 20
82.363967
 30
0.0
 40
0.399993
 50
89.000911
 51
167.0
  0
ARC
  5
A961
  8
ALPHA
 10
55.606066
 20
91.529112
 30
0.0
 40
0.2
 50
13.0
 51
96.842227
  0
ARC
  5
A962
  8
ALPHA
 10
55.606066
 20
81.997483
 30
0.0
 40
0.2
 50
263.157773
 51
347.0
  0
CIRCLE
  5
A963
  8
ALPHA
 10
56.177918
 20
86.763298
 30
0.0
 40
1.62
  0
CIRCLE
  5
A964
  8
ALPHA
 10
56.177918
 20
86.763298
 30
0.0
 40
5.5
  0
ARC
  5
A965
  8
ALPHA
 10
55.727918
 20
89.313298
 30
0.0
 40
0.15
 50
157.750976
 51
270.0
  0
CIRCLE
  5
A966
  8
ALPHA
 10
56.177918
 20
86.763298
 30
0.0
 40
2.1
  0
ARC
  5
A967
  8
ALPHA
 10
56.177918
 20
86.763298
 30
0.0
 40
6.935285
 50
255.0
 51
285.0
  0
ARC
  5
A968
  8
ALPHA
 10
56.177918
 20
86.763298
 30
0.0
 40
6.935285
 50
75.0
 51
105.0
  0
CIRCLE
  5
A969
  8
ALPHA
 10
56.177918
 20
86.763298
 30
0.0
 40
6.85
  0
CIRCLE
  5
A96A
  8
ALPHA
 10
56.177918
 20
86.763298
 30
0.0
 40
6.050671
  0
CIRCLE
  5
A96B
  8
ALPHA
 10
56.177918
 20
86.763298
 30
0.0
 40
6.254728
  0
CIRCLE
  5
A96C
  8
ALPHA
 10
56.177918
 20
86.763298
 30
0.0
 40
6.547181
  0
CIRCLE
  5
A96D
  8
ALPHA
 10
56.177918
 20
86.763298
 30
0.0
 40
6.6
  0
ARC
  5
A96E
  8
ALPHA
 10
56.177918
 20
86.763298
 30
0.0
 40
2.0
 50
255.0
 51
195.0
  0
LINE
  5
A971
  8
ALPHA
 10
55.80094
 20
91.574102
 30
0.0
 11
55.606066
 21
91.529112
 31
0.0
  0
LINE
  5
A972
  8
ALPHA
 10
55.606066
 20
91.529112
 30
0.0
 11
55.711449
 21
91.072648
 31
0.0
  0
LINE
  5
A973
  8
ALPHA
 10
55.711449
 20
82.453947
 30
0.0
 11
55.606066
 21
81.997483
 31
0.0
  0
LINE
  5
A974
  8
ALPHA
 10
56.039086
 20
90.470093
 30
0.0
 11
55.589086
 21
89.370093
 31
0.0
  0
LINE
  5
A975
  8
ALPHA
 10
55.80094
 20
81.952493
 30
0.0
 11
55.606066
 21
81.997483
 31
0.0
  0
LINE
  5
A976
  8
ALPHA
 10
60.677918
 20
77.763298
 30
0.0
 11
51.677918
 21
77.763298
 31
0.0
  0
LINE
  5
A977
  8
ALPHA
 10
51.814281
 20
77.513298
 30
0.0
 11
60.541554
 21
77.513298
 31
0.0
  0
LINE
  5
A978
  8
ALPHA
 10
48.178021
 20
77.263298
 30
0.0
 11
64.177918
 21
77.263298
 31
0.0
  0
LINE
  5
A97A
  8
ALPHA
 10
55.980532
 20
75.463298
 30
0.0
 11
54.635243
 21
75.463298
 31
0.0
  0
LINE
  5
A97B
  8
ALPHA
 10
62.877801
 20
75.113298
 30
0.0
 11
49.478035
 21
75.113298
 31
0.0
  0
LINE
  5
A97C
  8
ALPHA
 10
62.527918
 20
73.813298
 30
0.0
 11
49.827918
 21
73.813298
 31
0.0
  0
LINE
  5
A97D
  8
ALPHA
 10
62.527918
 20
72.663298
 30
0.0
 11
49.827918
 21
72.663298
 31
0.0
  0
LINE
  5
A97E
  8
ALPHA
 10
49.827918
 20
71.463298
 30
0.0
 11
62.527918
 21
71.463298
 31
0.0
  0
LINE
  5
A97F
  8
ALPHA
 10
62.027918
 20
68.963298
 30
0.0
 11
50.327918
 21
68.963298
 31
0.0
  0
LINE
  5
A980
  8
ALPHA
 10
54.427918
 20
68.713298
 30
0.0
 11
57.927918
 21
68.713298
 31
0.0
  0
POLYLINE
  5
A98A
  8
ALPHA
 66
     1
 10
0.0
 20
0.0
 30
0.0
 70
   128
  0
VERTEX
  5
BA28
  8
ALPHA
 10
48.177918
 20
81.263297
 30
0.0
  0
VERTEX
  5
BA29
  8
ALPHA
 10
48.248711
 20
80.54181
 30
0.0
  0
VERTEX
  5
BA2A
  8
ALPHA
 10
48.446564
 20
79.846035
 30
0.0
  0
VERTEX
  5
BA2B
  8
ALPHA
 10
48.777382
 20
79.201118
 30
0.0
  0
VERTEX
  5
BA2C
  8
ALPHA
 10
49.22393
 20
78.631397
 30
0.0
  0
VERTEX
  5
BA2D
  8
ALPHA
 10
49.773158
 20
78.159778
 30
0.0
  0
VERTEX
  5
BA2E
  8
ALPHA
 10
50.404823
 20
77.806574
 30
0.0
  0
VERTEX
  5
BA2F
  8
ALPHA
 10
51.094555
 20
77.586496
 30
0.0
  0
VERTEX
  5
BA30
  8
ALPHA
 10
51.814281
 20
77.513298
 30
0.0
  0
SEQEND
  5
BA31
  8
ALPHA
  0
ARC
  5
A98B
  8
ALPHA
 10
51.677918
 20
81.263298
 30
0.0
 40
3.5
 50
180.0
 51
270.0
  0
ARC
  5
A98C
  8
ALPHA
 10
56.177918
 20
86.763298
 30
0.0
 40
7.15
 50
225.0
 51
255.0
  0
ARC
  5
A98D
  8
ALPHA
 10
56.177918
 20
86.763298
 30
0.0
 40
7.4
 50
225.0
 51
255.0
  0
LINE
  5
A98E
  8
ALPHA
 10
48.177918
 20
77.263298
 30
0.0
 11
48.177918
 21
93.150924
 31
0.0
  0
ARC
  5
A98F
  8
ALPHA
 10
50.327918
 20
69.463298
 30
0.0
 40
0.5
 50
180.0
 51
270.0
  0
LINE
  5
A990
  8
ALPHA
 10
54.427918
 20
68.713298
 30
0.0
 11
54.427918
 21
68.963298
 31
0.0
  0
LINE
  5
A991
  8
ALPHA
 10
55.055421
 20
69.463298
 30
0.0
 11
49.827918
 21
69.463298
 31
0.0
  0
LINE
  5
A992
  8
ALPHA
 10
50.677918
 20
73.813298
 30
0.0
 11
50.677918
 21
75.113298
 31
0.0
  0
LINE
  5
A993
  8
ALPHA
 10
50.577918
 20
71.463298
 30
0.0
 11
50.577918
 21
72.663298
 31
0.0
  0
LINE
  5
A994
  8
ALPHA
 10
49.827918
 20
72.663298
 30
0.0
 11
49.827918
 21
73.813298
 31
0.0
  0
LINE
  5
A995
  8
ALPHA
 10
49.827918
 20
69.463298
 30
0.0
 11
49.827918
 21
71.463298
 31
0.0
  0
POLYLINE
  5
A996
  8
ALPHA
 66
     1
 10
0.0
 20
0.0
 30
0.0
 70
   128
  0
VERTEX
  5
BA32
  8
ALPHA
 10
49.43253
 20
75.763298
 30
0.0
  0
VERTEX
  5
BA33
  8
ALPHA
 10
49.538498
 20
75.544879
 30
0.0
  0
VERTEX
  5
BA34
  8
ALPHA
 10
49.770083
 20
75.463298
 30
0.0
  0
SEQEND
  5
BA35
  8
ALPHA
  0
LINE
  5
A997
  8
ALPHA
 10
50.279373
 20
75.463298
 30
0.0
 11
49.19705
 21
75.463298
 31
0.0
  0
POLYLINE
  5
A998
  8
ALPHA
 66
     1
 10
0.0
 20
0.0
 30
0.0
 70
   128
  0
VERTEX
  5
BA36
  8
ALPHA
 10
48.874791
 20
75.763298
 30
0.0
  0
VERTEX
  5
BA37
  8
ALPHA
 10
48.973229
 20
75.547306
 30
0.0
  0
VERTEX
  5
BA38
  8
ALPHA
 10
49.197028
 20
75.463298
 30
0.0
  0
SEQEND
  5
BA39
  8
ALPHA
  0
POLYLINE
  5
A999
  8
ALPHA
 66
     1
 10
0.0
 20
0.0
 30
0.0
 70
   128
210
0.0
220
0.0
230
-1.0
  0
VERTEX
  5
BA3A
  8
ALPHA
 10
-49.48476
 20
75.463298
 30
0.0
  0
VERTEX
  5
BA3B
  8
ALPHA
 10
-49.312726
 20
75.565954
 30
0.0
  0
VERTEX
  5
BA3C
  8
ALPHA
 10
-49.256495
 20
75.763298
 30
0.0
  0
SEQEND
  5
BA3D
  8
ALPHA
  0
POLYLINE
  5
A99A
  8
ALPHA
 66
     1
 10
0.0
 20
0.0
 30
0.0
 70
   128
210
0.0
220
0.0
230
-1.0
  0
VERTEX
  5
BA3E
  8
ALPHA
 10
-49.09971
 20
75.463298
 30
0.0
  0
VERTEX
  5
BA3F
  8
ALPHA
 10
-48.895498
 20
75.553925
 30
0.0
  0
VERTEX
  5
BA40
  8
ALPHA
 10
-48.814749
 20
75.763298
 30
0.0
  0
SEQEND
  5
BA41
  8
ALPHA
  0
LINE
  5
A99B
  8
ALPHA
 10
49.477918
 20
75.463298
 30
0.0
 11
49.477918
 21
75.113298
 31
0.0
  0
LINE
  5
A99C
  8
ALPHA
 10
49.43253
 20
75.763298
 30
0.0
 11
49.43253
 21
77.263298
 31
0.0
  0
LINE
  5
A99D
  8
ALPHA
 10
49.256495
 20
75.763298
 30
0.0
 11
49.256495
 21
77.263298
 31
0.0
  0
LINE
  5
A99E
  8
ALPHA
 10
48.874791
 20
75.763298
 30
0.0
 11
48.874791
 21
77.263298
 31
0.0
  0
LINE
  5
A99F
  8
ALPHA
 10
48.814749
 20
75.763298
 30
0.0
 11
48.814749
 21
77.263298
 31
0.0
  0
LINE
  5
A9A0
  8
ALPHA
 10
48.874791
 20
75.763298
 30
0.0
 11
48.814749
 21
75.763298
 31
0.0
  0
LINE
  5
A9A1
  8
ALPHA
 10
49.43253
 20
75.763298
 30
0.0
 11
49.256495
 21
75.763298
 31
0.0
  0
LINE
  5
A9A2
  8
ALPHA
 10
50.279373
 20
77.263298
 30
0.0
 11
50.279373
 21
75.463298
 31
0.0
  0
LINE
  5
A9A3
  8
ALPHA
 10
50.112021
 20
77.263298
 30
0.0
 11
50.112021
 21
75.463298
 31
0.0
  0
LINE
  5
A9A4
  8
ALPHA
 10
55.055421
 20
69.463298
 30
0.0
 11
55.055421
 21
71.463298
 31
0.0
  0
POLYLINE
  5
A9A5
  8
ALPHA
 66
     1
 10
0.0
 20
0.0
 30
0.0
 70
   128
  0
VERTEX
  5
BA42
  8
ALPHA
 10
53.559921
 20
75.763298
 30
0.0
  0
VERTEX
  5
BA43
  8
ALPHA
 10
53.624765
 20
75.561265
 30
0.0
  0
VERTEX
  5
BA44
  8
ALPHA
 10
53.809028
 20
75.463298
 30
0.0
  0
SEQEND
  5
BA45
  8
ALPHA
  0
LINE
  5
A9A6
  8
ALPHA
 10
54.253923
 20
75.463298
 30
0.0
 11
53.000313
 21
75.463298
 31
0.0
  0
LINE
  5
A9A7
  8
ALPHA
 10
53.120198
 20
75.463298
 30
0.0
 11
53.134936
 21
75.763298
 31
0.0
  0
POLYLINE
  5
A9A8
  8
ALPHA
 66
     1
 10
0.0
 20
0.0
 30
0.0
 70
   128
  0
VERTEX
  5
BA46
  8
ALPHA
 10
51.814281
 20
77.513298
 30
0.0
  0
VERTEX
  5
BA47
  8
ALPHA
 10
51.786739
 20
77.663859
 30
0.0
  0
VERTEX
  5
BA48
  8
ALPHA
 10
51.677918
 20
77.763298
 30
0.0
  0
SEQEND
  5
BA49
  8
ALPHA
  0
LINE
  5
A9A9
  8
ALPHA
 10
53.559921
 20
75.763298
 30
0.0
 11
53.559921
 21
77.263298
 31
0.0
  0
LINE
  5
A9AA
  8
ALPHA
 10
53.134936
 20
75.763298
 30
0.0
 11
53.134936
 21
77.263298
 31
0.0
  0
LINE
  5
A9AB
  8
ALPHA
 10
53.105269
 20
75.463298
 30
0.0
 11
53.105269
 21
77.263298
 31
0.0
  0
LINE
  5
A9AC
  8
ALPHA
 10
53.000313
 20
75.463298
 30
0.0
 11
53.000313
 21
77.263298
 31
0.0
  0
LINE
  5
A9AD
  8
ALPHA
 10
53.559921
 20
75.763298
 30
0.0
 11
53.134936
 21
75.763298
 31
0.0
  0
POLYLINE
  5
A9AE
  8
ALPHA
 66
     1
 10
0.0
 20
0.0
 30
0.0
 70
   128
  0
VERTEX
  5
BA4A
  8
ALPHA
 10
55.440523
 20
75.763298
 30
0.0
  0
VERTEX
  5
BA4B
  8
ALPHA
 10
55.479493
 20
75.577357
 30
0.0
  0
VERTEX
  5
BA4C
  8
ALPHA
 10
55.622063
 20
75.463298
 30
0.0
  0
SEQEND
  5
BA4D
  8
ALPHA
  0
POLYLINE
  5
A9AF
  8
ALPHA
 66
     1
 10
0.0
 20
0.0
 30
0.0
 70
   128
  0
VERTEX
  5
BA4E
  8
ALPHA
 10
54.882857
 20
75.463298
 30
0.0
  0
VERTEX
  5
BA4F
  8
ALPHA
 10
54.967663
 20
75.597514
 30
0.0
  0
VERTEX
  5
BA50
  8
ALPHA
 10
54.984458
 20
75.763298
 30
0.0
  0
SEQEND
  5
BA51
  8
ALPHA
  0
LINE
  5
A9B0
  8
ALPHA
 10
54.237752
 20
79.5225
 30
0.0
 11
54.405007
 21
80.146706
 31
0.0
  0
LINE
  5
A9B1
  8
ALPHA
 10
55.440523
 20
75.763298
 30
0.0
 11
55.440523
 21
77.263298
 31
0.0
  0
LINE
  5
A9B2
  8
ALPHA
 10
54.984458
 20
75.763298
 30
0.0
 11
54.984458
 21
77.263298
 31
0.0
  0
LINE
  5
A9B3
  8
ALPHA
 10
54.779937
 20
75.463298
 30
0.0
 11
54.779937
 21
77.263298
 31
0.0
  0
LINE
  5
A9B4
  8
ALPHA
 10
54.635243
 20
75.463298
 30
0.0
 11
54.635243
 21
77.263298
 31
0.0
  0
LINE
  5
A9B5
  8
ALPHA
 10
54.253923
 20
77.263298
 30
0.0
 11
54.253923
 21
75.463298
 31
0.0
  0
LINE
  5
A9B6
  8
ALPHA
 10
54.061372
 20
77.263298
 30
0.0
 11
54.061372
 21
75.463298
 31
0.0
  0
LINE
  5
A9B7
  8
ALPHA
 10
55.440523
 20
75.763298
 30
0.0
 11
54.984458
 21
75.763298
 31
0.0
  0
ARC
  5
A9B8
  8
ALPHA
 10
56.177918
 20
86.763298
 30
0.0
 40
7.15
 50
105.0
 51
135.0
  0
ARC
  5
A9B9
  8
ALPHA
 10
56.177918
 20
86.763298
 30
0.0
 40
7.4
 50
105.0
 51
135.0
  0
ARC
  5
A9BA
  8
ALPHA
 10
51.764676
 20
88.650967
 30
0.0
 40
0.2
 50
73.0
 51
156.842227
  0
ARC
  5
A9BB
  8
ALPHA
 10
51.722501
 20
88.549147
 30
0.0
 40
0.2
 50
158.157773
 51
242.0
  0
ARC
  5
A9BC
  8
ALPHA
 10
51.722501
 20
84.977448
 30
0.0
 40
0.2
 50
118.0
 51
201.842227
  0
ARC
  5
A9BD
  8
ALPHA
 10
51.764676
 20
84.875629
 30
0.0
 40
0.2
 50
203.157773
 51
287.0
  0
LINE
  5
A9BE
  8
ALPHA
 10
51.722501
 20
84.977448
 30
0.0
 11
51.536858
 21
84.903038
 31
0.0
  0
LINE
  5
A9BF
  8
ALPHA
 10
51.580791
 20
84.796976
 30
0.0
 11
51.764676
 21
84.875629
 31
0.0
  0
LINE
  5
A9C0
  8
ALPHA
 10
51.764676
 20
88.650967
 30
0.0
 11
51.580791
 21
88.72962
 31
0.0
  0
LINE
  5
A9C1
  8
ALPHA
 10
51.536858
 20
88.623558
 30
0.0
 11
51.722501
 21
88.549147
 31
0.0
  0
LINE
  5
A9C2
  8
ALPHA
 10
51.433469
 20
87.644293
 30
0.0
 11
51.901654
 21
87.627944
 31
0.0
  0
LINE
  5
A9C3
  8
ALPHA
 10
51.426489
 20
87.444415
 30
0.0
 11
51.894674
 21
87.428066
 31
0.0
  0
LINE
  5
A9C4
  8
ALPHA
 10
51.367113
 20
86.38632
 30
0.0
 11
51.823577
 21
86.491703
 31
0.0
  0
LINE
  5
A9C5
  8
ALPHA
 10
51.412104
 20
86.191446
 30
0.0
 11
51.868567
 21
86.296829
 31
0.0
  0
LINE
  5
A9C6
  8
ALPHA
 10
51.868567
 20
87.229766
 30
0.0
 11
51.412104
 21
87.335149
 31
0.0
  0
LINE
  5
A9C7
  8
ALPHA
 10
51.823577
 20
87.034892
 30
0.0
 11
51.367113
 21
87.140275
 31
0.0
  0
LINE
  5
A9C8
  8
ALPHA
 10
51.426489
 20
86.08218
 30
0.0
 11
51.894674
 21
86.09853
 31
0.0
  0
LINE
  5
A9C9
  8
ALPHA
 10
51.433469
 20
85.882302
 30
0.0
 11
51.901654
 21
85.898652
 31
0.0
  0
ARC
  5
A9CA
  8
ALPHA
 10
56.177918
 20
86.763298
 30
0.0
 40
7.15
 50
165.0
 51
195.0
  0
ARC
  5
A9CB
  8
ALPHA
 10
56.177918
 20
86.763298
 30
0.0
 40
7.4
 50
165.0
 51
195.0
  0
ARC
  5
A9CC
  8
ALPHA
 10
56.177918
 20
86.763298
 30
0.0
 40
6.935285
 50
195.0
 51
225.0
  0
LINE
  5
A9CD
  8
ALPHA
 10
48.956304
 20
84.828272
 30
0.0
 11
49.561326
 21
84.990387
 31
0.0
  0
ARC
  5
A9CE
  8
ALPHA
 10
56.177918
 20
86.763298
 30
0.0
 40
4.8
 50
186.842227
 51
188.157773
  0
ARC
  5
A9CF
  8
ALPHA
 10
51.412104
 20
86.191446
 30
0.0
 40
0.2
 50
103.0
 51
186.842227
  0
ARC
  5
A9D0
  8
ALPHA
 10
51.426489
 20
86.08218
 30
0.0
 40
0.2
 50
188.157773
 51
272.0
  0
ARC
  5
A9D1
  8
ALPHA
 10
56.177918
 20
86.763298
 30
0.0
 40
5.0
 50
186.842227
 51
188.157773
  0
ARC
  5
A9D2
  8
ALPHA
 10
56.177918
 20
86.763298
 30
0.0
 40
5.0
 50
201.842227
 51
203.157773
  0
LINE
  5
A9D3
  8
ALPHA
 10
50.884771
 20
81.470151
 30
0.0
 11
51.334236
 21
81.919616
 31
0.0
  0
LINE
  5
A9D4
  8
ALPHA
 10
51.412104
 20
86.191446
 30
0.0
 11
51.213528
 21
86.167619
 31
0.0
  0
LINE
  5
A9D5
  8
ALPHA
 10
51.228512
 20
86.053801
 30
0.0
 11
51.426489
 21
86.08218
 31
0.0
  0
LINE
  5
A9D6
  8
ALPHA
 10
51.367113
 20
86.38632
 30
0.0
 11
51.412104
 21
86.191446
 31
0.0
  0
LINE
  5
A9D7
  8
ALPHA
 10
51.426489
 20
86.08218
 30
0.0
 11
51.433469
 21
85.882302
 31
0.0
  0
ARC
  5
A9D8
  8
ALPHA
 10
56.177918
 20
86.763298
 30
0.0
 40
6.935285
 50
135.0
 51
165.0
  0
LINE
  5
A9D9
  8
ALPHA
 10
48.953239
 20
88.699145
 30
0.0
 11
49.561326
 21
88.536208
 31
0.0
  0
ARC
  5
A9DA
  8
ALPHA
 10
56.177918
 20
86.763298
 30
0.0
 40
4.8
 50
171.842227
 51
173.157773
  0
ARC
  5
A9DB
  8
ALPHA
 10
51.426489
 20
87.444415
 30
0.0
 40
0.2
 50
88.0
 51
171.842227
  0
ARC
  5
A9DC
  8
ALPHA
 10
51.412104
 20
87.335149
 30
0.0
 40
0.2
 50
173.157773
 51
257.0
  0
ARC
  5
A9DD
  8
ALPHA
 10
56.177918
 20
86.763298
 30
0.0
 40
5.0
 50
156.842227
 51
158.157773
  0
ARC
  5
A9DE
  8
ALPHA
 10
56.177918
 20
86.763298
 30
0.0
 40
5.0
 50
171.842227
 51
173.157773
  0
LINE
  5
A9DF
  8
ALPHA
 10
50.874996
 20
92.06622
 30
0.0
 11
51.334236
 21
91.606979
 31
0.0
  0
LINE
  5
A9E0
  8
ALPHA
 10
51.426489
 20
87.444415
 30
0.0
 11
51.228512
 21
87.472795
 31
0.0
  0
LINE
  5
A9E1
  8
ALPHA
 10
51.213528
 20
87.358976
 30
0.0
 11
51.412104
 21
87.335149
 31
0.0
  0
LINE
  5
A9E2
  8
ALPHA
 10
51.367113
 20
87.140275
 30
0.0
 11
51.412104
 21
87.335149
 31
0.0
  0
LINE
  5
A9E3
  8
ALPHA
 10
51.433469
 20
87.644293
 30
0.0
 11
51.426489
 21
87.444415
 31
0.0
  0
ARC
  5
A9E4
  8
ALPHA
 10
51.778587
 20
86.686577
 30
0.0
 40
0.399993
 50
283.0
 51
0.999089
  0
ARC
  5
A9E5
  8
ALPHA
 10
51.778587
 20
86.686577
 30
0.0
 40
0.2
 50
283.0
 51
0.999089
  0
ARC
  5
A9E6
  8
ALPHA
 10
53.91181
 20
82.991726
 30
0.0
 40
0.399993
 50
59.000911
 51
137.0
  0
LINE
  5
A9E7
  8
ALPHA
 10
53.76554
 20
83.128125
 30
0.0
 11
53.446043
 21
82.785508
 31
0.0
  0
LINE
  5
A9E8
  8
ALPHA
 10
53.76554
 20
83.128125
 30
0.0
 11
53.619269
 21
83.264525
 31
0.0
  0
ARC
  5
A9E9
  8
ALPHA
 10
53.121371
 20
83.598251
 30
0.0
 40
0.399993
 50
328.0
 51
45.999089
  0
ARC
  5
A9EA
  8
ALPHA
 10
56.177918
 20
86.763298
 30
0.0
 40
3.999993
 50
224.000911
 51
225.999089
  0
ARC
  5
A9EB
  8
ALPHA
 10
53.012871
 20
83.706751
 30
0.0
 40
0.399993
 50
44.000911
 51
122.0
  0
ARC
  5
A9EC
  8
ALPHA
 10
52.406346
 20
84.49719
 30
0.0
 40
0.399993
 50
313.0
 51
30.999089
  0
ARC
  5
A9ED
  8
ALPHA
 10
56.177918
 20
86.763298
 30
0.0
 40
3.999996
 50
209.000911
 51
210.999089
  0
ARC
  5
A9EE
  8
ALPHA
 10
52.329625
 20
84.630074
 30
0.0
 40
0.399993
 50
29.000911
 51
107.0
  0
ARC
  5
A9EF
  8
ALPHA
 10
51.908634
 20
85.698774
 30
0.0
 40
0.399996
 50
14.000911
 51
92.0
  0
ARC
  5
A9F0
  8
ALPHA
 10
56.177918
 20
86.763298
 30
0.0
 40
3.999992
 50
194.000911
 51
195.999089
  0
ARC
  5
A9F1
  8
ALPHA
 10
51.948347
 20
85.550561
 30
0.0
 40
0.399996
 50
298.0
 51
15.999089
  0
ARC
  5
A9F2
  8
ALPHA
 10
56.177918
 20
86.763298
 30
0.0
 40
4.8
 50
201.842227
 51
203.157773
  0
ARC
  5
A9F3
  8
ALPHA
 10
56.177918
 20
86.763298
 30
0.0
 40
4.8
 50
216.842227
 51
218.157773
  0
ARC
  5
A9F4
  8
ALPHA
 10
56.177918
 20
86.763298
 30
0.0
 40
4.8
 50
231.842227
 51
233.157773
  0
ARC
  5
A9F5
  8
ALPHA
 10
51.908634
 20
85.698774
 30
0.0
 40
0.2
 50
14.000911
 51
92.0
  0
ARC
  5
A9F6
  8
ALPHA
 10
56.177918
 20
86.763298
 30
0.0
 40
4.2
 50
194.000911
 51
195.999089
  0
ARC
  5
A9F7
  8
ALPHA
 10
51.948347
 20
85.550561
 30
0.0
 40
0.2
 50
298.0
 51
15.999089
  0
ARC
  5
A9F8
  8
ALPHA
 10
56.177918
 20
86.763298
 30
0.0
 40
5.0
 50
216.842227
 51
218.157773
  0
ARC
  5
A9F9
  8
ALPHA
 10
56.177918
 20
86.763298
 30
0.0
 40
5.0
 50
231.842227
 51
233.157773
  0
ARC
  5
A9FA
  8
ALPHA
 10
53.299773
 20
82.921907
 30
0.0
 40
0.2
 50
233.157773
 51
317.0
  0
ARC
  5
A9FB
  8
ALPHA
 10
53.212338
 20
82.988998
 30
0.0
 40
0.2
 50
148.0
 51
231.842227
  0
ARC
  5
A9FC
  8
ALPHA
 10
53.121371
 20
83.598251
 30
0.0
 40
0.2
 50
328.0
 51
45.999089
  0
ARC
  5
A9FD
  8
ALPHA
 10
56.177918
 20
86.763298
 30
0.0
 40
4.2
 50
224.000911
 51
225.999089
  0
ARC
  5
A9FE
  8
ALPHA
 10
53.012871
 20
83.706751
 30
0.0
 40
0.2
 50
44.000911
 51
122.0
  0
ARC
  5
A9FF
  8
ALPHA
 10
52.403618
 20
83.797718
 30
0.0
 40
0.2
 50
218.157773
 51
302.0
  0
ARC
  5
AA00
  8
ALPHA
 10
52.336527
 20
83.885153
 30
0.0
 40
0.2
 50
133.0
 51
216.842227
  0
ARC
  5
AA01
  8
ALPHA
 10
52.406346
 20
84.49719
 30
0.0
 40
0.2
 50
313.0
 51
30.999089
  0
ARC
  5
AA02
  8
ALPHA
 10
56.177918
 20
86.763298
 30
0.0
 40
4.2
 50
209.000911
 51
210.999089
  0
ARC
  5
AA03
  8
ALPHA
 10
52.329625
 20
84.630074
 30
0.0
 40
0.2
 50
29.000911
 51
107.0
  0
LINE
  5
AA04
  8
ALPHA
 10
52.271151
 20
84.821335
 30
0.0
 11
51.82315
 21
84.684368
 31
0.0
  0
LINE
  5
AA05
  8
ALPHA
 10
52.906887
 20
83.87636
 30
0.0
 11
52.509602
 21
83.628109
 31
0.0
  0
LINE
  5
AA06
  8
ALPHA
 10
52.332854
 20
85.66081
 30
0.0
 11
52.1406
 21
85.605685
 31
0.0
  0
LINE
  5
AA07
  8
ALPHA
 10
52.212676
 20
85.012596
 30
0.0
 11
51.764676
 21
84.875629
 31
0.0
  0
LINE
  5
AA08
  8
ALPHA
 10
52.136136
 20
85.197382
 30
0.0
 11
51.722501
 21
84.977448
 31
0.0
  0
LINE
  5
AA09
  8
ALPHA
 10
52.042241
 20
85.373971
 30
0.0
 11
51.628606
 21
85.154038
 31
0.0
  0
LINE
  5
AA0A
  8
ALPHA
 10
52.504547
 20
84.727039
 30
0.0
 11
52.67947
 21
84.824004
 31
0.0
  0
LINE
  5
AA0B
  8
ALPHA
 10
52.577781
 20
84.600195
 30
0.0
 11
52.749216
 21
84.7032
 31
0.0
  0
LINE
  5
AA0C
  8
ALPHA
 10
52.800904
 20
84.04597
 30
0.0
 11
52.403618
 21
83.797718
 31
0.0
  0
LINE
  5
AA0D
  8
ALPHA
 10
52.336527
 20
83.885153
 30
0.0
 11
52.176469
 21
83.76523
 31
0.0
  0
LINE
  5
AA0E
  8
ALPHA
 10
52.246356
 20
83.674152
 30
0.0
 11
52.403618
 21
83.797718
 31
0.0
  0
LINE
  5
AA0F
  8
ALPHA
 10
52.336527
 20
83.885153
 30
0.0
 11
52.679145
 21
84.204649
 31
0.0
  0
LINE
  5
AA10
  8
ALPHA
 10
53.156737
 20
83.845685
 30
0.0
 11
53.300603
 21
83.984619
 31
0.0
  0
LINE
  5
AA11
  8
ALPHA
 10
53.260305
 20
83.742117
 30
0.0
 11
53.399239
 21
83.885983
 31
0.0
  0
LINE
  5
AA12
  8
ALPHA
 10
53.619269
 20
83.264525
 30
0.0
 11
53.299773
 21
82.921907
 31
0.0
  0
LINE
  5
AA13
  8
ALPHA
 10
53.212338
 20
82.988998
 30
0.0
 11
53.088773
 21
82.831736
 31
0.0
  0
LINE
  5
AA14
  8
ALPHA
 10
53.17985
 20
82.761849
 30
0.0
 11
53.299773
 21
82.921907
 31
0.0
  0
LINE
  5
AA15
  8
ALPHA
 10
52.29675
 20
85.795548
 30
0.0
 11
52.102692
 21
85.747161
 31
0.0
  0
LINE
  5
AA16
  8
ALPHA
 10
52.200128
 20
84.031423
 30
0.0
 11
52.542745
 21
84.350919
 31
0.0
  0
LINE
  5
AA17
  8
ALPHA
 10
53.212338
 20
82.988998
 30
0.0
 11
53.46059
 21
83.386284
 31
0.0
  0
LINE
  5
AA18
  8
ALPHA
 10
53.042729
 20
83.094982
 30
0.0
 11
53.29098
 21
83.492267
 31
0.0
  0
LINE
  5
AA19
  8
ALPHA
 10
51.823577
 20
86.491703
 30
0.0
 11
51.868567
 21
86.296829
 31
0.0
  0
LINE
  5
AA1A
  8
ALPHA
 10
52.102692
 20
85.747161
 30
0.0
 11
52.1406
 21
85.605685
 31
0.0
  0
LINE
  5
AA1B
  8
ALPHA
 10
52.271151
 20
84.821335
 30
0.0
 11
52.212676
 21
85.012596
 31
0.0
  0
LINE
  5
AA1C
  8
ALPHA
 10
51.82315
 20
84.684368
 30
0.0
 11
51.764676
 21
84.875629
 31
0.0
  0
LINE
  5
AA1D
  8
ALPHA
 10
52.136136
 20
85.197382
 30
0.0
 11
52.042241
 21
85.373971
 31
0.0
  0
LINE
  5
AA1E
  8
ALPHA
 10
51.722501
 20
84.977448
 30
0.0
 11
51.628606
 21
85.154038
 31
0.0
  0
LINE
  5
AA1F
  8
ALPHA
 10
52.504547
 20
84.727039
 30
0.0
 11
52.577781
 21
84.600195
 31
0.0
  0
LINE
  5
AA20
  8
ALPHA
 10
52.906887
 20
83.87636
 30
0.0
 11
52.800904
 21
84.04597
 31
0.0
  0
LINE
  5
AA21
  8
ALPHA
 10
52.542745
 20
84.350919
 30
0.0
 11
52.679145
 21
84.204649
 31
0.0
  0
LINE
  5
AA22
  8
ALPHA
 10
53.29098
 20
83.492267
 30
0.0
 11
53.46059
 21
83.386284
 31
0.0
  0
LINE
  5
AA23
  8
ALPHA
 10
51.894674
 20
86.09853
 30
0.0
 11
51.901654
 21
85.898652
 31
0.0
  0
LINE
  5
AA24
  8
ALPHA
 10
52.509602
 20
83.628109
 30
0.0
 11
52.403618
 21
83.797718
 31
0.0
  0
LINE
  5
AA25
  8
ALPHA
 10
52.200128
 20
84.031423
 30
0.0
 11
52.336527
 21
83.885153
 31
0.0
  0
LINE
  5
AA26
  8
ALPHA
 10
53.446043
 20
82.785508
 30
0.0
 11
53.299773
 21
82.921907
 31
0.0
  0
LINE
  5
AA27
  8
ALPHA
 10
53.042729
 20
83.094982
 30
0.0
 11
53.212338
 21
82.988998
 31
0.0
  0
ARC
  5
AA28
  8
ALPHA
 10
54.044694
 20
82.915005
 30
0.0
 40
0.399993
 50
343.0
 51
60.999089
  0
ARC
  5
AA29
  8
ALPHA
 10
56.177918
 20
86.763298
 30
0.0
 40
3.999993
 50
239.000911
 51
240.999089
  0
ARC
  5
AA2A
  8
ALPHA
 10
54.965181
 20
82.533727
 30
0.0
 40
0.399993
 50
74.000911
 51
152.0
  0
ARC
  5
AA2B
  8
ALPHA
 10
56.177918
 20
86.763298
 30
0.0
 40
3.999996
 50
254.000911
 51
255.999089
  0
ARC
  5
AA2C
  8
ALPHA
 10
55.113394
 20
82.494014
 30
0.0
 40
0.399993
 50
358.0
 51
75.999089
  0
ARC
  5
AA2D
  8
ALPHA
 10
56.177918
 20
86.763298
 30
0.0
 40
4.8
 50
246.842227
 51
248.157773
  0
ARC
  5
AA2E
  8
ALPHA
 10
56.177918
 20
86.763298
 30
0.0
 40
4.8
 50
261.842227
 51
263.157773
  0
ARC
  5
AA2F
  8
ALPHA
 10
54.392068
 20
82.307881
 30
0.0
 40
0.2
 50
248.157773
 51
332.0
  0
ARC
  5
AA30
  8
ALPHA
 10
54.965181
 20
82.533727
 30
0.0
 40
0.2
 50
74.000911
 51
152.0
  0
ARC
  5
AA31
  8
ALPHA
 10
56.177918
 20
86.763298
 30
0.0
 40
4.2
 50
254.000911
 51
255.999089
  0
ARC
  5
AA32
  8
ALPHA
 10
55.113394
 20
82.494014
 30
0.0
 40
0.2
 50
358.0
 51
75.999089
  0
ARC
  5
AA33
  8
ALPHA
 10
55.496801
 20
82.011869
 30
0.0
 40
0.2
 50
178.0
 51
261.842227
  0
ARC
  5
AA34
  8
ALPHA
 10
56.177918
 20
86.763298
 30
0.0
 40
5.0
 50
246.842227
 51
248.157773
  0
ARC
  5
AA35
  8
ALPHA
 10
56.177918
 20
86.763298
 30
0.0
 40
5.0
 50
261.842227
 51
263.157773
  0
ARC
  5
AA36
  8
ALPHA
 10
54.290249
 20
82.350056
 30
0.0
 40
0.2
 50
163.0
 51
246.842227
  0
ARC
  5
AA37
  8
ALPHA
 10
54.044694
 20
82.915005
 30
0.0
 40
0.2
 50
343.0
 51
60.999089
  0
ARC
  5
AA38
  8
ALPHA
 10
56.177918
 20
86.763298
 30
0.0
 40
4.2
 50
239.000911
 51
240.999089
  0
ARC
  5
AA39
  8
ALPHA
 10
53.91181
 20
82.991726
 30
0.0
 40
0.2
 50
59.000911
 51
137.0
  0
LINE
  5
AA3A
  8
ALPHA
 10
54.014815
 20
83.163161
 30
0.0
 11
54.11782
 21
83.334596
 31
0.0
  0
LINE
  5
AA3B
  8
ALPHA
 10
54.141659
 20
83.089927
 30
0.0
 11
54.238624
 21
83.26485
 31
0.0
  0
LINE
  5
AA3C
  8
ALPHA
 10
54.788591
 20
82.627621
 30
0.0
 11
54.568658
 21
82.213986
 31
0.0
  0
LINE
  5
AA3D
  8
ALPHA
 10
54.612002
 20
82.721516
 30
0.0
 11
54.392068
 21
82.307881
 31
0.0
  0
LINE
  5
AA3E
  8
ALPHA
 10
54.290249
 20
82.350056
 30
0.0
 11
54.211596
 21
82.166171
 31
0.0
  0
LINE
  5
AA3F
  8
ALPHA
 10
54.317658
 20
82.122238
 30
0.0
 11
54.392068
 21
82.307881
 31
0.0
  0
LINE
  5
AA40
  8
ALPHA
 10
55.020305
 20
82.72598
 30
0.0
 11
55.07543
 21
82.918233
 31
0.0
  0
LINE
  5
AA41
  8
ALPHA
 10
55.161781
 20
82.688072
 30
0.0
 11
55.210169
 21
82.88213
 31
0.0
  0
LINE
  5
AA42
  8
ALPHA
 10
54.290249
 20
82.350056
 30
0.0
 11
54.427216
 21
82.798056
 31
0.0
  0
LINE
  5
AA43
  8
ALPHA
 10
54.098988
 20
82.40853
 30
0.0
 11
54.235955
 21
82.856531
 31
0.0
  0
LINE
  5
AA44
  8
ALPHA
 10
55.496801
 20
82.011869
 30
0.0
 11
55.468421
 21
81.813892
 31
0.0
  0
LINE
  5
AA45
  8
ALPHA
 10
55.582239
 20
81.798908
 30
0.0
 11
55.606066
 21
81.997483
 31
0.0
  0
LINE
  5
AA46
  8
ALPHA
 10
55.496801
 20
82.011869
 30
0.0
 11
55.51315
 21
82.480054
 31
0.0
  0
LINE
  5
AA47
  8
ALPHA
 10
55.296922
 20
82.018848
 30
0.0
 11
55.313272
 21
82.487034
 31
0.0
  0
LINE
  5
AA48
  8
ALPHA
 10
54.014815
 20
83.163161
 30
0.0
 11
54.141659
 21
83.089927
 31
0.0
  0
LINE
  5
AA49
  8
ALPHA
 10
54.788591
 20
82.627621
 30
0.0
 11
54.612002
 21
82.721516
 31
0.0
  0
LINE
  5
AA4A
  8
ALPHA
 10
54.235955
 20
82.856531
 30
0.0
 11
54.427216
 21
82.798056
 31
0.0
  0
LINE
  5
AA4B
  8
ALPHA
 10
55.020305
 20
82.72598
 30
0.0
 11
55.161781
 21
82.688072
 31
0.0
  0
LINE
  5
AA4C
  8
ALPHA
 10
54.568658
 20
82.213986
 30
0.0
 11
54.392068
 21
82.307881
 31
0.0
  0
LINE
  5
AA4D
  8
ALPHA
 10
54.098988
 20
82.40853
 30
0.0
 11
54.290249
 21
82.350056
 31
0.0
  0
LINE
  5
AA4E
  8
ALPHA
 10
55.313272
 20
82.487034
 30
0.0
 11
55.51315
 21
82.480054
 31
0.0
  0
LINE
  5
AA4F
  8
ALPHA
 10
55.296922
 20
82.018848
 30
0.0
 11
55.496801
 21
82.011869
 31
0.0
  0
ARC
  5
AA50
  8
ALPHA
 10
53.91181
 20
90.53487
 30
0.0
 40
0.399993
 50
223.0
 51
300.999089
  0
LINE
  5
AA51
  8
ALPHA
 10
53.446043
 20
90.741088
 30
0.0
 11
53.76554
 21
90.39847
 31
0.0
  0
LINE
  5
AA52
  8
ALPHA
 10
53.76554
 20
90.39847
 30
0.0
 11
53.619269
 21
90.262071
 31
0.0
  0
ARC
  5
AA53
  8
ALPHA
 10
53.012871
 20
89.819845
 30
0.0
 40
0.399993
 50
238.0
 51
315.999089
  0
ARC
  5
AA54
  8
ALPHA
 10
56.177918
 20
86.763298
 30
0.0
 40
3.999989
 50
134.000911
 51
135.999089
  0
ARC
  5
AA55
  8
ALPHA
 10
53.121371
 20
89.928344
 30
0.0
 40
0.399993
 50
314.000911
 51
32.0
  0
ARC
  5
AA56
  8
ALPHA
 10
52.329625
 20
88.896521
 30
0.0
 40
0.399993
 50
253.0
 51
330.999089
  0
ARC
  5
AA57
  8
ALPHA
 10
56.177918
 20
86.763298
 30
0.0
 40
4.0
 50
149.000911
 51
150.999089
  0
ARC
  5
AA58
  8
ALPHA
 10
52.406346
 20
89.029405
 30
0.0
 40
0.399993
 50
329.000911
 51
47.0
  0
ARC
  5
AA59
  8
ALPHA
 10
51.908634
 20
87.827822
 30
0.0
 40
0.399993
 50
268.0
 51
345.999089
  0
ARC
  5
AA5A
  8
ALPHA
 10
56.177918
 20
86.763298
 30
0.0
 40
3.99999
 50
164.000911
 51
165.999089
  0
ARC
  5
AA5B
  8
ALPHA
 10
51.948347
 20
87.976035
 30
0.0
 40
0.399993
 50
344.000911
 51
62.0
  0
ARC
  5
AA5C
  8
ALPHA
 10
56.177918
 20
86.763298
 30
0.0
 40
3.999998
 50
179.000911
 51
180.999089
  0
ARC
  5
AA5D
  8
ALPHA
 10
51.778587
 20
86.840018
 30
0.0
 40
0.399993
 50
359.000911
 51
77.0
  0
ARC
  5
AA5E
  8
ALPHA
 10
56.177918
 20
86.763298
 30
0.0
 40
4.8
 50
126.842227
 51
128.157773
  0
ARC
  5
AA5F
  8
ALPHA
 10
56.177918
 20
86.763298
 30
0.0
 40
4.8
 50
141.842227
 51
143.157773
  0
ARC
  5
AA60
  8
ALPHA
 10
56.177918
 20
86.763298
 30
0.0
 40
4.8
 50
156.842227
 51
158.157773
  0
ARC
  5
AA61
  8
ALPHA
 10
53.299773
 20
90.604688
 30
0.0
 40
0.2
 50
43.0
 51
126.842227
  0
ARC
  5
AA62
  8
ALPHA
 10
52.403618
 20
89.728877
 30
0.0
 40
0.2
 50
58.0
 51
141.842227
  0
ARC
  5
AA63
  8
ALPHA
 10
53.012871
 20
89.819845
 30
0.0
 40
0.2
 50
238.0
 51
315.999089
  0
ARC
  5
AA64
  8
ALPHA
 10
56.177918
 20
86.763298
 30
0.0
 40
4.2
 50
134.000911
 51
135.999089
  0
ARC
  5
AA65
  8
ALPHA
 10
53.121371
 20
89.928344
 30
0.0
 40
0.2
 50
314.000911
 51
32.0
  0
ARC
  5
AA66
  8
ALPHA
 10
53.212338
 20
90.537597
 30
0.0
 40
0.2
 50
128.157773
 51
212.0
  0
ARC
  5
AA67
  8
ALPHA
 10
52.329625
 20
88.896521
 30
0.0
 40
0.2
 50
253.0
 51
330.999089
  0
ARC
  5
AA68
  8
ALPHA
 10
56.177918
 20
86.763298
 30
0.0
 40
4.2
 50
149.000911
 51
150.999089
  0
ARC
  5
AA69
  8
ALPHA
 10
52.406346
 20
89.029405
 30
0.0
 40
0.2
 50
329.000911
 51
47.0
  0
ARC
  5
AA6A
  8
ALPHA
 10
52.336527
 20
89.641443
 30
0.0
 40
0.2
 50
143.157773
 51
227.0
  0
ARC
  5
AA6B
  8
ALPHA
 10
51.908634
 20
87.827822
 30
0.0
 40
0.2
 50
268.0
 51
345.999089
  0
ARC
  5
AA6C
  8
ALPHA
 10
56.177918
 20
86.763298
 30
0.0
 40
4.2
 50
164.000911
 51
165.999089
  0
ARC
  5
AA6D
  8
ALPHA
 10
51.948347
 20
87.976035
 30
0.0
 40
0.2
 50
344.000911
 51
62.0
  0
ARC
  5
AA6E
  8
ALPHA
 10
56.177918
 20
86.763298
 30
0.0
 40
4.2
 50
179.000911
 51
180.999089
  0
ARC
  5
AA6F
  8
ALPHA
 10
51.778587
 20
86.840018
 30
0.0
 40
0.2
 50
359.000911
 51
77.0
  0
ARC
  5
AA70
  8
ALPHA
 10
56.177918
 20
86.763298
 30
0.0
 40
5.0
 50
126.842227
 51
128.157773
  0
ARC
  5
AA71
  8
ALPHA
 10
56.177918
 20
86.763298
 30
0.0
 40
5.0
 50
141.842227
 51
143.157773
  0
LINE
  5
AA72
  8
ALPHA
 10
53.46059
 20
90.140312
 30
0.0
 11
53.212338
 21
90.537597
 31
0.0
  0
LINE
  5
AA73
  8
ALPHA
 10
53.299773
 20
90.604688
 30
0.0
 11
53.17985
 21
90.764746
 31
0.0
  0
LINE
  5
AA74
  8
ALPHA
 10
53.088773
 20
90.69486
 30
0.0
 11
53.212338
 21
90.537597
 31
0.0
  0
LINE
  5
AA75
  8
ALPHA
 10
53.299773
 20
90.604688
 30
0.0
 11
53.619269
 21
90.262071
 31
0.0
  0
LINE
  5
AA76
  8
ALPHA
 10
53.260305
 20
89.784479
 30
0.0
 11
53.399239
 21
89.640613
 31
0.0
  0
LINE
  5
AA77
  8
ALPHA
 10
53.156737
 20
89.680911
 30
0.0
 11
53.300603
 21
89.541977
 31
0.0
  0
LINE
  5
AA78
  8
ALPHA
 10
52.403618
 20
89.728877
 30
0.0
 11
52.246356
 21
89.852443
 31
0.0
  0
LINE
  5
AA79
  8
ALPHA
 10
52.176469
 20
89.761366
 30
0.0
 11
52.336527
 21
89.641443
 31
0.0
  0
LINE
  5
AA7A
  8
ALPHA
 10
52.509602
 20
89.898487
 30
0.0
 11
52.906887
 21
89.650235
 31
0.0
  0
LINE
  5
AA7B
  8
ALPHA
 10
52.403618
 20
89.728877
 30
0.0
 11
52.800904
 21
89.480626
 31
0.0
  0
LINE
  5
AA7C
  8
ALPHA
 10
52.577781
 20
88.9264
 30
0.0
 11
52.749216
 21
88.823396
 31
0.0
  0
LINE
  5
AA7D
  8
ALPHA
 10
52.504547
 20
88.799557
 30
0.0
 11
52.67947
 21
88.702592
 31
0.0
  0
LINE
  5
AA7E
  8
ALPHA
 10
51.82315
 20
88.842228
 30
0.0
 11
52.271151
 21
88.70526
 31
0.0
  0
LINE
  5
AA7F
  8
ALPHA
 10
51.764676
 20
88.650967
 30
0.0
 11
52.212676
 21
88.513999
 31
0.0
  0
LINE
  5
AA80
  8
ALPHA
 10
52.1406
 20
87.92091
 30
0.0
 11
52.332854
 21
87.865786
 31
0.0
  0
LINE
  5
AA81
  8
ALPHA
 10
52.102692
 20
87.779435
 30
0.0
 11
52.29675
 21
87.731047
 31
0.0
  0
LINE
  5
AA82
  8
ALPHA
 10
51.978556
 20
86.836531
 30
0.0
 11
52.178526
 21
86.833044
 31
0.0
  0
LINE
  5
AA83
  8
ALPHA
 10
51.978556
 20
86.690064
 30
0.0
 11
52.178526
 21
86.693552
 31
0.0
  0
LINE
  5
AA84
  8
ALPHA
 10
53.29098
 20
90.034328
 30
0.0
 11
53.042729
 21
90.431614
 31
0.0
  0
LINE
  5
AA85
  8
ALPHA
 10
52.679145
 20
89.321947
 30
0.0
 11
52.336527
 21
89.641443
 31
0.0
  0
LINE
  5
AA86
  8
ALPHA
 10
52.542745
 20
89.175676
 30
0.0
 11
52.200128
 21
89.495172
 31
0.0
  0
LINE
  5
AA87
  8
ALPHA
 10
52.136136
 20
88.329214
 30
0.0
 11
51.722501
 21
88.549147
 31
0.0
  0
LINE
  5
AA88
  8
ALPHA
 10
52.042241
 20
88.152624
 30
0.0
 11
51.628606
 21
88.372558
 31
0.0
  0
LINE
  5
AA89
  8
ALPHA
 10
53.29098
 20
90.034328
 30
0.0
 11
53.46059
 21
90.140312
 31
0.0
  0
LINE
  5
AA8A
  8
ALPHA
 10
53.042729
 20
90.431614
 30
0.0
 11
53.212338
 21
90.537597
 31
0.0
  0
LINE
  5
AA8B
  8
ALPHA
 10
52.542745
 20
89.175676
 30
0.0
 11
52.679145
 21
89.321947
 31
0.0
  0
LINE
  5
AA8C
  8
ALPHA
 10
52.906887
 20
89.650235
 30
0.0
 11
52.800904
 21
89.480626
 31
0.0
  0
LINE
  5
AA8D
  8
ALPHA
 10
52.577781
 20
88.9264
 30
0.0
 11
52.504547
 21
88.799557
 31
0.0
  0
LINE
  5
AA8E
  8
ALPHA
 10
52.042241
 20
88.152624
 30
0.0
 11
52.136136
 21
88.329214
 31
0.0
  0
LINE
  5
AA8F
  8
ALPHA
 10
52.1406
 20
87.92091
 30
0.0
 11
52.102692
 21
87.779435
 31
0.0
  0
LINE
  5
AA90
  8
ALPHA
 10
53.446043
 20
90.741088
 30
0.0
 11
53.299773
 21
90.604688
 31
0.0
  0
LINE
  5
AA91
  8
ALPHA
 10
52.200128
 20
89.495172
 30
0.0
 11
52.336527
 21
89.641443
 31
0.0
  0
LINE
  5
AA92
  8
ALPHA
 10
52.509602
 20
89.898487
 30
0.0
 11
52.403618
 21
89.728877
 31
0.0
  0
LINE
  5
AA93
  8
ALPHA
 10
51.628606
 20
88.372558
 30
0.0
 11
51.722501
 21
88.549147
 31
0.0
  0
LINE
  5
AA94
  8
ALPHA
 10
52.271151
 20
88.70526
 30
0.0
 11
52.212676
 21
88.513999
 31
0.0
  0
LINE
  5
AA95
  8
ALPHA
 10
51.82315
 20
88.842228
 30
0.0
 11
51.764676
 21
88.650967
 31
0.0
  0
LINE
  5
AA96
  8
ALPHA
 10
51.823577
 20
87.034892
 30
0.0
 11
51.868567
 21
87.229766
 31
0.0
  0
LINE
  5
AA97
  8
ALPHA
 10
51.901654
 20
87.627944
 30
0.0
 11
51.894674
 21
87.428066
 31
0.0
  0
LINE
  5
AA98
  8
ALPHA
 10
51.978556
 20
86.836531
 30
0.0
 11
51.978556
 21
86.690064
 31
0.0
  0
ARC
  5
AA99
  8
ALPHA
 10
54.965181
 20
90.992869
 30
0.0
 40
0.399993
 50
208.0
 51
285.999089
  0
ARC
  5
AA9A
  8
ALPHA
 10
56.177918
 20
86.763298
 30
0.0
 40
3.999989
 50
104.000911
 51
105.999089
  0
ARC
  5
AA9B
  8
ALPHA
 10
55.113394
 20
91.032582
 30
0.0
 40
0.399993
 50
284.000911
 51
2.0
  0
ARC
  5
AA9C
  8
ALPHA
 10
56.177918
 20
86.763298
 30
0.0
 40
4.0
 50
119.000911
 51
120.999089
  0
ARC
  5
AA9D
  8
ALPHA
 10
54.044694
 20
90.611591
 30
0.0
 40
0.399993
 50
299.000911
 51
17.0
  0
ARC
  5
AA9E
  8
ALPHA
 10
56.177918
 20
86.763298
 30
0.0
 40
4.8
 50
96.842227
 51
98.157773
  0
ARC
  5
AA9F
  8
ALPHA
 10
56.177918
 20
86.763298
 30
0.0
 40
4.8
 50
111.842227
 51
113.157773
  0
ARC
  5
AAA0
  8
ALPHA
 10
54.392068
 20
91.218715
 30
0.0
 40
0.2
 50
28.0
 51
111.842227
  0
ARC
  5
AAA1
  8
ALPHA
 10
54.965181
 20
90.992869
 30
0.0
 40
0.2
 50
208.0
 51
285.999089
  0
ARC
  5
AAA2
  8
ALPHA
 10
56.177918
 20
86.763298
 30
0.0
 40
4.2
 50
104.000911
 51
105.999089
  0
ARC
  5
AAA3
  8
ALPHA
 10
55.113394
 20
91.032582
 30
0.0
 40
0.2
 50
284.000911
 51
2.0
  0
ARC
  5
AAA4
  8
ALPHA
 10
55.496801
 20
91.514727
 30
0.0
 40
0.2
 50
98.157773
 51
182.0
  0
ARC
  5
AAA5
  8
ALPHA
 10
53.91181
 20
90.53487
 30
0.0
 40
0.2
 50
223.0
 51
300.999089
  0
ARC
  5
AAA6
  8
ALPHA
 10
56.177918
 20
86.763298
 30
0.0
 40
4.2
 50
119.000911
 51
120.999089
  0
ARC
  5
AAA7
  8
ALPHA
 10
54.044694
 20
90.611591
 30
0.0
 40
0.2
 50
299.000911
 51
17.0
  0
ARC
  5
AAA8
  8
ALPHA
 10
54.290249
 20
91.17654
 30
0.0
 40
0.2
 50
113.157773
 51
197.0
  0
ARC
  5
AAA9
  8
ALPHA
 10
56.177918
 20
86.763298
 30
0.0
 40
5.0
 50
96.842227
 51
98.157773
  0
ARC
  5
AAAA
  8
ALPHA
 10
56.177918
 20
86.763298
 30
0.0
 40
5.0
 50
111.842227
 51
113.157773
  0
LINE
  5
AAAB
  8
ALPHA
 10
55.296922
 20
91.507747
 30
0.0
 11
55.496801
 21
91.514727
 31
0.0
  0
LINE
  5
AAAC
  8
ALPHA
 10
55.313272
 20
91.039562
 30
0.0
 11
55.51315
 21
91.046542
 31
0.0
  0
LINE
  5
AAAD
  8
ALPHA
 10
55.161781
 20
90.838524
 30
0.0
 11
55.020305
 21
90.800615
 31
0.0
  0
LINE
  5
AAAE
  8
ALPHA
 10
55.606066
 20
91.529112
 30
0.0
 11
55.582239
 21
91.727688
 31
0.0
  0
LINE
  5
AAAF
  8
ALPHA
 10
55.468421
 20
91.712703
 30
0.0
 11
55.496801
 21
91.514727
 31
0.0
  0
LINE
  5
AAB0
  8
ALPHA
 10
55.161781
 20
90.838524
 30
0.0
 11
55.210169
 21
90.644465
 31
0.0
  0
LINE
  5
AAB1
  8
ALPHA
 10
55.020305
 20
90.800615
 30
0.0
 11
55.07543
 21
90.608362
 31
0.0
  0
LINE
  5
AAB2
  8
ALPHA
 10
54.427216
 20
90.728539
 30
0.0
 11
54.290249
 21
91.17654
 31
0.0
  0
LINE
  5
AAB3
  8
ALPHA
 10
54.235955
 20
90.670065
 30
0.0
 11
54.098988
 21
91.118065
 31
0.0
  0
LINE
  5
AAB4
  8
ALPHA
 10
54.392068
 20
91.218715
 30
0.0
 11
54.317658
 21
91.404357
 31
0.0
  0
LINE
  5
AAB5
  8
ALPHA
 10
54.211596
 20
91.360425
 30
0.0
 11
54.290249
 21
91.17654
 31
0.0
  0
LINE
  5
AAB6
  8
ALPHA
 10
54.568658
 20
91.312609
 30
0.0
 11
54.788591
 21
90.898974
 31
0.0
  0
LINE
  5
AAB7
  8
ALPHA
 10
54.392068
 20
91.218715
 30
0.0
 11
54.612002
 21
90.80508
 31
0.0
  0
LINE
  5
AAB8
  8
ALPHA
 10
54.141659
 20
90.436668
 30
0.0
 11
54.238624
 21
90.261746
 31
0.0
  0
LINE
  5
AAB9
  8
ALPHA
 10
54.014815
 20
90.363435
 30
0.0
 11
54.11782
 21
90.192
 31
0.0
  0
LINE
  5
AABA
  8
ALPHA
 10
55.51315
 20
91.046542
 30
0.0
 11
55.496801
 21
91.514727
 31
0.0
  0
LINE
  5
AABB
  8
ALPHA
 10
55.313272
 20
91.039562
 30
0.0
 11
55.296922
 21
91.507747
 31
0.0
  0
LINE
  5
AABC
  8
ALPHA
 10
54.235955
 20
90.670065
 30
0.0
 11
54.427216
 21
90.728539
 31
0.0
  0
LINE
  5
AABD
  8
ALPHA
 10
54.098988
 20
91.118065
 30
0.0
 11
54.290249
 21
91.17654
 31
0.0
  0
LINE
  5
AABE
  8
ALPHA
 10
54.788591
 20
90.898974
 30
0.0
 11
54.612002
 21
90.80508
 31
0.0
  0
LINE
  5
AABF
  8
ALPHA
 10
54.568658
 20
91.312609
 30
0.0
 11
54.392068
 21
91.218715
 31
0.0
  0
LINE
  5
AAC0
  8
ALPHA
 10
54.141659
 20
90.436668
 30
0.0
 11
54.014815
 21
90.363435
 31
0.0
  0
POLYLINE
  5
AAC1
  8
ALPHA
 66
     1
 10
0.0
 20
0.0
 30
0.0
 70
   128
210
0.0
220
0.0
230
-1.0
  0
VERTEX
  5
BA52
  8
ALPHA
 10
-48.238956
 20
93.673219
 30
0.0
  0
VERTEX
  5
BA53
  8
ALPHA
 10
-48.595081
 20
94.903726
 30
0.0
  0
VERTEX
  5
BA54
  8
ALPHA
 10
-49.198888
 20
96.034478
 30
0.0
  0
VERTEX
  5
BA55
  8
ALPHA
 10
-49.596249
 20
96.537113
 30
0.0
  0
VERTEX
  5
BA56
  8
ALPHA
 10
-50.061077
 20
96.980098
 30
0.0
  0
VERTEX
  5
BA57
  8
ALPHA
 10
-50.594044
 20
97.335937
 30
0.0
  0
VERTEX
  5
BA58
  8
ALPHA
 10
-51.186689
 20
97.580674
 30
0.0
  0
SEQEND
  5
BA59
  8
ALPHA
  0
ARC
  5
AAC2
  8
ALPHA
 10
50.177918
 20
93.150924
 30
0.0
 40
2.0
 50
101.65512
 51
180.0
  0
POLYLINE
  5
AAC3
  8
ALPHA
 66
     1
 10
0.0
 20
0.0
 30
0.0
 70
   128
  0
VERTEX
  5
BA5A
  8
ALPHA
 10
49.773877
 20
95.109687
 30
0.0
  0
VERTEX
  5
BA5B
  8
ALPHA
 10
50.13374
 20
95.242648
 30
0.0
  0
VERTEX
  5
BA5C
  8
ALPHA
 10
50.444802
 20
95.46542
 30
0.0
  0
VERTEX
  5
BA5D
  8
ALPHA
 10
50.887426
 20
96.088281
 30
0.0
  0
VERTEX
  5
BA5E
  8
ALPHA
 10
51.121312
 20
96.817662
 30
0.0
  0
VERTEX
  5
BA5F
  8
ALPHA
 10
51.18669
 20
97.580673
 30
0.0
  0
SEQEND
  5
BA60
  8
ALPHA
  0
LINE
  5
AAC4
  8
ALPHA
 10
54.238805
 20
94.000166
 30
0.0
 11
54.405007
 21
93.37989
 31
0.0
  0
POLYLINE
  5
AACE
  8
ALPHA
 66
     1
 10
0.0
 20
0.0
 30
0.0
 70
   128
  0
VERTEX
  5
BA61
  8
ALPHA
 10
60.541554
 20
77.513298
 30
0.0
  0
VERTEX
  5
BA62
  8
ALPHA
 10
61.261934
 20
77.586872
 30
0.0
  0
VERTEX
  5
BA63
  8
ALPHA
 10
61.95226
 20
77.807231
 30
0.0
  0
VERTEX
  5
BA64
  8
ALPHA
 10
62.584349
 20
78.160887
 30
0.0
  0
VERTEX
  5
BA65
  8
ALPHA
 10
63.133585
 20
78.633215
 30
0.0
  0
VERTEX
  5
BA66
  8
ALPHA
 10
63.580021
 20
79.203151
 30
0.0
  0
VERTEX
  5
BA67
  8
ALPHA
 10
63.908933
 20
79.847872
 30
0.0
  0
VERTEX
  5
BA68
  8
ALPHA
 10
64.110093
 20
80.542947
 30
0.0
  0
VERTEX
  5
BA69
  8
ALPHA
 10
64.177918
 20
81.263298
 30
0.0
  0
SEQEND
  5
BA6A
  8
ALPHA
  0
ARC
  5
AACF
  8
ALPHA
 10
60.677918
 20
81.263298
 30
0.0
 40
3.5
 50
270.0
 51
0.0
  0
ARC
  5
AAD0
  8
ALPHA
 10
56.177918
 20
86.763298
 30
0.0
 40
7.15
 50
285.0
 51
315.0
  0
ARC
  5
AAD1
  8
ALPHA
 10
56.177918
 20
86.763298
 30
0.0
 40
7.4
 50
285.0
 51
315.0
  0
LINE
  5
AAD2
  8
ALPHA
 10
64.177918
 20
77.263298
 30
0.0
 11
64.177918
 21
93.150924
 31
0.0
  0
ARC
  5
AAD3
  8
ALPHA
 10
62.027918
 20
69.463298
 30
0.0
 40
0.5
 50
270.0
 51
0.0
  0
LINE
  5
AAD4
  8
ALPHA
 10
57.927918
 20
68.713298
 30
0.0
 11
57.927918
 21
68.963298
 31
0.0
  0
LINE
  5
AAD5
  8
ALPHA
 10
62.527918
 20
69.463298
 30
0.0
 11
57.300415
 21
69.463298
 31
0.0
  0
LINE
  5
AAD6
  8
ALPHA
 10
57.300415
 20
69.463298
 30
0.0
 11
57.300415
 21
71.463298
 31
0.0
  0
POLYLINE
  5
AAD7
  8
ALPHA
 66
     1
 10
0.0
 20
0.0
 30
0.0
 70
   128
  0
VERTEX
  5
BA6B
  8
ALPHA
 10
57.371377
 20
75.763298
 30
0.0
  0
VERTEX
  5
BA6C
  8
ALPHA
 10
57.388172
 20
75.597514
 30
0.0
  0
VERTEX
  5
BA6D
  8
ALPHA
 10
57.472978
 20
75.463298
 30
0.0
  0
SEQEND
  5
BA6E
  8
ALPHA
  0
POLYLINE
  5
AAD8
  8
ALPHA
 66
     1
 10
0.0
 20
0.0
 30
0.0
 70
   128
  0
VERTEX
  5
BA6F
  8
ALPHA
 10
56.733773
 20
75.463298
 30
0.0
  0
VERTEX
  5
BA70
  8
ALPHA
 10
56.876342
 20
75.577357
 30
0.0
  0
VERTEX
  5
BA71
  8
ALPHA
 10
56.915313
 20
75.763298
 30
0.0
  0
SEQEND
  5
BA72
  8
ALPHA
  0
LINE
  5
AAD9
  8
ALPHA
 10
57.720592
 20
77.263298
 30
0.0
 11
57.720592
 21
75.463298
 31
0.0
  0
LINE
  5
AADA
  8
ALPHA
 10
57.575899
 20
77.263298
 30
0.0
 11
57.575899
 21
75.463298
 31
0.0
  0
LINE
  5
AADB
  8
ALPHA
 10
57.371377
 20
75.763298
 30
0.0
 11
57.371377
 21
77.263298
 31
0.0
  0
LINE
  5
AADC
  8
ALPHA
 10
56.915313
 20
75.763298
 30
0.0
 11
56.915313
 21
77.263298
 31
0.0
  0
LINE
  5
AADD
  8
ALPHA
 10
56.549874
 20
77.263298
 30
0.0
 11
56.549874
 21
75.463298
 31
0.0
  0
LINE
  5
AADE
  8
ALPHA
 10
56.375304
 20
75.463298
 30
0.0
 11
56.375304
 21
77.263298
 31
0.0
  0
LINE
  5
AADF
  8
ALPHA
 10
55.980532
 20
77.263298
 30
0.0
 11
55.980532
 21
75.463298
 31
0.0
  0
LINE
  5
AAE0
  8
ALPHA
 10
55.805961
 20
77.263298
 30
0.0
 11
55.805961
 21
75.463298
 31
0.0
  0
LINE
  5
AAE1
  8
ALPHA
 10
57.371377
 20
75.763298
 30
0.0
 11
56.915313
 21
75.763298
 31
0.0
  0
LINE
  5
AAE2
  8
ALPHA
 10
57.720592
 20
75.463298
 30
0.0
 11
56.375304
 21
75.463298
 31
0.0
  0
LINE
  5
AAE3
  8
ALPHA
 10
59.220899
 20
75.763298
 30
0.0
 11
59.235637
 21
75.463298
 31
0.0
  0
POLYLINE
  5
AAE4
  8
ALPHA
 66
     1
 10
0.0
 20
0.0
 30
0.0
 70
   128
  0
VERTEX
  5
BA73
  8
ALPHA
 10
58.546807
 20
75.463298
 30
0.0
  0
VERTEX
  5
BA74
  8
ALPHA
 10
58.731071
 20
75.561265
 30
0.0
  0
VERTEX
  5
BA75
  8
ALPHA
 10
58.795915
 20
75.763298
 30
0.0
  0
SEQEND
  5
BA76
  8
ALPHA
  0
LINE
  5
AAE5
  8
ALPHA
 10
59.355522
 20
77.263298
 30
0.0
 11
59.355522
 21
75.463298
 31
0.0
  0
LINE
  5
AAE6
  8
ALPHA
 10
59.250567
 20
77.263298
 30
0.0
 11
59.250567
 21
75.463298
 31
0.0
  0
LINE
  5
AAE7
  8
ALPHA
 10
59.220899
 20
75.763298
 30
0.0
 11
59.220899
 21
77.263298
 31
0.0
  0
LINE
  5
AAE8
  8
ALPHA
 10
58.795915
 20
75.763298
 30
0.0
 11
58.795915
 21
77.263298
 31
0.0
  0
LINE
  5
AAE9
  8
ALPHA
 10
58.294464
 20
75.463298
 30
0.0
 11
58.294464
 21
77.263298
 31
0.0
  0
LINE
  5
AAEA
  8
ALPHA
 10
58.101913
 20
75.463298
 30
0.0
 11
58.101913
 21
77.263298
 31
0.0
  0
LINE
  5
AAEB
  8
ALPHA
 10
58.114097
 20
79.53738
 30
0.0
 11
57.950828
 21
80.146706
 31
0.0
  0
LINE
  5
AAEC
  8
ALPHA
 10
59.220899
 20
75.763298
 30
0.0
 11
58.795915
 21
75.763298
 31
0.0
  0
LINE
  5
AAED
  8
ALPHA
 10
59.355522
 20
75.463298
 30
0.0
 11
58.101913
 21
75.463298
 31
0.0
  0
LINE
  5
AAEE
  8
ALPHA
 10
61.677918
 20
73.813298
 30
0.0
 11
61.677918
 21
75.113298
 31
0.0
  0
LINE
  5
AAEF
  8
ALPHA
 10
61.777918
 20
71.463298
 30
0.0
 11
61.777918
 21
72.663298
 31
0.0
  0
LINE
  5
AAF0
  8
ALPHA
 10
62.527918
 20
72.663298
 30
0.0
 11
62.527918
 21
73.813298
 31
0.0
  0
LINE
  5
AAF1
  8
ALPHA
 10
62.527918
 20
69.463298
 30
0.0
 11
62.527918
 21
71.463298
 31
0.0
  0
POLYLINE
  5
AAF2
  8
ALPHA
 66
     1
 10
0.0
 20
0.0
 30
0.0
 70
   128
210
0.0
220
0.0
230
-1.0
  0
VERTEX
  5
BA77
  8
ALPHA
 10
-60.541554
 20
77.513298
 30
0.0
  0
VERTEX
  5
BA78
  8
ALPHA
 10
-60.569097
 20
77.663859
 30
0.0
  0
VERTEX
  5
BA79
  8
ALPHA
 10
-60.677918
 20
77.763298
 30
0.0
  0
SEQEND
  5
BA7A
  8
ALPHA
  0
POLYLINE
  5
AAF3
  8
ALPHA
 66
     1
 10
0.0
 20
0.0
 30
0.0
 70
   128
  0
VERTEX
  5
BA7B
  8
ALPHA
 10
63.158807
 20
75.463298
 30
0.0
  0
VERTEX
  5
BA7C
  8
ALPHA
 10
63.382606
 20
75.547306
 30
0.0
  0
VERTEX
  5
BA7D
  8
ALPHA
 10
63.481044
 20
75.763298
 30
0.0
  0
SEQEND
  5
BA7E
  8
ALPHA
  0
POLYLINE
  5
AAF4
  8
ALPHA
 66
     1
 10
0.0
 20
0.0
 30
0.0
 70
   128
  0
VERTEX
  5
BA7F
  8
ALPHA
 10
62.585753
 20
75.463298
 30
0.0
  0
VERTEX
  5
BA80
  8
ALPHA
 10
62.817338
 20
75.544879
 30
0.0
  0
VERTEX
  5
BA81
  8
ALPHA
 10
62.923306
 20
75.763298
 30
0.0
  0
SEQEND
  5
BA82
  8
ALPHA
  0
POLYLINE
  5
AAF5
  8
ALPHA
 66
     1
 10
0.0
 20
0.0
 30
0.0
 70
   128
210
0.0
220
0.0
230
-1.0
  0
VERTEX
  5
BA83
  8
ALPHA
 10
-63.099341
 20
75.763298
 30
0.0
  0
VERTEX
  5
BA84
  8
ALPHA
 10
-63.043109
 20
75.565954
 30
0.0
  0
VERTEX
  5
BA85
  8
ALPHA
 10
-62.871076
 20
75.463298
 30
0.0
  0
SEQEND
  5
BA86
  8
ALPHA
  0
POLYLINE
  5
AAF6
  8
ALPHA
 66
     1
 10
0.0
 20
0.0
 30
0.0
 70
   128
210
0.0
220
0.0
230
-1.0
  0
VERTEX
  5
BA87
  8
ALPHA
 10
-63.541086
 20
75.763298
 30
0.0
  0
VERTEX
  5
BA88
  8
ALPHA
 10
-63.460337
 20
75.553925
 30
0.0
  0
VERTEX
  5
BA89
  8
ALPHA
 10
-63.256126
 20
75.463298
 30
0.0
  0
SEQEND
  5
BA8A
  8
ALPHA
  0
LINE
  5
AAF7
  8
ALPHA
 10
63.541086
 20
75.763298
 30
0.0
 11
63.541086
 21
77.263298
 31
0.0
  0
LINE
  5
AAF8
  8
ALPHA
 10
63.481044
 20
75.763298
 30
0.0
 11
63.481044
 21
77.263298
 31
0.0
  0
LINE
  5
AAF9
  8
ALPHA
 10
63.099341
 20
75.763298
 30
0.0
 11
63.099341
 21
77.263298
 31
0.0
  0
LINE
  5
AAFA
  8
ALPHA
 10
62.923306
 20
75.763298
 30
0.0
 11
62.923306
 21
77.263298
 31
0.0
  0
LINE
  5
AAFB
  8
ALPHA
 10
62.877918
 20
75.463298
 30
0.0
 11
62.877918
 21
75.113298
 31
0.0
  0
LINE
  5
AAFC
  8
ALPHA
 10
62.243815
 20
75.463298
 30
0.0
 11
62.243815
 21
77.263298
 31
0.0
  0
LINE
  5
AAFD
  8
ALPHA
 10
62.076463
 20
75.463298
 30
0.0
 11
62.076463
 21
77.263298
 31
0.0
  0
LINE
  5
AAFE
  8
ALPHA
 10
63.099341
 20
75.763298
 30
0.0
 11
62.923306
 21
75.763298
 31
0.0
  0
LINE
  5
AAFF
  8
ALPHA
 10
63.541086
 20
75.763298
 30
0.0
 11
63.481044
 21
75.763298
 31
0.0
  0
LINE
  5
AB00
  8
ALPHA
 10
63.158691
 20
75.463298
 30
0.0
 11
62.076463
 21
75.463298
 31
0.0
  0
POLYLINE
  5
AB01
  8
ALPHA
 66
     1
 10
0.0
 20
0.0
 30
0.0
 70
   128
210
0.0
220
0.0
230
-1.0
  0
VERTEX
  5
BA8B
  8
ALPHA
 10
-61.169147
 20
97.580674
 30
0.0
  0
VERTEX
  5
BA8C
  8
ALPHA
 10
-61.761796
 20
97.335932
 30
0.0
  0
VERTEX
  5
BA8D
  8
ALPHA
 10
-62.294767
 20
96.980089
 30
0.0
  0
VERTEX
  5
BA8E
  8
ALPHA
 10
-62.759598
 20
96.5371
 30
0.0
  0
VERTEX
  5
BA8F
  8
ALPHA
 10
-63.156961
 20
96.034459
 30
0.0
  0
VERTEX
  5
BA90
  8
ALPHA
 10
-63.760767
 20
94.903693
 30
0.0
  0
VERTEX
  5
BA91
  8
ALPHA
 10
-64.116889
 20
93.673173
 30
0.0
  0
SEQEND
  5
BA92
  8
ALPHA
  0
ARC
  5
AB02
  8
ALPHA
 10
62.177918
 20
93.150924
 30
0.0
 40
2.0
 50
0.0
 51
78.34488
  0
ARC
  5
AB03
  8
ALPHA
 10
56.177918
 20
86.763298
 30
0.0
 40
7.15
 50
45.0
 51
75.0
  0
ARC
  5
AB04
  8
ALPHA
 10
56.177918
 20
86.763298
 30
0.0
 40
7.4
 50
45.0
 51
75.0
  0
ARC
  5
AB05
  8
ALPHA
 10
60.026211
 20
88.896521
 30
0.0
 40
0.399993
 50
209.000911
 51
287.0
  0
ARC
  5
AB06
  8
ALPHA
 10
60.026211
 20
84.630074
 30
0.0
 40
0.399993
 50
73.0
 51
150.999089
  0
ARC
  5
AB07
  8
ALPHA
 10
56.177918
 20
86.763298
 30
0.0
 40
4.2
 50
29.000911
 51
30.999089
  0
ARC
  5
AB08
  8
ALPHA
 10
59.94949
 20
89.029405
 30
0.0
 40
0.2
 50
133.0
 51
210.999089
  0
ARC
  5
AB09
  8
ALPHA
 10
59.94949
 20
84.49719
 30
0.0
 40
0.2
 50
149.000911
 51
227.0
  0
ARC
  5
AB0A
  8
ALPHA
 10
56.177918
 20
86.763298
 30
0.0
 40
4.2
 50
329.000911
 51
330.999089
  0
LINE
  5
AB0B
  8
ALPHA
 10
59.81309
 20
84.350919
 30
0.0
 11
59.676691
 21
84.204649
 31
0.0
  0
LINE
  5
AB0C
  8
ALPHA
 10
59.778055
 20
84.600195
 30
0.0
 11
59.851288
 21
84.727039
 31
0.0
  0
LINE
  5
AB0D
  8
ALPHA
 10
59.851288
 20
88.799557
 30
0.0
 11
59.778055
 21
88.9264
 31
0.0
  0
LINE
  5
AB0E
  8
ALPHA
 10
59.81309
 20
89.175676
 30
0.0
 11
59.676691
 21
89.321947
 31
0.0
  0
LINE
  5
AB0F
  8
ALPHA
 10
59.851288
 20
88.799557
 30
0.0
 11
59.676366
 21
88.702592
 31
0.0
  0
LINE
  5
AB10
  8
ALPHA
 10
59.554932
 20
89.480626
 30
0.0
 11
59.952218
 21
89.728877
 31
0.0
  0
LINE
  5
AB11
  8
ALPHA
 10
60.019308
 20
89.641443
 30
0.0
 11
59.676691
 21
89.321947
 31
0.0
  0
LINE
  5
AB12
  8
ALPHA
 10
59.676691
 20
84.204649
 30
0.0
 11
60.019308
 21
83.885153
 31
0.0
  0
LINE
  5
AB13
  8
ALPHA
 10
59.851288
 20
84.727039
 30
0.0
 11
59.676366
 21
84.824004
 31
0.0
  0
LINE
  5
AB14
  8
ALPHA
 10
59.448948
 20
89.650235
 30
0.0
 11
59.846234
 21
89.898487
 31
0.0
  0
LINE
  5
AB15
  8
ALPHA
 10
59.952218
 20
83.797718
 30
0.0
 11
59.554932
 21
84.04597
 31
0.0
  0
LINE
  5
AB16
  8
ALPHA
 10
59.846234
 20
83.628109
 30
0.0
 11
59.448948
 21
83.87636
 31
0.0
  0
POLYLINE
  5
AB17
  8
ALPHA
 66
     1
 10
0.0
 20
0.0
 30
0.0
 70
   128
210
0.0
220
0.0
230
-1.0
  0
VERTEX
  5
BA93
  8
ALPHA
 10
-58.009163
 20
87.5265
 30
0.0
  0
VERTEX
  5
BA94
  8
ALPHA
 10
-58.090015
 20
87.108105
 30
0.0
  0
VERTEX
  5
BA95
  8
ALPHA
 10
-58.075401
 20
86.681659
 30
0.0
  0
VERTEX
  5
BA96
  8
ALPHA
 10
-57.966811
 20
86.269545
 30
0.0
  0
VERTEX
  5
BA97
  8
ALPHA
 10
-57.766321
 20
85.893338
 30
0.0
  0
VERTEX
  5
BA98
  8
ALPHA
 10
-57.48308
 20
85.57481
 30
0.0
  0
VERTEX
  5
BA99
  8
ALPHA
 10
-57.131446
 20
85.334224
 30
0.0
  0
VERTEX
  5
BA9A
  8
ALPHA
 10
-56.731133
 20
85.186971
 30
0.0
  0
VERTEX
  5
BA9B
  8
ALPHA
 10
-56.306917
 20
85.148442
 30
0.0
  0
SEQEND
  5
BA9C
  8
ALPHA
  0
ARC
  5
AB18
  8
ALPHA
 10
57.390655
 20
82.533727
 30
0.0
 40
0.399993
 50
28.0
 51
105.999089
  0
LINE
  5
AB19
  8
ALPHA
 10
57.963768
 20
82.307881
 30
0.0
 11
57.743834
 21
82.721516
 31
0.0
  0
LINE
  5
AB1A
  8
ALPHA
 10
57.787178
 20
82.213986
 30
0.0
 11
57.567244
 21
82.627621
 31
0.0
  0
ARC
  5
AB1B
  8
ALPHA
 10
56.177918
 20
86.763298
 30
0.0
 40
3.999991
 50
269.000911
 51
270.999089
  0
ARC
  5
AB1C
  8
ALPHA
 10
56.254638
 20
82.363967
 30
0.0
 40
0.399993
 50
13.0
 51
90.999089
  0
ARC
  5
AB1D
  8
ALPHA
 10
57.242442
 20
82.494014
 30
0.0
 40
0.399993
 50
104.000911
 51
182.0
  0
ARC
  5
AB1E
  8
ALPHA
 10
56.177918
 20
86.763298
 30
0.0
 40
3.999998
 50
284.000911
 51
285.999089
  0
ARC
  5
AB1F
  8
ALPHA
 10
56.177918
 20
86.763298
 30
0.0
 40
4.8
 50
276.842227
 51
278.157773
  0
ARC
  5
AB20
  8
ALPHA
 10
56.101197
 20
82.363967
 30
0.0
 40
0.2
 50
89.000911
 51
167.0
  0
ARC
  5
AB21
  8
ALPHA
 10
56.177918
 20
86.763298
 30
0.0
 40
4.2
 50
269.000911
 51
270.999089
  0
ARC
  5
AB22
  8
ALPHA
 10
56.254638
 20
82.363967
 30
0.0
 40
0.2
 50
13.0
 51
90.999089
  0
ARC
  5
AB23
  8
ALPHA
 10
56.749769
 20
81.997483
 30
0.0
 40
0.2
 50
193.0
 51
276.842227
  0
ARC
  5
AB24
  8
ALPHA
 10
56.859035
 20
82.011869
 30
0.0
 40
0.2
 50
278.157773
 51
2.0
  0
ARC
  5
AB25
  8
ALPHA
 10
57.242442
 20
82.494014
 30
0.0
 40
0.2
 50
104.000911
 51
182.0
  0
ARC
  5
AB26
  8
ALPHA
 10
56.177918
 20
86.763298
 30
0.0
 40
4.2
 50
284.000911
 51
285.999089
  0
ARC
  5
AB27
  8
ALPHA
 10
57.390655
 20
82.533727
 30
0.0
 40
0.2
 50
28.0
 51
105.999089
  0
ARC
  5
AB28
  8
ALPHA
 10
56.177918
 20
86.763298
 30
0.0
 40
5.0
 50
276.842227
 51
278.157773
  0
LINE
  5
AB29
  8
ALPHA
 10
57.567244
 20
82.627621
 30
0.0
 11
57.743834
 21
82.721516
 31
0.0
  0
LINE
  5
AB2A
  8
ALPHA
 10
55.906323
 20
82.408957
 30
0.0
 11
55.80094
 21
81.952493
 31
0.0
  0
LINE
  5
AB2B
  8
ALPHA
 10
57.042564
 20
82.487034
 30
0.0
 11
57.058913
 21
82.018848
 31
0.0
  0
LINE
  5
AB2C
  8
ALPHA
 10
56.842686
 20
82.480054
 30
0.0
 11
56.859035
 21
82.011869
 31
0.0
  0
LINE
  5
AB2D
  8
ALPHA
 10
56.749769
 20
81.997483
 30
0.0
 11
56.773597
 21
81.798908
 31
0.0
  0
LINE
  5
AB2E
  8
ALPHA
 10
56.887415
 20
81.813892
 30
0.0
 11
56.859035
 21
82.011869
 31
0.0
  0
LINE
  5
AB2F
  8
ALPHA
 10
56.749769
 20
81.997483
 30
0.0
 11
56.644386
 21
82.453947
 31
0.0
  0
LINE
  5
AB30
  8
ALPHA
 10
56.554895
 20
81.952493
 30
0.0
 11
56.449512
 21
82.408957
 31
0.0
  0
LINE
  5
AB31
  8
ALPHA
 10
57.194055
 20
82.688072
 30
0.0
 11
57.145667
 21
82.88213
 31
0.0
  0
LINE
  5
AB32
  8
ALPHA
 10
57.335531
 20
82.72598
 30
0.0
 11
57.280406
 21
82.918233
 31
0.0
  0
LINE
  5
AB33
  8
ALPHA
 10
56.104685
 20
82.563936
 30
0.0
 11
56.108172
 21
82.763906
 31
0.0
  0
LINE
  5
AB34
  8
ALPHA
 10
56.251151
 20
82.563936
 30
0.0
 11
56.247664
 21
82.763906
 31
0.0
  0
LINE
  5
AB35
  8
ALPHA
 10
56.104685
 20
82.563936
 30
0.0
 11
56.251151
 21
82.563936
 31
0.0
  0
LINE
  5
AB36
  8
ALPHA
 10
56.449512
 20
82.408957
 30
0.0
 11
56.644386
 21
82.453947
 31
0.0
  0
LINE
  5
AB37
  8
ALPHA
 10
57.194055
 20
82.688072
 30
0.0
 11
57.335531
 21
82.72598
 31
0.0
  0
LINE
  5
AB38
  8
ALPHA
 10
55.906323
 20
82.408957
 30
0.0
 11
55.711449
 21
82.453947
 31
0.0
  0
LINE
  5
AB39
  8
ALPHA
 10
57.042564
 20
82.487034
 30
0.0
 11
56.842686
 21
82.480054
 31
0.0
  0
LINE
  5
AB3A
  8
ALPHA
 10
57.058913
 20
82.018848
 30
0.0
 11
56.859035
 21
82.011869
 31
0.0
  0
LINE
  5
AB3B
  8
ALPHA
 10
56.554895
 20
81.952493
 30
0.0
 11
56.749769
 21
81.997483
 31
0.0
  0
ARC
  5
AB3C
  8
ALPHA
 10
56.177918
 20
86.763298
 30
0.0
 40
4.8
 50
291.842227
 51
293.157773
  0
ARC
  5
AB3D
  8
ALPHA
 10
56.177918
 20
86.763298
 30
0.0
 40
4.8
 50
306.842227
 51
308.157773
  0
ARC
  5
AB3E
  8
ALPHA
 10
58.311141
 20
82.915005
 30
0.0
 40
0.399993
 50
119.000911
 51
197.0
  0
ARC
  5
AB3F
  8
ALPHA
 10
56.177918
 20
86.763298
 30
0.0
 40
3.99999
 50
299.000911
 51
300.999089
  0
ARC
  5
AB40
  8
ALPHA
 10
58.444025
 20
82.991726
 30
0.0
 40
0.399993
 50
43.0
 51
120.999089
  0
ARC
  5
AB41
  8
ALPHA
 10
59.234465
 20
83.598251
 30
0.0
 40
0.399993
 50
134.000911
 51
212.0
  0
ARC
  5
AB42
  8
ALPHA
 10
56.177918
 20
86.763298
 30
0.0
 40
4.0
 50
314.000911
 51
315.999089
  0
ARC
  5
AB43
  8
ALPHA
 10
59.342964
 20
83.706751
 30
0.0
 40
0.399993
 50
58.0
 51
135.999089
  0
ARC
  5
AB44
  8
ALPHA
 10
59.94949
 20
84.49719
 30
0.0
 40
0.399993
 50
149.000911
 51
227.0
  0
ARC
  5
AB45
  8
ALPHA
 10
56.177918
 20
86.763298
 30
0.0
 40
3.999989
 50
329.000911
 51
330.999089
  0
ARC
  5
AB46
  8
ALPHA
 10
57.963768
 20
82.307881
 30
0.0
 40
0.2
 50
208.0
 51
291.842227
  0
ARC
  5
AB47
  8
ALPHA
 10
58.065587
 20
82.350056
 30
0.0
 40
0.2
 50
293.157773
 51
17.0
  0
ARC
  5
AB48
  8
ALPHA
 10
58.311141
 20
82.915005
 30
0.0
 40
0.2
 50
119.000911
 51
197.0
  0
ARC
  5
AB49
  8
ALPHA
 10
56.177918
 20
86.763298
 30
0.0
 40
4.2
 50
299.000911
 51
300.999089
  0
ARC
  5
AB4A
  8
ALPHA
 10
58.444025
 20
82.991726
 30
0.0
 40
0.2
 50
43.0
 51
120.999089
  0
ARC
  5
AB4B
  8
ALPHA
 10
59.056063
 20
82.921907
 30
0.0
 40
0.2
 50
223.0
 51
306.842227
  0
ARC
  5
AB4C
  8
ALPHA
 10
59.143497
 20
82.988998
 30
0.0
 40
0.2
 50
308.157773
 51
32.0
  0
ARC
  5
AB4D
  8
ALPHA
 10
59.234465
 20
83.598251
 30
0.0
 40
0.2
 50
134.000911
 51
212.0
  0
ARC
  5
AB4E
  8
ALPHA
 10
56.177918
 20
86.763298
 30
0.0
 40
4.2
 50
314.000911
 51
315.999089
  0
ARC
  5
AB4F
  8
ALPHA
 10
59.342964
 20
83.706751
 30
0.0
 40
0.2
 50
58.0
 51
135.999089
  0
ARC
  5
AB50
  8
ALPHA
 10
56.177918
 20
86.763298
 30
0.0
 40
5.0
 50
291.842227
 51
293.157773
  0
ARC
  5
AB51
  8
ALPHA
 10
56.177918
 20
86.763298
 30
0.0
 40
5.0
 50
306.842227
 51
308.157773
  0
LINE
  5
AB52
  8
ALPHA
 10
58.256848
 20
82.40853
 30
0.0
 11
58.065587
 21
82.350056
 31
0.0
  0
LINE
  5
AB53
  8
ALPHA
 10
58.11988
 20
82.856531
 30
0.0
 11
57.928619
 21
82.798056
 31
0.0
  0
LINE
  5
AB54
  8
ALPHA
 10
57.787178
 20
82.213986
 30
0.0
 11
57.963768
 21
82.307881
 31
0.0
  0
LINE
  5
AB55
  8
ALPHA
 10
59.313107
 20
83.094982
 30
0.0
 11
59.143497
 21
82.988998
 31
0.0
  0
LINE
  5
AB56
  8
ALPHA
 10
59.064855
 20
83.492267
 30
0.0
 11
58.895246
 21
83.386284
 31
0.0
  0
LINE
  5
AB57
  8
ALPHA
 10
58.909792
 20
82.785508
 30
0.0
 11
59.056063
 21
82.921907
 31
0.0
  0
LINE
  5
AB58
  8
ALPHA
 10
58.590296
 20
83.128125
 30
0.0
 11
58.736567
 21
83.264525
 31
0.0
  0
LINE
  5
AB59
  8
ALPHA
 10
59.095531
 20
83.742117
 30
0.0
 11
59.199099
 21
83.845685
 31
0.0
  0
LINE
  5
AB5A
  8
ALPHA
 10
59.448948
 20
83.87636
 30
0.0
 11
59.554932
 21
84.04597
 31
0.0
  0
LINE
  5
AB5B
  8
ALPHA
 10
58.11988
 20
82.856531
 30
0.0
 11
58.256848
 21
82.40853
 31
0.0
  0
LINE
  5
AB5C
  8
ALPHA
 10
57.928619
 20
82.798056
 30
0.0
 11
58.065587
 21
82.350056
 31
0.0
  0
LINE
  5
AB5D
  8
ALPHA
 10
57.963768
 20
82.307881
 30
0.0
 11
58.038178
 21
82.122238
 31
0.0
  0
LINE
  5
AB5E
  8
ALPHA
 10
58.14424
 20
82.166171
 30
0.0
 11
58.065587
 21
82.350056
 31
0.0
  0
LINE
  5
AB5F
  8
ALPHA
 10
58.214177
 20
83.089927
 30
0.0
 11
58.117212
 21
83.26485
 31
0.0
  0
LINE
  5
AB60
  8
ALPHA
 10
58.34102
 20
83.163161
 30
0.0
 11
58.238016
 21
83.334596
 31
0.0
  0
LINE
  5
AB61
  8
ALPHA
 10
59.064855
 20
83.492267
 30
0.0
 11
59.313107
 21
83.094982
 31
0.0
  0
LINE
  5
AB62
  8
ALPHA
 10
58.895246
 20
83.386284
 30
0.0
 11
59.143497
 21
82.988998
 31
0.0
  0
LINE
  5
AB63
  8
ALPHA
 10
59.056063
 20
82.921907
 30
0.0
 11
59.175986
 21
82.761849
 31
0.0
  0
LINE
  5
AB64
  8
ALPHA
 10
59.267063
 20
82.831736
 30
0.0
 11
59.143497
 21
82.988998
 31
0.0
  0
LINE
  5
AB65
  8
ALPHA
 10
59.095531
 20
83.742117
 30
0.0
 11
58.956597
 21
83.885983
 31
0.0
  0
LINE
  5
AB66
  8
ALPHA
 10
59.199099
 20
83.845685
 30
0.0
 11
59.055233
 21
83.984619
 31
0.0
  0
LINE
  5
AB67
  8
ALPHA
 10
59.778055
 20
84.600195
 30
0.0
 11
59.60662
 21
84.7032
 31
0.0
  0
LINE
  5
AB68
  8
ALPHA
 10
59.056063
 20
82.921907
 30
0.0
 11
58.736567
 21
83.264525
 31
0.0
  0
LINE
  5
AB69
  8
ALPHA
 10
58.909792
 20
82.785508
 30
0.0
 11
58.590296
 21
83.128125
 31
0.0
  0
POLYLINE
  5
AB6A
  8
ALPHA
 66
     1
 10
0.0
 20
0.0
 30
0.0
 70
   128
210
0.0
220
0.0
230
-1.0
  0
VERTEX
  5
BA9D
  8
ALPHA
 10
-57.000892
 20
88.575152
 30
0.0
  0
VERTEX
  5
BA9E
  8
ALPHA
 10
-57.585055
 20
88.170446
 30
0.0
  0
VERTEX
  5
BA9F
  8
ALPHA
 10
-57.989765
 20
87.586287
 30
0.0
  0
SEQEND
  5
BAA0
  8
ALPHA
  0
ARC
  5
AB6B
  8
ALPHA
 10
57.390655
 20
90.992869
 30
0.0
 40
0.399993
 50
254.000911
 51
332.0
  0
LINE
  5
AB6C
  8
ALPHA
 10
57.743834
 20
90.80508
 30
0.0
 11
57.963768
 21
91.218715
 31
0.0
  0
LINE
  5
AB6D
  8
ALPHA
 10
57.567244
 20
90.898974
 30
0.0
 11
57.787178
 21
91.312609
 31
0.0
  0
ARC
  5
AB6E
  8
ALPHA
 10
57.242442
 20
91.032582
 30
0.0
 40
0.399993
 50
178.0
 51
255.999089
  0
ARC
  5
AB6F
  8
ALPHA
 10
56.177918
 20
86.763298
 30
0.0
 40
3.999998
 50
74.000911
 51
75.999089
  0
ARC
  5
AB70
  8
ALPHA
 10
56.177918
 20
86.763298
 30
0.0
 40
3.999999
 50
89.000911
 51
90.999089
  0
ARC
  5
AB71
  8
ALPHA
 10
56.254638
 20
91.162629
 30
0.0
 40
0.399993
 50
269.000911
 51
347.0
  0
ARC
  5
AB72
  8
ALPHA
 10
56.177918
 20
86.763298
 30
0.0
 40
4.8
 50
81.842227
 51
83.157773
  0
ARC
  5
AB73
  8
ALPHA
 10
56.859035
 20
91.514727
 30
0.0
 40
0.2
 50
358.0
 51
81.842227
  0
ARC
  5
AB74
  8
ALPHA
 10
57.242442
 20
91.032582
 30
0.0
 40
0.2
 50
178.0
 51
255.999089
  0
ARC
  5
AB75
  8
ALPHA
 10
56.177918
 20
86.763298
 30
0.0
 40
4.2
 50
74.000911
 51
75.999089
  0
ARC
  5
AB76
  8
ALPHA
 10
57.390655
 20
90.992869
 30
0.0
 40
0.2
 50
254.000911
 51
332.0
  0
ARC
  5
AB77
  8
ALPHA
 10
56.101197
 20
91.162629
 30
0.0
 40
0.2
 50
193.0
 51
270.999089
  0
ARC
  5
AB78
  8
ALPHA
 10
56.177918
 20
86.763298
 30
0.0
 40
4.2
 50
89.000911
 51
90.999089
  0
ARC
  5
AB79
  8
ALPHA
 10
56.254638
 20
91.162629
 30
0.0
 40
0.2
 50
269.000911
 51
347.0
  0
ARC
  5
AB7A
  8
ALPHA
 10
56.749769
 20
91.529112
 30
0.0
 40
0.2
 50
83.157773
 51
167.0
  0
ARC
  5
AB7B
  8
ALPHA
 10
56.177918
 20
86.763298
 30
0.0
 40
5.0
 50
81.842227
 51
83.157773
  0
ARC
  5
AB7C
  8
ALPHA
 10
56.177918
 20
90.413298
 30
0.0
 40
0.15
 50
26.565051
 51
157.750976
  0
ARC
  5
AB7D
  8
ALPHA
 10
56.727918
 20
89.313298
 30
0.0
 40
0.15
 50
270.0
 51
26.565051
  0
LINE
  5
AB7E
  8
ALPHA
 10
57.567244
 20
90.898974
 30
0.0
 11
57.743834
 21
90.80508
 31
0.0
  0
LINE
  5
AB7F
  8
ALPHA
 10
57.335531
 20
90.800615
 30
0.0
 11
57.194055
 21
90.838524
 31
0.0
  0
LINE
  5
AB80
  8
ALPHA
 10
56.554895
 20
91.574102
 30
0.0
 11
56.749769
 21
91.529112
 31
0.0
  0
LINE
  5
AB81
  8
ALPHA
 10
56.449512
 20
91.117639
 30
0.0
 11
56.644386
 21
91.072648
 31
0.0
  0
LINE
  5
AB82
  8
ALPHA
 10
57.058913
 20
91.507747
 30
0.0
 11
56.859035
 21
91.514727
 31
0.0
  0
LINE
  5
AB83
  8
ALPHA
 10
57.042564
 20
91.039562
 30
0.0
 11
56.842686
 21
91.046542
 31
0.0
  0
LINE
  5
AB84
  8
ALPHA
 10
56.251151
 20
90.962659
 30
0.0
 11
56.104685
 21
90.962659
 31
0.0
  0
LINE
  5
AB85
  8
ALPHA
 10
55.906323
 20
91.117639
 30
0.0
 11
55.711449
 21
91.072648
 31
0.0
  0
LINE
  5
AB86
  8
ALPHA
 10
55.80094
 20
91.574102
 30
0.0
 11
55.906323
 21
91.117639
 31
0.0
  0
LINE
  5
AB87
  8
ALPHA
 10
56.862082
 20
89.38038
 30
0.0
 11
56.312082
 21
90.48038
 31
0.0
  0
LINE
  5
AB88
  8
ALPHA
 10
55.727918
 20
89.163298
 30
0.0
 11
56.727918
 21
89.163298
 31
0.0
  0
LINE
  5
AB89
  8
ALPHA
 10
57.335531
 20
90.800615
 30
0.0
 11
57.280406
 21
90.608362
 31
0.0
  0
LINE
  5
AB8A
  8
ALPHA
 10
57.194055
 20
90.838524
 30
0.0
 11
57.145667
 21
90.644465
 31
0.0
  0
LINE
  5
AB8B
  8
ALPHA
 10
57.058913
 20
91.507747
 30
0.0
 11
57.042564
 21
91.039562
 31
0.0
  0
LINE
  5
AB8C
  8
ALPHA
 10
56.859035
 20
91.514727
 30
0.0
 11
56.842686
 21
91.046542
 31
0.0
  0
LINE
  5
AB8D
  8
ALPHA
 10
56.644386
 20
91.072648
 30
0.0
 11
56.749769
 21
91.529112
 31
0.0
  0
LINE
  5
AB8E
  8
ALPHA
 10
56.449512
 20
91.117639
 30
0.0
 11
56.554895
 21
91.574102
 31
0.0
  0
LINE
  5
AB8F
  8
ALPHA
 10
56.859035
 20
91.514727
 30
0.0
 11
56.887415
 21
91.712703
 31
0.0
  0
LINE
  5
AB90
  8
ALPHA
 10
56.773597
 20
91.727688
 30
0.0
 11
56.749769
 21
91.529112
 31
0.0
  0
LINE
  5
AB91
  8
ALPHA
 10
56.251151
 20
90.962659
 30
0.0
 11
56.247664
 21
90.76269
 31
0.0
  0
LINE
  5
AB92
  8
ALPHA
 10
56.104685
 20
90.962659
 30
0.0
 11
56.108172
 21
90.76269
 31
0.0
  0
LINE
  5
AB93
  8
ALPHA
 10
57.989765
 20
87.586287
 30
0.0
 11
58.036731
 21
87.473825
 31
0.0
  0
LINE
  5
AB94
  8
ALPHA
 10
57.989765
 20
87.586287
 30
0.0
 11
58.009163
 21
87.5265
 31
0.0
  0
ARC
  5
AB95
  8
ALPHA
 10
56.177918
 20
86.763298
 30
0.0
 40
4.8
 50
51.842227
 51
53.157773
  0
ARC
  5
AB96
  8
ALPHA
 10
59.342964
 20
89.819845
 30
0.0
 40
0.399993
 50
224.000911
 51
302.0
  0
ARC
  5
AB97
  8
ALPHA
 10
56.177918
 20
86.763298
 30
0.0
 40
3.999991
 50
44.000911
 51
45.999089
  0
ARC
  5
AB98
  8
ALPHA
 10
58.311141
 20
90.611591
 30
0.0
 40
0.399993
 50
163.0
 51
240.999089
  0
ARC
  5
AB99
  8
ALPHA
 10
59.234465
 20
89.928344
 30
0.0
 40
0.399993
 50
148.0
 51
225.999089
  0
ARC
  5
AB9A
  8
ALPHA
 10
56.177918
 20
86.763298
 30
0.0
 40
3.99999
 50
59.000911
 51
60.999089
  0
ARC
  5
AB9B
  8
ALPHA
 10
58.444025
 20
90.53487
 30
0.0
 40
0.399993
 50
239.000911
 51
317.0
  0
ARC
  5
AB9C
  8
ALPHA
 10
56.177918
 20
86.763298
 30
0.0
 40
3.999998
 50
29.000911
 51
30.999089
  0
ARC
  5
AB9D
  8
ALPHA
 10
59.94949
 20
89.029405
 30
0.0
 40
0.399993
 50
133.0
 51
210.999089
  0
ARC
  5
AB9E
  8
ALPHA
 10
56.177918
 20
86.763298
 30
0.0
 40
4.8
 50
66.842227
 51
68.157773
  0
ARC
  5
AB9F
  8
ALPHA
 10
58.065587
 20
91.17654
 30
0.0
 40
0.2
 50
343.0
 51
66.842227
  0
ARC
  5
ABA0
  8
ALPHA
 10
59.342964
 20
89.819845
 30
0.0
 40
0.2
 50
224.000911
 51
302.0
  0
ARC
  5
ABA1
  8
ALPHA
 10
58.311141
 20
90.611591
 30
0.0
 40
0.2
 50
163.0
 51
240.999089
  0
ARC
  5
ABA2
  8
ALPHA
 10
56.177918
 20
86.763298
 30
0.0
 40
4.2
 50
44.000911
 51
45.999089
  0
ARC
  5
ABA3
  8
ALPHA
 10
59.234465
 20
89.928344
 30
0.0
 40
0.2
 50
148.0
 51
225.999089
  0
ARC
  5
ABA4
  8
ALPHA
 10
56.177918
 20
86.763298
 30
0.0
 40
4.2
 50
59.000911
 51
60.999089
  0
ARC
  5
ABA5
  8
ALPHA
 10
58.444025
 20
90.53487
 30
0.0
 40
0.2
 50
239.000911
 51
317.0
  0
ARC
  5
ABA6
  8
ALPHA
 10
59.143497
 20
90.537597
 30
0.0
 40
0.2
 50
328.0
 51
51.842227
  0
ARC
  5
ABA7
  8
ALPHA
 10
59.056063
 20
90.604688
 30
0.0
 40
0.2
 50
53.157773
 51
137.0
  0
ARC
  5
ABA8
  8
ALPHA
 10
57.963768
 20
91.218715
 30
0.0
 40
0.2
 50
68.157773
 51
152.0
  0
ARC
  5
ABA9
  8
ALPHA
 10
56.177918
 20
86.763298
 30
0.0
 40
5.0
 50
66.842227
 51
68.157773
  0
ARC
  5
ABAA
  8
ALPHA
 10
56.177918
 20
86.763298
 30
0.0
 40
5.0
 50
51.842227
 51
53.157773
  0
LINE
  5
ABAB
  8
ALPHA
 10
59.448948
 20
89.650235
 30
0.0
 11
59.554932
 21
89.480626
 31
0.0
  0
LINE
  5
ABAC
  8
ALPHA
 10
59.199099
 20
89.680911
 30
0.0
 11
59.095531
 21
89.784479
 31
0.0
  0
LINE
  5
ABAD
  8
ALPHA
 10
58.909792
 20
90.741088
 30
0.0
 11
59.056063
 21
90.604688
 31
0.0
  0
LINE
  5
ABAE
  8
ALPHA
 10
58.590296
 20
90.39847
 30
0.0
 11
58.736567
 21
90.262071
 31
0.0
  0
LINE
  5
ABAF
  8
ALPHA
 10
59.313107
 20
90.431614
 30
0.0
 11
59.143497
 21
90.537597
 31
0.0
  0
LINE
  5
ABB0
  8
ALPHA
 10
59.064855
 20
90.034328
 30
0.0
 11
58.895246
 21
90.140312
 31
0.0
  0
LINE
  5
ABB1
  8
ALPHA
 10
58.34102
 20
90.363435
 30
0.0
 11
58.214177
 21
90.436668
 31
0.0
  0
LINE
  5
ABB2
  8
ALPHA
 10
57.787178
 20
91.312609
 30
0.0
 11
57.963768
 21
91.218715
 31
0.0
  0
LINE
  5
ABB3
  8
ALPHA
 10
58.256848
 20
91.118065
 30
0.0
 11
58.065587
 21
91.17654
 31
0.0
  0
LINE
  5
ABB4
  8
ALPHA
 10
58.11988
 20
90.670065
 30
0.0
 11
57.928619
 21
90.728539
 31
0.0
  0
LINE
  5
ABB5
  8
ALPHA
 10
59.778055
 20
88.9264
 30
0.0
 11
59.60662
 21
88.823396
 31
0.0
  0
LINE
  5
ABB6
  8
ALPHA
 10
59.199099
 20
89.680911
 30
0.0
 11
59.055233
 21
89.541977
 31
0.0
  0
LINE
  5
ABB7
  8
ALPHA
 10
59.095531
 20
89.784479
 30
0.0
 11
58.956597
 21
89.640613
 31
0.0
  0
LINE
  5
ABB8
  8
ALPHA
 10
58.736567
 20
90.262071
 30
0.0
 11
59.056063
 21
90.604688
 31
0.0
  0
LINE
  5
ABB9
  8
ALPHA
 10
59.143497
 20
90.537597
 30
0.0
 11
59.267063
 21
90.69486
 31
0.0
  0
LINE
  5
ABBA
  8
ALPHA
 10
59.175986
 20
90.764746
 30
0.0
 11
59.056063
 21
90.604688
 31
0.0
  0
LINE
  5
ABBB
  8
ALPHA
 10
59.313107
 20
90.431614
 30
0.0
 11
59.064855
 21
90.034328
 31
0.0
  0
LINE
  5
ABBC
  8
ALPHA
 10
59.143497
 20
90.537597
 30
0.0
 11
58.895246
 21
90.140312
 31
0.0
  0
LINE
  5
ABBD
  8
ALPHA
 10
58.34102
 20
90.363435
 30
0.0
 11
58.238016
 21
90.192
 31
0.0
  0
LINE
  5
ABBE
  8
ALPHA
 10
58.214177
 20
90.436668
 30
0.0
 11
58.117212
 21
90.261746
 31
0.0
  0
LINE
  5
ABBF
  8
ALPHA
 10
58.065587
 20
91.17654
 30
0.0
 11
58.14424
 21
91.360425
 31
0.0
  0
LINE
  5
ABC0
  8
ALPHA
 10
58.038178
 20
91.404357
 30
0.0
 11
57.963768
 21
91.218715
 31
0.0
  0
LINE
  5
ABC1
  8
ALPHA
 10
58.256848
 20
91.118065
 30
0.0
 11
58.11988
 21
90.670065
 31
0.0
  0
LINE
  5
ABC2
  8
ALPHA
 10
58.065587
 20
91.17654
 30
0.0
 11
57.928619
 21
90.728539
 31
0.0
  0
LINE
  5
ABC3
  8
ALPHA
 10
58.590296
 20
90.39847
 30
0.0
 11
58.909792
 21
90.741088
 31
0.0
  0
ARC
  5
ABC4
  8
ALPHA
 10
60.577249
 20
86.686577
 30
0.0
 40
0.399993
 50
179.000911
 51
257.0
  0
ARC
  5
ABC5
  8
ALPHA
 10
60.577249
 20
86.686577
 30
0.0
 40
0.2
 50
179.000911
 51
257.0
  0
ARC
  5
ABC6
  8
ALPHA
 10
56.177918
 20
86.763298
 30
0.0
 40
7.15
 50
345.0
 51
15.0
  0
ARC
  5
ABC7
  8
ALPHA
 10
56.177918
 20
86.763298
 30
0.0
 40
7.4
 50
345.0
 51
15.0
  0
ARC
  5
ABC8
  8
ALPHA
 10
56.177918
 20
86.763298
 30
0.0
 40
6.935285
 50
315.0
 51
345.0
  0
ARC
  5
ABC9
  8
ALPHA
 10
60.407489
 20
85.550561
 30
0.0
 40
0.399993
 50
164.000911
 51
242.0
  0
ARC
  5
ABCA
  8
ALPHA
 10
56.177918
 20
86.763298
 30
0.0
 40
4.0
 50
344.000911
 51
345.999089
  0
ARC
  5
ABCB
  8
ALPHA
 10
60.447202
 20
85.698774
 30
0.0
 40
0.399993
 50
88.0
 51
165.999089
  0
ARC
  5
ABCC
  8
ALPHA
 10
56.177918
 20
86.763298
 30
0.0
 40
4.8
 50
321.842227
 51
323.157773
  0
ARC
  5
ABCD
  8
ALPHA
 10
56.177918
 20
86.763298
 30
0.0
 40
4.8
 50
336.842227
 51
338.157773
  0
ARC
  5
ABCE
  8
ALPHA
 10
56.177918
 20
86.763298
 30
0.0
 40
4.8
 50
351.842227
 51
353.157773
  0
ARC
  5
ABCF
  8
ALPHA
 10
60.943732
 20
86.191446
 30
0.0
 40
0.2
 50
353.157773
 51
77.0
  0
ARC
  5
ABD0
  8
ALPHA
 10
60.633335
 20
84.977448
 30
0.0
 40
0.2
 50
338.157773
 51
62.0
  0
ARC
  5
ABD1
  8
ALPHA
 10
60.407489
 20
85.550561
 30
0.0
 40
0.2
 50
164.000911
 51
242.0
  0
ARC
  5
ABD2
  8
ALPHA
 10
56.177918
 20
86.763298
 30
0.0
 40
4.2
 50
344.000911
 51
345.999089
  0
ARC
  5
ABD3
  8
ALPHA
 10
60.447202
 20
85.698774
 30
0.0
 40
0.2
 50
88.0
 51
165.999089
  0
ARC
  5
ABD4
  8
ALPHA
 10
60.929347
 20
86.08218
 30
0.0
 40
0.2
 50
268.0
 51
351.842227
  0
ARC
  5
ABD5
  8
ALPHA
 10
59.952218
 20
83.797718
 30
0.0
 40
0.2
 50
238.0
 51
321.842227
  0
ARC
  5
ABD6
  8
ALPHA
 10
60.019308
 20
83.885153
 30
0.0
 40
0.2
 50
323.157773
 51
47.0
  0
ARC
  5
ABD7
  8
ALPHA
 10
60.026211
 20
84.630074
 30
0.0
 40
0.2
 50
73.0
 51
150.999089
  0
ARC
  5
ABD8
  8
ALPHA
 10
60.59116
 20
84.875629
 30
0.0
 40
0.2
 50
253.0
 51
336.842227
  0
ARC
  5
ABD9
  8
ALPHA
 10
56.177918
 20
86.763298
 30
0.0
 40
5.0
 50
321.842227
 51
323.157773
  0
ARC
  5
ABDA
  8
ALPHA
 10
56.177918
 20
86.763298
 30
0.0
 40
5.0
 50
336.842227
 51
338.157773
  0
ARC
  5
ABDB
  8
ALPHA
 10
56.177918
 20
86.763298
 30
0.0
 40
5.0
 50
351.842227
 51
353.157773
  0
LINE
  5
ABDC
  8
ALPHA
 10
60.155708
 20
84.031423
 30
0.0
 11
60.019308
 21
83.885153
 31
0.0
  0
LINE
  5
ABDD
  8
ALPHA
 10
59.846234
 20
83.628109
 30
0.0
 11
59.952218
 21
83.797718
 31
0.0
  0
LINE
  5
ABDE
  8
ALPHA
 10
60.727229
 20
85.154038
 30
0.0
 11
60.633335
 21
84.977448
 31
0.0
  0
LINE
  5
ABDF
  8
ALPHA
 10
60.313594
 20
85.373971
 30
0.0
 11
60.2197
 21
85.197382
 31
0.0
  0
LINE
  5
ABE0
  8
ALPHA
 10
60.532686
 20
84.684368
 30
0.0
 11
60.59116
 21
84.875629
 31
0.0
  0
LINE
  5
ABE1
  8
ALPHA
 10
60.084685
 20
84.821335
 30
0.0
 11
60.143159
 21
85.012596
 31
0.0
  0
LINE
  5
ABE2
  8
ALPHA
 10
60.215235
 20
85.605685
 30
0.0
 11
60.253144
 21
85.747161
 31
0.0
  0
LINE
  5
ABE3
  8
ALPHA
 10
60.988722
 20
86.38632
 30
0.0
 11
60.943732
 21
86.191446
 31
0.0
  0
LINE
  5
ABE4
  8
ALPHA
 10
60.532259
 20
86.491703
 30
0.0
 11
60.487268
 21
86.296829
 31
0.0
  0
LINE
  5
ABE5
  8
ALPHA
 10
60.922367
 20
85.882302
 30
0.0
 11
60.929347
 21
86.08218
 31
0.0
  0
LINE
  5
ABE6
  8
ALPHA
 10
60.454182
 20
85.898652
 30
0.0
 11
60.461162
 21
86.09853
 31
0.0
  0
LINE
  5
ABE7
  8
ALPHA
 10
61.467914
 20
81.473301
 30
0.0
 11
61.021599
 21
81.919616
 31
0.0
  0
LINE
  5
ABE8
  8
ALPHA
 10
59.81309
 20
84.350919
 30
0.0
 11
60.155708
 21
84.031423
 31
0.0
  0
LINE
  5
ABE9
  8
ALPHA
 10
59.952218
 20
83.797718
 30
0.0
 11
60.10948
 21
83.674152
 31
0.0
  0
LINE
  5
ABEA
  8
ALPHA
 10
60.179366
 20
83.76523
 30
0.0
 11
60.019308
 21
83.885153
 31
0.0
  0
LINE
  5
ABEB
  8
ALPHA
 10
60.313594
 20
85.373971
 30
0.0
 11
60.727229
 21
85.154038
 31
0.0
  0
LINE
  5
ABEC
  8
ALPHA
 10
60.2197
 20
85.197382
 30
0.0
 11
60.633335
 21
84.977448
 31
0.0
  0
LINE
  5
ABED
  8
ALPHA
 10
60.59116
 20
84.875629
 30
0.0
 11
60.775045
 21
84.796976
 31
0.0
  0
LINE
  5
ABEE
  8
ALPHA
 10
60.818977
 20
84.903038
 30
0.0
 11
60.633335
 21
84.977448
 31
0.0
  0
LINE
  5
ABEF
  8
ALPHA
 10
60.215235
 20
85.605685
 30
0.0
 11
60.022982
 21
85.660809
 31
0.0
  0
LINE
  5
ABF0
  8
ALPHA
 10
60.253144
 20
85.747161
 30
0.0
 11
60.059085
 21
85.795548
 31
0.0
  0
LINE
  5
ABF1
  8
ALPHA
 10
60.532259
 20
86.491703
 30
0.0
 11
60.988722
 21
86.38632
 31
0.0
  0
LINE
  5
ABF2
  8
ALPHA
 10
60.487268
 20
86.296829
 30
0.0
 11
60.943732
 21
86.191446
 31
0.0
  0
LINE
  5
ABF3
  8
ALPHA
 10
60.929347
 20
86.08218
 30
0.0
 11
61.127323
 21
86.053801
 31
0.0
  0
LINE
  5
ABF4
  8
ALPHA
 10
61.142308
 20
86.167619
 30
0.0
 11
60.943732
 21
86.191446
 31
0.0
  0
LINE
  5
ABF5
  8
ALPHA
 10
60.59116
 20
84.875629
 30
0.0
 11
60.143159
 21
85.012596
 31
0.0
  0
LINE
  5
ABF6
  8
ALPHA
 10
60.532686
 20
84.684368
 30
0.0
 11
60.084685
 21
84.821335
 31
0.0
  0
LINE
  5
ABF7
  8
ALPHA
 10
60.929347
 20
86.08218
 30
0.0
 11
60.461162
 21
86.09853
 31
0.0
  0
LINE
  5
ABF8
  8
ALPHA
 10
60.922367
 20
85.882302
 30
0.0
 11
60.454182
 21
85.898652
 31
0.0
  0
LINE
  5
ABF9
  8
ALPHA
 10
63.417215
 20
84.823534
 30
0.0
 11
62.79451
 21
84.990387
 31
0.0
  0
ARC
  5
ABFA
  8
ALPHA
 10
56.177918
 20
86.763298
 30
0.0
 40
6.935285
 50
15.0
 51
45.0
  0
ARC
  5
ABFB
  8
ALPHA
 10
56.177918
 20
86.763298
 30
0.0
 40
4.8
 50
6.842227
 51
8.157773
  0
ARC
  5
ABFC
  8
ALPHA
 10
56.177918
 20
86.763298
 30
0.0
 40
4.8
 50
21.842227
 51
23.157773
  0
ARC
  5
ABFD
  8
ALPHA
 10
56.177918
 20
86.763298
 30
0.0
 40
4.8
 50
36.842227
 51
38.157773
  0
ARC
  5
ABFE
  8
ALPHA
 10
60.447202
 20
87.827822
 30
0.0
 40
0.399993
 50
194.000911
 51
272.0
  0
ARC
  5
ABFF
  8
ALPHA
 10
56.177918
 20
86.763298
 30
0.0
 40
3.999999
 50
14.000911
 51
15.999089
  0
ARC
  5
AC00
  8
ALPHA
 10
60.407489
 20
87.976035
 30
0.0
 40
0.399993
 50
118.0
 51
195.999089
  0
ARC
  5
AC01
  8
ALPHA
 10
56.177918
 20
86.763298
 30
0.0
 40
3.999989
 50
359.000911
 51
0.999089
  0
ARC
  5
AC02
  8
ALPHA
 10
60.577249
 20
86.840018
 30
0.0
 40
0.399993
 50
103.0
 51
180.999089
  0
ARC
  5
AC03
  8
ALPHA
 10
59.952218
 20
89.728877
 30
0.0
 40
0.2
 50
38.157773
 51
122.0
  0
ARC
  5
AC04
  8
ALPHA
 10
60.59116
 20
88.650967
 30
0.0
 40
0.2
 50
23.157773
 51
107.0
  0
ARC
  5
AC05
  8
ALPHA
 10
60.026211
 20
88.896521
 30
0.0
 40
0.2
 50
209.000911
 51
287.0
  0
ARC
  5
AC06
  8
ALPHA
 10
60.019308
 20
89.641443
 30
0.0
 40
0.2
 50
313.0
 51
36.842227
  0
ARC
  5
AC07
  8
ALPHA
 10
60.929347
 20
87.444415
 30
0.0
 40
0.2
 50
8.157773
 51
92.0
  0
ARC
  5
AC08
  8
ALPHA
 10
60.447202
 20
87.827822
 30
0.0
 40
0.2
 50
194.000911
 51
272.0
  0
ARC
  5
AC09
  8
ALPHA
 10
56.177918
 20
86.763298
 30
0.0
 40
4.2
 50
14.000911
 51
15.999089
  0
ARC
  5
AC0A
  8
ALPHA
 10
60.407489
 20
87.976035
 30
0.0
 40
0.2
 50
118.0
 51
195.999089
  0
ARC
  5
AC0B
  8
ALPHA
 10
60.633335
 20
88.549147
 30
0.0
 40
0.2
 50
298.0
 51
21.842227
  0
ARC
  5
AC0C
  8
ALPHA
 10
56.177918
 20
86.763298
 30
0.0
 40
4.2
 50
359.000911
 51
0.999089
  0
ARC
  5
AC0D
  8
ALPHA
 10
60.577249
 20
86.840018
 30
0.0
 40
0.2
 50
103.0
 51
180.999089
  0
ARC
  5
AC0E
  8
ALPHA
 10
60.943732
 20
87.335149
 30
0.0
 40
0.2
 50
283.0
 51
6.842227
  0
ARC
  5
AC0F
  8
ALPHA
 10
56.177918
 20
86.763298
 30
0.0
 40
5.0
 50
6.842227
 51
8.157773
  0
ARC
  5
AC10
  8
ALPHA
 10
56.177918
 20
86.763298
 30
0.0
 40
5.0
 50
21.842227
 51
23.157773
  0
ARC
  5
AC11
  8
ALPHA
 10
56.177918
 20
86.763298
 30
0.0
 40
5.0
 50
36.842227
 51
38.157773
  0
LINE
  5
AC12
  8
ALPHA
 10
60.988722
 20
87.140275
 30
0.0
 11
60.943732
 21
87.335149
 31
0.0
  0
LINE
  5
AC13
  8
ALPHA
 10
60.532686
 20
88.842228
 30
0.0
 11
60.59116
 21
88.650967
 31
0.0
  0
LINE
  5
AC14
  8
ALPHA
 10
60.922367
 20
87.644293
 30
0.0
 11
60.929347
 21
87.444415
 31
0.0
  0
LINE
  5
AC15
  8
ALPHA
 10
60.532259
 20
87.034892
 30
0.0
 11
60.487268
 21
87.229766
 31
0.0
  0
LINE
  5
AC16
  8
ALPHA
 10
60.253144
 20
87.779435
 30
0.0
 11
60.215235
 21
87.92091
 31
0.0
  0
LINE
  5
AC17
  8
ALPHA
 10
60.084685
 20
88.70526
 30
0.0
 11
60.143159
 21
88.513999
 31
0.0
  0
LINE
  5
AC18
  8
ALPHA
 10
60.727229
 20
88.372558
 30
0.0
 11
60.633335
 21
88.549147
 31
0.0
  0
LINE
  5
AC19
  8
ALPHA
 10
60.313594
 20
88.152624
 30
0.0
 11
60.2197
 21
88.329214
 31
0.0
  0
LINE
  5
AC1A
  8
ALPHA
 10
59.846234
 20
89.898487
 30
0.0
 11
59.952218
 21
89.728877
 31
0.0
  0
LINE
  5
AC1B
  8
ALPHA
 10
60.155708
 20
89.495172
 30
0.0
 11
60.019308
 21
89.641443
 31
0.0
  0
LINE
  5
AC1C
  8
ALPHA
 10
60.454182
 20
87.627944
 30
0.0
 11
60.461162
 21
87.428066
 31
0.0
  0
LINE
  5
AC1D
  8
ALPHA
 10
60.727229
 20
88.372558
 30
0.0
 11
60.313594
 21
88.152624
 31
0.0
  0
LINE
  5
AC1E
  8
ALPHA
 10
60.215235
 20
87.92091
 30
0.0
 11
60.022982
 21
87.865786
 31
0.0
  0
LINE
  5
AC1F
  8
ALPHA
 10
60.143159
 20
88.513999
 30
0.0
 11
60.59116
 21
88.650967
 31
0.0
  0
LINE
  5
AC20
  8
ALPHA
 10
60.084685
 20
88.70526
 30
0.0
 11
60.532686
 21
88.842228
 31
0.0
  0
LINE
  5
AC21
  8
ALPHA
 10
60.633335
 20
88.549147
 30
0.0
 11
60.818977
 21
88.623558
 31
0.0
  0
LINE
  5
AC22
  8
ALPHA
 10
60.775045
 20
88.72962
 30
0.0
 11
60.59116
 21
88.650967
 31
0.0
  0
LINE
  5
AC23
  8
ALPHA
 10
60.633335
 20
88.549147
 30
0.0
 11
60.2197
 21
88.329214
 31
0.0
  0
LINE
  5
AC24
  8
ALPHA
 10
60.019308
 20
89.641443
 30
0.0
 11
60.179366
 21
89.761366
 31
0.0
  0
LINE
  5
AC25
  8
ALPHA
 10
60.10948
 20
89.852443
 30
0.0
 11
59.952218
 21
89.728877
 31
0.0
  0
LINE
  5
AC26
  8
ALPHA
 10
60.155708
 20
89.495172
 30
0.0
 11
59.81309
 21
89.175676
 31
0.0
  0
LINE
  5
AC27
  8
ALPHA
 10
61.481128
 20
92.066508
 30
0.0
 11
61.021599
 21
91.606979
 31
0.0
  0
LINE
  5
AC28
  8
ALPHA
 10
60.377279
 20
86.690064
 30
0.0
 11
60.17731
 21
86.693552
 31
0.0
  0
LINE
  5
AC29
  8
ALPHA
 10
60.377279
 20
86.836531
 30
0.0
 11
60.17731
 21
86.833044
 31
0.0
  0
LINE
  5
AC2A
  8
ALPHA
 10
60.454182
 20
87.627944
 30
0.0
 11
60.922367
 21
87.644293
 31
0.0
  0
LINE
  5
AC2B
  8
ALPHA
 10
60.461162
 20
87.428066
 30
0.0
 11
60.929347
 21
87.444415
 31
0.0
  0
LINE
  5
AC2C
  8
ALPHA
 10
60.943732
 20
87.335149
 30
0.0
 11
61.142308
 21
87.358976
 31
0.0
  0
LINE
  5
AC2D
  8
ALPHA
 10
61.127323
 20
87.472795
 30
0.0
 11
60.929347
 21
87.444415
 31
0.0
  0
LINE
  5
AC2E
  8
ALPHA
 10
60.253144
 20
87.779435
 30
0.0
 11
60.059085
 21
87.731047
 31
0.0
  0
LINE
  5
AC2F
  8
ALPHA
 10
60.943732
 20
87.335149
 30
0.0
 11
60.487268
 21
87.229766
 31
0.0
  0
LINE
  5
AC30
  8
ALPHA
 10
60.988722
 20
87.140275
 30
0.0
 11
60.532259
 21
87.034892
 31
0.0
  0
LINE
  5
AC31
  8
ALPHA
 10
63.402479
 20
88.699113
 30
0.0
 11
62.79451
 21
88.536208
 31
0.0
  0
LINE
  5
AC32
  8
ALPHA
 10
58.117031
 20
94.000166
 30
0.0
 11
57.950828
 21
93.37989
 31
0.0
  0
POLYLINE
  5
AC33
  8
ALPHA
 66
     1
 10
0.0
 20
0.0
 30
0.0
 70
   128
210
0.0
220
0.0
230
-1.0
  0
VERTEX
  5
BAA1
  8
ALPHA
 10
-62.581956
 20
95.109678
 30
0.0
  0
VERTEX
  5
BAA2
  8
ALPHA
 10
-62.222093
 20
95.24264
 30
0.0
  0
VERTEX
  5
BAA3
  8
ALPHA
 10
-61.911031
 20
95.465414
 30
0.0
  0
VERTEX
  5
BAA4
  8
ALPHA
 10
-61.468408
 20
96.088277
 30
0.0
  0
VERTEX
  5
BAA5
  8
ALPHA
 10
-61.234521
 20
96.81766
 30
0.0
  0
VERTEX
  5
BAA6
  8
ALPHA
 10
-61.169142
 20
97.580673
 30
0.0
  0
SEQEND
  5
BAA7
  8
ALPHA
  0
LINE
  5
AC34
  8
ALPHA
 10
64.177918
 20
86.763298
 30
0.0
 11
64.237918
 21
86.763298
 31
0.0
  0
POLYLINE
  5
AC35
  8
ALPHA
 66
     1
 10
0.0
 20
0.0
 30
0.0
 70
   128
  0
VERTEX
  5
BAA8
  8
ALPHA
 10
62.454741
 20
104.238546
 30
0.0
  0
VERTEX
  5
BAA9
  8
ALPHA
 10
59.317816
 20
104.382863
 30
0.0
  0
VERTEX
  5
BAAA
  8
ALPHA
 10
56.177918
 20
104.430455
 30
0.0
  0
VERTEX
  5
BAAB
  8
ALPHA
 10
53.03802
 20
104.382864
 30
0.0
  0
VERTEX
  5
BAAC
  8
ALPHA
 10
49.901094
 20
104.238546
 30
0.0
  0
SEQEND
  5
BAAD
  8
ALPHA
  0
ARC
  5
AC36
  8
ALPHA
 10
56.177918
 20
75.263298
 30
0.0
 40
31.7
 50
83.37041
 51
96.62959
  0
ARC
  5
AC37
  8
ALPHA
 10
52.864501
 20
103.771389
 30
0.0
 40
3.0
 50
96.667453
 51
171.041516
  0
ARC
  5
AC38
  8
ALPHA
 10
59.491335
 20
103.771389
 30
0.0
 40
3.0
 50
8.958482
 51
83.334214
  0
VIEWPORT
  5
494D
 67
     1
  8
0
 10
4.995325
 20
6.556512
 30
0.0
 40
22.70986
 41
13.988421
 68
    -1
 69
     1
1001
ACAD
1000
MVIEW
1002
{
1070
    16
1010
0.0
1020
0.0
1030
0.0
1010
0.0
1020
0.0
1030
1.0
1040
0.0
1040
13.988421
1040
4.995325
1040
6.556512
1040
50.0
1040
0.0
1040
0.0
1070
     0
1070
   100
1070
     1
1070
     1
1070
     0
1070
     0
1070
     0
1070
     0
1040
0.0
1040
0.0
1040
0.0
1040
10.0
1040
10.0
1040
10.0
1040
10.0
1070
     0
1002
{
1002
}
1002
}
  0
ENDSEC
  0
EOF
