  0
SECTION
  2
HEADER
  9
$ACADVER
  1
AC1014
  9
$ACADMAINTVER
 70
     0
  9
$DWGCODEPAGE
  3
ANSI_1252
  9
$INSBASE
 10
0.0
 20
0.0
 30
0.0
  9
$EXTMIN
 10
71.859938
 20
59.141111
 30
0.0
  9
$EXTMAX
 10
128.220598
 20
282.230391
 30
0.0
  9
$LIMMIN
 10
0.0
 20
0.0
  9
$LIMMAX
 10
297.0
 20
210.0
  9
$ORTHOMODE
 70
     0
  9
$REGENMODE
 70
     1
  9
$FILLMODE
 70
     1
  9
$QTEXTMODE
 70
     0
  9
$MIRRTEXT
 70
     1
  9
$DRAGMODE
 70
     2
  9
$LTSCALE
 40
1.0
  9
$OSMODE
 70
     0
  9
$ATTMODE
 70
     1
  9
$TEXTSIZE
 40
3.5
  9
$TRACEWID
 40
0.05
  9
$TEXTSTYLE
  7
ROMANS
  9
$CLAYER
  8
0
  9
$CELTYPE
  6
BYLAYER
  9
$CECOLOR
 62
   256
  9
$CELTSCALE
 40
1.0
  9
$DELOBJ
 70
     1
  9
$DISPSILH
 70
     0
  9
$DIMSCALE
 40
1.0
  9
$DIMASZ
 40
3.0
  9
$DIMEXO
 40
0.0625
  9
$DIMDLI
 40
0.38
  9
$DIMRND
 40
0.01
  9
$DIMDLE
 40
0.0
  9
$DIMEXE
 40
0.18
  9
$DIMTP
 40
0.0
  9
$DIMTM
 40
0.0
  9
$DIMTXT
 40
2.5
  9
$DIMCEN
 40
0.09
  9
$DIMTSZ
 40
0.0
  9
$DIMTOL
 70
     0
  9
$DIMLIM
 70
     0
  9
$DIMTIH
 70
     0
  9
$DIMTOH
 70
     0
  9
$DIMSE1
 70
     0
  9
$DIMSE2
 70
     0
  9
$DIMTAD
 70
     1
  9
$DIMZIN
 70
    12
  9
$DIMBLK
  1

  9
$DIMASO
 70
     1
  9
$DIMSHO
 70
     1
  9
$DIMPOST
  1

  9
$DIMAPOST
  1

  9
$DIMALT
 70
     0
  9
$DIMALTD
 70
     2
  9
$DIMALTF
 40
25.4
  9
$DIMLFAC
 40
1.0
  9
$DIMTOFL
 70
     1
  9
$DIMTVP
 40
0.0
  9
$DIMTIX
 70
     0
  9
$DIMSOXD
 70
     0
  9
$DIMSAH
 70
     0
  9
$DIMBLK1
  1

  9
$DIMBLK2
  1

  9
$DIMSTYLE
  2
SC_STAND
  9
$DIMCLRD
 70
     0
  9
$DIMCLRE
 70
     0
  9
$DIMCLRT
 70
     0
  9
$DIMTFAC
 40
1.0
  9
$DIMGAP
 40
1.0
  9
$DIMJUST
 70
     0
  9
$DIMSD1
 70
     0
  9
$DIMSD2
 70
     0
  9
$DIMTOLJ
 70
     1
  9
$DIMTZIN
 70
    12
  9
$DIMALTZ
 70
    12
  9
$DIMALTTZ
 70
    12
  9
$DIMFIT
 70
     5
  9
$DIMUPT
 70
     0
  9
$DIMUNIT
 70
     2
  9
$DIMDEC
 70
     4
  9
$DIMTDEC
 70
     4
  9
$DIMALTU
 70
     2
  9
$DIMALTTD
 70
     2
  9
$DIMTXSTY
  7
ROMANS
  9
$DIMAUNIT
 70
     0
  9
$LUNITS
 70
     2
  9
$LUPREC
 70
     4
  9
$SKETCHINC
 40
0.1
  9
$FILLETRAD
 40
10.0
  9
$AUNITS
 70
     0
  9
$AUPREC
 70
     0
  9
$MENU
  1
acad
  9
$ELEVATION
 40
0.0
  9
$PELEVATION
 40
0.0
  9
$THICKNESS
 40
0.0
  9
$LIMCHECK
 70
     0
  9
$BLIPMODE
 70
     1
  9
$CHAMFERA
 40
10.0
  9
$CHAMFERB
 40
10.0
  9
$CHAMFERC
 40
0.0
  9
$CHAMFERD
 40
0.0
  9
$SKPOLY
 70
     0
  9
$TDCREATE
 40
2450653.479042477
  9
$TDUPDATE
 40
2451387.895820127
  9
$TDINDWG
 40
0.0000687616
  9
$TDUSRTIMER
 40
0.0000687616
  9
$USRTIMER
 70
     1
  9
$ANGBASE
 50
0.0
  9
$ANGDIR
 70
     0
  9
$PDMODE
 70
     0
  9
$PDSIZE
 40
0.0
  9
$PLINEWID
 40
0.0
  9
$COORDS
 70
     1
  9
$SPLFRAME
 70
     0
  9
$SPLINETYPE
 70
     6
  9
$SPLINESEGS
 70
     8
  9
$ATTDIA
 70
     0
  9
$ATTREQ
 70
     1
  9
$HANDLING
 70
     1
  9
$HANDSEED
  5
468
  9
$SURFTAB1
 70
     6
  9
$SURFTAB2
 70
     6
  9
$SURFTYPE
 70
     6
  9
$SURFU
 70
     6
  9
$SURFV
 70
     6
  9
$UCSNAME
  2

  9
$UCSORG
 10
0.0
 20
0.0
 30
0.0
  9
$UCSXDIR
 10
1.0
 20
0.0
 30
0.0
  9
$UCSYDIR
 10
0.0
 20
1.0
 30
0.0
  9
$PUCSNAME
  2

  9
$PUCSORG
 10
0.0
 20
0.0
 30
0.0
  9
$PUCSXDIR
 10
1.0
 20
0.0
 30
0.0
  9
$PUCSYDIR
 10
0.0
 20
1.0
 30
0.0
  9
$USERI1
 70
     0
  9
$USERI2
 70
     0
  9
$USERI3
 70
     0
  9
$USERI4
 70
     0
  9
$USERI5
 70
     0
  9
$USERR1
 40
0.0
  9
$USERR2
 40
0.0
  9
$USERR3
 40
0.0
  9
$USERR4
 40
0.0
  9
$USERR5
 40
0.0
  9
$WORLDVIEW
 70
     1
  9
$SHADEDGE
 70
     3
  9
$SHADEDIF
 70
    70
  9
$TILEMODE
 70
     1
  9
$MAXACTVP
 70
    16
  9
$PINSBASE
 10
0.0
 20
0.0
 30
0.0
  9
$PLIMCHECK
 70
     0
  9
$PEXTMIN
 10
1.000000E+20
 20
1.000000E+20
 30
1.000000E+20
  9
$PEXTMAX
 10
-1.000000E+20
 20
-1.000000E+20
 30
-1.000000E+20
  9
$PLIMMIN
 10
0.0
 20
0.0
  9
$PLIMMAX
 10
12.0
 20
9.0
  9
$UNITMODE
 70
     0
  9
$VISRETAIN
 70
     0
  9
$PLINEGEN
 70
     0
  9
$PSLTSCALE
 70
     1
  9
$TREEDEPTH
 70
  3020
  9
$PICKSTYLE
 70
     1
  9
$CMLSTYLE
  2
STANDARD
  9
$CMLJUST
 70
     0
  9
$CMLSCALE
 40
1.0
  9
$PROXYGRAPHICS
 70
     1
  9
$MEASUREMENT
 70
     0
  0
ENDSEC
  0
SECTION
  2
CLASSES
  0
CLASS
  1
DICTIONARYVAR
  2
AcDbDictionaryVar
  3
"AutoCAD"
 90
        0
280
     0
281
     0
  0
CLASS
  1
LWPOLYLINE
  2
AcDbPolyline
  3
"AutoCAD"
 90
        0
280
     0
281
     1
  0
ENDSEC
  0
SECTION
  2
TABLES
  0
TABLE
  2
VPORT
  5
40D
100
AcDbSymbolTable
 70
     1
  0
VPORT
  5
463
100
AcDbSymbolTableRecord
100
AcDbViewportTableRecord
  2
*ACTIVE
 70
     0
 10
0.0
 20
0.0
 11
1.0
 21
1.0
 12
290.754099
 22
190.132892
 13
0.0
 23
0.0
 14
1.0
 24
1.0
 15
0.0
 25
0.0
 16
0.0
 26
0.0
 36
1.0
 17
0.0
 27
0.0
 37
0.0
 40
261.983562
 41
1.671053
 42
50.0
 43
0.0
 44
0.0
 50
0.0
 51
0.0
 71
     0
 72
   100
 73
     1
 74
     1
 75
     0
 76
     0
 77
     0
 78
     0
  0
ENDTAB
  0
TABLE
  2
LTYPE
  5
40A
100
AcDbSymbolTable
 70
    23
  0
LTYPE
  5
416
100
AcDbSymbolTableRecord
100
AcDbLinetypeTableRecord
  2
BYBLOCK
 70
     0
  3

 72
    65
 73
     0
 40
0.0
  0
LTYPE
  5
417
100
AcDbSymbolTableRecord
100
AcDbLinetypeTableRecord
  2
BYLAYER
 70
     0
  3

 72
    65
 73
     0
 40
0.0
  0
LTYPE
  5
418
100
AcDbSymbolTableRecord
100
AcDbLinetypeTableRecord
  2
CONTINUOUS
 70
     0
  3
Solid line
 72
    65
 73
     0
 40
0.0
  0
LTYPE
  5
42A
100
AcDbSymbolTableRecord
100
AcDbLinetypeTableRecord
  2
AXES
 70
     0
  3
____ _ ____ _ ____ _ ____ _ ____ _ ____ _ ____ 
 72
    65
 73
     4
 40
2.0
 49
1.25
 74
     0
 49
-0.25
 74
     0
 49
0.25
 74
     0
 49
-0.25
 74
     0
  0
LTYPE
  5
42B
100
AcDbSymbolTableRecord
100
AcDbLinetypeTableRecord
  2
AXES2
 70
     0
  3
___ _ ___ _ ___ _ ___ _ ___ _ ___ _ ___ _ ___ _
 72
    65
 73
     4
 40
1.125
 49
0.75
 74
     0
 49
-0.125
 74
     0
 49
0.125
 74
     0
 49
-0.125
 74
     0
  0
LTYPE
  5
42C
100
AcDbSymbolTableRecord
100
AcDbLinetypeTableRecord
  2
AXESX2
 70
     0
  3
________  __  ________  __  ________  __  _____
 72
    65
 73
     4
 40
4.0
 49
2.5
 74
     0
 49
-0.5
 74
     0
 49
0.5
 74
     0
 49
-0.5
 74
     0
  0
LTYPE
  5
42D
100
AcDbSymbolTableRecord
100
AcDbLinetypeTableRecord
  2
TIRETPT
 70
     0
  3
__ . __ . __ . __ . __ . __ . __ . __ . __ . __
 72
    65
 73
     4
 40
1.0
 49
0.5
 74
     0
 49
-0.25
 74
     0
 49
0.0
 74
     0
 49
-0.25
 74
     0
  0
LTYPE
  5
42E
100
AcDbSymbolTableRecord
100
AcDbLinetypeTableRecord
  2
TIRETPT2
 70
     0
  3
_._._._._._._._._._._._._._._._._._._._._._._._
 72
    65
 73
     4
 40
0.5
 49
0.25
 74
     0
 49
-0.125
 74
     0
 49
0.0
 74
     0
 49
-0.125
 74
     0
  0
LTYPE
  5
42F
100
AcDbSymbolTableRecord
100
AcDbLinetypeTableRecord
  2
TIRETPTX2
 70
     0
  3
____  .  ____  .  ____  .  ____  .  ____  .  __
 72
    65
 73
     4
 40
2.0
 49
1.0
 74
     0
 49
-0.5
 74
     0
 49
0.0
 74
     0
 49
-0.5
 74
     0
  0
LTYPE
  5
430
100
AcDbSymbolTableRecord
100
AcDbLinetypeTableRecord
  2
DISCONTINU
 70
     0
  3
__ __ __ __ __ __ __ __ __ __ __ __ __ __ __ __
 72
    65
 73
     2
 40
0.75
 49
0.5
 74
     0
 49
-0.25
 74
     0
  0
LTYPE
  5
431
100
AcDbSymbolTableRecord
100
AcDbLinetypeTableRecord
  2
DISCONTINU2
 70
     0
  3
_ _ _ _ _ _ _ _ _ _ _ _ _ _ _ _ _ _ _ _ _ _ _ _
 72
    65
 73
     2
 40
0.375
 49
0.25
 74
     0
 49
-0.125
 74
     0
  0
LTYPE
  5
432
100
AcDbSymbolTableRecord
100
AcDbLinetypeTableRecord
  2
DISCONTINUX2
 70
     0
  3
____  ____  ____  ____  ____  ____  ____  ____ 
 72
    65
 73
     2
 40
1.5
 49
1.0
 74
     0
 49
-0.5
 74
     0
  0
LTYPE
  5
433
100
AcDbSymbolTableRecord
100
AcDbLinetypeTableRecord
  2
DIVISE
 70
     0
  3
____ . . ____ . . ____ . . ____ . . ____ . . __
 72
    65
 73
     6
 40
1.25
 49
0.5
 74
     0
 49
-0.25
 74
     0
 49
0.0
 74
     0
 49
-0.25
 74
     0
 49
0.0
 74
     0
 49
-0.25
 74
     0
  0
LTYPE
  5
434
100
AcDbSymbolTableRecord
100
AcDbLinetypeTableRecord
  2
DIVISE2
 70
     0
  3
__..__..__..__..__..__..__..__..__..__..__..__.
 72
    65
 73
     6
 40
0.625
 49
0.25
 74
     0
 49
-0.125
 74
     0
 49
0.0
 74
     0
 49
-0.125
 74
     0
 49
0.0
 74
     0
 49
-0.125
 74
     0
  0
LTYPE
  5
435
100
AcDbSymbolTableRecord
100
AcDbLinetypeTableRecord
  2
DIVISEX2
 70
     0
  3
________  .  .  ________  .  .  ________  .  . 
 72
    65
 73
     6
 40
2.5
 49
1.0
 74
     0
 49
-0.5
 74
     0
 49
0.0
 74
     0
 49
-0.5
 74
     0
 49
0.0
 74
     0
 49
-0.5
 74
     0
  0
LTYPE
  5
436
100
AcDbSymbolTableRecord
100
AcDbLinetypeTableRecord
  2
POINTILLE
 70
     0
  3
. . . . . . . . . . . . . . . . . . . . . . . .
 72
    65
 73
     2
 40
0.25
 49
0.0
 74
     0
 49
-0.25
 74
     0
  0
LTYPE
  5
437
100
AcDbSymbolTableRecord
100
AcDbLinetypeTableRecord
  2
POINTILLE2
 70
     0
  3
...............................................
 72
    65
 73
     2
 40
0.125
 49
0.0
 74
     0
 49
-0.125
 74
     0
  0
LTYPE
  5
438
100
AcDbSymbolTableRecord
100
AcDbLinetypeTableRecord
  2
POINTILLEX2
 70
     0
  3
.  .  .  .  .  .  .  .  .  .  .  .  .  .  .  . 
 72
    65
 73
     2
 40
0.5
 49
0.0
 74
     0
 49
-0.5
 74
     0
  0
LTYPE
  5
439
100
AcDbSymbolTableRecord
100
AcDbLinetypeTableRecord
  2
CACHE
 70
     0
  3
__ __ __ __ __ __ __ __ __ __ __ __ __ __ __ __
 72
    65
 73
     2
 40
0.375
 49
0.25
 74
     0
 49
-0.125
 74
     0
  0
LTYPE
  5
43A
100
AcDbSymbolTableRecord
100
AcDbLinetypeTableRecord
  2
CACHE2
 70
     0
  3
_ _ _ _ _ _ _ _ _ _ _ _ _ _ _ _ _ _ _ _ _ _ _ _
 72
    65
 73
     2
 40
0.1875
 49
0.125
 74
     0
 49
-0.0625
 74
     0
  0
LTYPE
  5
43B
100
AcDbSymbolTableRecord
100
AcDbLinetypeTableRecord
  2
CACHEX2
 70
     0
  3
____ ____ ____ ____ ____ ____ ____ ____ ____ __
 72
    65
 73
     2
 40
0.75
 49
0.5
 74
     0
 49
-0.25
 74
     0
  0
LTYPE
  5
43C
100
AcDbSymbolTableRecord
100
AcDbLinetypeTableRecord
  2
FANTOME
 70
     0
  3
______  __  __  ______  __  __  ______  __  __ 
 72
    65
 73
     6
 40
2.5
 49
1.25
 74
     0
 49
-0.25
 74
     0
 49
0.25
 74
     0
 49
-0.25
 74
     0
 49
0.25
 74
     0
 49
-0.25
 74
     0
  0
LTYPE
  5
43D
100
AcDbSymbolTableRecord
100
AcDbLinetypeTableRecord
  2
FANTOME2
 70
     0
  3
___ _ _ ___ _ _ ___ _ _ ___ _ _ ___ _ _ ___ _ _
 72
    65
 73
     6
 40
1.25
 49
0.625
 74
     0
 49
-0.125
 74
     0
 49
0.125
 74
     0
 49
-0.125
 74
     0
 49
0.125
 74
     0
 49
-0.125
 74
     0
  0
LTYPE
  5
43E
100
AcDbSymbolTableRecord
100
AcDbLinetypeTableRecord
  2
FANTOMEX2
 70
     0
  3
____________    ____    ____    ____________   
 72
    65
 73
     6
 40
5.0
 49
2.5
 74
     0
 49
-0.5
 74
     0
 49
0.5
 74
     0
 49
-0.5
 74
     0
 49
0.5
 74
     0
 49
-0.5
 74
     0
  0
LTYPE
  5
43F
100
AcDbSymbolTableRecord
100
AcDbLinetypeTableRecord
  2
0
 70
     0
  3
MEDUSA PEN 0
 72
    65
 73
     0
 40
0.0
  0
ENDTAB
  0
TABLE
  2
LAYER
  5
407
100
AcDbSymbolTable
 70
    21
  0
LAYER
  5
413
100
AcDbSymbolTableRecord
100
AcDbLayerTableRecord
  2
0
 70
     0
 62
     7
  6
CONTINUOUS
  0
LAYER
  5
446
100
AcDbSymbolTableRecord
100
AcDbLayerTableRecord
  2
COTATION1
 70
     0
 62
     2
  6
CONTINUOUS
  0
LAYER
  5
447
100
AcDbSymbolTableRecord
100
AcDbLayerTableRecord
  2
ALPHA
 70
     0
 62
   255
  6
CONTINUOUS
  0
LAYER
  5
448
100
AcDbSymbolTableRecord
100
AcDbLayerTableRecord
  2
DEFPOINTS
 70
     0
 62
     7
  6
CONTINUOUS
  0
LAYER
  5
449
100
AcDbSymbolTableRecord
100
AcDbLayerTableRecord
  2
AXE
 70
     0
 62
    80
  6
AXES2
  0
LAYER
  5
44A
100
AcDbSymbolTableRecord
100
AcDbLayerTableRecord
  2
CONSTRUCTION
 70
     0
 62
     6
  6
CONTINUOUS
  0
LAYER
  5
44B
100
AcDbSymbolTableRecord
100
AcDbLayerTableRecord
  2
HACHURES
 70
     0
 62
     9
  6
CONTINUOUS
  0
LAYER
  5
44C
100
AcDbSymbolTableRecord
100
AcDbLayerTableRecord
  2
FMULT
 70
     0
 62
     6
  6
CONTINUOUS
  0
LAYER
  5
44D
100
AcDbSymbolTableRecord
100
AcDbLayerTableRecord
  2
TEXTE
 70
     0
 62
   131
  6
CONTINUOUS
  0
LAYER
  5
44E
100
AcDbSymbolTableRecord
100
AcDbLayerTableRecord
  2
FDP_CARTOUCHE
 70
     0
 62
     4
  6
CONTINUOUS
  0
LAYER
  5
44F
100
AcDbSymbolTableRecord
100
AcDbLayerTableRecord
  2
FDP_TEXTES
 70
     0
 62
     5
  6
CONTINUOUS
  0
LAYER
  5
450
100
AcDbSymbolTableRecord
100
AcDbLayerTableRecord
  2
FDP_LOGO_MG
 70
     0
 62
    30
  6
CONTINUOUS
  0
LAYER
  5
451
100
AcDbSymbolTableRecord
100
AcDbLayerTableRecord
  2
FDP_LOGO_SCH
 70
     0
 62
     3
  6
CONTINUOUS
  0
LAYER
  5
452
100
AcDbSymbolTableRecord
100
AcDbLayerTableRecord
  2
FDP_FDP
 70
     0
 62
     5
  6
CONTINUOUS
  0
LAYER
  5
453
100
AcDbSymbolTableRecord
100
AcDbLayerTableRecord
  2
COTATION2
 70
     0
 62
     2
  6
CONTINUOUS
  0
LAYER
  5
454
100
AcDbSymbolTableRecord
100
AcDbLayerTableRecord
  2
COTATION3
 70
     0
 62
     2
  6
CONTINUOUS
  0
LAYER
  5
455
100
AcDbSymbolTableRecord
100
AcDbLayerTableRecord
  2
COTATION4
 70
     0
 62
     2
  6
CONTINUOUS
  0
LAYER
  5
456
100
AcDbSymbolTableRecord
100
AcDbLayerTableRecord
  2
ASHADE
 70
     0
 62
     7
  6
CONTINUOUS
  0
LAYER
  5
457
100
AcDbSymbolTableRecord
100
AcDbLayerTableRecord
  2
POINTILLE_COURT
 70
     0
 62
    40
  6
CACHE2
  0
LAYER
  5
458
100
AcDbSymbolTableRecord
100
AcDbLayerTableRecord
  2
POINTILLE_MOYEN
 70
     0
 62
   140
  6
CACHE
  0
LAYER
  5
459
100
AcDbSymbolTableRecord
100
AcDbLayerTableRecord
  2
POINTILLE_LONG
 70
     0
 62
   240
  6
CACHEX2
  0
ENDTAB
  0
TABLE
  2
STYLE
  5
408
100
AcDbSymbolTable
 70
     4
  0
STYLE
  5
414
100
AcDbSymbolTableRecord
100
AcDbTextStyleTableRecord
  2
STANDARD
 70
     0
 40
0.0
 41
1.0
 50
0.0
 71
     0
 42
3.5
  3
txt
  4

  0
STYLE
  5
427
100
AcDbSymbolTableRecord
100
AcDbTextStyleTableRecord
  2
ROMANS
 70
     0
 40
0.0
 41
1.0
 50
0.0
 71
     0
 42
2.9
  3
romans.shx
  4

  0
STYLE
  5
428
100
AcDbSymbolTableRecord
100
AcDbTextStyleTableRecord
  2
INFOCAR
 70
     0
 40
0.0
 41
1.34
 50
0.0
 71
     0
 42
2.0
  3
ROMANS.SHX
  4

  0
STYLE
  5
429
100
AcDbSymbolTableRecord
100
AcDbTextStyleTableRecord
  2
CARTOUCHE
 70
     0
 40
0.0
 41
1.0
 50
0.0
 71
     0
 42
0.2
  3
ROMANS.SHX
  4

  0
ENDTAB
  0
TABLE
  2
VIEW
  5
40B
100
AcDbSymbolTable
 70
     0
  0
ENDTAB
  0
TABLE
  2
UCS
  5
40C
100
AcDbSymbolTable
 70
     0
  0
ENDTAB
  0
TABLE
  2
APPID
  5
40E
100
AcDbSymbolTable
 70
     3
  0
APPID
  5
415
100
AcDbSymbolTableRecord
100
AcDbRegAppTableRecord
  2
ACAD
 70
     0
  0
APPID
  5
442
100
AcDbSymbolTableRecord
100
AcDbRegAppTableRecord
  2
AVE_RENDER
 70
     0
  0
APPID
  5
443
100
AcDbSymbolTableRecord
100
AcDbRegAppTableRecord
  2
AVE_MATERIAL
 70
     0
  0
ENDTAB
  0
TABLE
  2
DIMSTYLE
  5
40F
100
AcDbSymbolTable
 70
     2
  0
DIMSTYLE
105
444
100
AcDbSymbolTableRecord
100
AcDbDimStyleTableRecord
  2
STANDARD
 70
     0
  3

  4

  5

  6

  7

 40
1.0
 41
0.18
 42
0.0625
 43
0.38
 44
0.18
 45
0.0
 46
0.0
 47
0.0
 48
0.0
140
0.18
141
0.09
142
0.0
143
25.4
144
1.0
145
0.0
146
1.0
147
0.09
 71
     0
 72
     0
 73
     1
 74
     1
 75
     0
 76
     0
 77
     0
 78
     0
170
     0
171
     2
172
     0
173
     0
174
     0
175
     0
176
     0
177
     0
178
     0
270
     2
271
     4
272
     4
273
     2
274
     2
340
427
275
     0
280
     0
281
     0
282
     0
283
     1
284
    12
285
    12
286
    12
287
     5
288
     0
  0
DIMSTYLE
105
445
102
{ACAD_REACTORS
330
3
102
}
100
AcDbSymbolTableRecord
100
AcDbDimStyleTableRecord
  2
SC_STAND
 70
     0
  3

  4

  5

  6

  7

 40
1.0
 41
3.0
 42
0.0625
 43
0.38
 44
0.18
 45
0.01
 46
0.0
 47
0.0
 48
0.0
140
2.5
141
0.09
142
0.0
143
25.4
144
1.0
145
0.0
146
1.0
147
1.0
 71
     0
 72
     0
 73
     0
 74
     0
 75
     0
 76
     0
 77
     1
 78
    12
170
     0
171
     2
172
     1
173
     0
174
     0
175
     0
176
     0
177
     0
178
     0
270
     2
271
     4
272
     4
273
     2
274
     2
340
427
275
     0
280
     0
281
     0
282
     0
283
     1
284
    12
285
    12
286
    12
287
     5
288
     0
  0
ENDTAB
  0
TABLE
  2
BLOCK_RECORD
  5
406
100
AcDbSymbolTable
 70
     5
  0
BLOCK_RECORD
  5
41C
100
AcDbSymbolTableRecord
100
AcDbBlockTableRecord
  2
*MODEL_SPACE
  0
BLOCK_RECORD
  5
419
100
AcDbSymbolTableRecord
100
AcDbBlockTableRecord
  2
*PAPER_SPACE
  0
BLOCK_RECORD
  5
421
100
AcDbSymbolTableRecord
100
AcDbBlockTableRecord
  2
AVE_RENDER
  0
BLOCK_RECORD
  5
422
100
AcDbSymbolTableRecord
100
AcDbBlockTableRecord
  2
AVE_GLOBAL
  0
BLOCK_RECORD
  5
423
100
AcDbSymbolTableRecord
100
AcDbBlockTableRecord
  2
SCH_ISO
  0
BLOCK_RECORD
  5
426
100
AcDbSymbolTableRecord
100
AcDbBlockTableRecord
  2
*D4
  0
ENDTAB
  0
ENDSEC
  0
SECTION
  2
BLOCKS
  0
BLOCK
  5
45C
100
AcDbEntity
  8
0
100
AcDbBlockBegin
  2
*MODEL_SPACE
 70
     0
 10
0.0
 20
0.0
 30
0.0
  3
*MODEL_SPACE
  1

  0
ENDBLK
  5
45D
100
AcDbEntity
  8
0
100
AcDbBlockEnd
  0
BLOCK
  5
45A
100
AcDbEntity
 67
     1
  8
0
100
AcDbBlockBegin
  2
*PAPER_SPACE
 70
     0
 10
0.0
 20
0.0
 30
0.0
  3
*PAPER_SPACE
  1

  0
ENDBLK
  5
45B
100
AcDbEntity
 67
     1
  8
0
100
AcDbBlockEnd
  0
BLOCK
  5
394
100
AcDbEntity
  8
0
100
AcDbBlockBegin
  2
AVE_RENDER
 70
     0
 10
0.0
 20
0.0
 30
0.0
  3
AVE_RENDER
  1
AVE_RENDER
  0
ENDBLK
  5
395
100
AcDbEntity
  8
0
100
AcDbBlockEnd
  0
BLOCK
  5
397
100
AcDbEntity
  8
0
100
AcDbBlockBegin
  2
AVE_GLOBAL
 70
     0
 10
0.0
 20
0.0
 30
0.0
  3
AVE_GLOBAL
  1
AVE_GLOBAL
  0
ENDBLK
  5
398
100
AcDbEntity
  8
0
100
AcDbBlockEnd
  0
BLOCK
  5
3CE
100
AcDbEntity
  8
0
100
AcDbBlockBegin
  2
SCH_ISO
 70
     0
 10
0.0
 20
0.0
 30
0.0
  3
SCH_ISO
  1

  0
INSERT
  5
3C5
100
AcDbEntity
  8
ASHADE
 62
     1
100
AcDbBlockReference
  2
AVE_RENDER
 10
0.0
 20
0.0
 30
0.0
1001
AVE_RENDER
1002
{
1070
     6
1000
Pref
1070
    50
1070
    20
1070
     1
1070
     0
1000

1070
    10
1070
     1
1070
    30
1040
25.4
1070
     1
1040
0.3
1040
0.7
1040
0.0
1040
10.0
1010
-1.0
1020
-1.0
1030
-1.0
1040
0.3
1070
    49
1070
     0
1070
     0
1010
1.0
1020
1.0
1030
1.0
1040
45.0
1070
     1
1070
     0
1000
WCS
1040
0.0
1002
}
  0
INSERT
  5
3C6
100
AcDbEntity
  8
ASHADE
 62
     3
100
AcDbBlockReference
  2
AVE_RENDER
 10
0.0
 20
0.0
 30
0.0
1001
AVE_RENDER
1002
{
1070
     0
1000
Full Opt
1070
     0
1070
     1
1070
     1
1070
     1
1070
     0
1070
     0
1070
     0
1070
     1
1070
     1
1040
0.0001
1040
0.0001
1002
}
  0
INSERT
  5
3C7
100
AcDbEntity
  8
ASHADE
 62
     4
100
AcDbBlockReference
  2
AVE_RENDER
 10
0.0
 20
0.0
 30
0.0
1001
AVE_RENDER
1002
{
1070
     0
1000
Quick Opt
1070
     0
1070
     1
1070
     1
1070
     1
1070
     0
1070
     0
1070
     1
1002
}
  0
INSERT
  5
3C8
100
AcDbEntity
  8
ASHADE
 62
     5
100
AcDbBlockReference
  2
AVE_RENDER
 10
0.0
 20
0.0
 30
0.0
1001
AVE_RENDER
1002
{
1070
     1
1000
Scanl Opt
1070
     2
1070
     0
1070
     2
1040
2.0
1040
4.0
1070
     0
1070
     1
1070
     0
1040
0.03
1002
}
  0
INSERT
  5
3C9
100
AcDbEntity
  8
ASHADE
 62
     6
100
AcDbBlockReference
  2
AVE_RENDER
 10
0.0
 20
0.0
 30
0.0
1001
AVE_RENDER
1002
{
1070
     2
1000
Raytr Opt
1070
     2
1070
     0
1070
     2
1040
2.0
1040
4.0
1070
     0
1070
     1
1070
     1
1040
0.03
1070
     3
1040
0.03
1002
}
  0
INSERT
  5
3CA
100
AcDbEntity
  8
ASHADE
 62
     7
100
AcDbBlockReference
  2
AVE_RENDER
 10
0.0
 20
0.0
 30
0.0
1001
AVE_RENDER
1002
{
1070
     0
1000
RFile Opt
1070
     5
1070
   640
1070
   480
1070
 10000
1070
     3
1070
    32
1070
    24
1070
     0
1070
     0
1070
     0
1070
     1
1070
     0
1070
     0
1070
     0
1002
}
  0
INSERT
  5
3CB
100
AcDbEntity
  8
ASHADE
 62
     8
100
AcDbBlockReference
  2
AVE_RENDER
 10
0.0
 20
0.0
 30
0.0
1001
AVE_RENDER
1002
{
1070
     0
1000
Fog Opt
1070
     0
1070
     0
1040
0.0
1040
1.0
1040
0.0
1040
1.0
1010
0.5
1020
0.5
1030
0.5
1002
}
  0
INSERT
  5
3CC
100
AcDbEntity
  8
ASHADE
 62
     9
100
AcDbBlockReference
  2
AVE_RENDER
 10
0.0
 20
0.0
 30
0.0
1001
AVE_RENDER
1002
{
1070
     0
1000
BG Opt
1070
     0
1070
     1
1010
0.0
1020
0.0
1030
0.0
1010
1.0
1020
0.0
1030
0.0
1010
0.0
1020
1.0
1030
0.0
1010
0.0
1020
0.0
1030
1.0
1040
0.5
1040
0.33
1040
0.0
1000

1070
     1
1000

1070
     1
1070
     1
1040
1.0
1040
1.0
1040
0.0
1040
0.0
1070
     0
1002
}
  0
INSERT
  5
3CD
100
AcDbEntity
  8
ASHADE
 62
     1
100
AcDbBlockReference
  2
AVE_GLOBAL
 10
0.0
 20
0.0
 30
0.0
1001
AVE_MATERIAL
1002
{
1000
*GLOBAL*
1000
1
1000
Finition globale.
1002
{
1002
}
1002
{
1070
    63
1002
{
1002
{
1010
-1.0
1020
-1.0
1030
-1.0
1002
}
1040
0.1
1000

1040
0.0
1002
{
1002
}
1040
0.0
1002
{
1002
}
1040
0.0
1002
}
1002
{
1002
{
1010
-1.0
1020
-1.0
1030
-1.0
1002
}
1040
0.7
1000

1040
0.0
1002
{
1002
}
1040
0.0
1002
{
1002
}
1040
0.0
1002
}
1002
{
1002
{
1010
-1.0
1020
-1.0
1030
-1.0
1002
}
1040
0.2
1000

1040
0.0
1002
{
1002
}
1040
0.0
1002
{
1002
}
1040
0.0
1002
}
1002
{
1070
     0
1002
{
1070
     1
1002
{
1040
1.0
1040
1.0
1000

1040
0.0
1002
{
1002
}
1040
0.0
1002
{
1002
}
1040
0.0
1002
}
1002
}
1040
1.0
1040
0.0
1040
0.0
1002
}
1002
{
1040
1.0
1040
1.0
1000

1040
0.0
1002
{
1002
}
1040
0.0
1002
{
1002
}
1040
0.0
1002
}
1002
{
1040
0.5
1040
1.0
1000

1040
0.0
1002
{
1002
}
1040
0.0
1002
{
1002
}
1040
0.0
1002
}
1002
{
1070
     0
1040
0.0
1002
{
1002
}
1040
1.0
1002
{
1002
}
1040
0.0
1002
}
1002
{
1040
0.0
1002
{
1002
{
1010
0.0
1020
0.0
1030
0.0
1002
}
1040
1.0
1000

1040
0.0
1002
{
1002
}
1040
0.0
1002
{
1002
}
1040
0.0
1002
}
1002
}
1002
{
1002
{
1070
     1
1002
{
1040
0.0
1040
1.0
1000

1040
0.0
1002
{
1002
}
1040
0.0
1002
{
1002
}
1040
0.0
1002
}
1002
}
1040
0.0
1002
{
1002
}
1010
1.0
1020
0.0
1030
0.0
1010
0.0
1020
1.0
1030
0.0
1010
0.0
1020
0.0
1030
1.0
1070
     0
1002
}
1002
{
1002
{
1040
1.0
1040
1.0
1002
{
1070
     1
1002
{
1040
1.0
1040
1.0
1000

1040
0.0
1002
{
1002
}
1040
0.0
1002
{
1002
}
1040
0.0
1002
}
1002
}
1002
}
1070
     0
1040
0.0
1002
{
1002
}
1002
}
1002
{
1002
}
1002
}
1002
{
1071
        3
1070
     3
1070
     0
1002
{
1070
     2
1070
     0
1070
     0
1040
0.0
1002
}
1070
     0
1070
     2
1002
{
1002
}
1002
}
1002
{
1040
8030.0
1040
190.300003
1040
0.305
1040
228.0
1040
545.0
1040
14.0
1040
17.4
1040
0.456
1002
}
1002
}
  0
ENDBLK
  5
3CF
100
AcDbEntity
  8
0
100
AcDbBlockEnd
  0
BLOCK
  5
3FB
100
AcDbEntity
  8
0
100
AcDbBlockBegin
  2
*D4
 70
     1
 10
0.0
 20
0.0
 30
0.0
  3
*D4
  1
AVE_GLOBAL
  0
LINE
  5
3FC
100
AcDbEntity
  8
0
  6
BYBLOCK
 62
     0
100
AcDbLine
 10
127.909938
 20
75.410784
 30
0.0
 11
127.909938
 21
59.461111
 31
0.0
  0
LINE
  5
3FD
100
AcDbEntity
  8
0
  6
BYBLOCK
 62
     0
100
AcDbLine
 10
87.809938
 20
75.410784
 30
0.0
 11
87.809938
 21
59.461111
 31
0.0
  0
LINE
  5
3FE
100
AcDbEntity
  8
0
  6
BYBLOCK
 62
     0
100
AcDbLine
 10
124.909938
 20
59.641111
 30
0.0
 11
90.809938
 21
59.641111
 31
0.0
  0
SOLID
  5
3FF
100
AcDbEntity
  8
0
  6
BYBLOCK
 62
     0
100
AcDbTrace
 10
124.909938
 20
60.141111
 30
0.0
 11
124.909938
 21
59.141111
 31
0.0
 12
127.909938
 22
59.641111
 32
0.0
 13
127.909938
 23
59.641111
 33
0.0
  0
SOLID
  5
400
100
AcDbEntity
  8
0
  6
BYBLOCK
 62
     0
100
AcDbTrace
 10
90.809938
 20
60.141111
 30
0.0
 11
90.809938
 21
59.141111
 31
0.0
 12
87.809938
 22
59.641111
 32
0.0
 13
87.809938
 23
59.641111
 33
0.0
  0
TEXT
  5
401
100
AcDbEntity
  8
0
  6
BYBLOCK
 62
     0
100
AcDbText
 10
104.050414
 20
60.891111
 30
0.0
 40
2.5
  1
40.1
  7
ROMANS
 72
     1
 11
107.859938
 21
62.141111
 31
0.0
100
AcDbText
 73
     2
  0
POINT
  5
402
100
AcDbEntity
  8
DEFPOINTS
  6
BYBLOCK
 62
     0
100
AcDbPoint
 10
127.909938
 20
75.473284
 30
0.0
  0
POINT
  5
403
100
AcDbEntity
  8
DEFPOINTS
  6
BYBLOCK
 62
     0
100
AcDbPoint
 10
87.809938
 20
75.473284
 30
0.0
  0
POINT
  5
404
100
AcDbEntity
  8
DEFPOINTS
  6
BYBLOCK
 62
     0
100
AcDbPoint
 10
87.809938
 20
59.641111
 30
0.0
  0
ENDBLK
  5
405
100
AcDbEntity
  8
0
100
AcDbBlockEnd
  0
ENDSEC
  0
SECTION
  2
ENTITIES
  0
DIMENSION
  5
3
100
AcDbEntity
  8
COTATION1
100
AcDbDimension
  2
*D4
 10
87.809938
 20
59.641111
 30
0.0
 11
107.859938
 21
62.141111
 31
0.0
  3
SC_STAND
100
AcDbAlignedDimension
 13
127.909938
 23
75.473284
 33
0.0
 14
87.809938
 24
75.473284
 34
0.0
100
AcDbRotatedDimension
  0
ARC
  5
18
100
AcDbEntity
  8
ALPHA
100
AcDbCircle
 10
116.359938
 20
75.473284
 30
0.0
 40
1.0
100
AcDbArc
 50
270.0
 51
0.0
  0
ARC
  5
1A
100
AcDbEntity
  8
ALPHA
100
AcDbCircle
 10
99.359938
 20
75.473284
 30
0.0
 40
1.0
100
AcDbArc
 50
180.0
 51
270.0
  0
ARC
  5
1B
100
AcDbEntity
  8
ALPHA
100
AcDbCircle
 10
99.359938
 20
148.973284
 30
0.0
 40
1.0
100
AcDbArc
 50
90.0
 51
180.0
  0
ARC
  5
1C
100
AcDbEntity
  8
ALPHA
100
AcDbCircle
 10
116.359938
 20
148.973284
 30
0.0
 40
1.0
100
AcDbArc
 50
0.0
 51
90.0
  0
ARC
  5
1D
100
AcDbEntity
  8
ALPHA
100
AcDbCircle
 10
122.859938
 20
84.973284
 30
0.0
 40
5.0
100
AcDbArc
 50
133.902818
 51
180.0
  0
ARC
  5
1E
100
AcDbEntity
  8
ALPHA
100
AcDbCircle
 10
122.859938
 20
142.973284
 30
0.0
 40
5.0
100
AcDbArc
 50
180.0
 51
270.0
  0
ARC
  5
1F
100
AcDbEntity
  8
ALPHA
100
AcDbCircle
 10
92.859938
 20
142.973284
 30
0.0
 40
5.0
100
AcDbArc
 50
270.0
 51
278.312346
  0
ARC
  5
20
100
AcDbEntity
  8
ALPHA
100
AcDbCircle
 10
89.309938
 20
153.973284
 30
0.0
 40
1.5
100
AcDbArc
 50
90.0
 51
180.0
  0
ARC
  5
21
100
AcDbEntity
  8
ALPHA
100
AcDbCircle
 10
89.309938
 20
75.473284
 30
0.0
 40
1.5
100
AcDbArc
 50
180.0
 51
270.0
  0
ARC
  5
22
100
AcDbEntity
  8
ALPHA
100
AcDbCircle
 10
126.409938
 20
75.473284
 30
0.0
 40
1.5
100
AcDbArc
 50
270.0
 51
0.0
  0
ARC
  5
23
100
AcDbEntity
  8
ALPHA
100
AcDbCircle
 10
126.409938
 20
153.973284
 30
0.0
 40
1.5
100
AcDbArc
 50
0.0
 51
90.0
  0
ARC
  5
24
100
AcDbEntity
  8
ALPHA
100
AcDbCircle
 10
116.359938
 20
75.473284
 30
0.0
 40
1.5
100
AcDbArc
 50
270.0
 51
0.0
  0
ARC
  5
25
100
AcDbEntity
  8
ALPHA
100
AcDbCircle
 10
99.359938
 20
75.473284
 30
0.0
 40
1.5
100
AcDbArc
 50
180.0
 51
270.0
  0
ARC
  5
26
100
AcDbEntity
  8
ALPHA
100
AcDbCircle
 10
99.359938
 20
148.973284
 30
0.0
 40
1.5
100
AcDbArc
 50
90.0
 51
180.0
  0
ARC
  5
27
100
AcDbEntity
  8
ALPHA
100
AcDbCircle
 10
116.359938
 20
148.973284
 30
0.0
 40
1.5
100
AcDbArc
 50
0.0
 51
90.0
  0
ARC
  5
28
100
AcDbEntity
  8
ALPHA
100
AcDbCircle
 10
114.634938
 20
76.473284
 30
0.0
 40
0.5
100
AcDbArc
 50
90.0
 51
97.577347
  0
ARC
  5
29
100
AcDbEntity
  8
ALPHA
100
AcDbCircle
 10
115.634938
 20
143.973284
 30
0.0
 40
0.5
100
AcDbArc
 50
180.0
 51
270.0
  0
ARC
  5
2A
100
AcDbEntity
  8
ALPHA
100
AcDbCircle
 10
100.084938
 20
143.973284
 30
0.0
 40
0.5
100
AcDbArc
 50
270.0
 51
312.790435
  0
ARC
  5
2B
100
AcDbEntity
  8
ALPHA
100
AcDbCircle
 10
114.634938
 20
149.173284
 30
0.0
 40
0.5
100
AcDbArc
 50
0.0
 51
90.0
  0
ARC
  5
2C
100
AcDbEntity
  8
ALPHA
100
AcDbCircle
 10
122.859938
 20
83.973284
 30
0.0
 40
3.65
100
AcDbArc
 50
223.445618
 51
316.554382
  0
ARC
  5
2D
100
AcDbEntity
  8
ALPHA
100
AcDbCircle
 10
122.859938
 20
83.973284
 30
0.0
 40
3.65
100
AcDbArc
 50
43.445618
 51
136.554382
  0
ARC
  5
2E
100
AcDbEntity
  8
ALPHA
100
AcDbCircle
 10
92.859938
 20
143.973284
 30
0.0
 40
3.65
100
AcDbArc
 50
223.445618
 51
316.554382
  0
ARC
  5
2F
100
AcDbEntity
  8
ALPHA
100
AcDbCircle
 10
92.859938
 20
143.973284
 30
0.0
 40
3.65
100
AcDbArc
 50
43.445618
 51
136.554382
  0
CIRCLE
  5
30
100
AcDbEntity
  8
ALPHA
100
AcDbCircle
 10
122.859938
 20
143.973284
 30
0.0
 40
2.65
  0
CIRCLE
  5
31
100
AcDbEntity
  8
ALPHA
100
AcDbCircle
 10
92.859938
 20
83.973284
 30
0.0
 40
2.65
  0
ARC
  5
32
100
AcDbEntity
  8
ALPHA
100
AcDbCircle
 10
127.409938
 20
90.473284
 30
0.0
 40
0.5
100
AcDbArc
 50
270.0
 51
0.0
  0
ARC
  5
33
100
AcDbEntity
  8
ALPHA
100
AcDbCircle
 10
88.309938
 20
137.473284
 30
0.0
 40
0.5
100
AcDbArc
 50
90.0
 51
114.934328
  0
ARC
  5
34
100
AcDbEntity
  8
ALPHA
100
AcDbCircle
 10
127.409938
 20
137.473284
 30
0.0
 40
0.5
100
AcDbArc
 50
0.0
 51
90.0
  0
ARC
  5
35
100
AcDbEntity
  8
ALPHA
100
AcDbCircle
 10
125.797261
 20
91.623284
 30
0.0
 40
1.0
100
AcDbArc
 50
270.0
 51
0.0
  0
ARC
  5
36
100
AcDbEntity
  8
ALPHA
100
AcDbCircle
 10
125.797261
 20
136.223284
 30
0.0
 40
1.0
100
AcDbArc
 50
0.0
 51
90.0
  0
ARC
  5
37
100
AcDbEntity
  8
ALPHA
100
AcDbCircle
 10
92.497261
 20
84.923284
 30
0.0
 40
5.5
100
AcDbArc
 50
0.0
 51
90.0
  0
ARC
  5
38
100
AcDbEntity
  8
ALPHA
100
AcDbCircle
 10
107.497261
 20
78.323284
 30
0.0
 40
5.5
100
AcDbArc
 50
0.0
 51
180.0
  0
ARC
  5
39
100
AcDbEntity
  8
ALPHA
100
AcDbCircle
 10
89.197261
 20
91.623284
 30
0.0
 40
1.0
100
AcDbArc
 50
180.0
 51
270.0
  0
ARC
  5
3A
100
AcDbEntity
  8
ALPHA
100
AcDbCircle
 10
89.197261
 20
136.223284
 30
0.0
 40
1.0
100
AcDbArc
 50
90.0
 51
180.0
  0
ARC
  5
3B
100
AcDbEntity
  8
ALPHA
100
AcDbCircle
 10
92.497261
 20
142.923284
 30
0.0
 40
5.5
100
AcDbArc
 50
270.0
 51
354.784091
  0
ARC
  5
3C
100
AcDbEntity
  8
ALPHA
100
AcDbCircle
 10
107.497261
 20
144.323284
 30
0.0
 40
5.5
100
AcDbArc
 50
180.0
 51
0.0
  0
ARC
  5
3D
100
AcDbEntity
  8
ALPHA
100
AcDbCircle
 10
115.072261
 20
90.623284
 30
0.0
 40
1.0
100
AcDbArc
 50
90.0
 51
180.0
  0
ARC
  5
3E
100
AcDbEntity
  8
ALPHA
100
AcDbCircle
 10
115.072261
 20
137.223284
 30
0.0
 40
1.0
100
AcDbArc
 50
180.0
 51
270.0
  0
ARC
  5
3F
100
AcDbEntity
  8
ALPHA
100
AcDbCircle
 10
122.497261
 20
84.923284
 30
0.0
 40
5.5
100
AcDbArc
 50
90.0
 51
180.0
  0
ARC
  5
40
100
AcDbEntity
  8
ALPHA
100
AcDbCircle
 10
99.922261
 20
90.623284
 30
0.0
 40
1.0
100
AcDbArc
 50
0.0
 51
90.0
  0
ARC
  5
41
100
AcDbEntity
  8
ALPHA
100
AcDbCircle
 10
122.497261
 20
142.923284
 30
0.0
 40
5.5
100
AcDbArc
 50
185.215909
 51
270.0
  0
ARC
  5
42
100
AcDbEntity
  8
ALPHA
100
AcDbCircle
 10
99.922261
 20
137.223284
 30
0.0
 40
1.0
100
AcDbArc
 50
270.0
 51
0.0
  0
ARC
  5
43
100
AcDbEntity
  8
ALPHA
100
AcDbCircle
 10
110.747261
 20
88.023284
 30
0.0
 40
1.75
100
AcDbArc
 50
192.373625
 51
278.213211
  0
ARC
  5
44
100
AcDbEntity
  8
ALPHA
100
AcDbCircle
 10
110.747261
 20
88.023284
 30
0.0
 40
1.75
100
AcDbArc
 50
81.786789
 51
167.626375
  0
ARC
  5
45
100
AcDbEntity
  8
ALPHA
100
AcDbCircle
 10
110.747261
 20
88.023284
 30
0.0
 40
2.5
100
AcDbArc
 50
84.26083
 51
275.73917
  0
ARC
  5
46
100
AcDbEntity
  8
ALPHA
100
AcDbCircle
 10
106.497261
 20
88.023284
 30
0.0
 40
2.5
100
AcDbArc
 50
84.26083
 51
275.73917
  0
ARC
  5
47
100
AcDbEntity
  8
ALPHA
100
AcDbCircle
 10
106.497261
 20
88.023284
 30
0.0
 40
1.75
100
AcDbArc
 50
81.786789
 51
278.213211
  0
ARC
  5
48
100
AcDbEntity
  8
ALPHA
100
AcDbCircle
 10
89.197261
 20
91.623284
 30
0.0
 40
0.5
100
AcDbArc
 50
180.0
 51
270.0
  0
ARC
  5
49
100
AcDbEntity
  8
ALPHA
100
AcDbCircle
 10
89.197261
 20
136.223284
 30
0.0
 40
0.5
100
AcDbArc
 50
90.0
 51
180.0
  0
ARC
  5
4A
100
AcDbEntity
  8
ALPHA
100
AcDbCircle
 10
115.072261
 20
90.623284
 30
0.0
 40
0.5
100
AcDbArc
 50
90.0
 51
180.0
  0
ARC
  5
4B
100
AcDbEntity
  8
ALPHA
100
AcDbCircle
 10
125.797261
 20
91.623284
 30
0.0
 40
0.5
100
AcDbArc
 50
270.0
 51
0.0
  0
ARC
  5
4C
100
AcDbEntity
  8
ALPHA
100
AcDbCircle
 10
125.797261
 20
136.223284
 30
0.0
 40
0.5
100
AcDbArc
 50
0.0
 51
90.0
  0
ARC
  5
4D
100
AcDbEntity
  8
ALPHA
100
AcDbCircle
 10
115.072261
 20
137.223284
 30
0.0
 40
0.5
100
AcDbArc
 50
180.0
 51
270.0
  0
ARC
  5
4E
100
AcDbEntity
  8
ALPHA
100
AcDbCircle
 10
99.922261
 20
90.623284
 30
0.0
 40
0.5
100
AcDbArc
 50
0.0
 51
90.0
  0
ARC
  5
4F
100
AcDbEntity
  8
ALPHA
100
AcDbCircle
 10
99.922261
 20
137.223284
 30
0.0
 40
0.5
100
AcDbArc
 50
270.0
 51
0.0
  0
ARC
  5
50
100
AcDbEntity
  8
ALPHA
100
AcDbCircle
 10
107.497261
 20
78.323284
 30
0.0
 40
5.0
100
AcDbArc
 50
0.0
 51
180.0
  0
ARC
  5
51
100
AcDbEntity
  8
ALPHA
100
AcDbCircle
 10
107.497261
 20
144.323284
 30
0.0
 40
5.0
100
AcDbArc
 50
180.0
 51
0.0
  0
ARC
  5
52
100
AcDbEntity
  8
ALPHA
100
AcDbCircle
 10
116.997261
 20
77.823284
 30
0.0
 40
0.5
100
AcDbArc
 50
270.0
 51
0.0
  0
ARC
  5
53
100
AcDbEntity
  8
ALPHA
100
AcDbCircle
 10
122.497261
 20
84.923284
 30
0.0
 40
5.0
100
AcDbArc
 50
90.0
 51
180.0
  0
ARC
  5
54
100
AcDbEntity
  8
ALPHA
100
AcDbCircle
 10
126.997261
 20
90.423284
 30
0.0
 40
0.5
100
AcDbArc
 50
270.0
 51
0.0
  0
ARC
  5
55
100
AcDbEntity
  8
ALPHA
100
AcDbCircle
 10
126.997261
 20
137.423284
 30
0.0
 40
0.5
100
AcDbArc
 50
0.0
 51
90.0
  0
ARC
  5
56
100
AcDbEntity
  8
ALPHA
100
AcDbCircle
 10
122.497261
 20
142.923284
 30
0.0
 40
5.0
100
AcDbArc
 50
185.215909
 51
270.0
  0
ARC
  5
57
100
AcDbEntity
  8
ALPHA
100
AcDbCircle
 10
117.020036
 20
142.423284
 30
0.0
 40
0.5
100
AcDbArc
 50
5.215909
 51
90.0
  0
ARC
  5
58
100
AcDbEntity
  8
ALPHA
100
AcDbCircle
 10
97.997261
 20
77.823284
 30
0.0
 40
0.5
100
AcDbArc
 50
180.0
 51
270.0
  0
ARC
  5
59
100
AcDbEntity
  8
ALPHA
100
AcDbCircle
 10
92.497261
 20
84.923284
 30
0.0
 40
5.0
100
AcDbArc
 50
0.0
 51
90.0
  0
ARC
  5
5A
100
AcDbEntity
  8
ALPHA
100
AcDbCircle
 10
87.997261
 20
90.423284
 30
0.0
 40
0.5
100
AcDbArc
 50
180.0
 51
270.0
  0
ARC
  5
5B
100
AcDbEntity
  8
ALPHA
100
AcDbCircle
 10
87.997261
 20
137.423284
 30
0.0
 40
0.5
100
AcDbArc
 50
90.0
 51
180.0
  0
ARC
  5
5C
100
AcDbEntity
  8
ALPHA
100
AcDbCircle
 10
92.497261
 20
142.923284
 30
0.0
 40
5.0
100
AcDbArc
 50
270.0
 51
354.784091
  0
ARC
  5
5D
100
AcDbEntity
  8
ALPHA
100
AcDbCircle
 10
97.974487
 20
142.423284
 30
0.0
 40
0.5
100
AcDbArc
 50
90.0
 51
174.784091
  0
ARC
  5
5E
100
AcDbEntity
  8
ALPHA
100
AcDbCircle
 10
88.572261
 20
90.698284
 30
0.0
 40
1.075
100
AcDbArc
 50
222.788308
 51
270.0
  0
ARC
  5
5F
100
AcDbEntity
  8
ALPHA
100
AcDbCircle
 10
92.497261
 20
84.623284
 30
0.0
 40
5.0
100
AcDbArc
 50
0.0
 51
90.0
  0
ARC
  5
60
100
AcDbEntity
  8
ALPHA
100
AcDbCircle
 10
122.497261
 20
84.623284
 30
0.0
 40
5.0
100
AcDbArc
 50
90.0
 51
180.0
  0
ARC
  5
61
100
AcDbEntity
  8
ALPHA
100
AcDbCircle
 10
126.422261
 20
90.698284
 30
0.0
 40
1.075
100
AcDbArc
 50
270.0
 51
317.211692
  0
CIRCLE
  5
62
100
AcDbEntity
  8
ALPHA
100
AcDbCircle
 10
102.497261
 20
119.923284
 30
0.0
 40
2.0
  0
ARC
  5
63
100
AcDbEntity
  8
ALPHA
100
AcDbCircle
 10
107.859938
 20
247.873284
 30
0.0
 40
2.65
100
AcDbArc
 50
180.0
 51
0.0
  0
ARC
  5
64
100
AcDbEntity
  8
ALPHA
100
AcDbCircle
 10
107.859938
 20
252.873284
 30
0.0
 40
2.65
100
AcDbArc
 50
0.0
 51
180.0
  0
ARC
  5
65
100
AcDbEntity
  8
ALPHA
100
AcDbCircle
 10
107.859938
 20
267.873284
 30
0.0
 40
2.65
100
AcDbArc
 50
180.0
 51
0.0
  0
ARC
  5
66
100
AcDbEntity
  8
ALPHA
100
AcDbCircle
 10
107.859938
 20
272.873284
 30
0.0
 40
2.65
100
AcDbArc
 50
0.0
 51
180.0
  0
ARC
  5
67
100
AcDbEntity
  8
ALPHA
100
AcDbCircle
 10
97.359938
 20
202.523284
 30
0.0
 40
2.0
100
AcDbArc
 50
180.0
 51
270.0
  0
ARC
  5
68
100
AcDbEntity
  8
ALPHA
100
AcDbCircle
 10
118.359938
 20
202.523284
 30
0.0
 40
2.0
100
AcDbArc
 50
270.0
 51
0.0
  0
ARC
  5
69
100
AcDbEntity
  8
ALPHA
100
AcDbCircle
 10
96.359938
 20
232.623284
 30
0.0
 40
1.0
100
AcDbArc
 50
90.0
 51
180.0
  0
ARC
  5
6A
100
AcDbEntity
  8
ALPHA
100
AcDbCircle
 10
99.359938
 20
234.623284
 30
0.0
 40
1.0
100
AcDbArc
 50
270.0
 51
0.0
  0
ARC
  5
6B
100
AcDbEntity
  8
ALPHA
100
AcDbCircle
 10
116.359938
 20
234.623284
 30
0.0
 40
1.0
100
AcDbArc
 50
180.0
 51
270.0
  0
ARC
  5
6C
100
AcDbEntity
  8
ALPHA
100
AcDbCircle
 10
119.359938
 20
232.623284
 30
0.0
 40
1.0
100
AcDbArc
 50
0.0
 51
90.0
  0
ARC
  5
6D
100
AcDbEntity
  8
ALPHA
100
AcDbCircle
 10
114.359938
 20
281.023284
 30
0.0
 40
1.0
100
AcDbArc
 50
0.0
 51
90.0
  0
ARC
  5
6E
100
AcDbEntity
  8
ALPHA
100
AcDbCircle
 10
101.359938
 20
281.023284
 30
0.0
 40
1.0
100
AcDbArc
 50
90.0
 51
180.0
  0
ARC
  5
6F
100
AcDbEntity
  8
ALPHA
100
AcDbCircle
 10
123.859938
 20
187.173284
 30
0.0
 40
0.5
100
AcDbArc
 50
0.0
 51
90.0
  0
ARC
  5
70
100
AcDbEntity
  8
ALPHA
100
AcDbCircle
 10
91.859938
 20
187.173284
 30
0.0
 40
0.5
100
AcDbArc
 50
90.0
 51
180.0
  0
ARC
  5
71
100
AcDbEntity
  8
ALPHA
100
AcDbCircle
 10
119.659938
 20
73.773284
 30
0.0
 40
0.2
100
AcDbArc
 50
0.0
 51
90.0
  0
ARC
  5
72
100
AcDbEntity
  8
ALPHA
100
AcDbCircle
 10
96.059938
 20
73.773284
 30
0.0
 40
0.2
100
AcDbArc
 50
90.0
 51
180.0
  0
ARC
  5
73
100
AcDbEntity
  8
ALPHA
100
AcDbCircle
 10
79.659938
 20
179.623284
 30
0.0
 40
0.3
100
AcDbArc
 50
90.0
 51
180.0
  0
ARC
  5
74
100
AcDbEntity
  8
ALPHA
100
AcDbCircle
 10
79.659938
 20
175.223284
 30
0.0
 40
0.3
100
AcDbArc
 50
180.0
 51
270.0
  0
ARC
  5
75
100
AcDbEntity
  8
ALPHA
100
AcDbCircle
 10
79.659938
 20
167.223284
 30
0.0
 40
0.3
100
AcDbArc
 50
90.0
 51
180.0
  0
ARC
  5
76
100
AcDbEntity
  8
ALPHA
100
AcDbCircle
 10
79.659938
 20
162.823284
 30
0.0
 40
0.3
100
AcDbArc
 50
180.0
 51
270.0
  0
ARC
  5
77
100
AcDbEntity
  8
ALPHA
100
AcDbCircle
 10
107.497261
 20
144.323284
 30
0.0
 40
3.1
100
AcDbArc
 50
11.159937
 51
78.840063
  0
ARC
  5
78
100
AcDbEntity
  8
ALPHA
100
AcDbCircle
 10
107.497261
 20
144.323284
 30
0.0
 40
3.1
100
AcDbArc
 50
281.159937
 51
348.840063
  0
ARC
  5
79
100
AcDbEntity
  8
ALPHA
100
AcDbCircle
 10
107.497261
 20
144.323284
 30
0.0
 40
3.1
100
AcDbArc
 50
101.159937
 51
168.840063
  0
ARC
  5
7A
100
AcDbEntity
  8
ALPHA
100
AcDbCircle
 10
107.497261
 20
144.323284
 30
0.0
 40
3.1
100
AcDbArc
 50
191.159937
 51
258.840063
  0
CIRCLE
  5
7B
100
AcDbEntity
  8
ALPHA
100
AcDbCircle
 10
107.497261
 20
144.323284
 30
0.0
 40
1.0
  0
CIRCLE
  5
7C
100
AcDbEntity
  8
ALPHA
100
AcDbCircle
 10
107.497261
 20
144.323284
 30
0.0
 40
3.6
  0
CIRCLE
  5
7D
100
AcDbEntity
  8
ALPHA
100
AcDbCircle
 10
107.497261
 20
78.323284
 30
0.0
 40
2.295
  0
CIRCLE
  5
7E
100
AcDbEntity
  8
ALPHA
100
AcDbCircle
 10
107.497261
 20
78.323284
 30
0.0
 40
2.695
  0
LINE
  5
7F
100
AcDbEntity
  8
ALPHA
100
AcDbLine
 10
114.359938
 20
282.023284
 30
0.0
 11
101.359938
 21
282.023284
 31
0.0
  0
LINE
  5
80
100
AcDbEntity
  8
ALPHA
100
AcDbLine
 10
96.359938
 20
233.623284
 30
0.0
 11
99.359938
 21
233.623284
 31
0.0
  0
LINE
  5
81
100
AcDbEntity
  8
ALPHA
100
AcDbLine
 10
119.359938
 20
233.623284
 30
0.0
 11
116.359938
 21
233.623284
 31
0.0
  0
LINE
  5
82
100
AcDbEntity
  8
ALPHA
100
AcDbLine
 10
116.359938
 20
228.423284
 30
0.0
 11
99.359938
 21
228.423284
 31
0.0
  0
LINE
  5
83
100
AcDbEntity
  8
ALPHA
100
AcDbLine
 10
99.359938
 20
208.423284
 30
0.0
 11
116.359938
 21
208.423284
 31
0.0
  0
LINE
  5
84
100
AcDbEntity
  8
ALPHA
100
AcDbLine
 10
117.359938
 20
200.523284
 30
0.0
 11
115.859938
 21
202.023284
 31
0.0
  0
LINE
  5
85
100
AcDbEntity
  8
ALPHA
100
AcDbLine
 10
113.859938
 20
205.723284
 30
0.0
 11
101.859938
 21
205.723284
 31
0.0
  0
LINE
  5
86
100
AcDbEntity
  8
ALPHA
100
AcDbLine
 10
101.859938
 20
202.023284
 30
0.0
 11
99.859938
 21
202.023284
 31
0.0
  0
LINE
  5
87
100
AcDbEntity
  8
ALPHA
100
AcDbLine
 10
115.859938
 20
202.023284
 30
0.0
 11
113.859938
 21
202.023284
 31
0.0
  0
LINE
  5
88
100
AcDbEntity
  8
ALPHA
100
AcDbLine
 10
98.359938
 20
200.523284
 30
0.0
 11
97.359938
 21
200.523284
 31
0.0
  0
LINE
  5
89
100
AcDbEntity
  8
ALPHA
100
AcDbLine
 10
118.359938
 20
200.523284
 30
0.0
 11
117.359938
 21
200.523284
 31
0.0
  0
LINE
  5
8A
100
AcDbEntity
  8
ALPHA
100
AcDbLine
 10
122.913491
 20
177.114488
 30
0.0
 11
120.906385
 21
179.980933
 31
0.0
  0
LINE
  5
8B
100
AcDbEntity
  8
ALPHA
100
AcDbLine
 10
122.671983
 20
176.667682
 30
0.0
 11
120.6117
 21
179.610072
 31
0.0
  0
LWPOLYLINE
  5
8C
100
AcDbEntity
  8
ALPHA
100
AcDbPolyline
 90
        6
 70
     0
 43
0.0
 10
121.03745
 20
179.464928
 10
120.944637
 20
179.576568
 10
120.867793
 20
179.671203
 10
120.80912
 20
179.74569
 10
120.772197
 20
179.796357
 10
120.759952
 20
179.820596
  0
LWPOLYLINE
  5
94
100
AcDbEntity
  8
ALPHA
100
AcDbPolyline
 90
        4
 70
     0
 43
0.0
 10
121.03745
 20
179.464928
 10
120.886425
 20
179.521453
 10
120.743697
 20
179.569998
 10
120.6117
 20
179.610072
  0
LINE
  5
9A
100
AcDbEntity
  8
ALPHA
100
AcDbLine
 10
91.859938
 20
187.673284
 30
0.0
 11
123.859938
 21
187.673284
 31
0.0
  0
LINE
  5
9B
100
AcDbEntity
  8
ALPHA
100
AcDbLine
 10
91.359938
 20
187.173284
 30
0.0
 11
124.359938
 21
187.173284
 31
0.0
  0
LINE
  5
9C
100
AcDbEntity
  8
ALPHA
100
AcDbLine
 10
93.047893
 20
186.265674
 30
0.0
 11
122.671983
 21
186.265674
 31
0.0
  0
LINE
  5
9D
100
AcDbEntity
  8
ALPHA
100
AcDbLine
 10
93.047893
 20
185.978885
 30
0.0
 11
122.671983
 21
185.978885
 31
0.0
  0
LINE
  5
9E
100
AcDbEntity
  8
ALPHA
100
AcDbLine
 10
122.913491
 20
185.53208
 30
0.0
 11
123.267045
 21
185.53208
 31
0.0
  0
LINE
  5
9F
100
AcDbEntity
  8
ALPHA
100
AcDbLine
 10
92.806385
 20
185.53208
 30
0.0
 11
92.452831
 21
185.53208
 31
0.0
  0
LINE
  5
A0
100
AcDbEntity
  8
ALPHA
100
AcDbLine
 10
95.108176
 20
183.036496
 30
0.0
 11
120.6117
 21
183.036496
 31
0.0
  0
LINE
  5
A1
100
AcDbEntity
  8
ALPHA
100
AcDbLine
 10
94.959938
 20
182.823284
 30
0.0
 11
120.759938
 21
182.823284
 31
0.0
  0
LINE
  5
A2
100
AcDbEntity
  8
ALPHA
100
AcDbLine
 10
94.813491
 20
182.665634
 30
0.0
 11
94.959938
 21
182.665634
 31
0.0
  0
LINE
  5
A3
100
AcDbEntity
  8
ALPHA
100
AcDbLine
 10
120.906385
 20
182.665634
 30
0.0
 11
120.759938
 21
182.665634
 31
0.0
  0
LINE
  5
A4
100
AcDbEntity
  8
ALPHA
100
AcDbLine
 10
111.109938
 20
182.613284
 30
0.0
 11
111.459938
 21
182.613284
 31
0.0
  0
LINE
  5
A5
100
AcDbEntity
  8
ALPHA
100
AcDbLine
 10
104.609938
 20
182.613284
 30
0.0
 11
104.259938
 21
182.613284
 31
0.0
  0
LINE
  5
A6
100
AcDbEntity
  8
ALPHA
100
AcDbLine
 10
91.359938
 20
182.223284
 30
0.0
 11
80.159938
 21
182.223284
 31
0.0
  0
LINE
  5
A7
100
AcDbEntity
  8
ALPHA
100
AcDbLine
 10
91.359938
 20
181.875043
 30
0.0
 11
80.159938
 21
181.875043
 31
0.0
  0
LINE
  5
A8
100
AcDbEntity
  8
ALPHA
100
AcDbLine
 10
104.259938
 20
181.684478
 30
0.0
 11
102.259938
 21
181.684478
 31
0.0
  0
LINE
  5
A9
100
AcDbEntity
  8
ALPHA
100
AcDbLine
 10
113.459938
 20
181.684478
 30
0.0
 11
111.459938
 21
181.684478
 31
0.0
  0
LINE
  5
AA
100
AcDbEntity
  8
ALPHA
100
AcDbLine
 10
101.759938
 20
181.50858
 30
0.0
 11
99.759938
 21
181.50858
 31
0.0
  0
LINE
  5
AB
100
AcDbEntity
  8
ALPHA
100
AcDbLine
 10
115.959938
 20
181.50858
 30
0.0
 11
113.959938
 21
181.50858
 31
0.0
  0
LINE
  5
AC
100
AcDbEntity
  8
ALPHA
100
AcDbLine
 10
104.259938
 20
181.247175
 30
0.0
 11
102.259938
 21
181.247175
 31
0.0
  0
LINE
  5
AD
100
AcDbEntity
  8
ALPHA
100
AcDbLine
 10
113.459938
 20
181.247175
 30
0.0
 11
111.459938
 21
181.247175
 31
0.0
  0
LINE
  5
AE
100
AcDbEntity
  8
ALPHA
100
AcDbLine
 10
127.909938
 20
75.473284
 30
0.0
 11
127.909938
 21
153.973284
 31
0.0
  0
LINE
  5
AF
100
AcDbEntity
  8
ALPHA
100
AcDbLine
 10
127.497261
 20
137.423284
 30
0.0
 11
127.497261
 21
90.423284
 31
0.0
  0
LWPOLYLINE
  5
B0
100
AcDbEntity
  8
ALPHA
100
AcDbPolyline
 90
       10
 70
     0
 43
0.0
 10
122.913491
 20
177.114488
 10
122.927787
 20
177.045958
 10
122.939072
 20
176.966537
 10
122.942698
 20
176.882461
 10
122.933902
 20
176.802055
 10
122.909475
 20
176.73449
 10
122.869738
 20
176.686781
 10
122.817785
 20
176.660517
 10
122.752877
 20
176.653732
 10
122.671983
 20
176.667682
  0
LWPOLYLINE
  5
BC
100
AcDbEntity
  8
ALPHA
100
AcDbPolyline
 90
        4
 70
     0
 43
0.0
 10
120.906385
 20
179.980933
 10
120.945318
 20
179.820144
 10
120.989171
 20
179.647653
 10
121.03745
 20
179.464928
  0
LWPOLYLINE
  5
C2
100
AcDbEntity
  8
ALPHA
100
AcDbPolyline
 90
        4
 70
     0
 43
0.0
 10
94.682426
 20
183.181639
 10
94.833451
 20
183.125114
 10
94.976178
 20
183.076569
 10
95.108176
 20
183.036496
  0
LWPOLYLINE
  5
C8
100
AcDbEntity
  8
ALPHA
100
AcDbPolyline
 90
        4
 70
     0
 43
0.0
 10
80.159938
 20
174.524291
 10
79.854881
 20
174.532152
 10
79.557741
 20
174.547813
 10
79.263836
 20
174.571591
  0
LINE
  5
CE
100
AcDbEntity
  8
ALPHA
100
AcDbLine
 10
101.759938
 20
181.071277
 30
0.0
 11
99.759938
 21
181.071277
 31
0.0
  0
LINE
  5
CF
100
AcDbEntity
  8
ALPHA
100
AcDbLine
 10
115.959938
 20
181.071277
 30
0.0
 11
113.959938
 21
181.071277
 31
0.0
  0
LINE
  5
D0
100
AcDbEntity
  8
ALPHA
100
AcDbLine
 10
111.109938
 20
180.613284
 30
0.0
 11
111.459938
 21
180.613284
 31
0.0
  0
LINE
  5
D1
100
AcDbEntity
  8
ALPHA
100
AcDbLine
 10
104.609938
 20
180.613284
 30
0.0
 11
104.259938
 21
180.613284
 31
0.0
  0
LINE
  5
D2
100
AcDbEntity
  8
ALPHA
100
AcDbLine
 10
94.813491
 20
179.980933
 30
0.0
 11
94.959938
 21
179.980933
 31
0.0
  0
LINE
  5
D3
100
AcDbEntity
  8
ALPHA
100
AcDbLine
 10
120.906385
 20
179.980933
 30
0.0
 11
120.759938
 21
179.980933
 31
0.0
  0
LINE
  5
D4
100
AcDbEntity
  8
ALPHA
100
AcDbLine
 10
80.159938
 20
179.923284
 30
0.0
 11
79.659938
 21
179.923284
 31
0.0
  0
LINE
  5
D5
100
AcDbEntity
  8
ALPHA
100
AcDbLine
 10
91.359938
 20
179.844138
 30
0.0
 11
80.159938
 21
179.844138
 31
0.0
  0
LINE
  5
D6
100
AcDbEntity
  8
ALPHA
100
AcDbLine
 10
120.759938
 20
179.823284
 30
0.0
 11
94.959938
 21
179.823284
 31
0.0
  0
LINE
  5
D7
100
AcDbEntity
  8
ALPHA
100
AcDbLine
 10
120.6117
 20
179.610072
 30
0.0
 11
95.108176
 21
179.610072
 31
0.0
  0
LINE
  5
D8
100
AcDbEntity
  8
ALPHA
100
AcDbLine
 10
74.859938
 20
178.723284
 30
0.0
 11
75.859938
 21
178.723284
 31
0.0
  0
LINE
  5
D9
100
AcDbEntity
  8
ALPHA
100
AcDbLine
 10
91.359938
 20
177.423284
 30
0.0
 11
80.159938
 21
177.423284
 31
0.0
  0
LINE
  5
DA
100
AcDbEntity
  8
ALPHA
100
AcDbLine
 10
122.913491
 20
177.114488
 30
0.0
 11
123.267045
 21
177.114488
 31
0.0
  0
LINE
  5
DB
100
AcDbEntity
  8
ALPHA
100
AcDbLine
 10
92.806385
 20
177.114488
 30
0.0
 11
92.452831
 21
177.114488
 31
0.0
  0
LINE
  5
DC
100
AcDbEntity
  8
ALPHA
100
AcDbLine
 10
122.671983
 20
176.667682
 30
0.0
 11
93.047893
 21
176.667682
 31
0.0
  0
LINE
  5
DD
100
AcDbEntity
  8
ALPHA
100
AcDbLine
 10
122.671983
 20
176.380894
 30
0.0
 11
93.047893
 21
176.380894
 31
0.0
  0
LINE
  5
DE
100
AcDbEntity
  8
ALPHA
100
AcDbLine
 10
124.359938
 20
175.723284
 30
0.0
 11
80.159938
 21
175.723284
 31
0.0
  0
LINE
  5
DF
100
AcDbEntity
  8
ALPHA
100
AcDbLine
 10
80.159938
 20
174.923284
 30
0.0
 11
79.659938
 21
174.923284
 31
0.0
  0
LINE
  5
E0
100
AcDbEntity
  8
ALPHA
100
AcDbLine
 10
124.359938
 20
174.251161
 30
0.0
 11
80.159938
 21
174.251161
 31
0.0
  0
LINE
  5
E1
100
AcDbEntity
  8
ALPHA
100
AcDbLine
 10
79.671877
 20
174.223284
 30
0.0
 11
75.859938
 21
174.223284
 31
0.0
  0
LINE
  5
E2
100
AcDbEntity
  8
ALPHA
100
AcDbLine
 10
79.671877
 20
173.842331
 30
0.0
 11
75.859938
 21
173.842331
 31
0.0
  0
LINE
  5
E3
100
AcDbEntity
  8
ALPHA
100
AcDbLine
 10
75.859938
 20
173.723284
 30
0.0
 11
75.559938
 21
173.723284
 31
0.0
  0
LINE
  5
E4
100
AcDbEntity
  8
ALPHA
100
AcDbLine
 10
75.859938
 20
173.543284
 30
0.0
 11
75.559938
 21
173.543284
 31
0.0
  0
LINE
  5
E5
100
AcDbEntity
  8
ALPHA
100
AcDbLine
 10
75.859938
 20
172.643284
 30
0.0
 11
75.559938
 21
172.643284
 31
0.0
  0
LINE
  5
E6
100
AcDbEntity
  8
ALPHA
100
AcDbLine
 10
124.359938
 20
172.423538
 30
0.0
 11
80.159938
 21
172.423538
 31
0.0
  0
LINE
  5
E7
100
AcDbEntity
  8
ALPHA
100
AcDbLine
 10
75.859938
 20
172.403284
 30
0.0
 11
75.559938
 21
172.403284
 31
0.0
  0
LINE
  5
E8
100
AcDbEntity
  8
ALPHA
100
AcDbLine
 10
75.859938
 20
174.545382
 30
0.0
 11
79.263837
 21
174.571591
 31
0.0
  0
LWPOLYLINE
  5
E9
100
AcDbEntity
  8
ALPHA
100
AcDbPolyline
 90
        4
 70
     0
 43
0.0
 10
80.159938
 20
174.237923
 10
80.009324
 20
174.230095
 10
79.846863
 20
174.22507
 10
79.671877
 20
174.223283
  0
LWPOLYLINE
  5
EF
100
AcDbEntity
  8
ALPHA
100
AcDbPolyline
 90
        4
 70
     0
 43
0.0
 10
80.159938
 20
173.867177
 10
80.007739
 20
173.853842
 10
79.845255
 20
173.845337
 10
79.671877
 20
173.842331
  0
LWPOLYLINE
  5
F5
100
AcDbEntity
  8
ALPHA
100
AcDbPolyline
 90
        4
 70
     0
 43
0.0
 10
114.542967
 20
74.023284
 10
114.559047
 20
74.154707
 10
114.56889
 20
74.290462
 10
114.572261
 20
74.430391
  0
LWPOLYLINE
  5
FB
100
AcDbEntity
  8
ALPHA
100
AcDbPolyline
 90
       10
 70
     0
 43
0.0
 10
123.267045
 20
177.114488
 10
123.263947
 20
177.022684
 10
123.251285
 20
176.91416
 10
123.223589
 20
176.795917
 10
123.17604
 20
176.677889
 10
123.106827
 20
176.571835
 10
123.01933
 20
176.487876
 10
122.919504
 20
176.429519
 10
122.805288
 20
176.39367
 10
122.671983
 20
176.380894
  0
LINE
  5
107
100
AcDbEntity
  8
ALPHA
100
AcDbLine
 10
126.997261
 20
89.923284
 30
0.0
 11
126.997261
 21
137.923284
 31
0.0
  0
LINE
  5
108
100
AcDbEntity
  8
ALPHA
100
AcDbLine
 10
126.797261
 20
136.223284
 30
0.0
 11
126.797261
 21
91.623284
 31
0.0
  0
LINE
  5
109
100
AcDbEntity
  8
ALPHA
100
AcDbLine
 10
126.297261
 20
136.223284
 30
0.0
 11
126.297261
 21
91.623284
 31
0.0
  0
LINE
  5
10A
100
AcDbEntity
  8
ALPHA
100
AcDbLine
 10
125.797261
 20
90.623284
 30
0.0
 11
125.797261
 21
137.223284
 31
0.0
  0
LINE
  5
10B
100
AcDbEntity
  8
ALPHA
100
AcDbLine
 10
125.509938
 20
81.463304
 30
0.0
 11
125.509938
 21
86.483264
 31
0.0
  0
LINE
  5
10C
100
AcDbEntity
  8
ALPHA
100
AcDbLine
 10
124.897261
 20
92.523284
 30
0.0
 11
124.897261
 21
135.323284
 31
0.0
  0
LINE
  5
10D
100
AcDbEntity
  8
ALPHA
100
AcDbLine
 10
124.359938
 20
155.673284
 30
0.0
 11
124.359938
 21
187.173284
 31
0.0
  0
LINE
  5
10E
100
AcDbEntity
  8
ALPHA
100
AcDbLine
 10
124.297261
 20
134.723284
 30
0.0
 11
124.297261
 21
93.123284
 31
0.0
  0
LINE
  5
10F
100
AcDbEntity
  8
ALPHA
100
AcDbLine
 10
123.859938
 20
175.723284
 30
0.0
 11
123.859938
 21
187.673284
 31
0.0
  0
LINE
  5
110
100
AcDbEntity
  8
ALPHA
100
AcDbLine
 10
123.747261
 20
94.173284
 30
0.0
 11
123.747261
 21
134.673284
 31
0.0
  0
LINE
  5
111
100
AcDbEntity
  8
ALPHA
100
AcDbLine
 10
123.359938
 20
155.673284
 30
0.0
 11
123.359938
 21
166.723284
 31
0.0
  0
LINE
  5
112
100
AcDbEntity
  8
ALPHA
100
AcDbLine
 10
123.267045
 20
185.53208
 30
0.0
 11
123.267045
 21
177.114488
 31
0.0
  0
LINE
  5
113
100
AcDbEntity
  8
ALPHA
100
AcDbLine
 10
122.913491
 20
185.53208
 30
0.0
 11
122.913491
 21
177.114488
 31
0.0
  0
LINE
  5
114
100
AcDbEntity
  8
ALPHA
100
AcDbLine
 10
122.909938
 20
155.673284
 30
0.0
 11
122.909938
 21
155.473284
 31
0.0
  0
LINE
  5
115
100
AcDbEntity
  8
ALPHA
100
AcDbLine
 10
122.671983
 20
185.978885
 30
0.0
 11
122.671983
 21
186.265674
 31
0.0
  0
LINE
  5
116
100
AcDbEntity
  8
ALPHA
100
AcDbLine
 10
122.671983
 20
176.667682
 30
0.0
 11
122.671983
 21
176.380894
 31
0.0
  0
LINE
  5
117
100
AcDbEntity
  8
ALPHA
100
AcDbLine
 10
122.497261
 20
137.423284
 30
0.0
 11
122.497261
 21
137.923284
 31
0.0
  0
LINE
  5
118
100
AcDbEntity
  8
ALPHA
100
AcDbLine
 10
122.497261
 20
89.923284
 30
0.0
 11
122.497261
 21
90.423284
 31
0.0
  0
LINE
  5
119
100
AcDbEntity
  8
ALPHA
100
AcDbLine
 10
121.259938
 20
155.673284
 30
0.0
 11
121.259938
 21
155.473284
 31
0.0
  0
LINE
  5
11A
100
AcDbEntity
  8
ALPHA
100
AcDbLine
 10
121.059938
 20
155.673284
 30
0.0
 11
121.059938
 21
155.473284
 31
0.0
  0
LINE
  5
11B
100
AcDbEntity
  8
ALPHA
100
AcDbLine
 10
120.906385
 20
182.665634
 30
0.0
 11
120.906385
 21
179.980933
 31
0.0
  0
LINE
  5
11C
100
AcDbEntity
  8
ALPHA
100
AcDbLine
 10
120.859938
 20
155.473284
 30
0.0
 11
120.859938
 21
155.673284
 31
0.0
  0
LINE
  5
11D
100
AcDbEntity
  8
ALPHA
100
AcDbLine
 10
120.759938
 20
179.820596
 30
0.0
 11
120.759938
 21
182.825931
 31
0.0
  0
LINE
  5
11E
100
AcDbEntity
  8
ALPHA
100
AcDbLine
 10
120.6117
 20
179.610072
 30
0.0
 11
120.6117
 21
179.823284
 31
0.0
  0
LINE
  5
11F
100
AcDbEntity
  8
ALPHA
100
AcDbLine
 10
120.6117
 20
183.036496
 30
0.0
 11
120.6117
 21
182.823284
 31
0.0
  0
LINE
  5
120
100
AcDbEntity
  8
ALPHA
100
AcDbLine
 10
120.359938
 20
232.623284
 30
0.0
 11
120.359938
 21
202.523284
 31
0.0
  0
LINE
  5
121
100
AcDbEntity
  8
ALPHA
100
AcDbLine
 10
120.209938
 20
86.483264
 30
0.0
 11
120.209938
 21
81.463304
 31
0.0
  0
LINE
  5
122
100
AcDbEntity
  8
ALPHA
100
AcDbLine
 10
119.859938
 20
72.473284
 30
0.0
 11
119.859938
 21
73.773284
 31
0.0
  0
LWPOLYLINE
  5
123
100
AcDbEntity
  8
ALPHA
100
AcDbPolyline
 90
       10
 70
     0
 43
0.0
 10
123.267045
 20
185.53208
 10
123.263947
 20
185.623883
 10
123.251285
 20
185.732407
 10
123.223589
 20
185.85065
 10
123.17604
 20
185.968679
 10
123.106827
 20
186.074732
 10
123.01933
 20
186.158692
 10
122.919504
 20
186.217048
 10
122.805288
 20
186.252897
 10
122.671983
 20
186.265674
  0
LINE
  5
12F
100
AcDbEntity
  8
ALPHA
100
AcDbLine
 10
93.047893
 20
185.978885
 30
0.0
 11
95.108176
 21
183.036496
 31
0.0
  0
LINE
  5
130
100
AcDbEntity
  8
ALPHA
100
AcDbLine
 10
92.806385
 20
185.53208
 30
0.0
 11
94.813491
 21
182.665634
 31
0.0
  0
LWPOLYLINE
  5
131
100
AcDbEntity
  8
ALPHA
100
AcDbPolyline
 90
        6
 70
     0
 43
0.0
 10
94.682426
 20
183.181639
 10
94.775239
 20
183.069999
 10
94.852083
 20
182.975364
 10
94.910756
 20
182.900878
 10
94.947679
 20
182.85021
 10
94.959924
 20
182.825972
  0
LWPOLYLINE
  5
139
100
AcDbEntity
  8
ALPHA
100
AcDbPolyline
 90
       20
 70
     0
 43
0.0
 10
79.263836
 20
174.571591
 10
78.742927
 20
174.636519
 10
78.28021
 20
174.724363
 10
77.873774
 20
174.833036
 10
77.522798
 20
174.96131
 10
77.227829
 20
175.108596
 10
76.991235
 20
175.274392
 10
76.817418
 20
175.456655
 10
76.710266
 20
175.649337
 10
76.666943
 20
175.846241
 10
76.681536
 20
176.05091
 10
76.756373
 20
176.272685
 10
76.897588
 20
176.512449
 10
77.104034
 20
176.762665
 10
77.370336
 20
177.017888
 10
77.693405
 20
177.277204
 10
78.071843
 20
177.540649
 10
78.505749
 20
177.80854
 10
78.996661
 20
178.08124
 10
79.359938
 20
178.264406
  0
LWPOLYLINE
  5
14F
100
AcDbEntity
  8
ALPHA
100
AcDbPolyline
 90
        4
 70
     0
 43
0.0
 10
79.671877
 20
168.604236
 10
79.845248
 20
168.601231
 10
80.007738
 20
168.592725
 10
80.159938
 20
168.57939
  0
LWPOLYLINE
  5
155
100
AcDbEntity
  8
ALPHA
100
AcDbPolyline
 90
        4
 70
     0
 43
0.0
 10
79.671877
 20
168.223284
 10
79.846853
 20
168.221497
 10
80.009316
 20
168.216473
 10
80.159938
 20
168.208645
  0
LINE
  5
15B
100
AcDbEntity
  8
ALPHA
100
AcDbLine
 10
79.263837
 20
167.874977
 30
0.0
 11
75.859938
 21
167.901185
 31
0.0
  0
LINE
  5
15C
100
AcDbEntity
  8
ALPHA
100
AcDbLine
 10
75.859938
 20
172.373284
 30
0.0
 11
75.559938
 21
172.373284
 31
0.0
  0
LINE
  5
15D
100
AcDbEntity
  8
ALPHA
100
AcDbLine
 10
75.859938
 20
172.313284
 30
0.0
 11
75.559938
 21
172.313284
 31
0.0
  0
LINE
  5
15E
100
AcDbEntity
  8
ALPHA
100
AcDbLine
 10
75.859938
 20
172.193284
 30
0.0
 11
75.559938
 21
172.193284
 31
0.0
  0
LINE
  5
15F
100
AcDbEntity
  8
ALPHA
100
AcDbLine
 10
75.859938
 20
172.073284
 30
0.0
 11
75.559938
 21
172.073284
 31
0.0
  0
LINE
  5
160
100
AcDbEntity
  8
ALPHA
100
AcDbLine
 10
75.859938
 20
171.923284
 30
0.0
 11
75.559938
 21
171.923284
 31
0.0
  0
LINE
  5
161
100
AcDbEntity
  8
ALPHA
100
AcDbLine
 10
75.859938
 20
171.683284
 30
0.0
 11
75.559938
 21
171.683284
 31
0.0
  0
LINE
  5
162
100
AcDbEntity
  8
ALPHA
100
AcDbLine
 10
75.859938
 20
171.533284
 30
0.0
 11
75.559938
 21
171.533284
 31
0.0
  0
LINE
  5
163
100
AcDbEntity
  8
ALPHA
100
AcDbLine
 10
75.859938
 20
171.413284
 30
0.0
 11
75.559938
 21
171.413284
 31
0.0
  0
LINE
  5
164
100
AcDbEntity
  8
ALPHA
100
AcDbLine
 10
75.859938
 20
171.293284
 30
0.0
 11
75.559938
 21
171.293284
 31
0.0
  0
LINE
  5
165
100
AcDbEntity
  8
ALPHA
100
AcDbLine
 10
75.859938
 20
171.233284
 30
0.0
 11
75.559938
 21
171.233284
 31
0.0
  0
LINE
  5
166
100
AcDbEntity
  8
ALPHA
100
AcDbLine
 10
75.859938
 20
171.203284
 30
0.0
 11
75.559938
 21
171.203284
 31
0.0
  0
LINE
  5
167
100
AcDbEntity
  8
ALPHA
100
AcDbLine
 10
75.859938
 20
170.963284
 30
0.0
 11
75.559938
 21
170.963284
 31
0.0
  0
LINE
  5
168
100
AcDbEntity
  8
ALPHA
100
AcDbLine
 10
75.859938
 20
170.933284
 30
0.0
 11
75.559938
 21
170.933284
 31
0.0
  0
LINE
  5
169
100
AcDbEntity
  8
ALPHA
100
AcDbLine
 10
75.859938
 20
170.873284
 30
0.0
 11
75.559938
 21
170.873284
 31
0.0
  0
LINE
  5
16A
100
AcDbEntity
  8
ALPHA
100
AcDbLine
 10
75.859938
 20
170.753284
 30
0.0
 11
75.559938
 21
170.753284
 31
0.0
  0
LINE
  5
16B
100
AcDbEntity
  8
ALPHA
100
AcDbLine
 10
75.859938
 20
170.633284
 30
0.0
 11
75.559938
 21
170.633284
 31
0.0
  0
LINE
  5
16C
100
AcDbEntity
  8
ALPHA
100
AcDbLine
 10
75.859938
 20
170.483284
 30
0.0
 11
75.559938
 21
170.483284
 31
0.0
  0
LINE
  5
16D
100
AcDbEntity
  8
ALPHA
100
AcDbLine
 10
75.859938
 20
170.213284
 30
0.0
 11
75.559938
 21
170.213284
 31
0.0
  0
LINE
  5
16E
100
AcDbEntity
  8
ALPHA
100
AcDbLine
 10
75.859938
 20
170.063284
 30
0.0
 11
75.559938
 21
170.063284
 31
0.0
  0
LINE
  5
16F
100
AcDbEntity
  8
ALPHA
100
AcDbLine
 10
80.159938
 20
170.02303
 30
0.0
 11
124.359938
 21
170.02303
 31
0.0
  0
LINE
  5
170
100
AcDbEntity
  8
ALPHA
100
AcDbLine
 10
75.859938
 20
169.943284
 30
0.0
 11
75.559938
 21
169.943284
 31
0.0
  0
LINE
  5
171
100
AcDbEntity
  8
ALPHA
100
AcDbLine
 10
75.859938
 20
169.823284
 30
0.0
 11
75.559938
 21
169.823284
 31
0.0
  0
LINE
  5
172
100
AcDbEntity
  8
ALPHA
100
AcDbLine
 10
75.859938
 20
169.793284
 30
0.0
 11
75.559938
 21
169.793284
 31
0.0
  0
LINE
  5
173
100
AcDbEntity
  8
ALPHA
100
AcDbLine
 10
75.859938
 20
169.553284
 30
0.0
 11
75.559938
 21
169.553284
 31
0.0
  0
LINE
  5
174
100
AcDbEntity
  8
ALPHA
100
AcDbLine
 10
75.859938
 20
169.373284
 30
0.0
 11
75.559938
 21
169.373284
 31
0.0
  0
LINE
  5
175
100
AcDbEntity
  8
ALPHA
100
AcDbLine
 10
75.859938
 20
168.713284
 30
0.0
 11
75.559938
 21
168.713284
 31
0.0
  0
LINE
  5
176
100
AcDbEntity
  8
ALPHA
100
AcDbLine
 10
75.859938
 20
168.604236
 30
0.0
 11
79.671877
 21
168.604236
 31
0.0
  0
LINE
  5
177
100
AcDbEntity
  8
ALPHA
100
AcDbLine
 10
75.859938
 20
168.473284
 30
0.0
 11
75.559938
 21
168.473284
 31
0.0
  0
LINE
  5
178
100
AcDbEntity
  8
ALPHA
100
AcDbLine
 10
75.859938
 20
168.223284
 30
0.0
 11
79.671877
 21
168.223284
 31
0.0
  0
LINE
  5
179
100
AcDbEntity
  8
ALPHA
100
AcDbLine
 10
124.359938
 20
168.195407
 30
0.0
 11
80.159938
 21
168.195407
 31
0.0
  0
LINE
  5
17A
100
AcDbEntity
  8
ALPHA
100
AcDbLine
 10
80.159938
 20
167.523284
 30
0.0
 11
79.659938
 21
167.523284
 31
0.0
  0
LINE
  5
17B
100
AcDbEntity
  8
ALPHA
100
AcDbLine
 10
124.359938
 20
166.723284
 30
0.0
 11
80.159938
 21
166.723284
 31
0.0
  0
LINE
  5
17C
100
AcDbEntity
  8
ALPHA
100
AcDbLine
 10
91.359938
 20
165.023284
 30
0.0
 11
80.159938
 21
165.023284
 31
0.0
  0
LINE
  5
17D
100
AcDbEntity
  8
ALPHA
100
AcDbLine
 10
74.859938
 20
163.723284
 30
0.0
 11
75.859938
 21
163.723284
 31
0.0
  0
LWPOLYLINE
  5
17E
100
AcDbEntity
  8
ALPHA
100
AcDbPolyline
 90
        4
 70
     0
 43
0.0
 10
80.159938
 20
167.922276
 10
79.854881
 20
167.914415
 10
79.557741
 20
167.898754
 10
79.263836
 20
167.874977
  0
LWPOLYLINE
  5
184
100
AcDbEntity
  8
ALPHA
100
AcDbPolyline
 90
        4
 70
     0
 43
0.0
 10
120.906385
 20
182.665634
 10
120.945318
 20
182.826423
 10
120.989171
 20
182.998915
 10
121.03745
 20
183.181639
  0
LWPOLYLINE
  5
18A
100
AcDbEntity
  8
ALPHA
100
AcDbPolyline
 90
       10
 70
     0
 43
0.0
 10
122.913491
 20
185.53208
 10
122.927787
 20
185.60061
 10
122.939072
 20
185.680031
 10
122.942698
 20
185.764107
 10
122.933902
 20
185.844512
 10
122.909475
 20
185.912078
 10
122.869738
 20
185.959787
 10
122.817785
 20
185.986051
 10
122.752877
 20
185.992836
 10
122.671983
 20
185.978885
  0
LINE
  5
196
100
AcDbEntity
  8
ALPHA
100
AcDbLine
 10
117.859938
 20
142.973284
 30
0.0
 11
117.859938
 21
148.973284
 31
0.0
  0
LINE
  5
197
100
AcDbEntity
  8
ALPHA
100
AcDbLine
 10
117.859938
 20
75.473284
 30
0.0
 11
117.859938
 21
84.973284
 31
0.0
  0
LINE
  5
198
100
AcDbEntity
  8
ALPHA
100
AcDbLine
 10
117.497261
 20
142.623284
 30
0.0
 11
117.497261
 21
143.423284
 31
0.0
  0
LINE
  5
199
100
AcDbEntity
  8
ALPHA
100
AcDbLine
 10
117.497261
 20
77.023284
 30
0.0
 11
117.497261
 21
84.923284
 31
0.0
  0
LINE
  5
19A
100
AcDbEntity
  8
ALPHA
100
AcDbLine
 10
117.359938
 20
143.473284
 30
0.0
 11
117.359938
 21
148.973284
 31
0.0
  0
LINE
  5
19B
100
AcDbEntity
  8
ALPHA
100
AcDbLine
 10
117.359938
 20
75.473284
 30
0.0
 11
117.359938
 21
76.973284
 31
0.0
  0
LINE
  5
19C
100
AcDbEntity
  8
ALPHA
100
AcDbLine
 10
117.020036
 20
142.923284
 30
0.0
 11
117.020036
 21
142.423284
 31
0.0
  0
LINE
  5
19D
100
AcDbEntity
  8
ALPHA
100
AcDbLine
 10
116.997261
 20
77.323284
 30
0.0
 11
116.997261
 21
84.923284
 31
0.0
  0
LINE
  5
19E
100
AcDbEntity
  8
ALPHA
100
AcDbLine
 10
116.959938
 20
77.023284
 30
0.0
 11
116.959938
 21
76.973284
 31
0.0
  0
LINE
  5
19F
100
AcDbEntity
  8
ALPHA
100
AcDbLine
 10
116.959938
 20
143.473284
 30
0.0
 11
116.959938
 21
143.423284
 31
0.0
  0
LINE
  5
1A0
100
AcDbEntity
  8
ALPHA
100
AcDbLine
 10
116.559938
 20
155.473284
 30
0.0
 11
116.559938
 21
155.673284
 31
0.0
  0
LINE
  5
1A1
100
AcDbEntity
  8
ALPHA
100
AcDbLine
 10
116.359938
 20
208.423284
 30
0.0
 11
116.359938
 21
228.423284
 31
0.0
  0
LINE
  5
1A2
100
AcDbEntity
  8
ALPHA
100
AcDbLine
 10
116.359938
 20
155.473284
 30
0.0
 11
116.359938
 21
155.673284
 31
0.0
  0
LINE
  5
1A3
100
AcDbEntity
  8
ALPHA
100
AcDbLine
 10
116.359938
 20
149.973284
 30
0.0
 11
116.359938
 21
150.473284
 31
0.0
  0
LINE
  5
1A4
100
AcDbEntity
  8
ALPHA
100
AcDbLine
 10
116.359938
 20
73.973284
 30
0.0
 11
116.359938
 21
74.473284
 31
0.0
  0
LINE
  5
1A5
100
AcDbEntity
  8
ALPHA
100
AcDbLine
 10
116.159938
 20
155.473284
 30
0.0
 11
116.159938
 21
155.673284
 31
0.0
  0
LINE
  5
1A6
100
AcDbEntity
  8
ALPHA
100
AcDbLine
 10
115.959938
 20
179.823284
 30
0.0
 11
115.959938
 21
182.823284
 31
0.0
  0
LINE
  5
1A7
100
AcDbEntity
  8
ALPHA
100
AcDbLine
 10
115.359938
 20
281.023284
 30
0.0
 11
115.359938
 21
234.623284
 31
0.0
  0
LINE
  5
1A8
100
AcDbEntity
  8
ALPHA
100
AcDbLine
 10
115.134938
 20
143.973284
 30
0.0
 11
115.134938
 21
150.473284
 31
0.0
  0
LINE
  5
1A9
100
AcDbEntity
  8
ALPHA
100
AcDbLine
 10
115.072261
 20
136.223284
 30
0.0
 11
115.072261
 21
142.923284
 31
0.0
  0
LINE
  5
1AA
100
AcDbEntity
  8
ALPHA
100
AcDbLine
 10
115.072261
 20
77.323284
 30
0.0
 11
115.072261
 21
91.623284
 31
0.0
  0
LINE
  5
1AB
100
AcDbEntity
  8
ALPHA
100
AcDbLine
 10
114.647261
 20
143.423284
 30
0.0
 11
114.647261
 21
149.023284
 31
0.0
  0
LINE
  5
1AC
100
AcDbEntity
  8
ALPHA
100
AcDbLine
 10
114.572261
 20
137.223284
 30
0.0
 11
114.572261
 21
150.323284
 31
0.0
  0
LINE
  5
1AD
100
AcDbEntity
  8
ALPHA
100
AcDbLine
 10
114.572261
 20
74.430391
 30
0.0
 11
114.572261
 21
90.623284
 31
0.0
  0
LINE
  5
1AE
100
AcDbEntity
  8
ALPHA
100
AcDbLine
 10
114.134938
 20
74.023284
 30
0.0
 11
114.134938
 21
73.973284
 31
0.0
  0
LINE
  5
1AF
100
AcDbEntity
  8
ALPHA
100
AcDbLine
 10
114.072261
 20
137.223284
 30
0.0
 11
114.072261
 21
150.323284
 31
0.0
  0
LINE
  5
1B0
100
AcDbEntity
  8
ALPHA
100
AcDbLine
 10
114.072261
 20
74.023284
 30
0.0
 11
114.072261
 21
90.623284
 31
0.0
  0
LINE
  5
1B1
100
AcDbEntity
  8
ALPHA
100
AcDbLine
 10
113.959938
 20
179.823284
 30
0.0
 11
113.959938
 21
182.823284
 31
0.0
  0
LINE
  5
1B2
100
AcDbEntity
  8
ALPHA
100
AcDbLine
 10
113.859938
 20
202.023284
 30
0.0
 11
113.859938
 21
205.723284
 31
0.0
  0
LINE
  5
1B3
100
AcDbEntity
  8
ALPHA
100
AcDbLine
 10
113.459938
 20
179.823284
 30
0.0
 11
113.459938
 21
182.823284
 31
0.0
  0
LINE
  5
1B4
100
AcDbEntity
  8
ALPHA
100
AcDbLine
 10
112.997261
 20
144.323284
 30
0.0
 11
112.997261
 21
150.323284
 31
0.0
  0
LINE
  5
1B5
100
AcDbEntity
  8
ALPHA
100
AcDbLine
 10
112.997261
 20
74.023284
 30
0.0
 11
112.997261
 21
78.323284
 31
0.0
  0
LINE
  5
1B6
100
AcDbEntity
  8
ALPHA
100
AcDbLine
 10
112.497261
 20
144.323284
 30
0.0
 11
112.497261
 21
150.323284
 31
0.0
  0
LINE
  5
1B7
100
AcDbEntity
  8
ALPHA
100
AcDbLine
 10
112.497261
 20
78.323284
 30
0.0
 11
112.497261
 21
74.023284
 31
0.0
  0
LINE
  5
1B8
100
AcDbEntity
  8
ALPHA
100
AcDbLine
 10
111.459938
 20
179.823284
 30
0.0
 11
111.459938
 21
182.823284
 31
0.0
  0
LINE
  5
1B9
100
AcDbEntity
  8
ALPHA
100
AcDbLine
 10
111.109938
 20
182.823284
 30
0.0
 11
111.109938
 21
179.823284
 31
0.0
  0
LINE
  5
1BA
100
AcDbEntity
  8
ALPHA
100
AcDbLine
 10
110.997261
 20
89.755335
 30
0.0
 11
110.997261
 21
90.510752
 31
0.0
  0
LINE
  5
1BB
100
AcDbEntity
  8
ALPHA
100
AcDbLine
 10
110.997261
 20
85.535815
 30
0.0
 11
110.997261
 21
86.291233
 31
0.0
  0
LINE
  5
1BC
100
AcDbEntity
  8
ALPHA
100
AcDbLine
 10
110.509938
 20
267.873284
 30
0.0
 11
110.509938
 21
272.873284
 31
0.0
  0
LINE
  5
1BD
100
AcDbEntity
  8
ALPHA
100
AcDbLine
 10
110.509938
 20
247.873284
 30
0.0
 11
110.509938
 21
252.873284
 31
0.0
  0
LINE
  5
1BE
100
AcDbEntity
  8
ALPHA
100
AcDbLine
 10
110.497261
 20
87.648284
 30
0.0
 11
110.497261
 21
88.398284
 31
0.0
  0
LWPOLYLINE
  5
1BF
100
AcDbEntity
  8
ALPHA
100
AcDbPolyline
 90
        4
 70
     0
 43
0.0
 10
94.813491
 20
182.665634
 10
94.774557
 20
182.826423
 10
94.730705
 20
182.998915
 10
94.682426
 20
183.181639
  0
LINE
  5
1C5
100
AcDbEntity
  8
ALPHA
100
AcDbLine
 10
75.859938
 20
163.223284
 30
0.0
 11
75.559938
 21
163.223284
 31
0.0
  0
LINE
  5
1C6
100
AcDbEntity
  8
ALPHA
100
AcDbLine
 10
75.859938
 20
163.184986
 30
0.0
 11
75.559938
 21
163.184986
 31
0.0
  0
LINE
  5
1C7
100
AcDbEntity
  8
ALPHA
100
AcDbLine
 10
75.859938
 20
163.10839
 30
0.0
 11
75.559938
 21
163.10839
 31
0.0
  0
LINE
  5
1C8
100
AcDbEntity
  8
ALPHA
100
AcDbLine
 10
75.859938
 20
162.955198
 30
0.0
 11
75.559938
 21
162.955198
 31
0.0
  0
LINE
  5
1C9
100
AcDbEntity
  8
ALPHA
100
AcDbLine
 10
75.859938
 20
162.802007
 30
0.0
 11
75.559938
 21
162.802007
 31
0.0
  0
LINE
  5
1CA
100
AcDbEntity
  8
ALPHA
100
AcDbLine
 10
75.859938
 20
162.610517
 30
0.0
 11
75.559938
 21
162.610517
 31
0.0
  0
LINE
  5
1CB
100
AcDbEntity
  8
ALPHA
100
AcDbLine
 10
91.359938
 20
162.602429
 30
0.0
 11
80.159938
 21
162.602429
 31
0.0
  0
LINE
  5
1CC
100
AcDbEntity
  8
ALPHA
100
AcDbLine
 10
80.159938
 20
162.523284
 30
0.0
 11
79.659938
 21
162.523284
 31
0.0
  0
LINE
  5
1CD
100
AcDbEntity
  8
ALPHA
100
AcDbLine
 10
75.859938
 20
161.540056
 30
0.0
 11
80.159938
 21
161.540056
 31
0.0
  0
LINE
  5
1CE
100
AcDbEntity
  8
ALPHA
100
AcDbLine
 10
75.859938
 20
161.423284
 30
0.0
 11
75.559938
 21
161.423284
 31
0.0
  0
LINE
  5
1CF
100
AcDbEntity
  8
ALPHA
100
AcDbLine
 10
75.859938
 20
161.055886
 30
0.0
 11
80.159938
 21
161.055886
 31
0.0
  0
LINE
  5
1D0
100
AcDbEntity
  8
ALPHA
100
AcDbLine
 10
91.359938
 20
160.571524
 30
0.0
 11
75.859938
 21
160.571524
 31
0.0
  0
LINE
  5
1D1
100
AcDbEntity
  8
ALPHA
100
AcDbLine
 10
91.359938
 20
160.223284
 30
0.0
 11
75.859938
 21
160.223284
 31
0.0
  0
LINE
  5
1D2
100
AcDbEntity
  8
ALPHA
100
AcDbLine
 10
91.359938
 20
155.673284
 30
0.0
 11
124.359938
 21
155.673284
 31
0.0
  0
LINE
  5
1D3
100
AcDbEntity
  8
ALPHA
100
AcDbLine
 10
89.309938
 20
155.473284
 30
0.0
 11
126.409938
 21
155.473284
 31
0.0
  0
LINE
  5
1D4
100
AcDbEntity
  8
ALPHA
100
AcDbLine
 10
108.797261
 20
78.023284
 30
0.0
 11
108.797261
 21
78.623284
 31
0.0
  0
LINE
  5
1D5
100
AcDbEntity
  8
ALPHA
100
AcDbLine
 10
108.097261
 20
145.123284
 30
0.0
 11
108.097261
 21
147.872932
 31
0.0
  0
LINE
  5
1D6
100
AcDbEntity
  8
ALPHA
100
AcDbLine
 10
108.097261
 20
140.773636
 30
0.0
 11
108.097261
 21
143.523284
 31
0.0
  0
LINE
  5
1D7
100
AcDbEntity
  8
ALPHA
100
AcDbLine
 10
107.797261
 20
78.623284
 30
0.0
 11
107.797261
 21
79.623284
 31
0.0
  0
LINE
  5
1D8
100
AcDbEntity
  8
ALPHA
100
AcDbLine
 10
107.797261
 20
77.023284
 30
0.0
 11
107.797261
 21
78.023284
 31
0.0
  0
LINE
  5
1D9
100
AcDbEntity
  8
ALPHA
100
AcDbLine
 10
107.197261
 20
78.023284
 30
0.0
 11
107.197261
 21
77.023284
 31
0.0
  0
LINE
  5
1DA
100
AcDbEntity
  8
ALPHA
100
AcDbLine
 10
107.197261
 20
79.623284
 30
0.0
 11
107.197261
 21
78.623284
 31
0.0
  0
LINE
  5
1DB
100
AcDbEntity
  8
ALPHA
100
AcDbLine
 10
106.897261
 20
145.123284
 30
0.0
 11
106.897261
 21
147.872932
 31
0.0
  0
LINE
  5
1DC
100
AcDbEntity
  8
ALPHA
100
AcDbLine
 10
106.897261
 20
140.773636
 30
0.0
 11
106.897261
 21
143.523284
 31
0.0
  0
LINE
  5
1DD
100
AcDbEntity
  8
ALPHA
100
AcDbLine
 10
106.747261
 20
89.755335
 30
0.0
 11
106.747261
 21
90.510752
 31
0.0
  0
LINE
  5
1DE
100
AcDbEntity
  8
ALPHA
100
AcDbLine
 10
106.747261
 20
85.535815
 30
0.0
 11
106.747261
 21
86.291233
 31
0.0
  0
LINE
  5
1DF
100
AcDbEntity
  8
ALPHA
100
AcDbLine
 10
106.197261
 20
78.623284
 30
0.0
 11
106.197261
 21
78.023284
 31
0.0
  0
LINE
  5
1E0
100
AcDbEntity
  8
ALPHA
100
AcDbLine
 10
105.209938
 20
252.873284
 30
0.0
 11
105.209938
 21
247.873284
 31
0.0
  0
LINE
  5
1E1
100
AcDbEntity
  8
ALPHA
100
AcDbLine
 10
105.209938
 20
272.873284
 30
0.0
 11
105.209938
 21
267.873284
 31
0.0
  0
LINE
  5
1E2
100
AcDbEntity
  8
ALPHA
100
AcDbLine
 10
104.609938
 20
182.823284
 30
0.0
 11
104.609938
 21
179.823284
 31
0.0
  0
LINE
  5
1E3
100
AcDbEntity
  8
ALPHA
100
AcDbLine
 10
104.259938
 20
179.823284
 30
0.0
 11
104.259938
 21
182.823284
 31
0.0
  0
LINE
  5
1E4
100
AcDbEntity
  8
ALPHA
100
AcDbLine
 10
102.497261
 20
144.323284
 30
0.0
 11
102.497261
 21
150.323284
 31
0.0
  0
LINE
  5
1E5
100
AcDbEntity
  8
ALPHA
100
AcDbLine
 10
102.497261
 20
74.023284
 30
0.0
 11
102.497261
 21
78.323284
 31
0.0
  0
LINE
  5
1E6
100
AcDbEntity
  8
ALPHA
100
AcDbLine
 10
102.259938
 20
179.823284
 30
0.0
 11
102.259938
 21
182.823284
 31
0.0
  0
LINE
  5
1E7
100
AcDbEntity
  8
ALPHA
100
AcDbLine
 10
101.997261
 20
144.323284
 30
0.0
 11
101.997261
 21
150.323284
 31
0.0
  0
LINE
  5
1E8
100
AcDbEntity
  8
ALPHA
100
AcDbLine
 10
101.997261
 20
74.023284
 30
0.0
 11
101.997261
 21
78.323284
 31
0.0
  0
LINE
  5
1E9
100
AcDbEntity
  8
ALPHA
100
AcDbLine
 10
101.859938
 20
205.723284
 30
0.0
 11
101.859938
 21
202.023284
 31
0.0
  0
LINE
  5
1EA
100
AcDbEntity
  8
ALPHA
100
AcDbLine
 10
101.759938
 20
179.823284
 30
0.0
 11
101.759938
 21
182.823284
 31
0.0
  0
LINE
  5
1EB
100
AcDbEntity
  8
ALPHA
100
AcDbLine
 10
101.584938
 20
74.023284
 30
0.0
 11
101.584938
 21
73.973284
 31
0.0
  0
LWPOLYLINE
  5
1EC
100
AcDbEntity
  8
ALPHA
100
AcDbPolyline
 90
       10
 70
     0
 43
0.0
 10
92.806385
 20
185.53208
 10
92.792089
 20
185.60061
 10
92.780804
 20
185.680031
 10
92.777178
 20
185.764107
 10
92.785974
 20
185.844512
 10
92.810401
 20
185.912078
 10
92.850137
 20
185.959787
 10
92.902091
 20
185.986051
 10
92.966999
 20
185.992836
 10
93.047893
 20
185.978885
  0
LINE
  5
1F8
100
AcDbEntity
  8
ALPHA
100
AcDbLine
 10
71.859938
 20
165.455335
 30
0.0
 11
74.859938
 21
163.723284
 31
0.0
  0
LWPOLYLINE
  5
1F9
100
AcDbEntity
  8
ALPHA
100
AcDbPolyline
 90
        4
 70
     0
 43
0.0
 10
75.859938
 20
164.037284
 10
77.227584
 20
163.268658
 10
78.661377
 20
162.487935
 10
80.159938
 20
161.692646
  0
LWPOLYLINE
  5
1FF
100
AcDbEntity
  8
ALPHA
100
AcDbPolyline
 90
        3
 70
     0
 43
0.0
 10
75.859938
 20
164.515303
 10
77.187069
 20
163.778049
 10
78.619155
 20
163.00553
  0
LINE
  5
204
100
AcDbEntity
  8
ALPHA
100
AcDbLine
 10
78.619155
 20
163.00553
 30
0.0
 11
80.159938
 21
162.194492
 31
0.0
  0
LWPOLYLINE
  5
205
100
AcDbEntity
  8
ALPHA
100
AcDbPolyline
 90
       20
 70
     0
 43
0.0
 10
79.359938
 20
164.182162
 10
78.996673
 20
164.36532
 10
78.505752
 20
164.638026
 10
78.07183
 20
164.905927
 10
77.693374
 20
165.169386
 10
77.370287
 20
165.428722
 10
77.103968
 20
165.683973
 10
76.897512
 20
165.934226
 10
76.756301
 20
166.174039
 10
76.68149
 20
166.395881
 10
76.666964
 20
166.600632
 10
76.710401
 20
166.797587
 10
76.817668
 20
166.990248
 10
76.991555
 20
167.172446
 10
77.228175
 20
167.338175
 10
77.523134
 20
167.485401
 10
77.874068
 20
167.613623
 10
78.280433
 20
167.722255
 10
78.743052
 20
167.810068
 10
79.263836
 20
167.874977
  0
LWPOLYLINE
  5
21B
100
AcDbEntity
  8
ALPHA
100
AcDbPolyline
 90
        6
 70
     0
 43
0.0
 10
114.072261
 20
147.66973
 10
114.22677
 20
147.652426
 10
114.366154
 20
147.602208
 10
114.47677
 20
147.52399
 10
114.547789
 20
147.425431
 10
114.572261
 20
147.316177
  0
LWPOLYLINE
  5
223
100
AcDbEntity
  8
ALPHA
100
AcDbPolyline
 90
        6
 70
     0
 43
0.0
 10
101.997261
 20
147.66973
 10
102.15177
 20
147.652426
 10
102.291154
 20
147.602208
 10
102.40177
 20
147.52399
 10
102.472789
 20
147.425431
 10
102.497261
 20
147.316177
  0
LINE
  5
22B
100
AcDbEntity
  8
ALPHA
100
AcDbLine
 10
116.359938
 20
150.473284
 30
0.0
 11
99.359938
 21
150.473284
 31
0.0
  0
LINE
  5
22C
100
AcDbEntity
  8
ALPHA
100
AcDbLine
 10
100.422261
 20
150.323284
 30
0.0
 11
114.572261
 21
150.323284
 31
0.0
  0
LINE
  5
22D
100
AcDbEntity
  8
ALPHA
100
AcDbLine
 10
100.422261
 20
149.973284
 30
0.0
 11
99.359938
 21
149.973284
 31
0.0
  0
LINE
  5
22E
100
AcDbEntity
  8
ALPHA
100
AcDbLine
 10
116.359938
 20
149.973284
 30
0.0
 11
115.134938
 21
149.973284
 31
0.0
  0
LINE
  5
22F
100
AcDbEntity
  8
ALPHA
100
AcDbLine
 10
114.572261
 20
149.673284
 30
0.0
 11
114.634938
 21
149.673284
 31
0.0
  0
LINE
  5
230
100
AcDbEntity
  8
ALPHA
100
AcDbLine
 10
114.647261
 20
149.023284
 30
0.0
 11
114.572261
 21
149.023284
 31
0.0
  0
LINE
  5
231
100
AcDbEntity
  8
ALPHA
100
AcDbLine
 10
117.359938
 20
148.973284
 30
0.0
 11
117.859938
 21
148.973284
 31
0.0
  0
LINE
  5
232
100
AcDbEntity
  8
ALPHA
100
AcDbLine
 10
98.359938
 20
148.973284
 30
0.0
 11
97.859938
 21
148.973284
 31
0.0
  0
LINE
  5
233
100
AcDbEntity
  8
ALPHA
100
AcDbLine
 10
101.997261
 20
147.66973
 30
0.0
 11
100.922261
 21
147.66973
 31
0.0
  0
LINE
  5
234
100
AcDbEntity
  8
ALPHA
100
AcDbLine
 10
114.072261
 20
147.66973
 30
0.0
 11
112.997261
 21
147.66973
 31
0.0
  0
LINE
  5
235
100
AcDbEntity
  8
ALPHA
100
AcDbLine
 10
112.497261
 20
147.316177
 30
0.0
 11
114.572261
 21
147.316177
 31
0.0
  0
LINE
  5
236
100
AcDbEntity
  8
ALPHA
100
AcDbLine
 10
100.422261
 20
147.316177
 30
0.0
 11
102.497261
 21
147.316177
 31
0.0
  0
LWPOLYLINE
  5
237
100
AcDbEntity
  8
ALPHA
100
AcDbPolyline
 90
        6
 70
     0
 43
0.0
 10
100.922261
 20
147.66973
 10
100.767753
 20
147.652426
 10
100.628369
 20
147.602208
 10
100.517753
 20
147.52399
 10
100.446733
 20
147.425431
 10
100.422261
 20
147.316177
  0
LWPOLYLINE
  5
23F
100
AcDbEntity
  8
ALPHA
100
AcDbPolyline
 90
        6
 70
     0
 43
0.0
 10
112.997261
 20
147.66973
 10
112.842753
 20
147.652426
 10
112.703369
 20
147.602208
 10
112.592753
 20
147.52399
 10
112.521733
 20
147.425431
 10
112.497261
 20
147.316177
  0
LWPOLYLINE
  5
247
100
AcDbEntity
  8
ALPHA
100
AcDbPolyline
 90
        6
 70
     0
 43
0.0
 10
121.03745
 20
183.181639
 10
120.944777
 20
183.070174
 10
120.868203
 20
182.975898
 10
120.809513
 20
182.901402
 10
120.772363
 20
182.850447
 10
120.759938
 20
182.825931
  0
LINE
  5
24F
100
AcDbEntity
  8
ALPHA
100
AcDbLine
 10
122.913491
 20
185.53208
 30
0.0
 11
120.906385
 21
182.665634
 31
0.0
  0
LINE
  5
250
100
AcDbEntity
  8
ALPHA
100
AcDbLine
 10
122.671983
 20
185.978885
 30
0.0
 11
120.6117
 21
183.036496
 31
0.0
  0
LINE
  5
251
100
AcDbEntity
  8
ALPHA
100
AcDbLine
 10
100.922261
 20
137.223284
 30
0.0
 11
100.922261
 21
150.323284
 31
0.0
  0
LINE
  5
252
100
AcDbEntity
  8
ALPHA
100
AcDbLine
 10
100.922261
 20
74.023284
 30
0.0
 11
100.922261
 21
90.623284
 31
0.0
  0
LINE
  5
253
100
AcDbEntity
  8
ALPHA
100
AcDbLine
 10
100.584938
 20
150.323284
 30
0.0
 11
100.584938
 21
150.473284
 31
0.0
  0
LINE
  5
254
100
AcDbEntity
  8
ALPHA
100
AcDbLine
 10
100.422261
 20
137.223284
 30
0.0
 11
100.422261
 21
150.323284
 31
0.0
  0
LINE
  5
255
100
AcDbEntity
  8
ALPHA
100
AcDbLine
 10
100.422261
 20
90.623284
 30
0.0
 11
100.422261
 21
74.430391
 31
0.0
  0
LINE
  5
256
100
AcDbEntity
  8
ALPHA
100
AcDbLine
 10
100.359938
 20
281.023284
 30
0.0
 11
100.359938
 21
234.623284
 31
0.0
  0
LINE
  5
257
100
AcDbEntity
  8
ALPHA
100
AcDbLine
 10
100.347261
 20
143.558772
 30
0.0
 11
100.347261
 21
143.423284
 31
0.0
  0
LINE
  5
258
100
AcDbEntity
  8
ALPHA
100
AcDbLine
 10
99.922261
 20
136.223284
 30
0.0
 11
99.922261
 21
142.923284
 31
0.0
  0
LINE
  5
259
100
AcDbEntity
  8
ALPHA
100
AcDbLine
 10
99.922261
 20
77.323284
 30
0.0
 11
99.922261
 21
91.623284
 31
0.0
  0
LINE
  5
25A
100
AcDbEntity
  8
ALPHA
100
AcDbLine
 10
99.759938
 20
179.823284
 30
0.0
 11
99.759938
 21
182.823284
 31
0.0
  0
LINE
  5
25B
100
AcDbEntity
  8
ALPHA
100
AcDbLine
 10
99.559938
 20
155.473284
 30
0.0
 11
99.559938
 21
155.673284
 31
0.0
  0
LINE
  5
25C
100
AcDbEntity
  8
ALPHA
100
AcDbLine
 10
99.359938
 20
155.473284
 30
0.0
 11
99.359938
 21
155.673284
 31
0.0
  0
LINE
  5
25D
100
AcDbEntity
  8
ALPHA
100
AcDbLine
 10
99.359938
 20
149.973284
 30
0.0
 11
99.359938
 21
150.473284
 31
0.0
  0
LINE
  5
25E
100
AcDbEntity
  8
ALPHA
100
AcDbLine
 10
99.359938
 20
73.973284
 30
0.0
 11
99.359938
 21
74.473284
 31
0.0
  0
LINE
  5
25F
100
AcDbEntity
  8
ALPHA
100
AcDbLine
 10
99.359938
 20
228.423284
 30
0.0
 11
99.359938
 21
208.423284
 31
0.0
  0
LINE
  5
260
100
AcDbEntity
  8
ALPHA
100
AcDbLine
 10
99.159938
 20
155.473284
 30
0.0
 11
99.159938
 21
155.673284
 31
0.0
  0
LINE
  5
261
100
AcDbEntity
  8
ALPHA
100
AcDbLine
 10
98.759938
 20
77.023284
 30
0.0
 11
98.759938
 21
76.973284
 31
0.0
  0
LINE
  5
262
100
AcDbEntity
  8
ALPHA
100
AcDbLine
 10
98.759938
 20
143.473284
 30
0.0
 11
98.759938
 21
143.423284
 31
0.0
  0
LINE
  5
263
100
AcDbEntity
  8
ALPHA
100
AcDbLine
 10
98.359938
 20
75.473284
 30
0.0
 11
98.359938
 21
76.973284
 31
0.0
  0
LINE
  5
264
100
AcDbEntity
  8
ALPHA
100
AcDbLine
 10
98.359938
 20
148.973284
 30
0.0
 11
98.359938
 21
143.473284
 31
0.0
  0
LINE
  5
265
100
AcDbEntity
  8
ALPHA
100
AcDbLine
 10
97.997261
 20
77.323284
 30
0.0
 11
97.997261
 21
84.923284
 31
0.0
  0
LINE
  5
266
100
AcDbEntity
  8
ALPHA
100
AcDbLine
 10
97.974487
 20
142.923284
 30
0.0
 11
97.974487
 21
142.423284
 31
0.0
  0
LINE
  5
267
100
AcDbEntity
  8
ALPHA
100
AcDbLine
 10
97.859938
 20
143.423284
 30
0.0
 11
97.859938
 21
148.973284
 31
0.0
  0
LINE
  5
268
100
AcDbEntity
  8
ALPHA
100
AcDbLine
 10
97.859938
 20
75.473284
 30
0.0
 11
97.859938
 21
77.023284
 31
0.0
  0
LINE
  5
269
100
AcDbEntity
  8
ALPHA
100
AcDbLine
 10
97.497261
 20
84.923284
 30
0.0
 11
97.497261
 21
77.023284
 31
0.0
  0
LINE
  5
26A
100
AcDbEntity
  8
ALPHA
100
AcDbLine
 10
97.497261
 20
143.423284
 30
0.0
 11
97.497261
 21
142.623284
 31
0.0
  0
LINE
  5
26B
100
AcDbEntity
  8
ALPHA
100
AcDbLine
 10
95.859938
 20
72.473284
 30
0.0
 11
95.859938
 21
73.773284
 31
0.0
  0
LINE
  5
26C
100
AcDbEntity
  8
ALPHA
100
AcDbLine
 10
95.509938
 20
146.483264
 30
0.0
 11
95.509938
 21
141.463304
 31
0.0
  0
LINE
  5
26D
100
AcDbEntity
  8
ALPHA
100
AcDbLine
 10
95.359938
 20
232.623284
 30
0.0
 11
95.359938
 21
202.523284
 31
0.0
  0
LINE
  5
26E
100
AcDbEntity
  8
ALPHA
100
AcDbLine
 10
95.108176
 20
179.610072
 30
0.0
 11
95.108176
 21
179.823284
 31
0.0
  0
LINE
  5
26F
100
AcDbEntity
  8
ALPHA
100
AcDbLine
 10
95.108176
 20
183.036496
 30
0.0
 11
95.108176
 21
182.823284
 31
0.0
  0
LINE
  5
270
100
AcDbEntity
  8
ALPHA
100
AcDbLine
 10
94.959938
 20
179.820637
 30
0.0
 11
94.959938
 21
182.825972
 31
0.0
  0
LINE
  5
271
100
AcDbEntity
  8
ALPHA
100
AcDbLine
 10
94.859938
 20
155.673284
 30
0.0
 11
94.859938
 21
155.473284
 31
0.0
  0
LINE
  5
272
100
AcDbEntity
  8
ALPHA
100
AcDbLine
 10
94.813491
 20
179.980933
 30
0.0
 11
94.813491
 21
182.665634
 31
0.0
  0
LINE
  5
273
100
AcDbEntity
  8
ALPHA
100
AcDbLine
 10
94.659938
 20
155.673284
 30
0.0
 11
94.659938
 21
155.473284
 31
0.0
  0
LINE
  5
274
100
AcDbEntity
  8
ALPHA
100
AcDbLine
 10
94.459938
 20
155.673284
 30
0.0
 11
94.459938
 21
155.473284
 31
0.0
  0
LINE
  5
275
100
AcDbEntity
  8
ALPHA
100
AcDbLine
 10
93.047893
 20
185.978885
 30
0.0
 11
93.047893
 21
186.265674
 31
0.0
  0
LINE
  5
276
100
AcDbEntity
  8
ALPHA
100
AcDbLine
 10
93.047893
 20
176.667682
 30
0.0
 11
93.047893
 21
176.380894
 31
0.0
  0
LINE
  5
277
100
AcDbEntity
  8
ALPHA
100
AcDbLine
 10
92.809938
 20
155.473284
 30
0.0
 11
92.809938
 21
155.673284
 31
0.0
  0
LINE
  5
278
100
AcDbEntity
  8
ALPHA
100
AcDbLine
 10
92.806385
 20
177.114488
 30
0.0
 11
92.806385
 21
185.53208
 31
0.0
  0
LINE
  5
279
100
AcDbEntity
  8
ALPHA
100
AcDbLine
 10
92.497261
 20
137.423284
 30
0.0
 11
92.497261
 21
137.923284
 31
0.0
  0
LINE
  5
27A
100
AcDbEntity
  8
ALPHA
100
AcDbLine
 10
92.497261
 20
89.923284
 30
0.0
 11
92.497261
 21
90.423284
 31
0.0
  0
LINE
  5
27B
100
AcDbEntity
  8
ALPHA
100
AcDbLine
 10
92.452831
 20
177.114488
 30
0.0
 11
92.452831
 21
185.53208
 31
0.0
  0
LINE
  5
27C
100
AcDbEntity
  8
ALPHA
100
AcDbLine
 10
92.359938
 20
155.673284
 30
0.0
 11
92.359938
 21
166.723284
 31
0.0
  0
LWPOLYLINE
  5
27D
100
AcDbEntity
  8
ALPHA
100
AcDbPolyline
 90
       10
 70
     0
 43
0.0
 10
92.452831
 20
177.114488
 10
92.455929
 20
177.022684
 10
92.468591
 20
176.91416
 10
92.496287
 20
176.795917
 10
92.543836
 20
176.677889
 10
92.613049
 20
176.571835
 10
92.700546
 20
176.487876
 10
92.800372
 20
176.429519
 10
92.914588
 20
176.39367
 10
93.047893
 20
176.380894
  0
LWPOLYLINE
  5
289
100
AcDbEntity
  8
ALPHA
100
AcDbPolyline
 90
        4
 70
     0
 43
0.0
 10
100.451555
 20
74.023284
 10
100.435476
 20
74.154707
 10
100.425632
 20
74.290462
 10
100.422261
 20
74.430391
  0
LINE
  5
28F
100
AcDbEntity
  8
ALPHA
100
AcDbLine
 10
97.476557
 20
142.468738
 30
0.0
 11
97.974487
 21
142.423284
 31
0.0
  0
LINE
  5
290
100
AcDbEntity
  8
ALPHA
100
AcDbLine
 10
103.947613
 20
144.923284
 30
0.0
 11
106.697261
 21
144.923284
 31
0.0
  0
LINE
  5
291
100
AcDbEntity
  8
ALPHA
100
AcDbLine
 10
111.046909
 20
144.923284
 30
0.0
 11
108.297261
 21
144.923284
 31
0.0
  0
LINE
  5
292
100
AcDbEntity
  8
ALPHA
100
AcDbLine
 10
102.497261
 20
144.323284
 30
0.0
 11
101.997261
 21
144.323284
 31
0.0
  0
LINE
  5
293
100
AcDbEntity
  8
ALPHA
100
AcDbLine
 10
112.997261
 20
144.323284
 30
0.0
 11
112.497261
 21
144.323284
 31
0.0
  0
LINE
  5
294
100
AcDbEntity
  8
ALPHA
100
AcDbLine
 10
103.947613
 20
143.723284
 30
0.0
 11
106.697261
 21
143.723284
 31
0.0
  0
LINE
  5
295
100
AcDbEntity
  8
ALPHA
100
AcDbLine
 10
111.046909
 20
143.723284
 30
0.0
 11
108.297261
 21
143.723284
 31
0.0
  0
LINE
  5
296
100
AcDbEntity
  8
ALPHA
100
AcDbLine
 10
115.634938
 20
143.473284
 30
0.0
 11
117.859938
 21
143.473284
 31
0.0
  0
LINE
  5
297
100
AcDbEntity
  8
ALPHA
100
AcDbLine
 10
97.859938
 20
143.473284
 30
0.0
 11
100.084938
 21
143.473284
 31
0.0
  0
LINE
  5
298
100
AcDbEntity
  8
ALPHA
100
AcDbLine
 10
100.347261
 20
143.423284
 30
0.0
 11
97.497261
 21
143.423284
 31
0.0
  0
LINE
  5
299
100
AcDbEntity
  8
ALPHA
100
AcDbLine
 10
117.497261
 20
143.423284
 30
0.0
 11
114.647261
 21
143.423284
 31
0.0
  0
LINE
  5
29A
100
AcDbEntity
  8
ALPHA
100
AcDbLine
 10
114.572261
 20
142.923284
 30
0.0
 11
117.020036
 21
142.923284
 31
0.0
  0
LINE
  5
29B
100
AcDbEntity
  8
ALPHA
100
AcDbLine
 10
100.422261
 20
142.923284
 30
0.0
 11
97.974487
 21
142.923284
 31
0.0
  0
LINE
  5
29C
100
AcDbEntity
  8
ALPHA
100
AcDbLine
 10
114.572261
 20
142.423284
 30
0.0
 11
117.020036
 21
142.423284
 31
0.0
  0
LINE
  5
29D
100
AcDbEntity
  8
ALPHA
100
AcDbLine
 10
100.422261
 20
142.423284
 30
0.0
 11
97.974487
 21
142.423284
 31
0.0
  0
LINE
  5
29E
100
AcDbEntity
  8
ALPHA
100
AcDbLine
 10
122.859938
 20
137.973284
 30
0.0
 11
127.409938
 21
137.973284
 31
0.0
  0
LINE
  5
29F
100
AcDbEntity
  8
ALPHA
100
AcDbLine
 10
88.309938
 20
137.973284
 30
0.0
 11
92.859938
 21
137.973284
 31
0.0
  0
LINE
  5
2A0
100
AcDbEntity
  8
ALPHA
100
AcDbLine
 10
92.497261
 20
137.923284
 30
0.0
 11
87.997261
 21
137.923284
 31
0.0
  0
LINE
  5
2A1
100
AcDbEntity
  8
ALPHA
100
AcDbLine
 10
126.997261
 20
137.923284
 30
0.0
 11
122.497261
 21
137.923284
 31
0.0
  0
LINE
  5
2A2
100
AcDbEntity
  8
ALPHA
100
AcDbLine
 10
87.497261
 20
137.423284
 30
0.0
 11
92.497261
 21
137.423284
 31
0.0
  0
LINE
  5
2A3
100
AcDbEntity
  8
ALPHA
100
AcDbLine
 10
127.497261
 20
137.423284
 30
0.0
 11
122.497261
 21
137.423284
 31
0.0
  0
LINE
  5
2A4
100
AcDbEntity
  8
ALPHA
100
AcDbLine
 10
117.517965
 20
142.468738
 30
0.0
 11
117.020036
 21
142.423284
 31
0.0
  0
LWPOLYLINE
  5
2A5
100
AcDbEntity
  8
ALPHA
100
AcDbPolyline
 90
        4
 70
     0
 43
0.0
 10
94.813491
 20
179.980933
 10
94.774557
 20
179.820144
 10
94.730705
 20
179.647653
 10
94.682426
 20
179.464928
  0
LWPOLYLINE
  5
2AB
100
AcDbEntity
  8
ALPHA
100
AcDbPolyline
 90
       10
 70
     0
 43
0.0
 10
92.806385
 20
177.114488
 10
92.792089
 20
177.045958
 10
92.780804
 20
176.966537
 10
92.777178
 20
176.882461
 10
92.785974
 20
176.802055
 10
92.810401
 20
176.73449
 10
92.850137
 20
176.686781
 10
92.902091
 20
176.660517
 10
92.966999
 20
176.653732
 10
93.047893
 20
176.667682
  0
LWPOLYLINE
  5
2B7
100
AcDbEntity
  8
ALPHA
100
AcDbPolyline
 90
       10
 70
     0
 43
0.0
 10
92.452831
 20
185.53208
 10
92.455929
 20
185.623883
 10
92.468591
 20
185.732407
 10
92.496287
 20
185.85065
 10
92.543836
 20
185.968679
 10
92.613049
 20
186.074732
 10
92.700546
 20
186.158692
 10
92.800372
 20
186.217048
 10
92.914588
 20
186.252897
 10
93.047893
 20
186.265674
  0
LINE
  5
2C3
100
AcDbEntity
  8
ALPHA
100
AcDbLine
 10
91.859938
 20
175.723284
 30
0.0
 11
91.859938
 21
187.673284
 31
0.0
  0
LINE
  5
2C4
100
AcDbEntity
  8
ALPHA
100
AcDbLine
 10
91.359938
 20
155.673284
 30
0.0
 11
91.359938
 21
187.173284
 31
0.0
  0
LINE
  5
2C5
100
AcDbEntity
  8
ALPHA
100
AcDbLine
 10
91.247261
 20
134.673284
 30
0.0
 11
91.247261
 21
94.173284
 31
0.0
  0
LINE
  5
2C6
100
AcDbEntity
  8
ALPHA
100
AcDbLine
 10
90.697261
 20
93.123284
 30
0.0
 11
90.697261
 21
134.723284
 31
0.0
  0
LINE
  5
2C7
100
AcDbEntity
  8
ALPHA
100
AcDbLine
 10
90.209938
 20
141.463304
 30
0.0
 11
90.209938
 21
146.483264
 31
0.0
  0
LINE
  5
2C8
100
AcDbEntity
  8
ALPHA
100
AcDbLine
 10
90.097261
 20
135.323284
 30
0.0
 11
90.097261
 21
92.523284
 31
0.0
  0
LINE
  5
2C9
100
AcDbEntity
  8
ALPHA
100
AcDbLine
 10
89.197261
 20
90.623284
 30
0.0
 11
89.197261
 21
137.223284
 31
0.0
  0
LINE
  5
2CA
100
AcDbEntity
  8
ALPHA
100
AcDbLine
 10
88.697261
 20
136.223284
 30
0.0
 11
88.697261
 21
91.623284
 31
0.0
  0
LINE
  5
2CB
100
AcDbEntity
  8
ALPHA
100
AcDbLine
 10
88.197261
 20
136.223284
 30
0.0
 11
88.197261
 21
91.623284
 31
0.0
  0
LINE
  5
2CC
100
AcDbEntity
  8
ALPHA
100
AcDbLine
 10
87.997261
 20
89.923284
 30
0.0
 11
87.997261
 21
137.923284
 31
0.0
  0
LINE
  5
2CD
100
AcDbEntity
  8
ALPHA
100
AcDbLine
 10
87.809938
 20
137.882258
 30
0.0
 11
87.809938
 21
153.973284
 31
0.0
  0
LINE
  5
2CE
100
AcDbEntity
  8
ALPHA
100
AcDbLine
 10
87.809938
 20
75.473284
 30
0.0
 11
87.809938
 21
89.941412
 31
0.0
  0
LINE
  5
2CF
100
AcDbEntity
  8
ALPHA
100
AcDbLine
 10
87.497261
 20
137.423284
 30
0.0
 11
87.497261
 21
90.423284
 31
0.0
  0
LINE
  5
2D0
100
AcDbEntity
  8
ALPHA
100
AcDbLine
 10
114.072261
 20
137.223284
 30
0.0
 11
125.797261
 21
137.223284
 31
0.0
  0
LINE
  5
2D1
100
AcDbEntity
  8
ALPHA
100
AcDbLine
 10
89.197261
 20
137.223284
 30
0.0
 11
100.922261
 21
137.223284
 31
0.0
  0
LINE
  5
2D2
100
AcDbEntity
  8
ALPHA
100
AcDbLine
 10
115.072261
 20
136.723284
 30
0.0
 11
125.797261
 21
136.723284
 31
0.0
  0
LINE
  5
2D3
100
AcDbEntity
  8
ALPHA
100
AcDbLine
 10
99.922261
 20
136.723284
 30
0.0
 11
89.197261
 21
136.723284
 31
0.0
  0
LINE
  5
2D4
100
AcDbEntity
  8
ALPHA
100
AcDbLine
 10
115.072261
 20
136.223284
 30
0.0
 11
126.797261
 21
136.223284
 31
0.0
  0
LINE
  5
2D5
100
AcDbEntity
  8
ALPHA
100
AcDbLine
 10
88.197261
 20
136.223284
 30
0.0
 11
99.922261
 21
136.223284
 31
0.0
  0
LINE
  5
2D6
100
AcDbEntity
  8
ALPHA
100
AcDbLine
 10
124.897261
 20
135.323284
 30
0.0
 11
90.097261
 21
135.323284
 31
0.0
  0
LINE
  5
2D7
100
AcDbEntity
  8
ALPHA
100
AcDbLine
 10
90.697261
 20
134.723284
 30
0.0
 11
124.297261
 21
134.723284
 31
0.0
  0
LINE
  5
2D8
100
AcDbEntity
  8
ALPHA
100
AcDbLine
 10
123.747261
 20
134.673284
 30
0.0
 11
91.247261
 21
134.673284
 31
0.0
  0
LWPOLYLINE
  5
2D9
100
AcDbEntity
  8
ALPHA
100
AcDbPolyline
 90
        4
 70
     0
 43
0.0
 10
121.03745
 20
183.181639
 10
120.886425
 20
183.125114
 10
120.743697
 20
183.076569
 10
120.6117
 20
183.036496
  0
LWPOLYLINE
  5
2DF
100
AcDbEntity
  8
ALPHA
100
AcDbPolyline
 90
        6
 70
     0
 43
0.0
 10
94.682426
 20
179.464928
 10
94.775094
 20
179.576387
 10
94.851677
 20
179.670675
 10
94.910367
 20
179.745171
 10
94.94752
 20
179.796131
 10
94.959938
 20
179.820637
  0
LINE
  5
2E7
100
AcDbEntity
  8
ALPHA
100
AcDbLine
 10
93.047893
 20
176.667682
 30
0.0
 11
95.108176
 21
179.610072
 31
0.0
  0
LINE
  5
2E8
100
AcDbEntity
  8
ALPHA
100
AcDbLine
 10
92.806385
 20
177.114488
 30
0.0
 11
94.813491
 21
179.980933
 31
0.0
  0
LINE
  5
2E9
100
AcDbEntity
  8
ALPHA
100
AcDbLine
 10
81.359938
 20
162.523284
 30
0.0
 11
81.359938
 21
167.523284
 31
0.0
  0
LINE
  5
2EA
100
AcDbEntity
  8
ALPHA
100
AcDbLine
 10
80.159938
 20
161.055886
 30
0.0
 11
80.159938
 21
182.223201
 31
0.0
  0
LINE
  5
2EB
100
AcDbEntity
  8
ALPHA
100
AcDbLine
 10
79.671877
 20
173.842331
 30
0.0
 11
79.671877
 21
174.223284
 31
0.0
  0
LINE
  5
2EC
100
AcDbEntity
  8
ALPHA
100
AcDbLine
 10
79.671877
 20
168.604236
 30
0.0
 11
79.671877
 21
168.223284
 31
0.0
  0
LINE
  5
2ED
100
AcDbEntity
  8
ALPHA
100
AcDbLine
 10
79.659938
 20
174.923284
 30
0.0
 11
79.659938
 21
179.923284
 31
0.0
  0
LINE
  5
2EE
100
AcDbEntity
  8
ALPHA
100
AcDbLine
 10
79.659938
 20
162.523284
 30
0.0
 11
79.659938
 21
167.523284
 31
0.0
  0
LINE
  5
2EF
100
AcDbEntity
  8
ALPHA
100
AcDbLine
 10
79.359938
 20
175.223284
 30
0.0
 11
79.359938
 21
179.623284
 31
0.0
  0
LINE
  5
2F0
100
AcDbEntity
  8
ALPHA
100
AcDbLine
 10
79.359938
 20
162.823284
 30
0.0
 11
79.359938
 21
167.223284
 31
0.0
  0
LINE
  5
2F1
100
AcDbEntity
  8
ALPHA
100
AcDbLine
 10
75.859938
 20
160.223319
 30
0.0
 11
75.859938
 21
179.723279
 31
0.0
  0
LINE
  5
2F2
100
AcDbEntity
  8
ALPHA
100
AcDbLine
 10
75.559938
 20
172.643284
 30
0.0
 11
75.559938
 21
173.723284
 31
0.0
  0
LINE
  5
2F3
100
AcDbEntity
  8
ALPHA
100
AcDbLine
 10
75.559938
 20
171.203284
 30
0.0
 11
75.559938
 21
172.403284
 31
0.0
  0
LINE
  5
2F4
100
AcDbEntity
  8
ALPHA
100
AcDbLine
 10
75.559938
 20
169.793284
 30
0.0
 11
75.559938
 21
170.963284
 31
0.0
  0
LINE
  5
2F5
100
AcDbEntity
  8
ALPHA
100
AcDbLine
 10
75.559938
 20
168.473284
 30
0.0
 11
75.559938
 21
169.553284
 31
0.0
  0
LINE
  5
2F6
100
AcDbEntity
  8
ALPHA
100
AcDbLine
 10
75.559938
 20
161.423284
 30
0.0
 11
75.559938
 21
163.223284
 31
0.0
  0
LINE
  5
2F7
100
AcDbEntity
  8
ALPHA
100
AcDbLine
 10
74.859938
 20
163.723284
 30
0.0
 11
74.859938
 21
178.723284
 31
0.0
  0
LWPOLYLINE
  5
2F8
100
AcDbEntity
  8
ALPHA
100
AcDbPolyline
 90
        4
 70
     0
 43
0.0
 10
94.682426
 20
179.464928
 10
94.833451
 20
179.521453
 10
94.976178
 20
179.569998
 10
95.108176
 20
179.610072
  0
LINE
  5
2FE
100
AcDbEntity
  8
ALPHA
100
AcDbLine
 10
75.859938
 20
179.723284
 30
0.0
 11
80.159938
 21
181.677829
 31
0.0
  0
LINE
  5
2FF
100
AcDbEntity
  8
ALPHA
100
AcDbLine
 10
71.859938
 20
165.455335
 30
0.0
 11
71.859938
 21
176.991233
 31
0.0
  0
LINE
  5
300
100
AcDbEntity
  8
ALPHA
100
AcDbLine
 10
71.859938
 20
176.991233
 30
0.0
 11
74.859938
 21
178.723284
 31
0.0
  0
LINE
  5
301
100
AcDbEntity
  8
ALPHA
100
AcDbLine
 10
99.859938
 20
202.023284
 30
0.0
 11
98.359938
 21
200.523284
 31
0.0
  0
LINE
  5
302
100
AcDbEntity
  8
ALPHA
100
AcDbLine
 10
91.247261
 20
94.173284
 30
0.0
 11
123.747261
 21
94.173284
 31
0.0
  0
LINE
  5
303
100
AcDbEntity
  8
ALPHA
100
AcDbLine
 10
124.297261
 20
93.123284
 30
0.0
 11
90.697261
 21
93.123284
 31
0.0
  0
LINE
  5
304
100
AcDbEntity
  8
ALPHA
100
AcDbLine
 10
90.097261
 20
92.523284
 30
0.0
 11
124.897261
 21
92.523284
 31
0.0
  0
LINE
  5
305
100
AcDbEntity
  8
ALPHA
100
AcDbLine
 10
115.072261
 20
91.623284
 30
0.0
 11
126.797261
 21
91.623284
 31
0.0
  0
LINE
  5
306
100
AcDbEntity
  8
ALPHA
100
AcDbLine
 10
88.197261
 20
91.623284
 30
0.0
 11
99.922261
 21
91.623284
 31
0.0
  0
LINE
  5
307
100
AcDbEntity
  8
ALPHA
100
AcDbLine
 10
89.197261
 20
91.123284
 30
0.0
 11
99.922261
 21
91.123284
 31
0.0
  0
LINE
  5
308
100
AcDbEntity
  8
ALPHA
100
AcDbLine
 10
125.797261
 20
91.123284
 30
0.0
 11
115.072261
 21
91.123284
 31
0.0
  0
LINE
  5
309
100
AcDbEntity
  8
ALPHA
100
AcDbLine
 10
114.072261
 20
90.623284
 30
0.0
 11
125.797261
 21
90.623284
 31
0.0
  0
LINE
  5
30A
100
AcDbEntity
  8
ALPHA
100
AcDbLine
 10
89.197261
 20
90.623284
 30
0.0
 11
100.922261
 21
90.623284
 31
0.0
  0
LINE
  5
30B
100
AcDbEntity
  8
ALPHA
100
AcDbLine
 10
122.497261
 20
90.423284
 30
0.0
 11
127.497261
 21
90.423284
 31
0.0
  0
LINE
  5
30C
100
AcDbEntity
  8
ALPHA
100
AcDbLine
 10
87.497261
 20
90.423284
 30
0.0
 11
92.497261
 21
90.423284
 31
0.0
  0
LINE
  5
30D
100
AcDbEntity
  8
ALPHA
100
AcDbLine
 10
127.409938
 20
89.973284
 30
0.0
 11
127.20625
 21
89.973284
 31
0.0
  0
LINE
  5
30E
100
AcDbEntity
  8
ALPHA
100
AcDbLine
 10
92.497261
 20
89.923284
 30
0.0
 11
87.997261
 21
89.923284
 31
0.0
  0
LINE
  5
30F
100
AcDbEntity
  8
ALPHA
100
AcDbLine
 10
126.997261
 20
89.923284
 30
0.0
 11
122.497261
 21
89.923284
 31
0.0
  0
LINE
  5
310
100
AcDbEntity
  8
ALPHA
100
AcDbLine
 10
122.497261
 20
89.623284
 30
0.0
 11
126.422261
 21
89.623284
 31
0.0
  0
LINE
  5
311
100
AcDbEntity
  8
ALPHA
100
AcDbLine
 10
88.572261
 20
89.623284
 30
0.0
 11
92.497261
 21
89.623284
 31
0.0
  0
LINE
  5
312
100
AcDbEntity
  8
ALPHA
100
AcDbLine
 10
110.497261
 20
88.398284
 30
0.0
 11
109.037912
 21
88.398284
 31
0.0
  0
LINE
  5
313
100
AcDbEntity
  8
ALPHA
100
AcDbLine
 10
109.037912
 20
87.648284
 30
0.0
 11
110.497261
 21
87.648284
 31
0.0
  0
LINE
  5
314
100
AcDbEntity
  8
ALPHA
100
AcDbLine
 10
116.997261
 20
84.923284
 30
0.0
 11
117.497261
 21
84.923284
 31
0.0
  0
LINE
  5
315
100
AcDbEntity
  8
ALPHA
100
AcDbLine
 10
97.997261
 20
84.923284
 30
0.0
 11
97.497261
 21
84.923284
 31
0.0
  0
LWPOLYLINE
  5
316
100
AcDbEntity
  8
ALPHA
100
AcDbPolyline
 90
        6
 70
     0
 43
0.0
 10
112.997261
 20
76.676837
 10
112.842753
 20
76.694141
 10
112.703369
 20
76.74436
 10
112.592753
 20
76.822577
 10
112.521733
 20
76.921137
 10
112.497261
 20
77.030391
  0
LWPOLYLINE
  5
31E
100
AcDbEntity
  8
ALPHA
100
AcDbPolyline
 90
        6
 70
     0
 43
0.0
 10
100.922261
 20
76.676837
 10
100.767753
 20
76.694141
 10
100.628369
 20
76.74436
 10
100.517753
 20
76.822577
 10
100.446733
 20
76.921137
 10
100.422261
 20
77.030391
  0
LINE
  5
326
100
AcDbEntity
  8
ALPHA
100
AcDbLine
 10
107.797261
 20
79.623284
 30
0.0
 11
107.197261
 21
79.623284
 31
0.0
  0
LINE
  5
327
100
AcDbEntity
  8
ALPHA
100
AcDbLine
 10
107.197261
 20
78.623284
 30
0.0
 11
106.197261
 21
78.623284
 31
0.0
  0
LINE
  5
328
100
AcDbEntity
  8
ALPHA
100
AcDbLine
 10
108.797261
 20
78.623284
 30
0.0
 11
107.797261
 21
78.623284
 31
0.0
  0
LINE
  5
329
100
AcDbEntity
  8
ALPHA
100
AcDbLine
 10
112.497261
 20
78.323284
 30
0.0
 11
112.997261
 21
78.323284
 31
0.0
  0
LINE
  5
32A
100
AcDbEntity
  8
ALPHA
100
AcDbLine
 10
101.997261
 20
78.323284
 30
0.0
 11
102.497261
 21
78.323284
 31
0.0
  0
LINE
  5
32B
100
AcDbEntity
  8
ALPHA
100
AcDbLine
 10
107.797261
 20
78.023284
 30
0.0
 11
108.797261
 21
78.023284
 31
0.0
  0
LINE
  5
32C
100
AcDbEntity
  8
ALPHA
100
AcDbLine
 10
106.197261
 20
78.023284
 30
0.0
 11
107.197261
 21
78.023284
 31
0.0
  0
LINE
  5
32D
100
AcDbEntity
  8
ALPHA
100
AcDbLine
 10
114.572261
 20
77.823284
 30
0.0
 11
117.497261
 21
77.823284
 31
0.0
  0
LINE
  5
32E
100
AcDbEntity
  8
ALPHA
100
AcDbLine
 10
97.497261
 20
77.823284
 30
0.0
 11
100.422261
 21
77.823284
 31
0.0
  0
LINE
  5
32F
100
AcDbEntity
  8
ALPHA
100
AcDbLine
 10
114.572261
 20
77.323284
 30
0.0
 11
116.997261
 21
77.323284
 31
0.0
  0
LINE
  5
330
100
AcDbEntity
  8
ALPHA
100
AcDbLine
 10
100.422261
 20
77.323284
 30
0.0
 11
97.997261
 21
77.323284
 31
0.0
  0
LINE
  5
331
100
AcDbEntity
  8
ALPHA
100
AcDbLine
 10
112.497261
 20
77.030391
 30
0.0
 11
114.572261
 21
77.030391
 31
0.0
  0
LINE
  5
332
100
AcDbEntity
  8
ALPHA
100
AcDbLine
 10
100.422261
 20
77.030391
 30
0.0
 11
102.497261
 21
77.030391
 31
0.0
  0
LINE
  5
333
100
AcDbEntity
  8
ALPHA
100
AcDbLine
 10
114.572261
 20
77.023284
 30
0.0
 11
117.497261
 21
77.023284
 31
0.0
  0
LINE
  5
334
100
AcDbEntity
  8
ALPHA
100
AcDbLine
 10
107.197261
 20
77.023284
 30
0.0
 11
107.797261
 21
77.023284
 31
0.0
  0
LINE
  5
335
100
AcDbEntity
  8
ALPHA
100
AcDbLine
 10
97.497261
 20
77.023284
 30
0.0
 11
100.422261
 21
77.023284
 31
0.0
  0
LINE
  5
336
100
AcDbEntity
  8
ALPHA
100
AcDbLine
 10
114.634938
 20
76.973284
 30
0.0
 11
117.859938
 21
76.973284
 31
0.0
  0
LINE
  5
337
100
AcDbEntity
  8
ALPHA
100
AcDbLine
 10
97.859938
 20
76.973284
 30
0.0
 11
100.422261
 21
76.973284
 31
0.0
  0
LINE
  5
338
100
AcDbEntity
  8
ALPHA
100
AcDbLine
 10
112.997261
 20
76.676837
 30
0.0
 11
114.072261
 21
76.676837
 31
0.0
  0
LINE
  5
339
100
AcDbEntity
  8
ALPHA
100
AcDbLine
 10
100.922261
 20
76.676837
 30
0.0
 11
101.997261
 21
76.676837
 31
0.0
  0
LWPOLYLINE
  5
33A
100
AcDbEntity
  8
ALPHA
100
AcDbPolyline
 90
        6
 70
     0
 43
0.0
 10
101.997261
 20
76.676837
 10
102.15177
 20
76.694141
 10
102.291154
 20
76.74436
 10
102.40177
 20
76.822577
 10
102.472789
 20
76.921137
 10
102.497261
 20
77.030391
  0
LINE
  5
342
100
AcDbEntity
  8
ALPHA
100
AcDbLine
 10
117.359938
 20
75.473284
 30
0.0
 11
117.859938
 21
75.473284
 31
0.0
  0
LINE
  5
343
100
AcDbEntity
  8
ALPHA
100
AcDbLine
 10
98.359938
 20
75.473284
 30
0.0
 11
97.859938
 21
75.473284
 31
0.0
  0
LINE
  5
344
100
AcDbEntity
  8
ALPHA
100
AcDbLine
 10
114.572261
 20
74.473284
 30
0.0
 11
116.359938
 21
74.473284
 31
0.0
  0
LINE
  5
345
100
AcDbEntity
  8
ALPHA
100
AcDbLine
 10
100.422261
 20
74.473284
 30
0.0
 11
99.359938
 21
74.473284
 31
0.0
  0
LINE
  5
346
100
AcDbEntity
  8
ALPHA
100
AcDbLine
 10
100.451555
 20
74.023284
 30
0.0
 11
114.542967
 21
74.023284
 31
0.0
  0
LINE
  5
347
100
AcDbEntity
  8
ALPHA
100
AcDbLine
 10
89.309938
 20
73.973284
 30
0.0
 11
126.409938
 21
73.973284
 31
0.0
  0
LINE
  5
348
100
AcDbEntity
  8
ALPHA
100
AcDbLine
 10
95.859938
 20
73.773284
 30
0.0
 11
119.859938
 21
73.773284
 31
0.0
  0
LINE
  5
349
100
AcDbEntity
  8
ALPHA
100
AcDbLine
 10
95.859938
 20
72.473284
 30
0.0
 11
119.859938
 21
72.473284
 31
0.0
  0
LWPOLYLINE
  5
34A
100
AcDbEntity
  8
ALPHA
100
AcDbPolyline
 90
        6
 70
     0
 43
0.0
 10
114.072261
 20
76.676837
 10
114.22677
 20
76.694141
 10
114.366154
 20
76.74436
 10
114.47677
 20
76.822577
 10
114.547789
 20
76.921137
 10
114.572261
 20
77.030391
  0
INSERT
  5
3D0
100
AcDbEntity
  8
0
100
AcDbBlockReference
  2
SCH_ISO
 10
0.0
 20
0.0
 30
0.0
  0
ENDSEC
  0
SECTION
  2
OBJECTS
  0
DICTIONARY
  5
411
100
AcDbDictionary
  3
ACAD_GROUP
350
412
  3
ACAD_MLINESTYLE
350
41F
  3
ACDBVARIABLEDICTIONARY
350
45E
  0
DICTIONARY
  5
412
102
{ACAD_REACTORS
330
411
102
}
100
AcDbDictionary
  0
DICTIONARY
  5
41F
102
{ACAD_REACTORS
330
411
102
}
100
AcDbDictionary
  3
STANDARD
350
420
  0
DICTIONARY
  5
45E
102
{ACAD_REACTORS
330
411
102
}
100
AcDbDictionary
  3
DIMADEC
350
45F
  0
MLINESTYLE
  5
420
102
{ACAD_REACTORS
330
41F
102
}
100
AcDbMlineStyle
  2
STANDARD
 70
     0
  3

 62
   256
 51
90.0
 52
90.0
 71
     2
 49
0.5
 62
   256
  6
BYLAYER
 49
-0.5
 62
   256
  6
BYLAYER
  0
DICTIONARYVAR
  5
45F
102
{ACAD_REACTORS
330
45E
102
}
100
DictionaryVariables
280
     0
  1
0
  0
ENDSEC
  0
EOF
