  0
SECTION
  2
HEADER
  9
$ACADVER
  1
AC1009
  9
$INSBASE
 10
402.590624
 20
-1.041018
 30
0.0
  9
$EXTMIN
 10
120.368572
 20
5.020581
 30
0.0
  9
$EXTMAX
 10
200.37
 20
155.020581
 30
0.0
  9
$LIMMIN
 10
-407.970438
 20
-367.832444
  9
$LIMMAX
 10
429.804077
 20
234.370848
  9
$ORTHOMODE
 70
     0
  9
$REGENMODE
 70
     1
  9
$FILLMODE
 70
     1
  9
$QTEXTMODE
 70
     0
  9
$MIRRTEXT
 70
     1
  9
$DRAGMODE
 70
     2
  9
$LTSCALE
 40
10.0
  9
$OSMODE
 70
    35
  9
$ATTMODE
 70
     1
  9
$TEXTSIZE
 40
6.0
  9
$TRACEWID
 40
1.0
  9
$TEXTSTYLE
  7
ROMANS
  9
$CLAYER
  8
ALPHA
  9
$CELTYPE
  6
BYLAYER
  9
$CECOLOR
 62
   256
  9
$DIMSCALE
 40
1.0
  9
$DIMASZ
 40
5.0
  9
$DIMEXO
 40
2.0
  9
$DIMDLI
 40
0.38
  9
$DIMRND
 40
0.0
  9
$DIMDLE
 40
0.0
  9
$DIMEXE
 40
2.5
  9
$DIMTP
 40
0.0
  9
$DIMTM
 40
0.0
  9
$DIMTXT
 40
2.5
  9
$DIMCEN
 40
0.0
  9
$DIMTSZ
 40
0.0
  9
$DIMTOL
 70
     0
  9
$DIMLIM
 70
     0
  9
$DIMTIH
 70
     1
  9
$DIMTOH
 70
     1
  9
$DIMSE1
 70
     0
  9
$DIMSE2
 70
     0
  9
$DIMTAD
 70
     1
  9
$DIMZIN
 70
    12
  9
$DIMBLK
  1
OPEN30
  9
$DIMASO
 70
     1
  9
$DIMSHO
 70
     1
  9
$DIMPOST
  1

  9
$DIMAPOST
  1

  9
$DIMALT
 70
     0
  9
$DIMALTD
 70
     2
  9
$DIMALTF
 40
25.4
  9
$DIMLFAC
 40
1.0
  9
$DIMTOFL
 70
     0
  9
$DIMTVP
 40
0.0
  9
$DIMTIX
 70
     0
  9
$DIMSOXD
 70
     0
  9
$DIMSAH
 70
     0
  9
$DIMBLK1
  1

  9
$DIMBLK2
  1

  9
$DIMSTYLE
  2
SC_DEFAUT
  9
$DIMCLRD
 70
     0
  9
$DIMCLRE
 70
     0
  9
$DIMCLRT
 70
     0
  9
$DIMTFAC
 40
1.0
  9
$DIMGAP
 40
2.0
  9
$LUNITS
 70
     2
  9
$LUPREC
 70
     1
  9
$SKETCHINC
 40
0.1
  9
$FILLETRAD
 40
0.0
  9
$AUNITS
 70
     0
  9
$AUPREC
 70
     0
  9
$MENU
  1
acad
  9
$ELEVATION
 40
0.0
  9
$PELEVATION
 40
0.0
  9
$THICKNESS
 40
0.0
  9
$LIMCHECK
 70
     0
  9
$BLIPMODE
 70
     0
  9
$CHAMFERA
 40
0.0
  9
$CHAMFERB
 40
0.0
  9
$SKPOLY
 70
     0
  9
$TDCREATE
 40
2450373.687919
  9
$TDUPDATE
 40
2453032.66576
  9
$TDINDWG
 40
1.109562
  9
$TDUSRTIMER
 40
1.109562
  9
$USRTIMER
 70
     1
  9
$ANGBASE
 50
0.0
  9
$ANGDIR
 70
     0
  9
$PDMODE
 70
    32
  9
$PDSIZE
 40
0.0
  9
$PLINEWID
 40
0.0
  9
$COORDS
 70
     1
  9
$SPLFRAME
 70
     0
  9
$SPLINETYPE
 70
     6
  9
$SPLINESEGS
 70
     8
  9
$ATTDIA
 70
     0
  9
$ATTREQ
 70
     1
  9
$HANDLING
 70
     1
  9
$HANDSEED
  5
CFE8
  9
$SURFTAB1
 70
     6
  9
$SURFTAB2
 70
     6
  9
$SURFTYPE
 70
     6
  9
$SURFU
 70
     6
  9
$SURFV
 70
     6
  9
$UCSNAME
  2

  9
$UCSORG
 10
0.0
 20
0.0
 30
0.0
  9
$UCSXDIR
 10
1.0
 20
0.0
 30
0.0
  9
$UCSYDIR
 10
0.0
 20
1.0
 30
0.0
  9
$PUCSNAME
  2

  9
$PUCSORG
 10
0.0
 20
0.0
 30
0.0
  9
$PUCSXDIR
 10
1.0
 20
0.0
 30
0.0
  9
$PUCSYDIR
 10
0.0
 20
1.0
 30
0.0
  9
$USERI1
 70
     0
  9
$USERI2
 70
     0
  9
$USERI3
 70
     0
  9
$USERI4
 70
     0
  9
$USERI5
 70
     0
  9
$USERR1
 40
0.0
  9
$USERR2
 40
0.0
  9
$USERR3
 40
0.0
  9
$USERR4
 40
0.0
  9
$USERR5
 40
0.0
  9
$WORLDVIEW
 70
     1
  9
$SHADEDGE
 70
     3
  9
$SHADEDIF
 70
    70
  9
$TILEMODE
 70
     1
  9
$MAXACTVP
 70
    16
  9
$PLIMCHECK
 70
     0
  9
$PEXTMIN
 10
-1.452248
 20
-0.437698
 30
0.0
  9
$PEXTMAX
 10
12.749749
 20
8.310198
 30
0.0
  9
$PLIMMIN
 10
0.0
 20
0.0
  9
$PLIMMAX
 10
12.0
 20
9.0
  9
$UNITMODE
 70
     0
  9
$VISRETAIN
 70
     0
  9
$PLINEGEN
 70
     0
  9
$PSLTSCALE
 70
     0
  0
ENDSEC
  0
SECTION
  2
TABLES
  0
TABLE
  2
VPORT
 70
     2
  0
VPORT
  2
*ACTIVE
 70
     0
 10
0.0
 20
0.0
 11
1.0
 21
1.0
 12
160.387014
 22
80.015825
 13
0.0
 23
0.0
 14
1.0
 24
1.0
 15
10.0
 25
10.0
 16
0.0
 26
0.0
 36
1.0
 17
0.0
 27
0.0
 37
0.0
 40
151.135448
 41
1.466346
 42
50.0
 43
0.0
 44
0.0
 50
0.0
 51
0.0
 71
     0
 72
   100
 73
     1
 74
     0
 75
     0
 76
     0
 77
     0
 78
     0
  0
ENDTAB
  0
TABLE
  2
LTYPE
 70
     2
  0
LTYPE
  2
CONTINUOUS
 70
     0
  3
Solid line
 72
    65
 73
     0
 40
0.0
  0
LTYPE
  2
AXES2
 70
     0
  3
___ _ ___ _ ___ _ ___ _ ___ _ ___ _ ___ _ ___ _
 72
    65
 73
     4
 40
1.125
 49
0.75
 49
-0.125
 49
0.125
 49
-0.125
  0
ENDTAB
  0
TABLE
  2
LAYER
 70
     5
  0
LAYER
  2
0
 70
     0
 62
   255
  6
CONTINUOUS
  0
LAYER
  2
COTATION1
 70
     0
 62
     2
  6
CONTINUOUS
  0
LAYER
  2
AXE
 70
     0
 62
    80
  6
AXES2
  0
LAYER
  2
DEFPOINTS
 70
     0
 62
     7
  6
CONTINUOUS
  0
LAYER
  2
ALPHA
 70
     0
 62
   254
  6
CONTINUOUS
  0
ENDTAB
  0
TABLE
  2
STYLE
 70
     2
  0
STYLE
  2
ROMANS
 70
     0
 40
0.0
 41
1.0
 50
0.0
 71
     0
 42
6.0
  3
romans
  4

  0
STYLE
  2
STANDARD
 70
     0
 40
0.0
 41
1.0
 50
0.0
 71
     0
 42
0.2
  3
txt
  4

  0
ENDTAB
  0
TABLE
  2
VIEW
 70
     0
  0
ENDTAB
  0
TABLE
  2
UCS
 70
     0
  0
ENDTAB
  0
TABLE
  2
APPID
 70
     1
  0
APPID
  2
ACAD
 70
     0
  0
ENDTAB
  0
TABLE
  2
DIMSTYLE
 70
     2
  0
DIMSTYLE
  2
SC_DEFAUT
 70
     0
  3

  4

  5
OPEN30
  6

  7

 40
1.0
 41
5.0
 42
2.0
 43
0.38
 44
2.5
 45
0.0
 46
0.0
 47
0.0
 48
0.0
140
2.5
141
0.0
142
0.0
143
25.4
144
1.0
145
0.0
146
1.0
147
2.0
 71
     0
 72
     0
 73
     1
 74
     1
 75
     0
 76
     0
 77
     1
 78
    12
170
     0
171
     2
172
     0
173
     0
174
     0
175
     0
176
     0
177
     0
178
     0
  0
DIMSTYLE
  2
STANDARD
 70
     0
  3

  4

  5

  6

  7

 40
1.0
 41
0.18
 42
0.0625
 43
0.38
 44
0.18
 45
0.0
 46
0.0
 47
0.0
 48
0.0
140
0.18
141
0.09
142
0.0
143
25.4
144
1.0
145
0.0
146
1.0
147
0.09
 71
     0
 72
     0
 73
     1
 74
     1
 75
     0
 76
     0
 77
     0
 78
     0
170
     0
171
     2
172
     0
173
     0
174
     0
175
     0
176
     0
177
     0
178
     0
  0
ENDTAB
  0
ENDSEC
  0
SECTION
  2
BLOCKS
  0
BLOCK
  8
0
  2
$MODEL_SPACE
 70
     0
 10
0.0
 20
0.0
 30
0.0
  3
$MODEL_SPACE
  1

  0
ENDBLK
  5
CFE1
  8
0
  0
BLOCK
 67
     1
  8
0
  2
$PAPER_SPACE
 70
     0
 10
0.0
 20
0.0
 30
0.0
  3
$PAPER_SPACE
  1

  0
ENDBLK
  5
CFDF
 67
     1
  8
0
  0
BLOCK
  8
0
  2
COTE
 70
     0
 10
0.0
 20
0.0
 30
0.0
  3
COTE
  1

  0
ENDBLK
  5
F
  8
0
  0
BLOCK
  8
0
  2
FOND
 70
     0
 10
0.0
 20
0.0
 30
0.0
  3
FOND
  1

  0
ENDBLK
  5
75
  8
0
  0
BLOCK
  8
0
  2
_OPEN30
 70
     0
 10
0.0
 20
0.0
 30
0.0
  3
_OPEN30
  1

  0
LINE
  5
4B05
  8
COTATION1
 62
     0
 10
-1.0
 20
0.267949
 30
0.0
 11
0.0
 21
0.0
 31
0.0
1001
ACAD
1000
RTLwPs
1070
   158
  0
LINE
  5
4B06
  8
COTATION1
 62
     0
 10
0.0
 20
0.0
 30
0.0
 11
-1.0
 21
-0.267949
 31
0.0
1001
ACAD
1000
RTLwPs
1070
   158
  0
LINE
  5
4B07
  8
COTATION1
 62
     0
 10
0.0
 20
0.0
 30
0.0
 11
-1.0
 21
0.0
 31
0.0
1001
ACAD
1000
RTLwPs
1070
   158
  0
ENDBLK
  5
4B09
  8
0
  0
BLOCK
  8
0
  2
*D3
 70
     1
 10
0.0
 20
0.0
 30
0.0
  3
*D3
  1

  0
LINE
  5
CF27
  8
COTATION1
 62
     0
 10
152.368572
 20
135.520581
 30
0.0
 11
198.048572
 21
135.520581
 31
0.0
1001
ACAD
1000
RTLwPs
1070
   158
  0
LINE
  5
CF28
  8
COTATION1
 62
     0
 10
154.868572
 20
15.020581
 30
0.0
 11
198.048572
 21
15.020581
 31
0.0
1001
ACAD
1000
RTLwPs
1070
   158
  0
LINE
  5
CF29
  8
COTATION1
 62
     0
 10
195.548572
 20
130.520581
 30
0.0
 11
195.548572
 21
78.520581
 31
0.0
1001
ACAD
1000
RTLwPs
1070
   158
  0
LINE
  5
CF2A
  8
COTATION1
 62
     0
 10
195.548572
 20
20.020581
 30
0.0
 11
195.548572
 21
72.020581
 31
0.0
1001
ACAD
1000
RTLwPs
1070
   158
  0
INSERT
  5
CF2B
  8
COTATION1
 62
     0
  2
_OPEN30
 10
195.548572
 20
135.520581
 30
0.0
 41
5.0
 42
5.0
 43
5.0
 50
90.0
1001
ACAD
1000
RTLwPs
1070
   158
  0
INSERT
  5
CF2C
  8
COTATION1
 62
     0
  2
_OPEN30
 10
195.548572
 20
15.020581
 30
0.0
 41
5.0
 42
5.0
 43
5.0
 50
270.0
1001
ACAD
1000
RTLwPs
1070
   158
  0
TEXT
  5
CF2D
  8
COTATION1
 62
     0
 10
190.012857
 20
74.020581
 30
0.0
 40
2.5
  1
120.5
1001
ACAD
1000
MTEXTBEGIN
1070
    73
1070
     1
1070
    44
1040
1.0
1070
    74
1070
     0
1000
MTEXTEND
  0
POINT
  5
CF2E
  8
DEFPOINTS
 62
     0
 10
150.368572
 20
135.520581
 30
0.0
  0
POINT
  5
CF2F
  8
DEFPOINTS
 62
     0
 10
152.868572
 20
15.020581
 30
0.0
  0
POINT
  5
CF30
  8
DEFPOINTS
 62
     0
 10
195.548572
 20
15.020581
 30
0.0
  0
ENDBLK
  5
CE7F
  8
0
  0
BLOCK
  8
0
  2
*D4
 70
     1
 10
0.0
 20
0.0
 30
0.0
  3
*D4
  1

  0
LINE
  5
CF1E
  8
COTATION1
 62
     0
 10
125.368572
 20
112.520581
 30
0.0
 11
125.368572
 21
153.020581
 31
0.0
1001
ACAD
1000
RTLwPs
1070
   158
  0
LINE
  5
CF1F
  8
COTATION1
 62
     0
 10
175.368572
 20
112.520581
 30
0.0
 11
175.368572
 21
153.020581
 31
0.0
1001
ACAD
1000
RTLwPs
1070
   158
  0
LINE
  5
CF20
  8
COTATION1
 62
     0
 10
130.368572
 20
150.520581
 30
0.0
 11
170.368572
 21
150.520581
 31
0.0
1001
ACAD
1000
RTLwPs
1070
   158
  0
INSERT
  5
CF21
  8
COTATION1
 62
     0
  2
_OPEN30
 10
125.368572
 20
150.520581
 30
0.0
 41
5.0
 42
5.0
 43
5.0
 50
180.0
1001
ACAD
1000
RTLwPs
1070
   158
  0
INSERT
  5
CF22
  8
COTATION1
 62
     0
  2
_OPEN30
 10
175.368572
 20
150.520581
 30
0.0
 41
5.0
 42
5.0
 43
5.0
1001
ACAD
1000
RTLwPs
1070
   158
  0
TEXT
  5
CF23
  8
COTATION1
 62
     0
 10
146.975715
 20
152.520581
 30
0.0
 40
2.5
  1
%%c
1001
ACAD
1000
MTEXTBEGIN
1070
    73
1070
     1
1070
    44
1040
1.0
1070
    74
1070
     0
1000
MTEXTEND
  0
TEXT
  5
CFB2
  8
COTATION1
 62
     0
 10
149.237619
 20
152.520581
 30
0.0
 40
2.5
  1
50
1001
ACAD
1000
R13OBJECT
1002
{
1005
CF23
1002
}
  0
POINT
  5
CF24
  8
DEFPOINTS
 62
     0
 10
125.368572
 20
110.520581
 30
0.0
  0
POINT
  5
CF25
  8
DEFPOINTS
 62
     0
 10
175.368572
 20
110.520581
 30
0.0
  0
POINT
  5
CF26
  8
DEFPOINTS
 62
     0
 10
175.368572
 20
150.520581
 30
0.0
  0
ENDBLK
  5
CE8B
  8
0
  0
ENDSEC
  0
SECTION
  2
ENTITIES
  0
INSERT
  5
A
  8
0
  2
COTE
 10
0.0
 20
0.0
 30
0.0
  0
INSERT
  5
17
  8
0
  2
COTE
 10
284.010391
 20
6.373258
 30
0.0
  0
INSERT
  5
72
  8
0
  2
FOND
 10
0.0
 20
0.0
 30
0.0
  0
ARC
  5
C9C7
  8
ALPHA
 10
152.868572
 20
20.020581
 30
0.0
 40
5.0
 50
270.0
 51
0.0
  0
ARC
  5
C9C8
  8
ALPHA
 10
147.868572
 20
20.020581
 30
0.0
 40
5.0
 50
180.0
 51
270.0
  0
LINE
  5
C9CC
  8
ALPHA
 10
147.868572
 20
15.020581
 30
0.0
 11
152.868572
 21
15.020581
 31
0.0
  0
ARC
  5
CA06
  8
ALPHA
 10
150.368572
 20
110.520581
 30
0.0
 40
23.4
 50
162.5
 51
197.5
  0
ARC
  5
CA07
  8
ALPHA
 10
150.368572
 20
110.520581
 30
0.0
 40
23.4
 50
342.5
 51
17.5
  0
CIRCLE
  5
CA08
  8
ALPHA
 10
150.368572
 20
110.520581
 30
0.0
 40
25.0
  0
ARC
  5
CA09
  8
ALPHA
 10
150.368572
 20
110.520581
 30
0.0
 40
22.5
 50
154.668775
 51
205.331225
  0
ARC
  5
CA0A
  8
ALPHA
 10
150.368572
 20
110.520581
 30
0.0
 40
21.395108
 50
334.973616
 51
25.026384
  0
ARC
  5
CA0B
  8
ALPHA
 10
150.368572
 20
110.520581
 30
0.0
 40
22.192064
 50
334.668775
 51
25.331225
  0
ARC
  5
CA0C
  8
ALPHA
 10
150.368572
 20
110.520581
 30
0.0
 40
5.604892
 50
349.325936
 51
10.674064
  0
ARC
  5
CA0D
  8
ALPHA
 10
150.368572
 20
110.520581
 30
0.0
 40
21.395108
 50
154.973616
 51
205.026384
  0
ARC
  5
CA0E
  8
ALPHA
 10
150.368572
 20
110.520581
 30
0.0
 40
22.192064
 50
154.668775
 51
205.331225
  0
ARC
  5
CA0F
  8
ALPHA
 10
150.368572
 20
110.520581
 30
0.0
 40
5.604892
 50
169.325936
 51
190.674064
  0
ARC
  5
CA10
  8
ALPHA
 10
150.368572
 20
110.520581
 30
0.0
 40
22.5
 50
334.668775
 51
25.331225
  0
ARC
  5
CA11
  8
ALPHA
 10
150.368572
 20
110.520581
 30
0.0
 40
5.0
 50
311.5074
 51
48.4926
  0
ARC
  5
CA12
  8
ALPHA
 10
150.368572
 20
110.520581
 30
0.0
 40
5.0
 50
131.5074
 51
228.4926
  0
LINE
  5
CA1A
  8
ALPHA
 10
155.368572
 20
107.682475
 30
0.0
 11
155.368572
 21
113.358688
 31
0.0
  0
LINE
  5
CA1B
  8
ALPHA
 10
145.368572
 20
113.358688
 30
0.0
 11
145.368572
 21
107.682475
 31
0.0
  0
LINE
  5
CA35
  8
ALPHA
 10
147.466059
 20
63.773094
 30
0.0
 11
147.213547
 21
63.520581
 31
0.0
  0
LINE
  5
CA36
  8
ALPHA
 10
147.324638
 20
63.914515
 30
0.0
 11
147.038026
 21
63.627904
 31
0.0
  0
LINE
  5
CA37
  8
ALPHA
 10
146.912506
 20
63.626647
 30
0.0
 11
147.241795
 21
63.955937
 31
0.0
  0
LINE
  5
CA38
  8
ALPHA
 10
157.868572
 20
20.020581
 30
0.0
 11
157.868572
 21
85.099399
 31
0.0
  0
LINE
  5
CA39
  8
ALPHA
 10
150.718572
 20
63.320581
 30
0.0
 11
150.718572
 21
65.520581
 31
0.0
  0
LINE
  5
CA3A
  8
ALPHA
 10
150.018572
 20
65.520581
 30
0.0
 11
150.018572
 21
63.320581
 31
0.0
  0
LINE
  5
CA3B
  8
ALPHA
 10
153.495348
 20
63.955937
 30
0.0
 11
153.824638
 21
63.626647
 31
0.0
  0
LINE
  5
CA3C
  8
ALPHA
 10
153.699117
 20
63.627904
 30
0.0
 11
153.412506
 21
63.914515
 31
0.0
  0
LINE
  5
CA3D
  8
ALPHA
 10
153.523597
 20
63.520581
 30
0.0
 11
153.271084
 21
63.773094
 31
0.0
  0
LINE
  5
CA3E
  8
ALPHA
 10
142.868572
 20
85.099399
 30
0.0
 11
142.868572
 21
20.020581
 31
0.0
  0
ARC
  5
CA3F
  8
ALPHA
 10
153.718572
 20
40.520581
 30
0.0
 40
0.15
 50
315.0
 51
45.0
  0
ARC
  5
CA40
  8
ALPHA
 10
147.018572
 20
40.520581
 30
0.0
 40
0.15
 50
135.0
 51
225.0
  0
LINE
  5
CA41
  8
ALPHA
 10
146.912506
 20
28.626647
 30
0.0
 11
147.241795
 21
28.955937
 31
0.0
  0
LINE
  5
CA42
  8
ALPHA
 10
153.495348
 20
28.955937
 30
0.0
 11
153.824638
 21
28.626647
 31
0.0
  0
ARC
  5
CA43
  8
ALPHA
 10
150.368572
 20
27.020581
 30
0.0
 40
3.5
 50
186.842628
 51
353.157372
  0
ARC
  5
CA44
  8
ALPHA
 10
147.018572
 20
26.520581
 30
0.0
 40
0.15
 50
135.0
 51
146.392657
  0
ARC
  5
CA45
  8
ALPHA
 10
147.17715
 20
27.020581
 30
0.0
 40
0.091421
 50
315.0
 51
45.0
  0
ARC
  5
CA46
  8
ALPHA
 10
147.17715
 20
28.020581
 30
0.0
 40
0.091421
 50
315.0
 51
45.0
  0
ARC
  5
CA47
  8
ALPHA
 10
147.018572
 20
28.520581
 30
0.0
 40
0.15
 50
135.0
 51
225.0
  0
ARC
  5
CA48
  8
ALPHA
 10
147.018572
 20
27.520581
 30
0.0
 40
0.15
 50
135.0
 51
225.0
  0
LINE
  5
CA49
  8
ALPHA
 10
146.912506
 20
26.626647
 30
0.0
 11
147.241795
 21
26.955937
 31
0.0
  0
LINE
  5
CA4A
  8
ALPHA
 10
146.912506
 20
27.626647
 30
0.0
 11
147.241795
 21
27.955937
 31
0.0
  0
LINE
  5
CA4B
  8
ALPHA
 10
147.241795
 20
28.085226
 30
0.0
 11
146.912506
 21
28.414515
 31
0.0
  0
LINE
  5
CA4C
  8
ALPHA
 10
147.241795
 20
27.085226
 30
0.0
 11
146.912506
 21
27.414515
 31
0.0
  0
LINE
  5
CA4D
  8
ALPHA
 10
153.824638
 20
27.414515
 30
0.0
 11
153.495348
 21
27.085226
 31
0.0
  0
LINE
  5
CA4E
  8
ALPHA
 10
153.824638
 20
28.414515
 30
0.0
 11
153.495348
 21
28.085226
 31
0.0
  0
LINE
  5
CA4F
  8
ALPHA
 10
153.495348
 20
27.955937
 30
0.0
 11
153.824638
 21
27.626647
 31
0.0
  0
LINE
  5
CA50
  8
ALPHA
 10
153.495348
 20
26.955937
 30
0.0
 11
153.824638
 21
26.626647
 31
0.0
  0
ARC
  5
CA51
  8
ALPHA
 10
153.559993
 20
28.020581
 30
0.0
 40
0.091421
 50
135.0
 51
225.0
  0
ARC
  5
CA52
  8
ALPHA
 10
153.559993
 20
27.020581
 30
0.0
 40
0.091421
 50
135.0
 51
225.0
  0
ARC
  5
CA53
  8
ALPHA
 10
153.718572
 20
26.520581
 30
0.0
 40
0.15
 50
33.607343
 51
45.0
  0
ARC
  5
CA54
  8
ALPHA
 10
153.718572
 20
28.520581
 30
0.0
 40
0.15
 50
315.0
 51
45.0
  0
ARC
  5
CA55
  8
ALPHA
 10
153.718572
 20
27.520581
 30
0.0
 40
0.15
 50
315.0
 51
45.0
  0
LINE
  5
CA56
  8
ALPHA
 10
146.912506
 20
34.626647
 30
0.0
 11
147.241795
 21
34.955937
 31
0.0
  0
ARC
  5
CA57
  8
ALPHA
 10
147.17715
 20
34.020581
 30
0.0
 40
0.091421
 50
315.0
 51
45.0
  0
ARC
  5
CA58
  8
ALPHA
 10
147.17715
 20
33.020581
 30
0.0
 40
0.091421
 50
315.0
 51
45.0
  0
ARC
  5
CA59
  8
ALPHA
 10
147.17715
 20
32.020581
 30
0.0
 40
0.091421
 50
315.0
 51
45.0
  0
ARC
  5
CA5A
  8
ALPHA
 10
147.17715
 20
31.020581
 30
0.0
 40
0.091421
 50
315.0
 51
45.0
  0
ARC
  5
CA5B
  8
ALPHA
 10
147.17715
 20
30.020581
 30
0.0
 40
0.091421
 50
315.0
 51
45.0
  0
ARC
  5
CA5C
  8
ALPHA
 10
147.17715
 20
29.020581
 30
0.0
 40
0.091421
 50
315.0
 51
45.0
  0
ARC
  5
CA5D
  8
ALPHA
 10
147.018572
 20
34.520581
 30
0.0
 40
0.15
 50
135.0
 51
225.0
  0
ARC
  5
CA5E
  8
ALPHA
 10
147.018572
 20
33.520581
 30
0.0
 40
0.15
 50
135.0
 51
225.0
  0
ARC
  5
CA5F
  8
ALPHA
 10
147.018572
 20
32.520581
 30
0.0
 40
0.15
 50
135.0
 51
225.0
  0
ARC
  5
CA60
  8
ALPHA
 10
147.018572
 20
31.520581
 30
0.0
 40
0.15
 50
135.0
 51
225.0
  0
ARC
  5
CA61
  8
ALPHA
 10
147.018572
 20
30.520581
 30
0.0
 40
0.15
 50
135.0
 51
225.0
  0
ARC
  5
CA62
  8
ALPHA
 10
147.018572
 20
29.520581
 30
0.0
 40
0.15
 50
135.0
 51
225.0
  0
LINE
  5
CA63
  8
ALPHA
 10
146.912506
 20
29.626647
 30
0.0
 11
147.241795
 21
29.955937
 31
0.0
  0
LINE
  5
CA64
  8
ALPHA
 10
146.912506
 20
30.626647
 30
0.0
 11
147.241795
 21
30.955937
 31
0.0
  0
LINE
  5
CA65
  8
ALPHA
 10
146.912506
 20
31.626647
 30
0.0
 11
147.241795
 21
31.955937
 31
0.0
  0
LINE
  5
CA66
  8
ALPHA
 10
146.912506
 20
32.626647
 30
0.0
 11
147.241795
 21
32.955937
 31
0.0
  0
LINE
  5
CA67
  8
ALPHA
 10
146.912506
 20
33.626647
 30
0.0
 11
147.241795
 21
33.955937
 31
0.0
  0
LINE
  5
CA68
  8
ALPHA
 10
147.241795
 20
34.085226
 30
0.0
 11
146.912506
 21
34.414515
 31
0.0
  0
LINE
  5
CA69
  8
ALPHA
 10
147.241795
 20
33.085226
 30
0.0
 11
146.912506
 21
33.414515
 31
0.0
  0
LINE
  5
CA6A
  8
ALPHA
 10
147.241795
 20
32.085226
 30
0.0
 11
146.912506
 21
32.414515
 31
0.0
  0
LINE
  5
CA6B
  8
ALPHA
 10
147.241795
 20
31.085226
 30
0.0
 11
146.912506
 21
31.414515
 31
0.0
  0
LINE
  5
CA6C
  8
ALPHA
 10
147.241795
 20
30.085226
 30
0.0
 11
146.912506
 21
30.414515
 31
0.0
  0
LINE
  5
CA6D
  8
ALPHA
 10
147.241795
 20
29.085226
 30
0.0
 11
146.912506
 21
29.414515
 31
0.0
  0
ARC
  5
CA6E
  8
ALPHA
 10
147.17715
 20
40.020581
 30
0.0
 40
0.091421
 50
315.0
 51
45.0
  0
ARC
  5
CA6F
  8
ALPHA
 10
147.17715
 20
39.020581
 30
0.0
 40
0.091421
 50
315.0
 51
45.0
  0
ARC
  5
CA70
  8
ALPHA
 10
147.17715
 20
38.020581
 30
0.0
 40
0.091421
 50
315.0
 51
45.0
  0
ARC
  5
CA71
  8
ALPHA
 10
147.17715
 20
37.020581
 30
0.0
 40
0.091421
 50
315.0
 51
45.0
  0
ARC
  5
CA72
  8
ALPHA
 10
147.17715
 20
36.020581
 30
0.0
 40
0.091421
 50
315.0
 51
45.0
  0
ARC
  5
CA73
  8
ALPHA
 10
147.17715
 20
35.020581
 30
0.0
 40
0.091421
 50
315.0
 51
45.0
  0
ARC
  5
CA74
  8
ALPHA
 10
147.018572
 20
39.520581
 30
0.0
 40
0.15
 50
135.0
 51
225.0
  0
ARC
  5
CA75
  8
ALPHA
 10
147.018572
 20
38.520581
 30
0.0
 40
0.15
 50
135.0
 51
225.0
  0
ARC
  5
CA76
  8
ALPHA
 10
147.018572
 20
37.520581
 30
0.0
 40
0.15
 50
135.0
 51
225.0
  0
ARC
  5
CA77
  8
ALPHA
 10
147.018572
 20
36.520581
 30
0.0
 40
0.15
 50
135.0
 51
225.0
  0
ARC
  5
CA78
  8
ALPHA
 10
147.018572
 20
35.520581
 30
0.0
 40
0.15
 50
135.0
 51
225.0
  0
LINE
  5
CA79
  8
ALPHA
 10
146.912506
 20
35.626647
 30
0.0
 11
147.241795
 21
35.955937
 31
0.0
  0
LINE
  5
CA7A
  8
ALPHA
 10
146.912506
 20
36.626647
 30
0.0
 11
147.241795
 21
36.955937
 31
0.0
  0
LINE
  5
CA7B
  8
ALPHA
 10
146.912506
 20
37.626647
 30
0.0
 11
147.241795
 21
37.955937
 31
0.0
  0
LINE
  5
CA7C
  8
ALPHA
 10
146.912506
 20
38.626647
 30
0.0
 11
147.241795
 21
38.955937
 31
0.0
  0
LINE
  5
CA7D
  8
ALPHA
 10
146.912506
 20
39.626647
 30
0.0
 11
147.241795
 21
39.955937
 31
0.0
  0
LINE
  5
CA7E
  8
ALPHA
 10
147.241795
 20
40.085226
 30
0.0
 11
146.912506
 21
40.414515
 31
0.0
  0
LINE
  5
CA7F
  8
ALPHA
 10
147.241795
 20
39.085226
 30
0.0
 11
146.912506
 21
39.414515
 31
0.0
  0
LINE
  5
CA80
  8
ALPHA
 10
147.241795
 20
38.085226
 30
0.0
 11
146.912506
 21
38.414515
 31
0.0
  0
LINE
  5
CA81
  8
ALPHA
 10
147.241795
 20
37.085226
 30
0.0
 11
146.912506
 21
37.414515
 31
0.0
  0
LINE
  5
CA82
  8
ALPHA
 10
147.241795
 20
36.085226
 30
0.0
 11
146.912506
 21
36.414515
 31
0.0
  0
LINE
  5
CA83
  8
ALPHA
 10
147.241795
 20
35.085226
 30
0.0
 11
146.912506
 21
35.414515
 31
0.0
  0
LINE
  5
CA84
  8
ALPHA
 10
153.495348
 20
34.955937
 30
0.0
 11
153.824638
 21
34.626647
 31
0.0
  0
LINE
  5
CA85
  8
ALPHA
 10
153.824638
 20
29.414515
 30
0.0
 11
153.495348
 21
29.085226
 31
0.0
  0
LINE
  5
CA86
  8
ALPHA
 10
153.824638
 20
30.414515
 30
0.0
 11
153.495348
 21
30.085226
 31
0.0
  0
LINE
  5
CA87
  8
ALPHA
 10
153.824638
 20
31.414515
 30
0.0
 11
153.495348
 21
31.085226
 31
0.0
  0
LINE
  5
CA88
  8
ALPHA
 10
153.824638
 20
32.414515
 30
0.0
 11
153.495348
 21
32.085226
 31
0.0
  0
LINE
  5
CA89
  8
ALPHA
 10
153.824638
 20
33.414515
 30
0.0
 11
153.495348
 21
33.085226
 31
0.0
  0
LINE
  5
CA8A
  8
ALPHA
 10
153.824638
 20
34.414515
 30
0.0
 11
153.495348
 21
34.085226
 31
0.0
  0
LINE
  5
CA8B
  8
ALPHA
 10
153.495348
 20
33.955937
 30
0.0
 11
153.824638
 21
33.626647
 31
0.0
  0
LINE
  5
CA8C
  8
ALPHA
 10
153.495348
 20
32.955937
 30
0.0
 11
153.824638
 21
32.626647
 31
0.0
  0
LINE
  5
CA8D
  8
ALPHA
 10
153.495348
 20
31.955937
 30
0.0
 11
153.824638
 21
31.626647
 31
0.0
  0
LINE
  5
CA8E
  8
ALPHA
 10
153.495348
 20
30.955937
 30
0.0
 11
153.824638
 21
30.626647
 31
0.0
  0
LINE
  5
CA8F
  8
ALPHA
 10
153.495348
 20
29.955937
 30
0.0
 11
153.824638
 21
29.626647
 31
0.0
  0
ARC
  5
CA90
  8
ALPHA
 10
153.559993
 20
34.020581
 30
0.0
 40
0.091421
 50
135.0
 51
225.0
  0
ARC
  5
CA91
  8
ALPHA
 10
153.559993
 20
33.020581
 30
0.0
 40
0.091421
 50
135.0
 51
225.0
  0
ARC
  5
CA92
  8
ALPHA
 10
153.559993
 20
32.020581
 30
0.0
 40
0.091421
 50
135.0
 51
225.0
  0
ARC
  5
CA93
  8
ALPHA
 10
153.559993
 20
31.020581
 30
0.0
 40
0.091421
 50
135.0
 51
225.0
  0
ARC
  5
CA94
  8
ALPHA
 10
153.559993
 20
30.020581
 30
0.0
 40
0.091421
 50
135.0
 51
225.0
  0
ARC
  5
CA95
  8
ALPHA
 10
153.559993
 20
29.020581
 30
0.0
 40
0.091421
 50
135.0
 51
225.0
  0
ARC
  5
CA96
  8
ALPHA
 10
153.718572
 20
34.520581
 30
0.0
 40
0.15
 50
315.0
 51
45.0
  0
ARC
  5
CA97
  8
ALPHA
 10
153.718572
 20
33.520581
 30
0.0
 40
0.15
 50
315.0
 51
45.0
  0
ARC
  5
CA98
  8
ALPHA
 10
153.718572
 20
32.520581
 30
0.0
 40
0.15
 50
315.0
 51
45.0
  0
ARC
  5
CA99
  8
ALPHA
 10
153.718572
 20
31.520581
 30
0.0
 40
0.15
 50
315.0
 51
45.0
  0
ARC
  5
CA9A
  8
ALPHA
 10
153.718572
 20
30.520581
 30
0.0
 40
0.15
 50
315.0
 51
45.0
  0
ARC
  5
CA9B
  8
ALPHA
 10
153.718572
 20
29.520581
 30
0.0
 40
0.15
 50
315.0
 51
45.0
  0
LINE
  5
CA9C
  8
ALPHA
 10
153.824638
 20
35.414515
 30
0.0
 11
153.495348
 21
35.085226
 31
0.0
  0
LINE
  5
CA9D
  8
ALPHA
 10
153.824638
 20
36.414515
 30
0.0
 11
153.495348
 21
36.085226
 31
0.0
  0
LINE
  5
CA9E
  8
ALPHA
 10
153.824638
 20
37.414515
 30
0.0
 11
153.495348
 21
37.085226
 31
0.0
  0
LINE
  5
CA9F
  8
ALPHA
 10
153.824638
 20
38.414515
 30
0.0
 11
153.495348
 21
38.085226
 31
0.0
  0
LINE
  5
CAA0
  8
ALPHA
 10
153.824638
 20
39.414515
 30
0.0
 11
153.495348
 21
39.085226
 31
0.0
  0
LINE
  5
CAA1
  8
ALPHA
 10
153.824638
 20
40.414515
 30
0.0
 11
153.495348
 21
40.085226
 31
0.0
  0
LINE
  5
CAA2
  8
ALPHA
 10
153.495348
 20
39.955937
 30
0.0
 11
153.824638
 21
39.626647
 31
0.0
  0
LINE
  5
CAA3
  8
ALPHA
 10
153.495348
 20
38.955937
 30
0.0
 11
153.824638
 21
38.626647
 31
0.0
  0
LINE
  5
CAA4
  8
ALPHA
 10
153.495348
 20
37.955937
 30
0.0
 11
153.824638
 21
37.626647
 31
0.0
  0
LINE
  5
CAA5
  8
ALPHA
 10
153.495348
 20
36.955937
 30
0.0
 11
153.824638
 21
36.626647
 31
0.0
  0
LINE
  5
CAA6
  8
ALPHA
 10
153.495348
 20
35.955937
 30
0.0
 11
153.824638
 21
35.626647
 31
0.0
  0
ARC
  5
CAA7
  8
ALPHA
 10
153.559993
 20
40.020581
 30
0.0
 40
0.091421
 50
135.0
 51
225.0
  0
ARC
  5
CAA8
  8
ALPHA
 10
153.559993
 20
39.020581
 30
0.0
 40
0.091421
 50
135.0
 51
225.0
  0
ARC
  5
CAA9
  8
ALPHA
 10
153.559993
 20
38.020581
 30
0.0
 40
0.091421
 50
135.0
 51
225.0
  0
ARC
  5
CAAA
  8
ALPHA
 10
153.559993
 20
37.020581
 30
0.0
 40
0.091421
 50
135.0
 51
225.0
  0
ARC
  5
CAAB
  8
ALPHA
 10
153.559993
 20
36.020581
 30
0.0
 40
0.091421
 50
135.0
 51
225.0
  0
ARC
  5
CAAC
  8
ALPHA
 10
153.559993
 20
35.020581
 30
0.0
 40
0.091421
 50
135.0
 51
225.0
  0
ARC
  5
CAAD
  8
ALPHA
 10
153.718572
 20
39.520581
 30
0.0
 40
0.15
 50
315.0
 51
45.0
  0
ARC
  5
CAAE
  8
ALPHA
 10
153.718572
 20
38.520581
 30
0.0
 40
0.15
 50
315.0
 51
45.0
  0
ARC
  5
CAAF
  8
ALPHA
 10
153.718572
 20
37.520581
 30
0.0
 40
0.15
 50
315.0
 51
45.0
  0
ARC
  5
CAB0
  8
ALPHA
 10
153.718572
 20
36.520581
 30
0.0
 40
0.15
 50
315.0
 51
45.0
  0
ARC
  5
CAB1
  8
ALPHA
 10
153.718572
 20
35.520581
 30
0.0
 40
0.15
 50
315.0
 51
45.0
  0
ARC
  5
CAB2
  8
ALPHA
 10
153.559993
 20
52.020581
 30
0.0
 40
0.091421
 50
135.0
 51
225.0
  0
ARC
  5
CAB3
  8
ALPHA
 10
147.17715
 20
52.020581
 30
0.0
 40
0.091421
 50
315.0
 51
45.0
  0
LINE
  5
CAB4
  8
ALPHA
 10
147.241795
 20
46.085226
 30
0.0
 11
146.912506
 21
46.414515
 31
0.0
  0
ARC
  5
CAB5
  8
ALPHA
 10
147.17715
 20
46.020581
 30
0.0
 40
0.091421
 50
315.0
 51
45.0
  0
ARC
  5
CAB6
  8
ALPHA
 10
147.17715
 20
45.020581
 30
0.0
 40
0.091421
 50
315.0
 51
45.0
  0
ARC
  5
CAB7
  8
ALPHA
 10
147.17715
 20
44.020581
 30
0.0
 40
0.091421
 50
315.0
 51
45.0
  0
ARC
  5
CAB8
  8
ALPHA
 10
147.17715
 20
43.020581
 30
0.0
 40
0.091421
 50
315.0
 51
45.0
  0
ARC
  5
CAB9
  8
ALPHA
 10
147.17715
 20
42.020581
 30
0.0
 40
0.091421
 50
315.0
 51
45.0
  0
ARC
  5
CABA
  8
ALPHA
 10
147.17715
 20
41.020581
 30
0.0
 40
0.091421
 50
315.0
 51
45.0
  0
ARC
  5
CABB
  8
ALPHA
 10
147.018572
 20
45.520581
 30
0.0
 40
0.15
 50
135.0
 51
225.0
  0
ARC
  5
CABC
  8
ALPHA
 10
147.018572
 20
44.520581
 30
0.0
 40
0.15
 50
135.0
 51
225.0
  0
ARC
  5
CABD
  8
ALPHA
 10
147.018572
 20
43.520581
 30
0.0
 40
0.15
 50
135.0
 51
225.0
  0
ARC
  5
CABE
  8
ALPHA
 10
147.018572
 20
42.520581
 30
0.0
 40
0.15
 50
135.0
 51
225.0
  0
ARC
  5
CABF
  8
ALPHA
 10
147.018572
 20
41.520581
 30
0.0
 40
0.15
 50
135.0
 51
225.0
  0
LINE
  5
CAC0
  8
ALPHA
 10
146.912506
 20
40.626647
 30
0.0
 11
147.241795
 21
40.955937
 31
0.0
  0
LINE
  5
CAC1
  8
ALPHA
 10
146.912506
 20
41.626647
 30
0.0
 11
147.241795
 21
41.955937
 31
0.0
  0
LINE
  5
CAC2
  8
ALPHA
 10
146.912506
 20
42.626647
 30
0.0
 11
147.241795
 21
42.955937
 31
0.0
  0
LINE
  5
CAC3
  8
ALPHA
 10
146.912506
 20
43.626647
 30
0.0
 11
147.241795
 21
43.955937
 31
0.0
  0
LINE
  5
CAC4
  8
ALPHA
 10
146.912506
 20
44.626647
 30
0.0
 11
147.241795
 21
44.955937
 31
0.0
  0
LINE
  5
CAC5
  8
ALPHA
 10
146.912506
 20
45.626647
 30
0.0
 11
147.241795
 21
45.955937
 31
0.0
  0
LINE
  5
CAC6
  8
ALPHA
 10
147.241795
 20
45.085226
 30
0.0
 11
146.912506
 21
45.414515
 31
0.0
  0
LINE
  5
CAC7
  8
ALPHA
 10
147.241795
 20
44.085226
 30
0.0
 11
146.912506
 21
44.414515
 31
0.0
  0
LINE
  5
CAC8
  8
ALPHA
 10
147.241795
 20
43.085226
 30
0.0
 11
146.912506
 21
43.414515
 31
0.0
  0
LINE
  5
CAC9
  8
ALPHA
 10
147.241795
 20
42.085226
 30
0.0
 11
146.912506
 21
42.414515
 31
0.0
  0
LINE
  5
CACA
  8
ALPHA
 10
147.241795
 20
41.085226
 30
0.0
 11
146.912506
 21
41.414515
 31
0.0
  0
ARC
  5
CACB
  8
ALPHA
 10
147.17715
 20
51.020581
 30
0.0
 40
0.091421
 50
315.0
 51
45.0
  0
ARC
  5
CACC
  8
ALPHA
 10
147.17715
 20
50.020581
 30
0.0
 40
0.091421
 50
315.0
 51
45.0
  0
ARC
  5
CACD
  8
ALPHA
 10
147.17715
 20
49.020581
 30
0.0
 40
0.091421
 50
315.0
 51
45.0
  0
ARC
  5
CACE
  8
ALPHA
 10
147.17715
 20
48.020581
 30
0.0
 40
0.091421
 50
315.0
 51
45.0
  0
ARC
  5
CACF
  8
ALPHA
 10
147.17715
 20
47.020581
 30
0.0
 40
0.091421
 50
315.0
 51
45.0
  0
ARC
  5
CAD0
  8
ALPHA
 10
147.018572
 20
51.520581
 30
0.0
 40
0.15
 50
135.0
 51
225.0
  0
ARC
  5
CAD1
  8
ALPHA
 10
147.018572
 20
50.520581
 30
0.0
 40
0.15
 50
135.0
 51
225.0
  0
ARC
  5
CAD2
  8
ALPHA
 10
147.018572
 20
49.520581
 30
0.0
 40
0.15
 50
135.0
 51
225.0
  0
ARC
  5
CAD3
  8
ALPHA
 10
147.018572
 20
48.520581
 30
0.0
 40
0.15
 50
135.0
 51
225.0
  0
ARC
  5
CAD4
  8
ALPHA
 10
147.018572
 20
47.520581
 30
0.0
 40
0.15
 50
135.0
 51
225.0
  0
ARC
  5
CAD5
  8
ALPHA
 10
147.018572
 20
46.520581
 30
0.0
 40
0.15
 50
135.0
 51
225.0
  0
LINE
  5
CAD6
  8
ALPHA
 10
146.912506
 20
46.626647
 30
0.0
 11
147.241795
 21
46.955937
 31
0.0
  0
LINE
  5
CAD7
  8
ALPHA
 10
146.912506
 20
47.626647
 30
0.0
 11
147.241795
 21
47.955937
 31
0.0
  0
LINE
  5
CAD8
  8
ALPHA
 10
146.912506
 20
48.626647
 30
0.0
 11
147.241795
 21
48.955937
 31
0.0
  0
LINE
  5
CAD9
  8
ALPHA
 10
146.912506
 20
49.626647
 30
0.0
 11
147.241795
 21
49.955937
 31
0.0
  0
LINE
  5
CADA
  8
ALPHA
 10
146.912506
 20
50.626647
 30
0.0
 11
147.241795
 21
50.955937
 31
0.0
  0
LINE
  5
CADB
  8
ALPHA
 10
146.912506
 20
51.626647
 30
0.0
 11
147.241795
 21
51.955937
 31
0.0
  0
LINE
  5
CADC
  8
ALPHA
 10
147.241795
 20
51.085226
 30
0.0
 11
146.912506
 21
51.414515
 31
0.0
  0
LINE
  5
CADD
  8
ALPHA
 10
147.241795
 20
50.085226
 30
0.0
 11
146.912506
 21
50.414515
 31
0.0
  0
LINE
  5
CADE
  8
ALPHA
 10
147.241795
 20
49.085226
 30
0.0
 11
146.912506
 21
49.414515
 31
0.0
  0
LINE
  5
CADF
  8
ALPHA
 10
147.241795
 20
48.085226
 30
0.0
 11
146.912506
 21
48.414515
 31
0.0
  0
LINE
  5
CAE0
  8
ALPHA
 10
147.241795
 20
47.085226
 30
0.0
 11
146.912506
 21
47.414515
 31
0.0
  0
LINE
  5
CAE1
  8
ALPHA
 10
153.824638
 20
46.414515
 30
0.0
 11
153.495348
 21
46.085226
 31
0.0
  0
LINE
  5
CAE2
  8
ALPHA
 10
153.824638
 20
41.414515
 30
0.0
 11
153.495348
 21
41.085226
 31
0.0
  0
LINE
  5
CAE3
  8
ALPHA
 10
153.824638
 20
42.414515
 30
0.0
 11
153.495348
 21
42.085226
 31
0.0
  0
LINE
  5
CAE4
  8
ALPHA
 10
153.824638
 20
43.414515
 30
0.0
 11
153.495348
 21
43.085226
 31
0.0
  0
LINE
  5
CAE5
  8
ALPHA
 10
153.824638
 20
44.414515
 30
0.0
 11
153.495348
 21
44.085226
 31
0.0
  0
LINE
  5
CAE6
  8
ALPHA
 10
153.824638
 20
45.414515
 30
0.0
 11
153.495348
 21
45.085226
 31
0.0
  0
LINE
  5
CAE7
  8
ALPHA
 10
153.495348
 20
45.955937
 30
0.0
 11
153.824638
 21
45.626647
 31
0.0
  0
LINE
  5
CAE8
  8
ALPHA
 10
153.495348
 20
44.955937
 30
0.0
 11
153.824638
 21
44.626647
 31
0.0
  0
LINE
  5
CAE9
  8
ALPHA
 10
153.495348
 20
43.955937
 30
0.0
 11
153.824638
 21
43.626647
 31
0.0
  0
LINE
  5
CAEA
  8
ALPHA
 10
153.495348
 20
42.955937
 30
0.0
 11
153.824638
 21
42.626647
 31
0.0
  0
LINE
  5
CAEB
  8
ALPHA
 10
153.495348
 20
41.955937
 30
0.0
 11
153.824638
 21
41.626647
 31
0.0
  0
LINE
  5
CAEC
  8
ALPHA
 10
153.495348
 20
40.955937
 30
0.0
 11
153.824638
 21
40.626647
 31
0.0
  0
ARC
  5
CAED
  8
ALPHA
 10
153.559993
 20
46.020581
 30
0.0
 40
0.091421
 50
135.0
 51
225.0
  0
ARC
  5
CAEE
  8
ALPHA
 10
153.559993
 20
45.020581
 30
0.0
 40
0.091421
 50
135.0
 51
225.0
  0
ARC
  5
CAEF
  8
ALPHA
 10
153.559993
 20
44.020581
 30
0.0
 40
0.091421
 50
135.0
 51
225.0
  0
ARC
  5
CAF0
  8
ALPHA
 10
153.559993
 20
43.020581
 30
0.0
 40
0.091421
 50
135.0
 51
225.0
  0
ARC
  5
CAF1
  8
ALPHA
 10
153.559993
 20
42.020581
 30
0.0
 40
0.091421
 50
135.0
 51
225.0
  0
ARC
  5
CAF2
  8
ALPHA
 10
153.559993
 20
41.020581
 30
0.0
 40
0.091421
 50
135.0
 51
225.0
  0
ARC
  5
CAF3
  8
ALPHA
 10
153.718572
 20
45.520581
 30
0.0
 40
0.15
 50
315.0
 51
45.0
  0
ARC
  5
CAF4
  8
ALPHA
 10
153.718572
 20
44.520581
 30
0.0
 40
0.15
 50
315.0
 51
45.0
  0
ARC
  5
CAF5
  8
ALPHA
 10
153.718572
 20
43.520581
 30
0.0
 40
0.15
 50
315.0
 51
45.0
  0
ARC
  5
CAF6
  8
ALPHA
 10
153.718572
 20
42.520581
 30
0.0
 40
0.15
 50
315.0
 51
45.0
  0
ARC
  5
CAF7
  8
ALPHA
 10
153.718572
 20
41.520581
 30
0.0
 40
0.15
 50
315.0
 51
45.0
  0
LINE
  5
CAF8
  8
ALPHA
 10
153.824638
 20
47.414515
 30
0.0
 11
153.495348
 21
47.085226
 31
0.0
  0
LINE
  5
CAF9
  8
ALPHA
 10
153.824638
 20
48.414515
 30
0.0
 11
153.495348
 21
48.085226
 31
0.0
  0
LINE
  5
CAFA
  8
ALPHA
 10
153.824638
 20
49.414515
 30
0.0
 11
153.495348
 21
49.085226
 31
0.0
  0
LINE
  5
CAFB
  8
ALPHA
 10
153.824638
 20
50.414515
 30
0.0
 11
153.495348
 21
50.085226
 31
0.0
  0
LINE
  5
CAFC
  8
ALPHA
 10
153.824638
 20
51.414515
 30
0.0
 11
153.495348
 21
51.085226
 31
0.0
  0
LINE
  5
CAFD
  8
ALPHA
 10
153.495348
 20
51.955937
 30
0.0
 11
153.824638
 21
51.626647
 31
0.0
  0
LINE
  5
CAFE
  8
ALPHA
 10
153.495348
 20
50.955937
 30
0.0
 11
153.824638
 21
50.626647
 31
0.0
  0
LINE
  5
CAFF
  8
ALPHA
 10
153.495348
 20
49.955937
 30
0.0
 11
153.824638
 21
49.626647
 31
0.0
  0
LINE
  5
CB00
  8
ALPHA
 10
153.495348
 20
48.955937
 30
0.0
 11
153.824638
 21
48.626647
 31
0.0
  0
LINE
  5
CB01
  8
ALPHA
 10
153.495348
 20
47.955937
 30
0.0
 11
153.824638
 21
47.626647
 31
0.0
  0
LINE
  5
CB02
  8
ALPHA
 10
153.495348
 20
46.955937
 30
0.0
 11
153.824638
 21
46.626647
 31
0.0
  0
ARC
  5
CB03
  8
ALPHA
 10
153.559993
 20
51.020581
 30
0.0
 40
0.091421
 50
135.0
 51
225.0
  0
ARC
  5
CB04
  8
ALPHA
 10
153.559993
 20
50.020581
 30
0.0
 40
0.091421
 50
135.0
 51
225.0
  0
ARC
  5
CB05
  8
ALPHA
 10
153.559993
 20
49.020581
 30
0.0
 40
0.091421
 50
135.0
 51
225.0
  0
ARC
  5
CB06
  8
ALPHA
 10
153.559993
 20
48.020581
 30
0.0
 40
0.091421
 50
135.0
 51
225.0
  0
ARC
  5
CB07
  8
ALPHA
 10
153.559993
 20
47.020581
 30
0.0
 40
0.091421
 50
135.0
 51
225.0
  0
ARC
  5
CB08
  8
ALPHA
 10
153.718572
 20
51.520581
 30
0.0
 40
0.15
 50
315.0
 51
45.0
  0
ARC
  5
CB09
  8
ALPHA
 10
153.718572
 20
50.520581
 30
0.0
 40
0.15
 50
315.0
 51
45.0
  0
ARC
  5
CB0A
  8
ALPHA
 10
153.718572
 20
49.520581
 30
0.0
 40
0.15
 50
315.0
 51
45.0
  0
ARC
  5
CB0B
  8
ALPHA
 10
153.718572
 20
48.520581
 30
0.0
 40
0.15
 50
315.0
 51
45.0
  0
ARC
  5
CB0C
  8
ALPHA
 10
153.718572
 20
47.520581
 30
0.0
 40
0.15
 50
315.0
 51
45.0
  0
ARC
  5
CB0D
  8
ALPHA
 10
153.718572
 20
46.520581
 30
0.0
 40
0.15
 50
315.0
 51
45.0
  0
ARC
  5
CB0E
  8
ALPHA
 10
150.368572
 20
63.920581
 30
0.0
 40
3.2
 50
200.364135
 51
339.635865
  0
LINE
  5
CB0F
  8
ALPHA
 10
146.912506
 20
57.626647
 30
0.0
 11
147.241795
 21
57.955937
 31
0.0
  0
ARC
  5
CB10
  8
ALPHA
 10
147.17715
 20
57.020581
 30
0.0
 40
0.091421
 50
315.0
 51
45.0
  0
ARC
  5
CB11
  8
ALPHA
 10
147.17715
 20
56.020581
 30
0.0
 40
0.091421
 50
315.0
 51
45.0
  0
ARC
  5
CB12
  8
ALPHA
 10
147.17715
 20
55.020581
 30
0.0
 40
0.091421
 50
315.0
 51
45.0
  0
ARC
  5
CB13
  8
ALPHA
 10
147.17715
 20
54.020581
 30
0.0
 40
0.091421
 50
315.0
 51
45.0
  0
ARC
  5
CB14
  8
ALPHA
 10
147.17715
 20
53.020581
 30
0.0
 40
0.091421
 50
315.0
 51
45.0
  0
ARC
  5
CB15
  8
ALPHA
 10
147.018572
 20
57.520581
 30
0.0
 40
0.15
 50
135.0
 51
225.0
  0
ARC
  5
CB16
  8
ALPHA
 10
147.018572
 20
56.520581
 30
0.0
 40
0.15
 50
135.0
 51
225.0
  0
ARC
  5
CB17
  8
ALPHA
 10
147.018572
 20
55.520581
 30
0.0
 40
0.15
 50
135.0
 51
225.0
  0
ARC
  5
CB18
  8
ALPHA
 10
147.018572
 20
54.520581
 30
0.0
 40
0.15
 50
135.0
 51
225.0
  0
ARC
  5
CB19
  8
ALPHA
 10
147.018572
 20
53.520581
 30
0.0
 40
0.15
 50
135.0
 51
225.0
  0
ARC
  5
CB1A
  8
ALPHA
 10
147.018572
 20
52.520581
 30
0.0
 40
0.15
 50
135.0
 51
225.0
  0
LINE
  5
CB1B
  8
ALPHA
 10
146.912506
 20
52.626647
 30
0.0
 11
147.241795
 21
52.955937
 31
0.0
  0
LINE
  5
CB1C
  8
ALPHA
 10
146.912506
 20
53.626647
 30
0.0
 11
147.241795
 21
53.955937
 31
0.0
  0
LINE
  5
CB1D
  8
ALPHA
 10
146.912506
 20
54.626647
 30
0.0
 11
147.241795
 21
54.955937
 31
0.0
  0
LINE
  5
CB1E
  8
ALPHA
 10
146.912506
 20
55.626647
 30
0.0
 11
147.241795
 21
55.955937
 31
0.0
  0
LINE
  5
CB1F
  8
ALPHA
 10
146.912506
 20
56.626647
 30
0.0
 11
147.241795
 21
56.955937
 31
0.0
  0
LINE
  5
CB20
  8
ALPHA
 10
147.241795
 20
57.085226
 30
0.0
 11
146.912506
 21
57.414515
 31
0.0
  0
LINE
  5
CB21
  8
ALPHA
 10
147.241795
 20
56.085226
 30
0.0
 11
146.912506
 21
56.414515
 31
0.0
  0
LINE
  5
CB22
  8
ALPHA
 10
147.241795
 20
55.085226
 30
0.0
 11
146.912506
 21
55.414515
 31
0.0
  0
LINE
  5
CB23
  8
ALPHA
 10
147.241795
 20
54.085226
 30
0.0
 11
146.912506
 21
54.414515
 31
0.0
  0
LINE
  5
CB24
  8
ALPHA
 10
147.241795
 20
53.085226
 30
0.0
 11
146.912506
 21
53.414515
 31
0.0
  0
LINE
  5
CB25
  8
ALPHA
 10
147.241795
 20
52.085226
 30
0.0
 11
146.912506
 21
52.414515
 31
0.0
  0
LINE
  5
CB26
  8
ALPHA
 10
147.213547
 20
63.520581
 30
0.0
 11
146.993572
 21
63.520581
 31
0.0
  0
ARC
  5
CB27
  8
ALPHA
 10
147.17715
 20
63.020581
 30
0.0
 40
0.091421
 50
315.0
 51
45.0
  0
ARC
  5
CB28
  8
ALPHA
 10
147.17715
 20
62.020581
 30
0.0
 40
0.091421
 50
315.0
 51
45.0
  0
ARC
  5
CB29
  8
ALPHA
 10
147.17715
 20
61.020581
 30
0.0
 40
0.091421
 50
315.0
 51
45.0
  0
ARC
  5
CB2A
  8
ALPHA
 10
147.17715
 20
60.020581
 30
0.0
 40
0.091421
 50
315.0
 51
45.0
  0
ARC
  5
CB2B
  8
ALPHA
 10
147.17715
 20
59.020581
 30
0.0
 40
0.091421
 50
315.0
 51
45.0
  0
ARC
  5
CB2C
  8
ALPHA
 10
147.17715
 20
58.020581
 30
0.0
 40
0.091421
 50
315.0
 51
45.0
  0
ARC
  5
CB2D
  8
ALPHA
 10
147.018572
 20
63.520581
 30
0.0
 40
0.15
 50
135.0
 51
225.0
  0
ARC
  5
CB2E
  8
ALPHA
 10
147.018572
 20
62.520581
 30
0.0
 40
0.15
 50
135.0
 51
225.0
  0
ARC
  5
CB2F
  8
ALPHA
 10
147.018572
 20
61.520581
 30
0.0
 40
0.15
 50
135.0
 51
225.0
  0
ARC
  5
CB30
  8
ALPHA
 10
147.018572
 20
60.520581
 30
0.0
 40
0.15
 50
135.0
 51
225.0
  0
ARC
  5
CB31
  8
ALPHA
 10
147.018572
 20
59.520581
 30
0.0
 40
0.15
 50
135.0
 51
225.0
  0
ARC
  5
CB32
  8
ALPHA
 10
147.018572
 20
58.520581
 30
0.0
 40
0.15
 50
135.0
 51
225.0
  0
ARC
  5
CB33
  8
ALPHA
 10
147.218572
 20
63.020581
 30
0.0
 40
0.35
 50
0.0
 51
45.0
  0
ARC
  5
CB34
  8
ALPHA
 10
147.145348
 20
63.520581
 30
0.0
 40
0.151777
 50
135.0
 51
225.0
  0
ARC
  5
CB35
  8
ALPHA
 10
147.218572
 20
63.020581
 30
0.0
 40
0.15
 50
0.0
 51
45.0
  0
ARC
  5
CB36
  8
ALPHA
 10
150.368572
 20
72.020581
 30
0.0
 40
10.0
 50
249.856216
 51
253.551387
  0
LINE
  5
CB37
  8
ALPHA
 10
146.912506
 20
58.626647
 30
0.0
 11
147.241795
 21
58.955937
 31
0.0
  0
LINE
  5
CB38
  8
ALPHA
 10
146.912506
 20
59.626647
 30
0.0
 11
147.241795
 21
59.955937
 31
0.0
  0
LINE
  5
CB39
  8
ALPHA
 10
146.912506
 20
60.626647
 30
0.0
 11
147.241795
 21
60.955937
 31
0.0
  0
LINE
  5
CB3A
  8
ALPHA
 10
146.912506
 20
61.626647
 30
0.0
 11
147.241795
 21
61.955937
 31
0.0
  0
LINE
  5
CB3B
  8
ALPHA
 10
146.912506
 20
62.626647
 30
0.0
 11
147.241795
 21
62.955937
 31
0.0
  0
LINE
  5
CB3C
  8
ALPHA
 10
147.466059
 20
63.268069
 30
0.0
 11
147.324638
 21
63.126647
 31
0.0
  0
LINE
  5
CB3D
  8
ALPHA
 10
147.568572
 20
63.020581
 30
0.0
 11
147.568572
 21
62.371388
 31
0.0
  0
LINE
  5
CB3E
  8
ALPHA
 10
147.368572
 20
63.020581
 30
0.0
 11
147.368572
 21
62.807029
 31
0.0
  0
LINE
  5
CB3F
  8
ALPHA
 10
147.213547
 20
63.520581
 30
0.0
 11
147.466059
 21
63.268069
 31
0.0
  0
LINE
  5
CB40
  8
ALPHA
 10
147.038026
 20
63.413259
 30
0.0
 11
147.324638
 21
63.126647
 31
0.0
  0
LINE
  5
CB41
  8
ALPHA
 10
147.241795
 20
63.085226
 30
0.0
 11
146.912506
 21
63.414515
 31
0.0
  0
LINE
  5
CB42
  8
ALPHA
 10
147.241795
 20
62.085226
 30
0.0
 11
146.912506
 21
62.414515
 31
0.0
  0
LINE
  5
CB43
  8
ALPHA
 10
147.241795
 20
61.085226
 30
0.0
 11
146.912506
 21
61.414515
 31
0.0
  0
LINE
  5
CB44
  8
ALPHA
 10
147.568572
 20
63.020581
 30
0.0
 11
147.368572
 21
63.020581
 31
0.0
  0
LINE
  5
CB45
  8
ALPHA
 10
147.241795
 20
60.085226
 30
0.0
 11
146.912506
 21
60.414515
 31
0.0
  0
LINE
  5
CB46
  8
ALPHA
 10
147.241795
 20
59.085226
 30
0.0
 11
146.912506
 21
59.414515
 31
0.0
  0
LINE
  5
CB47
  8
ALPHA
 10
147.241795
 20
58.085226
 30
0.0
 11
146.912506
 21
58.414515
 31
0.0
  0
LINE
  5
CB48
  8
ALPHA
 10
153.495348
 20
57.955937
 30
0.0
 11
153.824638
 21
57.626647
 31
0.0
  0
LINE
  5
CB49
  8
ALPHA
 10
153.824638
 20
52.414515
 30
0.0
 11
153.495348
 21
52.085226
 31
0.0
  0
LINE
  5
CB4A
  8
ALPHA
 10
153.824638
 20
53.414515
 30
0.0
 11
153.495348
 21
53.085226
 31
0.0
  0
LINE
  5
CB4B
  8
ALPHA
 10
153.824638
 20
54.414515
 30
0.0
 11
153.495348
 21
54.085226
 31
0.0
  0
LINE
  5
CB4C
  8
ALPHA
 10
153.824638
 20
55.414515
 30
0.0
 11
153.495348
 21
55.085226
 31
0.0
  0
LINE
  5
CB4D
  8
ALPHA
 10
153.824638
 20
56.414515
 30
0.0
 11
153.495348
 21
56.085226
 31
0.0
  0
LINE
  5
CB4E
  8
ALPHA
 10
153.824638
 20
57.414515
 30
0.0
 11
153.495348
 21
57.085226
 31
0.0
  0
LINE
  5
CB4F
  8
ALPHA
 10
153.495348
 20
56.955937
 30
0.0
 11
153.824638
 21
56.626647
 31
0.0
  0
LINE
  5
CB50
  8
ALPHA
 10
153.495348
 20
55.955937
 30
0.0
 11
153.824638
 21
55.626647
 31
0.0
  0
LINE
  5
CB51
  8
ALPHA
 10
153.495348
 20
54.955937
 30
0.0
 11
153.824638
 21
54.626647
 31
0.0
  0
LINE
  5
CB52
  8
ALPHA
 10
153.495348
 20
53.955937
 30
0.0
 11
153.824638
 21
53.626647
 31
0.0
  0
LINE
  5
CB53
  8
ALPHA
 10
153.495348
 20
52.955937
 30
0.0
 11
153.824638
 21
52.626647
 31
0.0
  0
ARC
  5
CB54
  8
ALPHA
 10
153.559993
 20
57.020581
 30
0.0
 40
0.091421
 50
135.0
 51
225.0
  0
ARC
  5
CB55
  8
ALPHA
 10
153.559993
 20
56.020581
 30
0.0
 40
0.091421
 50
135.0
 51
225.0
  0
ARC
  5
CB56
  8
ALPHA
 10
153.559993
 20
55.020581
 30
0.0
 40
0.091421
 50
135.0
 51
225.0
  0
ARC
  5
CB57
  8
ALPHA
 10
153.559993
 20
54.020581
 30
0.0
 40
0.091421
 50
135.0
 51
225.0
  0
ARC
  5
CB58
  8
ALPHA
 10
153.559993
 20
53.020581
 30
0.0
 40
0.091421
 50
135.0
 51
225.0
  0
ARC
  5
CB59
  8
ALPHA
 10
153.718572
 20
57.520581
 30
0.0
 40
0.15
 50
315.0
 51
45.0
  0
ARC
  5
CB5A
  8
ALPHA
 10
153.718572
 20
56.520581
 30
0.0
 40
0.15
 50
315.0
 51
45.0
  0
ARC
  5
CB5B
  8
ALPHA
 10
153.718572
 20
55.520581
 30
0.0
 40
0.15
 50
315.0
 51
45.0
  0
ARC
  5
CB5C
  8
ALPHA
 10
153.718572
 20
54.520581
 30
0.0
 40
0.15
 50
315.0
 51
45.0
  0
ARC
  5
CB5D
  8
ALPHA
 10
153.718572
 20
53.520581
 30
0.0
 40
0.15
 50
315.0
 51
45.0
  0
ARC
  5
CB5E
  8
ALPHA
 10
153.718572
 20
52.520581
 30
0.0
 40
0.15
 50
315.0
 51
45.0
  0
LINE
  5
CB5F
  8
ALPHA
 10
153.743572
 20
63.520581
 30
0.0
 11
153.523597
 21
63.520581
 31
0.0
  0
ARC
  5
CB60
  8
ALPHA
 10
150.368572
 20
72.020581
 30
0.0
 40
10.0
 50
286.448613
 51
290.143784
  0
LINE
  5
CB61
  8
ALPHA
 10
153.824638
 20
58.414515
 30
0.0
 11
153.495348
 21
58.085226
 31
0.0
  0
LINE
  5
CB62
  8
ALPHA
 10
153.824638
 20
59.414515
 30
0.0
 11
153.495348
 21
59.085226
 31
0.0
  0
LINE
  5
CB63
  8
ALPHA
 10
153.824638
 20
60.414515
 30
0.0
 11
153.495348
 21
60.085226
 31
0.0
  0
LINE
  5
CB64
  8
ALPHA
 10
153.824638
 20
61.414515
 30
0.0
 11
153.495348
 21
61.085226
 31
0.0
  0
LINE
  5
CB65
  8
ALPHA
 10
153.824638
 20
62.414515
 30
0.0
 11
153.495348
 21
62.085226
 31
0.0
  0
LINE
  5
CB66
  8
ALPHA
 10
153.824638
 20
63.414515
 30
0.0
 11
153.495348
 21
63.085226
 31
0.0
  0
LINE
  5
CB67
  8
ALPHA
 10
153.699117
 20
63.413259
 30
0.0
 11
153.412506
 21
63.126647
 31
0.0
  0
LINE
  5
CB68
  8
ALPHA
 10
153.495348
 20
62.955937
 30
0.0
 11
153.824638
 21
62.626647
 31
0.0
  0
LINE
  5
CB69
  8
ALPHA
 10
153.495348
 20
61.955937
 30
0.0
 11
153.824638
 21
61.626647
 31
0.0
  0
LINE
  5
CB6A
  8
ALPHA
 10
153.495348
 20
60.955937
 30
0.0
 11
153.824638
 21
60.626647
 31
0.0
  0
LINE
  5
CB6B
  8
ALPHA
 10
153.495348
 20
59.955937
 30
0.0
 11
153.824638
 21
59.626647
 31
0.0
  0
LINE
  5
CB6C
  8
ALPHA
 10
153.495348
 20
58.955937
 30
0.0
 11
153.824638
 21
58.626647
 31
0.0
  0
ARC
  5
CB6D
  8
ALPHA
 10
153.559993
 20
63.020581
 30
0.0
 40
0.091421
 50
135.0
 51
225.0
  0
ARC
  5
CB6E
  8
ALPHA
 10
153.559993
 20
62.020581
 30
0.0
 40
0.091421
 50
135.0
 51
225.0
  0
ARC
  5
CB6F
  8
ALPHA
 10
153.559993
 20
61.020581
 30
0.0
 40
0.091421
 50
135.0
 51
225.0
  0
ARC
  5
CB70
  8
ALPHA
 10
153.559993
 20
60.020581
 30
0.0
 40
0.091421
 50
135.0
 51
225.0
  0
ARC
  5
CB71
  8
ALPHA
 10
153.559993
 20
59.020581
 30
0.0
 40
0.091421
 50
135.0
 51
225.0
  0
ARC
  5
CB72
  8
ALPHA
 10
153.559993
 20
58.020581
 30
0.0
 40
0.091421
 50
135.0
 51
225.0
  0
ARC
  5
CB73
  8
ALPHA
 10
153.518572
 20
63.020581
 30
0.0
 40
0.349999
 50
135.0
 51
180.0
  0
ARC
  5
CB74
  8
ALPHA
 10
150.368572
 20
62.970581
 30
0.0
 40
0.25
 50
194.663584
 51
345.336416
  0
ARC
  5
CB75
  8
ALPHA
 10
153.518572
 20
63.020581
 30
0.0
 40
0.15
 50
135.0
 51
180.0
  0
LINE
  5
CB76
  8
ALPHA
 10
153.523597
 20
63.520581
 30
0.0
 11
153.271084
 21
63.268069
 31
0.0
  0
LINE
  5
CB77
  8
ALPHA
 10
150.610429
 20
62.907296
 30
0.0
 11
150.718572
 21
63.320581
 31
0.0
  0
LINE
  5
CB78
  8
ALPHA
 10
153.368572
 20
63.020581
 30
0.0
 11
153.368572
 21
62.807029
 31
0.0
  0
LINE
  5
CB79
  8
ALPHA
 10
153.168572
 20
63.020581
 30
0.0
 11
153.168572
 21
62.371388
 31
0.0
  0
LINE
  5
CB7A
  8
ALPHA
 10
150.018572
 20
63.320581
 30
0.0
 11
150.126715
 21
62.907296
 31
0.0
  0
LINE
  5
CB7B
  8
ALPHA
 10
153.412506
 20
63.126647
 30
0.0
 11
153.271084
 21
63.268069
 31
0.0
  0
LINE
  5
CB7C
  8
ALPHA
 10
153.368572
 20
63.020581
 30
0.0
 11
153.168572
 21
63.020581
 31
0.0
  0
ARC
  5
CB7D
  8
ALPHA
 10
153.718572
 20
63.520581
 30
0.0
 40
0.15
 50
315.0
 51
45.0
  0
ARC
  5
CB7E
  8
ALPHA
 10
153.718572
 20
62.520581
 30
0.0
 40
0.15
 50
315.0
 51
45.0
  0
ARC
  5
CB7F
  8
ALPHA
 10
153.718572
 20
61.520581
 30
0.0
 40
0.15
 50
315.0
 51
45.0
  0
ARC
  5
CB80
  8
ALPHA
 10
153.718572
 20
60.520581
 30
0.0
 40
0.15
 50
315.0
 51
45.0
  0
ARC
  5
CB81
  8
ALPHA
 10
153.718572
 20
59.520581
 30
0.0
 40
0.15
 50
315.0
 51
45.0
  0
ARC
  5
CB82
  8
ALPHA
 10
153.718572
 20
58.520581
 30
0.0
 40
0.15
 50
315.0
 51
45.0
  0
ARC
  5
CB83
  8
ALPHA
 10
153.591795
 20
63.520581
 30
0.0
 40
0.151777
 50
315.0
 51
45.0
  0
ARC
  5
CB84
  8
ALPHA
 10
150.368572
 20
110.520581
 30
0.0
 40
23.4
 50
282.5
 51
317.5
  0
ARC
  5
CB85
  8
ALPHA
 10
150.368572
 20
110.520581
 30
0.0
 40
21.395108
 50
274.973616
 51
325.026384
  0
ARC
  5
CB86
  8
ALPHA
 10
150.368572
 20
110.520581
 30
0.0
 40
22.192064
 50
274.668775
 51
325.331225
  0
ARC
  5
CB87
  8
ALPHA
 10
150.368572
 20
110.520581
 30
0.0
 40
22.5
 50
274.668775
 51
325.331225
  0
LINE
  5
CB88
  8
ALPHA
 10
169.754959
 20
101.46969
 30
0.0
 11
155.876481
 21
109.482433
 31
0.0
  0
LINE
  5
CB89
  8
ALPHA
 10
169.455304
 20
100.722451
 30
0.0
 11
155.413138
 21
108.829699
 31
0.0
  0
LINE
  5
CB8A
  8
ALPHA
 10
155.368572
 20
108.499855
 30
0.0
 11
169.301336
 21
100.45577
 31
0.0
  0
LINE
  5
CB8B
  8
ALPHA
 10
168.551336
 20
99.156732
 30
0.0
 11
154.54804
 21
107.241539
 31
0.0
  0
LINE
  5
CB8C
  8
ALPHA
 10
154.355202
 20
106.9973
 30
0.0
 11
168.397368
 21
98.890052
 31
0.0
  0
LINE
  5
CB8D
  8
ALPHA
 10
154.021589
 20
106.269666
 30
0.0
 11
167.900067
 21
98.256923
 31
0.0
  0
ARC
  5
CB8E
  8
ALPHA
 10
150.368572
 20
110.520581
 30
0.0
 40
24.0
 50
272.07067
 51
282.5
  0
ARC
  5
CB8F
  8
ALPHA
 10
150.368572
 20
110.520581
 30
0.0
 40
24.0
 50
257.5
 51
267.92933
  0
ARC
  5
CB90
  8
ALPHA
 10
150.368572
 20
110.520581
 30
0.0
 40
23.4
 50
222.5
 51
257.5
  0
ARC
  5
CB91
  8
ALPHA
 10
150.368572
 20
110.520581
 30
0.0
 40
22.5
 50
214.668775
 51
265.331225
  0
ARC
  5
CB92
  8
ALPHA
 10
150.368572
 20
110.520581
 30
0.0
 40
22.192064
 50
214.668775
 51
265.331225
  0
LINE
  5
CB93
  8
ALPHA
 10
150.509993
 20
87.262003
 30
0.0
 11
151.235743
 21
86.536253
 31
0.0
  0
LINE
  5
CB94
  8
ALPHA
 10
149.501401
 20
86.536253
 30
0.0
 11
150.22715
 21
87.262003
 31
0.0
  0
LINE
  5
CB95
  8
ALPHA
 10
153.824638
 20
75.414515
 30
0.0
 11
153.495348
 21
75.085226
 31
0.0
  0
LINE
  5
CB96
  8
ALPHA
 10
153.351321
 20
75.227953
 30
0.0
 11
153.674116
 21
75.744534
 31
0.0
  0
LINE
  5
CB97
  8
ALPHA
 10
147.063027
 20
75.744534
 30
0.0
 11
147.385823
 21
75.227953
 31
0.0
  0
LINE
  5
CB98
  8
ALPHA
 10
147.241795
 20
75.085226
 30
0.0
 11
146.912506
 21
75.414515
 31
0.0
  0
ARC
  5
CB99
  8
ALPHA
 10
150.368572
 20
72.020581
 30
0.0
 40
5.5
 50
245.380023
 51
294.619977
  0
ARC
  5
CB9A
  8
ALPHA
 10
149.567741
 20
67.135792
 30
0.0
 40
0.2
 50
178.0
 51
260.687808
  0
ARC
  5
CB9B
  8
ALPHA
 10
147.018572
 20
69.520581
 30
0.0
 40
0.15
 50
135.0
 51
225.0
  0
LINE
  5
CB9C
  8
ALPHA
 10
147.213547
 20
64.520581
 30
0.0
 11
146.993572
 21
64.520581
 31
0.0
  0
LINE
  5
CB9D
  8
ALPHA
 10
147.213547
 20
65.520581
 30
0.0
 11
146.993572
 21
65.520581
 31
0.0
  0
LINE
  5
CB9E
  8
ALPHA
 10
146.993572
 20
66.520581
 30
0.0
 11
147.213547
 21
66.520581
 31
0.0
  0
ARC
  5
CB9F
  8
ALPHA
 10
147.17715
 20
69.020581
 30
0.0
 40
0.091421
 50
315.0
 51
45.0
  0
ARC
  5
CBA0
  8
ALPHA
 10
147.17715
 20
68.020581
 30
0.0
 40
0.091421
 50
315.0
 51
45.0
  0
ARC
  5
CBA1
  8
ALPHA
 10
147.17715
 20
67.020581
 30
0.0
 40
0.091421
 50
315.0
 51
45.0
  0
ARC
  5
CBA2
  8
ALPHA
 10
147.17715
 20
66.020581
 30
0.0
 40
0.091421
 50
315.0
 51
45.0
  0
ARC
  5
CBA3
  8
ALPHA
 10
147.17715
 20
65.020581
 30
0.0
 40
0.091421
 50
315.0
 51
45.0
  0
ARC
  5
CBA4
  8
ALPHA
 10
147.17715
 20
64.020581
 30
0.0
 40
0.091421
 50
315.0
 51
45.0
  0
ARC
  5
CBA5
  8
ALPHA
 10
147.018572
 20
68.520581
 30
0.0
 40
0.15
 50
135.0
 51
225.0
  0
ARC
  5
CBA6
  8
ALPHA
 10
147.018572
 20
67.520581
 30
0.0
 40
0.15
 50
135.0
 51
225.0
  0
ARC
  5
CBA7
  8
ALPHA
 10
147.018572
 20
66.520581
 30
0.0
 40
0.15
 50
135.0
 51
225.0
  0
ARC
  5
CBA8
  8
ALPHA
 10
147.018572
 20
65.520581
 30
0.0
 40
0.15
 50
135.0
 51
225.0
  0
ARC
  5
CBA9
  8
ALPHA
 10
147.018572
 20
64.520581
 30
0.0
 40
0.15
 50
135.0
 51
225.0
  0
ARC
  5
CBAA
  8
ALPHA
 10
147.218572
 20
64.020581
 30
0.0
 40
0.35
 50
315.0
 51
45.0
  0
ARC
  5
CBAB
  8
ALPHA
 10
147.218572
 20
65.020581
 30
0.0
 40
0.35
 50
315.0
 51
45.0
  0
ARC
  5
CBAC
  8
ALPHA
 10
147.218572
 20
66.020581
 30
0.0
 40
0.35
 50
315.0
 51
45.0
  0
ARC
  5
CBAD
  8
ALPHA
 10
147.218572
 20
67.020581
 30
0.0
 40
0.35
 50
315.0
 51
0.0
  0
ARC
  5
CBAE
  8
ALPHA
 10
147.145348
 20
66.520581
 30
0.0
 40
0.151777
 50
135.0
 51
225.0
  0
ARC
  5
CBAF
  8
ALPHA
 10
147.145348
 20
65.520581
 30
0.0
 40
0.151777
 50
135.0
 51
225.0
  0
ARC
  5
CBB0
  8
ALPHA
 10
147.145348
 20
64.520581
 30
0.0
 40
0.151777
 50
135.0
 51
225.0
  0
ARC
  5
CBB1
  8
ALPHA
 10
147.218572
 20
64.020581
 30
0.0
 40
0.15
 50
315.0
 51
45.0
  0
ARC
  5
CBB2
  8
ALPHA
 10
147.218572
 20
65.020581
 30
0.0
 40
0.15
 50
315.0
 51
45.0
  0
ARC
  5
CBB3
  8
ALPHA
 10
147.218572
 20
66.020581
 30
0.0
 40
0.15
 50
315.0
 51
45.0
  0
ARC
  5
CBB4
  8
ALPHA
 10
147.218572
 20
67.020581
 30
0.0
 40
0.15
 50
315.0
 51
0.0
  0
ARC
  5
CBB5
  8
ALPHA
 10
149.289182
 20
67.755031
 30
0.0
 40
0.1
 50
358.0
 51
75.799502
  0
ARC
  5
CBB6
  8
ALPHA
 10
150.368572
 20
72.020581
 30
0.0
 40
4.3
 50
254.200498
 51
255.799502
  0
ARC
  5
CBB7
  8
ALPHA
 10
149.170575
 20
67.786812
 30
0.0
 40
0.1
 50
74.200498
 51
152.0
  0
ARC
  5
CBB8
  8
ALPHA
 10
148.619717
 20
67.389814
 30
0.0
 40
0.2
 50
249.303621
 51
332.0
  0
ARC
  5
CBB9
  8
ALPHA
 10
150.368572
 20
72.020581
 30
0.0
 40
5.15
 50
245.689807
 51
249.310198
  0
ARC
  5
CBBA
  8
ALPHA
 10
148.330752
 20
67.509507
 30
0.0
 40
0.2
 50
163.0
 51
245.696522
  0
ARC
  5
CBBB
  8
ALPHA
 10
148.221956
 20
68.179743
 30
0.0
 40
0.1
 50
343.0
 51
60.799502
  0
ARC
  5
CBBC
  8
ALPHA
 10
150.368572
 20
72.020581
 30
0.0
 40
4.3
 50
239.200498
 51
240.799502
  0
ARC
  5
CBBD
  8
ALPHA
 10
148.115616
 20
68.241138
 30
0.0
 40
0.1
 50
59.200498
 51
137.0
  0
ARC
  5
CBBE
  8
ALPHA
 10
147.480777
 20
68.00024
 30
0.0
 40
0.2
 50
234.310082
 51
317.0
  0
ARC
  5
CBBF
  8
ALPHA
 10
150.368572
 20
72.020581
 30
0.0
 40
5.15
 50
232.398992
 51
234.310449
  0
ARC
  5
CBC0
  8
ALPHA
 10
147.301018
 20
68.866201
 30
0.0
 40
0.1
 50
328.0
 51
45.799502
  0
ARC
  5
CBC1
  8
ALPHA
 10
150.368572
 20
72.020581
 30
0.0
 40
4.3
 50
224.200498
 51
225.799502
  0
ARC
  5
CBC2
  8
ALPHA
 10
147.214192
 20
68.953028
 30
0.0
 40
0.1
 50
44.200498
 51
58.561486
  0
LINE
  5
CBC3
  8
ALPHA
 10
147.466059
 20
64.268069
 30
0.0
 11
147.324638
 21
64.126647
 31
0.0
  0
LINE
  5
CBC4
  8
ALPHA
 10
147.466059
 20
64.773094
 30
0.0
 11
147.213547
 21
64.520581
 31
0.0
  0
LINE
  5
CBC5
  8
ALPHA
 10
147.324638
 20
64.914515
 30
0.0
 11
147.038026
 21
64.627904
 31
0.0
  0
LINE
  5
CBC6
  8
ALPHA
 10
146.912506
 20
64.626647
 30
0.0
 11
147.241795
 21
64.955937
 31
0.0
  0
LINE
  5
CBC7
  8
ALPHA
 10
147.466059
 20
65.268069
 30
0.0
 11
147.324638
 21
65.126647
 31
0.0
  0
LINE
  5
CBC8
  8
ALPHA
 10
147.466059
 20
65.773094
 30
0.0
 11
147.213547
 21
65.520581
 31
0.0
  0
LINE
  5
CBC9
  8
ALPHA
 10
147.324638
 20
65.914515
 30
0.0
 11
147.038026
 21
65.627904
 31
0.0
  0
LINE
  5
CBCA
  8
ALPHA
 10
146.912506
 20
65.626647
 30
0.0
 11
147.241795
 21
65.955937
 31
0.0
  0
LINE
  5
CBCB
  8
ALPHA
 10
147.466059
 20
66.268069
 30
0.0
 11
147.324638
 21
66.126647
 31
0.0
  0
LINE
  5
CBCC
  8
ALPHA
 10
147.213547
 20
66.520581
 30
0.0
 11
147.466059
 21
66.773094
 31
0.0
  0
LINE
  5
CBCD
  8
ALPHA
 10
147.038026
 20
66.627904
 30
0.0
 11
147.324638
 21
66.914515
 31
0.0
  0
LINE
  5
CBCE
  8
ALPHA
 10
146.912506
 20
66.626647
 30
0.0
 11
147.241795
 21
66.955937
 31
0.0
  0
LINE
  5
CBCF
  8
ALPHA
 10
146.912506
 20
67.626647
 30
0.0
 11
147.241795
 21
67.955937
 31
0.0
  0
LINE
  5
CBD0
  8
ALPHA
 10
146.912506
 20
68.626647
 30
0.0
 11
147.241795
 21
68.955937
 31
0.0
  0
LINE
  5
CBD1
  8
ALPHA
 10
147.627048
 20
67.863841
 30
0.0
 11
148.042481
 21
68.309338
 31
0.0
  0
LINE
  5
CBD2
  8
ALPHA
 10
147.385823
 20
68.813209
 30
0.0
 11
147.063027
 21
68.296629
 31
0.0
  0
LINE
  5
CBD3
  8
ALPHA
 10
148.796306
 20
67.29592
 30
0.0
 11
149.082281
 21
67.833759
 31
0.0
  0
LINE
  5
CBD4
  8
ALPHA
 10
148.317586
 20
68.150506
 30
0.0
 11
148.139491
 21
67.567982
 31
0.0
  0
LINE
  5
CBD5
  8
ALPHA
 10
149.389121
 20
67.751541
 30
0.0
 11
149.367863
 21
67.142772
 31
0.0
  0
LINE
  5
CBD6
  8
ALPHA
 10
147.241795
 20
69.085226
 30
0.0
 11
146.912506
 21
69.414515
 31
0.0
  0
LINE
  5
CBD7
  8
ALPHA
 10
147.241795
 20
68.085226
 30
0.0
 11
146.912506
 21
68.414515
 31
0.0
  0
LINE
  5
CBD8
  8
ALPHA
 10
147.241795
 20
67.085226
 30
0.0
 11
146.912506
 21
67.414515
 31
0.0
  0
LINE
  5
CBD9
  8
ALPHA
 10
147.324638
 20
66.914515
 30
0.0
 11
147.466059
 21
66.773094
 31
0.0
  0
LINE
  5
CBDA
  8
ALPHA
 10
147.213547
 20
66.520581
 30
0.0
 11
147.466059
 21
66.268069
 31
0.0
  0
LINE
  5
CBDB
  8
ALPHA
 10
147.038026
 20
66.413259
 30
0.0
 11
147.324638
 21
66.126647
 31
0.0
  0
LINE
  5
CBDC
  8
ALPHA
 10
147.241795
 20
66.085226
 30
0.0
 11
146.912506
 21
66.414515
 31
0.0
  0
LINE
  5
CBDD
  8
ALPHA
 10
147.466059
 20
65.773094
 30
0.0
 11
147.324638
 21
65.914515
 31
0.0
  0
LINE
  5
CBDE
  8
ALPHA
 10
147.213547
 20
65.520581
 30
0.0
 11
147.466059
 21
65.268069
 31
0.0
  0
LINE
  5
CBDF
  8
ALPHA
 10
147.038026
 20
65.413259
 30
0.0
 11
147.324638
 21
65.126647
 31
0.0
  0
LINE
  5
CBE0
  8
ALPHA
 10
147.241795
 20
65.085226
 30
0.0
 11
146.912506
 21
65.414515
 31
0.0
  0
LINE
  5
CBE1
  8
ALPHA
 10
147.466059
 20
64.773094
 30
0.0
 11
147.324638
 21
64.914515
 31
0.0
  0
LINE
  5
CBE2
  8
ALPHA
 10
147.213547
 20
64.520581
 30
0.0
 11
147.466059
 21
64.268069
 31
0.0
  0
LINE
  5
CBE3
  8
ALPHA
 10
147.038026
 20
64.413259
 30
0.0
 11
147.324638
 21
64.126647
 31
0.0
  0
LINE
  5
CBE4
  8
ALPHA
 10
147.241795
 20
64.085226
 30
0.0
 11
146.912506
 21
64.414515
 31
0.0
  0
LINE
  5
CBE5
  8
ALPHA
 10
147.466059
 20
63.773094
 30
0.0
 11
147.324638
 21
63.914515
 31
0.0
  0
LINE
  5
CBE6
  8
ALPHA
 10
147.368572
 20
67.020581
 30
0.0
 11
148.077284
 21
67.020581
 31
0.0
  0
ARC
  5
CBE7
  8
ALPHA
 10
147.17715
 20
75.020581
 30
0.0
 40
0.091421
 50
315.0
 51
45.0
  0
ARC
  5
CBE8
  8
ALPHA
 10
147.17715
 20
74.020581
 30
0.0
 40
0.091421
 50
315.0
 51
45.0
  0
ARC
  5
CBE9
  8
ALPHA
 10
147.17715
 20
73.020581
 30
0.0
 40
0.091421
 50
315.0
 51
45.0
  0
ARC
  5
CBEA
  8
ALPHA
 10
147.17715
 20
72.020581
 30
0.0
 40
0.091421
 50
315.0
 51
45.0
  0
ARC
  5
CBEB
  8
ALPHA
 10
147.17715
 20
71.020581
 30
0.0
 40
0.091421
 50
315.0
 51
45.0
  0
ARC
  5
CBEC
  8
ALPHA
 10
147.17715
 20
70.020581
 30
0.0
 40
0.091421
 50
315.0
 51
45.0
  0
ARC
  5
CBED
  8
ALPHA
 10
147.018572
 20
74.520581
 30
0.0
 40
0.15
 50
135.0
 51
225.0
  0
ARC
  5
CBEE
  8
ALPHA
 10
147.018572
 20
73.520581
 30
0.0
 40
0.15
 50
135.0
 51
225.0
  0
ARC
  5
CBEF
  8
ALPHA
 10
147.018572
 20
72.520581
 30
0.0
 40
0.15
 50
135.0
 51
225.0
  0
ARC
  5
CBF0
  8
ALPHA
 10
147.018572
 20
71.520581
 30
0.0
 40
0.15
 50
135.0
 51
225.0
  0
ARC
  5
CBF1
  8
ALPHA
 10
147.018572
 20
70.520581
 30
0.0
 40
0.15
 50
135.0
 51
225.0
  0
ARC
  5
CBF2
  8
ALPHA
 10
150.368572
 20
72.020581
 30
0.0
 40
4.3
 50
134.200498
 51
135.799502
  0
ARC
  5
CBF3
  8
ALPHA
 10
147.301018
 20
75.174961
 30
0.0
 40
0.1
 50
314.200498
 51
32.0
  0
LINE
  5
CBF4
  8
ALPHA
 10
146.912506
 20
69.626647
 30
0.0
 11
147.241795
 21
69.955937
 31
0.0
  0
LINE
  5
CBF5
  8
ALPHA
 10
146.912506
 20
70.626647
 30
0.0
 11
147.241795
 21
70.955937
 31
0.0
  0
LINE
  5
CBF6
  8
ALPHA
 10
147.241795
 20
74.085226
 30
0.0
 11
146.912506
 21
74.414515
 31
0.0
  0
LINE
  5
CBF7
  8
ALPHA
 10
147.241795
 20
73.085226
 30
0.0
 11
146.912506
 21
73.414515
 31
0.0
  0
LINE
  5
CBF8
  8
ALPHA
 10
146.912506
 20
71.626647
 30
0.0
 11
147.241795
 21
71.955937
 31
0.0
  0
LINE
  5
CBF9
  8
ALPHA
 10
146.912506
 20
72.626647
 30
0.0
 11
147.241795
 21
72.955937
 31
0.0
  0
LINE
  5
CBFA
  8
ALPHA
 10
146.912506
 20
73.626647
 30
0.0
 11
147.241795
 21
73.955937
 31
0.0
  0
LINE
  5
CBFB
  8
ALPHA
 10
146.912506
 20
74.626647
 30
0.0
 11
147.241795
 21
74.955937
 31
0.0
  0
LINE
  5
CBFC
  8
ALPHA
 10
147.241795
 20
72.085226
 30
0.0
 11
146.912506
 21
72.414515
 31
0.0
  0
LINE
  5
CBFD
  8
ALPHA
 10
147.241795
 20
71.085226
 30
0.0
 11
146.912506
 21
71.414515
 31
0.0
  0
LINE
  5
CBFE
  8
ALPHA
 10
147.241795
 20
70.085226
 30
0.0
 11
146.912506
 21
70.414515
 31
0.0
  0
ARC
  5
CBFF
  8
ALPHA
 10
153.718572
 20
69.520581
 30
0.0
 40
0.15
 50
315.0
 51
45.0
  0
LINE
  5
CC00
  8
ALPHA
 10
153.523597
 20
65.520581
 30
0.0
 11
153.743572
 21
65.520581
 31
0.0
  0
LINE
  5
CC01
  8
ALPHA
 10
153.523597
 20
66.520581
 30
0.0
 11
153.743572
 21
66.520581
 31
0.0
  0
LINE
  5
CC02
  8
ALPHA
 10
153.523597
 20
64.520581
 30
0.0
 11
153.743572
 21
64.520581
 31
0.0
  0
LINE
  5
CC03
  8
ALPHA
 10
153.824638
 20
64.414515
 30
0.0
 11
153.495348
 21
64.085226
 31
0.0
  0
LINE
  5
CC04
  8
ALPHA
 10
153.412506
 20
64.126647
 30
0.0
 11
153.699117
 21
64.413259
 31
0.0
  0
LINE
  5
CC05
  8
ALPHA
 10
153.824638
 20
65.414515
 30
0.0
 11
153.495348
 21
65.085226
 31
0.0
  0
LINE
  5
CC06
  8
ALPHA
 10
153.412506
 20
65.126647
 30
0.0
 11
153.699117
 21
65.413259
 31
0.0
  0
LINE
  5
CC07
  8
ALPHA
 10
153.824638
 20
66.414515
 30
0.0
 11
153.495348
 21
66.085226
 31
0.0
  0
LINE
  5
CC08
  8
ALPHA
 10
153.412506
 20
66.126647
 30
0.0
 11
153.699117
 21
66.413259
 31
0.0
  0
LINE
  5
CC09
  8
ALPHA
 10
153.824638
 20
67.414515
 30
0.0
 11
153.495348
 21
67.085226
 31
0.0
  0
LINE
  5
CC0A
  8
ALPHA
 10
153.824638
 20
68.414515
 30
0.0
 11
153.495348
 21
68.085226
 31
0.0
  0
LINE
  5
CC0B
  8
ALPHA
 10
153.824638
 20
69.414515
 30
0.0
 11
153.495348
 21
69.085226
 31
0.0
  0
LINE
  5
CC0C
  8
ALPHA
 10
153.674116
 20
68.296629
 30
0.0
 11
153.351321
 21
68.813209
 31
0.0
  0
LINE
  5
CC0D
  8
ALPHA
 10
153.495348
 20
68.955937
 30
0.0
 11
153.824638
 21
68.626647
 31
0.0
  0
LINE
  5
CC0E
  8
ALPHA
 10
153.495348
 20
67.955937
 30
0.0
 11
153.824638
 21
67.626647
 31
0.0
  0
LINE
  5
CC0F
  8
ALPHA
 10
153.495348
 20
66.955937
 30
0.0
 11
153.824638
 21
66.626647
 31
0.0
  0
LINE
  5
CC10
  8
ALPHA
 10
153.699117
 20
66.627904
 30
0.0
 11
153.412506
 21
66.914515
 31
0.0
  0
LINE
  5
CC11
  8
ALPHA
 10
153.495348
 20
65.955937
 30
0.0
 11
153.824638
 21
65.626647
 31
0.0
  0
LINE
  5
CC12
  8
ALPHA
 10
153.699117
 20
65.627904
 30
0.0
 11
153.412506
 21
65.914515
 31
0.0
  0
LINE
  5
CC13
  8
ALPHA
 10
153.495348
 20
64.955937
 30
0.0
 11
153.824638
 21
64.626647
 31
0.0
  0
LINE
  5
CC14
  8
ALPHA
 10
153.699117
 20
64.627904
 30
0.0
 11
153.412506
 21
64.914515
 31
0.0
  0
ARC
  5
CC15
  8
ALPHA
 10
153.559993
 20
69.020581
 30
0.0
 40
0.091421
 50
135.0
 51
225.0
  0
ARC
  5
CC16
  8
ALPHA
 10
153.559993
 20
68.020581
 30
0.0
 40
0.091421
 50
135.0
 51
225.0
  0
ARC
  5
CC17
  8
ALPHA
 10
153.559993
 20
67.020581
 30
0.0
 40
0.091421
 50
135.0
 51
225.0
  0
ARC
  5
CC18
  8
ALPHA
 10
153.559993
 20
66.020581
 30
0.0
 40
0.091421
 50
135.0
 51
225.0
  0
ARC
  5
CC19
  8
ALPHA
 10
153.559993
 20
65.020581
 30
0.0
 40
0.091421
 50
135.0
 51
225.0
  0
ARC
  5
CC1A
  8
ALPHA
 10
153.559993
 20
64.020581
 30
0.0
 40
0.091421
 50
135.0
 51
225.0
  0
ARC
  5
CC1B
  8
ALPHA
 10
153.518572
 20
66.020581
 30
0.0
 40
0.35
 50
135.0
 51
225.0
  0
ARC
  5
CC1C
  8
ALPHA
 10
153.518572
 20
64.020581
 30
0.0
 40
0.35
 50
135.0
 51
225.0
  0
ARC
  5
CC1D
  8
ALPHA
 10
153.518572
 20
67.020581
 30
0.0
 40
0.35
 50
180.0
 51
225.0
  0
ARC
  5
CC1E
  8
ALPHA
 10
153.518572
 20
65.020581
 30
0.0
 40
0.35
 50
135.0
 51
225.0
  0
ARC
  5
CC1F
  8
ALPHA
 10
153.518572
 20
64.020581
 30
0.0
 40
0.15
 50
135.0
 51
225.0
  0
ARC
  5
CC20
  8
ALPHA
 10
153.518572
 20
65.020581
 30
0.0
 40
0.15
 50
135.0
 51
225.0
  0
ARC
  5
CC21
  8
ALPHA
 10
153.518572
 20
66.020581
 30
0.0
 40
0.15
 50
135.0
 51
225.0
  0
ARC
  5
CC22
  8
ALPHA
 10
153.518572
 20
67.020581
 30
0.0
 40
0.15
 50
180.0
 51
225.0
  0
ARC
  5
CC23
  8
ALPHA
 10
150.368572
 20
72.020581
 30
0.0
 40
4.3
 50
314.200498
 51
315.799502
  0
ARC
  5
CC24
  8
ALPHA
 10
153.436126
 20
68.866201
 30
0.0
 40
0.1
 50
134.200498
 51
212.0
  0
ARC
  5
CC25
  8
ALPHA
 10
150.368572
 20
72.020581
 30
0.0
 40
5.15
 50
305.689551
 51
307.601008
  0
ARC
  5
CC26
  8
ALPHA
 10
153.256367
 20
68.00024
 30
0.0
 40
0.2
 50
223.0
 51
305.689918
  0
ARC
  5
CC27
  8
ALPHA
 10
152.621528
 20
68.241138
 30
0.0
 40
0.1
 50
43.0
 51
120.799502
  0
ARC
  5
CC28
  8
ALPHA
 10
150.368572
 20
72.020581
 30
0.0
 40
4.3
 50
299.200498
 51
300.799502
  0
ARC
  5
CC29
  8
ALPHA
 10
152.515188
 20
68.179743
 30
0.0
 40
0.1
 50
119.200498
 51
197.0
  0
ARC
  5
CC2A
  8
ALPHA
 10
152.406392
 20
67.509507
 30
0.0
 40
0.2
 50
294.303478
 51
17.0
  0
ARC
  5
CC2B
  8
ALPHA
 10
150.368572
 20
72.020581
 30
0.0
 40
5.15
 50
290.689802
 51
294.310193
  0
ARC
  5
CC2C
  8
ALPHA
 10
152.117427
 20
67.389814
 30
0.0
 40
0.2
 50
208.0
 51
290.696379
  0
ARC
  5
CC2D
  8
ALPHA
 10
151.566568
 20
67.786812
 30
0.0
 40
0.1
 50
28.0
 51
105.799502
  0
ARC
  5
CC2E
  8
ALPHA
 10
150.368572
 20
72.020581
 30
0.0
 40
4.3
 50
284.200498
 51
285.799502
  0
ARC
  5
CC2F
  8
ALPHA
 10
151.447961
 20
67.755031
 30
0.0
 40
0.1
 50
104.200498
 51
182.0
  0
ARC
  5
CC30
  8
ALPHA
 10
151.169403
 20
67.135792
 30
0.0
 40
0.2
 50
279.312192
 51
2.0
  0
ARC
  5
CC31
  8
ALPHA
 10
150.368572
 20
72.020581
 30
0.0
 40
5.15
 50
275.68929
 51
279.310531
  0
ARC
  5
CC32
  8
ALPHA
 10
150.859305
 20
67.094967
 30
0.0
 40
0.2
 50
193.0
 51
275.683193
  0
ARC
  5
CC33
  8
ALPHA
 10
150.429967
 20
67.62101
 30
0.0
 40
0.1
 50
13.0
 51
90.799502
  0
ARC
  5
CC34
  8
ALPHA
 10
150.368572
 20
72.020581
 30
0.0
 40
4.3
 50
269.200498
 51
270.799502
  0
ARC
  5
CC35
  8
ALPHA
 10
150.307176
 20
67.62101
 30
0.0
 40
0.1
 50
89.200498
 51
167.0
  0
ARC
  5
CC36
  8
ALPHA
 10
149.877839
 20
67.094967
 30
0.0
 40
0.2
 50
264.316807
 51
347.0
  0
ARC
  5
CC37
  8
ALPHA
 10
150.368572
 20
72.020581
 30
0.0
 40
5.15
 50
260.689469
 51
264.31071
  0
LINE
  5
CC38
  8
ALPHA
 10
153.271084
 20
63.773094
 30
0.0
 11
153.412506
 21
63.914515
 31
0.0
  0
LINE
  5
CC39
  8
ALPHA
 10
153.271084
 20
64.268069
 30
0.0
 11
153.523597
 21
64.520581
 31
0.0
  0
LINE
  5
CC3A
  8
ALPHA
 10
153.271084
 20
64.773094
 30
0.0
 11
153.412506
 21
64.914515
 31
0.0
  0
LINE
  5
CC3B
  8
ALPHA
 10
153.271084
 20
65.268069
 30
0.0
 11
153.523597
 21
65.520581
 31
0.0
  0
LINE
  5
CC3C
  8
ALPHA
 10
153.271084
 20
65.773094
 30
0.0
 11
153.412506
 21
65.914515
 31
0.0
  0
LINE
  5
CC3D
  8
ALPHA
 10
153.271084
 20
66.268069
 30
0.0
 11
153.523597
 21
66.520581
 31
0.0
  0
LINE
  5
CC3E
  8
ALPHA
 10
153.271084
 20
66.773094
 30
0.0
 11
153.412506
 21
66.914515
 31
0.0
  0
LINE
  5
CC3F
  8
ALPHA
 10
150.072713
 20
67.049976
 30
0.0
 11
150.209739
 21
67.643505
 31
0.0
  0
LINE
  5
CC40
  8
ALPHA
 10
151.369281
 20
67.142772
 30
0.0
 11
151.348022
 21
67.751541
 31
0.0
  0
LINE
  5
CC41
  8
ALPHA
 10
150.527404
 20
67.643505
 30
0.0
 11
150.664431
 21
67.049976
 31
0.0
  0
LINE
  5
CC42
  8
ALPHA
 10
152.597653
 20
67.567982
 30
0.0
 11
152.419557
 21
68.150506
 31
0.0
  0
LINE
  5
CC43
  8
ALPHA
 10
151.654863
 20
67.833759
 30
0.0
 11
151.940837
 21
67.29592
 31
0.0
  0
LINE
  5
CC44
  8
ALPHA
 10
152.694663
 20
68.309338
 30
0.0
 11
153.110096
 21
67.863841
 31
0.0
  0
LINE
  5
CC45
  8
ALPHA
 10
153.523597
 20
66.520581
 30
0.0
 11
153.271084
 21
66.773094
 31
0.0
  0
LINE
  5
CC46
  8
ALPHA
 10
153.271084
 20
66.268069
 30
0.0
 11
153.412506
 21
66.126647
 31
0.0
  0
LINE
  5
CC47
  8
ALPHA
 10
153.523597
 20
65.520581
 30
0.0
 11
153.271084
 21
65.773094
 31
0.0
  0
LINE
  5
CC48
  8
ALPHA
 10
153.271084
 20
65.268069
 30
0.0
 11
153.412506
 21
65.126647
 31
0.0
  0
LINE
  5
CC49
  8
ALPHA
 10
153.523597
 20
64.520581
 30
0.0
 11
153.271084
 21
64.773094
 31
0.0
  0
LINE
  5
CC4A
  8
ALPHA
 10
153.271084
 20
64.268069
 30
0.0
 11
153.412506
 21
64.126647
 31
0.0
  0
LINE
  5
CC4B
  8
ALPHA
 10
152.65986
 20
67.020581
 30
0.0
 11
153.368572
 21
67.020581
 31
0.0
  0
LINE
  5
CC4C
  8
ALPHA
 10
150.718572
 20
65.520581
 30
0.0
 11
150.018572
 21
65.520581
 31
0.0
  0
ARC
  5
CC4D
  8
ALPHA
 10
153.718572
 20
68.520581
 30
0.0
 40
0.15
 50
315.0
 51
45.0
  0
ARC
  5
CC4E
  8
ALPHA
 10
153.718572
 20
67.520581
 30
0.0
 40
0.15
 50
315.0
 51
45.0
  0
ARC
  5
CC4F
  8
ALPHA
 10
153.718572
 20
66.520581
 30
0.0
 40
0.15
 50
315.0
 51
45.0
  0
ARC
  5
CC50
  8
ALPHA
 10
153.718572
 20
65.520581
 30
0.0
 40
0.15
 50
315.0
 51
45.0
  0
ARC
  5
CC51
  8
ALPHA
 10
153.718572
 20
64.520581
 30
0.0
 40
0.15
 50
315.0
 51
45.0
  0
ARC
  5
CC52
  8
ALPHA
 10
153.591795
 20
66.520581
 30
0.0
 40
0.151777
 50
315.0
 51
45.0
  0
ARC
  5
CC53
  8
ALPHA
 10
153.591795
 20
65.520581
 30
0.0
 40
0.151777
 50
315.0
 51
45.0
  0
ARC
  5
CC54
  8
ALPHA
 10
153.591795
 20
64.520581
 30
0.0
 40
0.151777
 50
315.0
 51
45.0
  0
ARC
  5
CC55
  8
ALPHA
 10
153.504507
 20
68.190645
 30
0.0
 40
0.2
 50
24.176246
 51
32.0
  0
LINE
  5
CC56
  8
ALPHA
 10
153.824638
 20
70.414515
 30
0.0
 11
153.495348
 21
70.085226
 31
0.0
  0
LINE
  5
CC57
  8
ALPHA
 10
153.824638
 20
71.414515
 30
0.0
 11
153.495348
 21
71.085226
 31
0.0
  0
LINE
  5
CC58
  8
ALPHA
 10
153.495348
 20
74.955937
 30
0.0
 11
153.824638
 21
74.626647
 31
0.0
  0
LINE
  5
CC59
  8
ALPHA
 10
153.495348
 20
73.955937
 30
0.0
 11
153.824638
 21
73.626647
 31
0.0
  0
LINE
  5
CC5A
  8
ALPHA
 10
153.824638
 20
72.414515
 30
0.0
 11
153.495348
 21
72.085226
 31
0.0
  0
LINE
  5
CC5B
  8
ALPHA
 10
153.824638
 20
73.414515
 30
0.0
 11
153.495348
 21
73.085226
 31
0.0
  0
LINE
  5
CC5C
  8
ALPHA
 10
153.824638
 20
74.414515
 30
0.0
 11
153.495348
 21
74.085226
 31
0.0
  0
LINE
  5
CC5D
  8
ALPHA
 10
153.495348
 20
72.955937
 30
0.0
 11
153.824638
 21
72.626647
 31
0.0
  0
LINE
  5
CC5E
  8
ALPHA
 10
153.495348
 20
71.955937
 30
0.0
 11
153.824638
 21
71.626647
 31
0.0
  0
LINE
  5
CC5F
  8
ALPHA
 10
153.495348
 20
70.955937
 30
0.0
 11
153.824638
 21
70.626647
 31
0.0
  0
LINE
  5
CC60
  8
ALPHA
 10
153.495348
 20
69.955937
 30
0.0
 11
153.824638
 21
69.626647
 31
0.0
  0
ARC
  5
CC61
  8
ALPHA
 10
153.559993
 20
70.020581
 30
0.0
 40
0.091421
 50
135.0
 51
225.0
  0
ARC
  5
CC62
  8
ALPHA
 10
153.559993
 20
71.020581
 30
0.0
 40
0.091421
 50
135.0
 51
225.0
  0
ARC
  5
CC63
  8
ALPHA
 10
153.559993
 20
72.020581
 30
0.0
 40
0.091421
 50
135.0
 51
225.0
  0
ARC
  5
CC64
  8
ALPHA
 10
153.559993
 20
73.020581
 30
0.0
 40
0.091421
 50
135.0
 51
225.0
  0
ARC
  5
CC65
  8
ALPHA
 10
153.559993
 20
74.020581
 30
0.0
 40
0.091421
 50
135.0
 51
225.0
  0
ARC
  5
CC66
  8
ALPHA
 10
153.559993
 20
75.020581
 30
0.0
 40
0.091421
 50
135.0
 51
225.0
  0
ARC
  5
CC67
  8
ALPHA
 10
153.522952
 20
75.088135
 30
0.0
 40
0.1
 50
224.200498
 51
238.561486
  0
ARC
  5
CC68
  8
ALPHA
 10
153.436126
 20
75.174961
 30
0.0
 40
0.1
 50
148.0
 51
225.799502
  0
ARC
  5
CC69
  8
ALPHA
 10
150.368572
 20
72.020581
 30
0.0
 40
4.3
 50
44.200498
 51
45.799502
  0
ARC
  5
CC6A
  8
ALPHA
 10
153.718572
 20
74.520581
 30
0.0
 40
0.15
 50
315.0
 51
45.0
  0
ARC
  5
CC6B
  8
ALPHA
 10
153.718572
 20
73.520581
 30
0.0
 40
0.15
 50
315.0
 51
45.0
  0
ARC
  5
CC6C
  8
ALPHA
 10
153.718572
 20
72.520581
 30
0.0
 40
0.15
 50
315.0
 51
45.0
  0
ARC
  5
CC6D
  8
ALPHA
 10
153.718572
 20
71.520581
 30
0.0
 40
0.15
 50
315.0
 51
45.0
  0
ARC
  5
CC6E
  8
ALPHA
 10
153.718572
 20
70.520581
 30
0.0
 40
0.15
 50
315.0
 51
45.0
  0
ARC
  5
CC6F
  8
ALPHA
 10
150.368572
 20
80.120581
 30
0.0
 40
3.2
 50
20.364135
 51
159.635865
  0
ARC
  5
CC70
  8
ALPHA
 10
150.368572
 20
72.020581
 30
0.0
 40
5.5
 50
65.380023
 51
114.619977
  0
ARC
  5
CC71
  8
ALPHA
 10
149.567741
 20
76.905371
 30
0.0
 40
0.2
 50
99.312192
 51
182.0
  0
LINE
  5
CC72
  8
ALPHA
 10
147.241795
 20
81.085226
 30
0.0
 11
146.912506
 21
81.414515
 31
0.0
  0
LINE
  5
CC73
  8
ALPHA
 10
147.568572
 20
81.020581
 30
0.0
 11
147.568572
 21
81.669775
 31
0.0
  0
LINE
  5
CC74
  8
ALPHA
 10
147.368572
 20
81.020581
 30
0.0
 11
147.368572
 21
81.234134
 31
0.0
  0
LINE
  5
CC75
  8
ALPHA
 10
147.213547
 20
78.520581
 30
0.0
 11
146.993572
 21
78.520581
 31
0.0
  0
LINE
  5
CC76
  8
ALPHA
 10
147.213547
 20
77.520581
 30
0.0
 11
146.993572
 21
77.520581
 31
0.0
  0
LINE
  5
CC77
  8
ALPHA
 10
146.993572
 20
80.520581
 30
0.0
 11
147.213547
 21
80.520581
 31
0.0
  0
LINE
  5
CC78
  8
ALPHA
 10
147.213547
 20
79.520581
 30
0.0
 11
146.993572
 21
79.520581
 31
0.0
  0
ARC
  5
CC79
  8
ALPHA
 10
147.17715
 20
81.020581
 30
0.0
 40
0.091421
 50
315.0
 51
45.0
  0
ARC
  5
CC7A
  8
ALPHA
 10
147.17715
 20
80.020581
 30
0.0
 40
0.091421
 50
315.0
 51
45.0
  0
ARC
  5
CC7B
  8
ALPHA
 10
147.17715
 20
79.020581
 30
0.0
 40
0.091421
 50
315.0
 51
45.0
  0
ARC
  5
CC7C
  8
ALPHA
 10
147.17715
 20
78.020581
 30
0.0
 40
0.091421
 50
315.0
 51
45.0
  0
ARC
  5
CC7D
  8
ALPHA
 10
147.17715
 20
77.020581
 30
0.0
 40
0.091421
 50
315.0
 51
45.0
  0
ARC
  5
CC7E
  8
ALPHA
 10
147.17715
 20
76.020581
 30
0.0
 40
0.091421
 50
315.0
 51
45.0
  0
ARC
  5
CC7F
  8
ALPHA
 10
147.018572
 20
80.520581
 30
0.0
 40
0.15
 50
135.0
 51
225.0
  0
ARC
  5
CC80
  8
ALPHA
 10
147.018572
 20
79.520581
 30
0.0
 40
0.15
 50
135.0
 51
225.0
  0
ARC
  5
CC81
  8
ALPHA
 10
147.018572
 20
78.520581
 30
0.0
 40
0.15
 50
135.0
 51
225.0
  0
ARC
  5
CC82
  8
ALPHA
 10
147.018572
 20
77.520581
 30
0.0
 40
0.15
 50
135.0
 51
225.0
  0
ARC
  5
CC83
  8
ALPHA
 10
147.018572
 20
76.520581
 30
0.0
 40
0.15
 50
135.0
 51
225.0
  0
ARC
  5
CC84
  8
ALPHA
 10
147.018572
 20
75.520581
 30
0.0
 40
0.15
 50
135.0
 51
225.0
  0
ARC
  5
CC85
  8
ALPHA
 10
147.218572
 20
78.020581
 30
0.0
 40
0.35
 50
315.0
 51
45.0
  0
ARC
  5
CC86
  8
ALPHA
 10
147.218572
 20
77.020581
 30
0.0
 40
0.35
 50
0.0
 51
45.0
  0
ARC
  5
CC87
  8
ALPHA
 10
147.218572
 20
81.020581
 30
0.0
 40
0.349999
 50
315.0
 51
0.0
  0
ARC
  5
CC88
  8
ALPHA
 10
147.218572
 20
80.020581
 30
0.0
 40
0.35
 50
315.0
 51
45.0
  0
ARC
  5
CC89
  8
ALPHA
 10
147.218572
 20
79.020581
 30
0.0
 40
0.35
 50
315.0
 51
45.0
  0
ARC
  5
CC8A
  8
ALPHA
 10
147.145348
 20
80.520581
 30
0.0
 40
0.151777
 50
135.0
 51
225.0
  0
ARC
  5
CC8B
  8
ALPHA
 10
147.145348
 20
79.520581
 30
0.0
 40
0.151777
 50
135.0
 51
225.0
  0
ARC
  5
CC8C
  8
ALPHA
 10
147.145348
 20
78.520581
 30
0.0
 40
0.151777
 50
135.0
 51
225.0
  0
ARC
  5
CC8D
  8
ALPHA
 10
147.145348
 20
77.520581
 30
0.0
 40
0.151777
 50
135.0
 51
225.0
  0
ARC
  5
CC8E
  8
ALPHA
 10
147.218572
 20
80.020581
 30
0.0
 40
0.15
 50
315.0
 51
45.0
  0
ARC
  5
CC8F
  8
ALPHA
 10
147.218572
 20
79.020581
 30
0.0
 40
0.15
 50
315.0
 51
45.0
  0
ARC
  5
CC90
  8
ALPHA
 10
147.218572
 20
78.020581
 30
0.0
 40
0.15
 50
315.0
 51
45.0
  0
ARC
  5
CC91
  8
ALPHA
 10
147.218572
 20
77.020581
 30
0.0
 40
0.15
 50
0.0
 51
45.0
  0
ARC
  5
CC92
  8
ALPHA
 10
147.218572
 20
81.020581
 30
0.0
 40
0.15
 50
315.0
 51
0.0
  0
ARC
  5
CC93
  8
ALPHA
 10
147.232637
 20
75.850518
 30
0.0
 40
0.2
 50
204.176246
 51
212.0
  0
ARC
  5
CC94
  8
ALPHA
 10
150.368572
 20
72.020581
 30
0.0
 40
5.15
 50
125.689551
 51
127.601008
  0
ARC
  5
CC95
  8
ALPHA
 10
147.480777
 20
76.040922
 30
0.0
 40
0.2
 50
43.0
 51
125.689918
  0
ARC
  5
CC96
  8
ALPHA
 10
148.115616
 20
75.800025
 30
0.0
 40
0.1
 50
223.0
 51
300.799502
  0
ARC
  5
CC97
  8
ALPHA
 10
150.368572
 20
72.020581
 30
0.0
 40
4.3
 50
119.200498
 51
120.799502
  0
ARC
  5
CC98
  8
ALPHA
 10
148.221956
 20
75.86142
 30
0.0
 40
0.1
 50
299.200498
 51
17.0
  0
ARC
  5
CC99
  8
ALPHA
 10
148.330752
 20
76.531656
 30
0.0
 40
0.2
 50
114.303478
 51
197.0
  0
ARC
  5
CC9A
  8
ALPHA
 10
150.368572
 20
72.020581
 30
0.0
 40
5.15
 50
110.689802
 51
114.310193
  0
ARC
  5
CC9B
  8
ALPHA
 10
148.619717
 20
76.651349
 30
0.0
 40
0.2
 50
28.0
 51
110.696379
  0
ARC
  5
CC9C
  8
ALPHA
 10
149.170575
 20
76.254351
 30
0.0
 40
0.1
 50
208.0
 51
285.799502
  0
ARC
  5
CC9D
  8
ALPHA
 10
150.368572
 20
72.020581
 30
0.0
 40
4.3
 50
104.200498
 51
105.799502
  0
ARC
  5
CC9E
  8
ALPHA
 10
149.289182
 20
76.286132
 30
0.0
 40
0.1
 50
284.200498
 51
2.0
  0
LINE
  5
CC9F
  8
ALPHA
 10
147.368572
 20
81.020581
 30
0.0
 11
147.568572
 21
81.020581
 31
0.0
  0
LINE
  5
CCA0
  8
ALPHA
 10
147.324638
 20
80.914515
 30
0.0
 11
147.466059
 21
80.773094
 31
0.0
  0
LINE
  5
CCA1
  8
ALPHA
 10
147.213547
 20
80.520581
 30
0.0
 11
147.466059
 21
80.268069
 31
0.0
  0
LINE
  5
CCA2
  8
ALPHA
 10
147.038026
 20
80.413259
 30
0.0
 11
147.324638
 21
80.126647
 31
0.0
  0
LINE
  5
CCA3
  8
ALPHA
 10
147.241795
 20
80.085226
 30
0.0
 11
146.912506
 21
80.414515
 31
0.0
  0
LINE
  5
CCA4
  8
ALPHA
 10
147.466059
 20
79.773094
 30
0.0
 11
147.324638
 21
79.914515
 31
0.0
  0
LINE
  5
CCA5
  8
ALPHA
 10
147.213547
 20
79.520581
 30
0.0
 11
147.466059
 21
79.268069
 31
0.0
  0
LINE
  5
CCA6
  8
ALPHA
 10
147.368572
 20
77.020581
 30
0.0
 11
148.077284
 21
77.020581
 31
0.0
  0
LINE
  5
CCA7
  8
ALPHA
 10
148.139491
 20
76.473181
 30
0.0
 11
148.317586
 21
75.890657
 31
0.0
  0
LINE
  5
CCA8
  8
ALPHA
 10
149.082281
 20
76.207404
 30
0.0
 11
148.796306
 21
76.745243
 31
0.0
  0
LINE
  5
CCA9
  8
ALPHA
 10
148.042481
 20
75.731825
 30
0.0
 11
147.627048
 21
76.177322
 31
0.0
  0
LINE
  5
CCAA
  8
ALPHA
 10
147.038026
 20
79.413259
 30
0.0
 11
147.324638
 21
79.126647
 31
0.0
  0
LINE
  5
CCAB
  8
ALPHA
 10
147.241795
 20
79.085226
 30
0.0
 11
146.912506
 21
79.414515
 31
0.0
  0
LINE
  5
CCAC
  8
ALPHA
 10
147.466059
 20
78.773094
 30
0.0
 11
147.324638
 21
78.914515
 31
0.0
  0
LINE
  5
CCAD
  8
ALPHA
 10
147.213547
 20
78.520581
 30
0.0
 11
147.466059
 21
78.268069
 31
0.0
  0
LINE
  5
CCAE
  8
ALPHA
 10
147.038026
 20
78.413259
 30
0.0
 11
147.324638
 21
78.126647
 31
0.0
  0
LINE
  5
CCAF
  8
ALPHA
 10
147.241795
 20
78.085226
 30
0.0
 11
146.912506
 21
78.414515
 31
0.0
  0
LINE
  5
CCB0
  8
ALPHA
 10
147.466059
 20
77.773094
 30
0.0
 11
147.324638
 21
77.914515
 31
0.0
  0
LINE
  5
CCB1
  8
ALPHA
 10
147.213547
 20
77.520581
 30
0.0
 11
147.466059
 21
77.268069
 31
0.0
  0
LINE
  5
CCB2
  8
ALPHA
 10
147.038026
 20
77.413259
 30
0.0
 11
147.324638
 21
77.126647
 31
0.0
  0
LINE
  5
CCB3
  8
ALPHA
 10
147.241795
 20
77.085226
 30
0.0
 11
146.912506
 21
77.414515
 31
0.0
  0
LINE
  5
CCB4
  8
ALPHA
 10
147.241795
 20
76.085226
 30
0.0
 11
146.912506
 21
76.414515
 31
0.0
  0
LINE
  5
CCB5
  8
ALPHA
 10
146.912506
 20
75.626647
 30
0.0
 11
147.241795
 21
75.955937
 31
0.0
  0
LINE
  5
CCB6
  8
ALPHA
 10
146.912506
 20
76.626647
 30
0.0
 11
147.241795
 21
76.955937
 31
0.0
  0
LINE
  5
CCB7
  8
ALPHA
 10
147.466059
 20
77.268069
 30
0.0
 11
147.324638
 21
77.126647
 31
0.0
  0
LINE
  5
CCB8
  8
ALPHA
 10
149.367863
 20
76.898391
 30
0.0
 11
149.389121
 21
76.289622
 31
0.0
  0
LINE
  5
CCB9
  8
ALPHA
 10
147.466059
 20
77.773094
 30
0.0
 11
147.213547
 21
77.520581
 31
0.0
  0
LINE
  5
CCBA
  8
ALPHA
 10
147.324638
 20
77.914515
 30
0.0
 11
147.038026
 21
77.627904
 31
0.0
  0
LINE
  5
CCBB
  8
ALPHA
 10
146.912506
 20
77.626647
 30
0.0
 11
147.241795
 21
77.955937
 31
0.0
  0
LINE
  5
CCBC
  8
ALPHA
 10
147.466059
 20
78.268069
 30
0.0
 11
147.324638
 21
78.126647
 31
0.0
  0
LINE
  5
CCBD
  8
ALPHA
 10
147.466059
 20
78.773094
 30
0.0
 11
147.213547
 21
78.520581
 31
0.0
  0
LINE
  5
CCBE
  8
ALPHA
 10
147.324638
 20
78.914515
 30
0.0
 11
147.038026
 21
78.627904
 31
0.0
  0
LINE
  5
CCBF
  8
ALPHA
 10
146.912506
 20
78.626647
 30
0.0
 11
147.241795
 21
78.955937
 31
0.0
  0
LINE
  5
CCC0
  8
ALPHA
 10
147.466059
 20
79.268069
 30
0.0
 11
147.324638
 21
79.126647
 31
0.0
  0
LINE
  5
CCC1
  8
ALPHA
 10
147.466059
 20
79.773094
 30
0.0
 11
147.213547
 21
79.520581
 31
0.0
  0
LINE
  5
CCC2
  8
ALPHA
 10
147.324638
 20
79.914515
 30
0.0
 11
147.038026
 21
79.627904
 31
0.0
  0
LINE
  5
CCC3
  8
ALPHA
 10
146.912506
 20
79.626647
 30
0.0
 11
147.241795
 21
79.955937
 31
0.0
  0
LINE
  5
CCC4
  8
ALPHA
 10
147.466059
 20
80.268069
 30
0.0
 11
147.324638
 21
80.126647
 31
0.0
  0
LINE
  5
CCC5
  8
ALPHA
 10
147.213547
 20
80.520581
 30
0.0
 11
147.466059
 21
80.773094
 31
0.0
  0
LINE
  5
CCC6
  8
ALPHA
 10
147.038026
 20
80.627904
 30
0.0
 11
147.324638
 21
80.914515
 31
0.0
  0
LINE
  5
CCC7
  8
ALPHA
 10
146.912506
 20
80.626647
 30
0.0
 11
147.241795
 21
80.955937
 31
0.0
  0
ARC
  5
CCC8
  8
ALPHA
 10
162.868572
 20
85.099399
 30
0.0
 40
20.0
 50
175.467149
 51
180.0
  0
ARC
  5
CCC9
  8
ALPHA
 10
147.17715
 20
85.020581
 30
0.0
 40
0.091421
 50
315.0
 51
45.0
  0
ARC
  5
CCCA
  8
ALPHA
 10
147.17715
 20
84.020581
 30
0.0
 40
0.091421
 50
315.0
 51
45.0
  0
ARC
  5
CCCB
  8
ALPHA
 10
147.17715
 20
83.020581
 30
0.0
 40
0.091421
 50
315.0
 51
45.0
  0
ARC
  5
CCCC
  8
ALPHA
 10
147.17715
 20
82.020581
 30
0.0
 40
0.091421
 50
315.0
 51
45.0
  0
ARC
  5
CCCD
  8
ALPHA
 10
147.018572
 20
85.520581
 30
0.0
 40
0.15
 50
135.0
 51
225.0
  0
ARC
  5
CCCE
  8
ALPHA
 10
147.018572
 20
84.520581
 30
0.0
 40
0.15
 50
135.0
 51
225.0
  0
ARC
  5
CCCF
  8
ALPHA
 10
147.018572
 20
83.520581
 30
0.0
 40
0.15
 50
135.0
 51
225.0
  0
ARC
  5
CCD0
  8
ALPHA
 10
147.018572
 20
82.520581
 30
0.0
 40
0.15
 50
135.0
 51
225.0
  0
ARC
  5
CCD1
  8
ALPHA
 10
147.018572
 20
81.520581
 30
0.0
 40
0.15
 50
135.0
 51
225.0
  0
ARC
  5
CCD2
  8
ALPHA
 10
150.368572
 20
72.020581
 30
0.0
 40
10.0
 50
106.448613
 51
110.143784
  0
LINE
  5
CCD3
  8
ALPHA
 10
147.241795
 20
85.085226
 30
0.0
 11
146.912506
 21
85.414515
 31
0.0
  0
LINE
  5
CCD4
  8
ALPHA
 10
147.241795
 20
84.085226
 30
0.0
 11
146.912506
 21
84.414515
 31
0.0
  0
LINE
  5
CCD5
  8
ALPHA
 10
147.241795
 20
83.085226
 30
0.0
 11
146.912506
 21
83.414515
 31
0.0
  0
LINE
  5
CCD6
  8
ALPHA
 10
147.241795
 20
82.085226
 30
0.0
 11
146.912506
 21
82.414515
 31
0.0
  0
LINE
  5
CCD7
  8
ALPHA
 10
146.912506
 20
81.626647
 30
0.0
 11
147.241795
 21
81.955937
 31
0.0
  0
LINE
  5
CCD8
  8
ALPHA
 10
146.912506
 20
82.626647
 30
0.0
 11
147.241795
 21
82.955937
 31
0.0
  0
LINE
  5
CCD9
  8
ALPHA
 10
146.912506
 20
83.626647
 30
0.0
 11
147.241795
 21
83.955937
 31
0.0
  0
LINE
  5
CCDA
  8
ALPHA
 10
146.912506
 20
84.626647
 30
0.0
 11
147.241795
 21
84.955937
 31
0.0
  0
LINE
  5
CCDB
  8
ALPHA
 10
146.912506
 20
85.626647
 30
0.0
 11
147.044203
 21
85.758345
 31
0.0
  0
LINE
  5
CCDC
  8
ALPHA
 10
150.718572
 20
80.720581
 30
0.0
 11
150.610429
 21
81.133867
 31
0.0
  0
LINE
  5
CCDD
  8
ALPHA
 10
153.368572
 20
81.020581
 30
0.0
 11
153.368572
 21
81.234134
 31
0.0
  0
LINE
  5
CCDE
  8
ALPHA
 10
153.168572
 20
81.020581
 30
0.0
 11
153.168572
 21
81.669775
 31
0.0
  0
LINE
  5
CCDF
  8
ALPHA
 10
153.824638
 20
81.414515
 30
0.0
 11
153.495348
 21
81.085226
 31
0.0
  0
LINE
  5
CCE0
  8
ALPHA
 10
150.126715
 20
81.133867
 30
0.0
 11
150.018572
 21
80.720581
 31
0.0
  0
LINE
  5
CCE1
  8
ALPHA
 10
153.523597
 20
80.520581
 30
0.0
 11
153.743572
 21
80.520581
 31
0.0
  0
LINE
  5
CCE2
  8
ALPHA
 10
153.743572
 20
77.520581
 30
0.0
 11
153.523597
 21
77.520581
 31
0.0
  0
LINE
  5
CCE3
  8
ALPHA
 10
153.523597
 20
78.520581
 30
0.0
 11
153.743572
 21
78.520581
 31
0.0
  0
LINE
  5
CCE4
  8
ALPHA
 10
153.523597
 20
79.520581
 30
0.0
 11
153.743572
 21
79.520581
 31
0.0
  0
LINE
  5
CCE5
  8
ALPHA
 10
153.495348
 20
80.955937
 30
0.0
 11
153.824638
 21
80.626647
 31
0.0
  0
LINE
  5
CCE6
  8
ALPHA
 10
153.699117
 20
80.627904
 30
0.0
 11
153.412506
 21
80.914515
 31
0.0
  0
LINE
  5
CCE7
  8
ALPHA
 10
153.495348
 20
79.955937
 30
0.0
 11
153.824638
 21
79.626647
 31
0.0
  0
LINE
  5
CCE8
  8
ALPHA
 10
153.699117
 20
79.627904
 30
0.0
 11
153.412506
 21
79.914515
 31
0.0
  0
LINE
  5
CCE9
  8
ALPHA
 10
153.495348
 20
78.955937
 30
0.0
 11
153.824638
 21
78.626647
 31
0.0
  0
LINE
  5
CCEA
  8
ALPHA
 10
153.699117
 20
78.627904
 30
0.0
 11
153.412506
 21
78.914515
 31
0.0
  0
LINE
  5
CCEB
  8
ALPHA
 10
153.495348
 20
77.955937
 30
0.0
 11
153.824638
 21
77.626647
 31
0.0
  0
LINE
  5
CCEC
  8
ALPHA
 10
153.699117
 20
77.627904
 30
0.0
 11
153.412506
 21
77.914515
 31
0.0
  0
LINE
  5
CCED
  8
ALPHA
 10
153.495348
 20
76.955937
 30
0.0
 11
153.824638
 21
76.626647
 31
0.0
  0
LINE
  5
CCEE
  8
ALPHA
 10
153.495348
 20
75.955937
 30
0.0
 11
153.824638
 21
75.626647
 31
0.0
  0
LINE
  5
CCEF
  8
ALPHA
 10
153.824638
 20
76.414515
 30
0.0
 11
153.495348
 21
76.085226
 31
0.0
  0
LINE
  5
CCF0
  8
ALPHA
 10
153.824638
 20
77.414515
 30
0.0
 11
153.495348
 21
77.085226
 31
0.0
  0
LINE
  5
CCF1
  8
ALPHA
 10
153.699117
 20
77.413259
 30
0.0
 11
153.412506
 21
77.126647
 31
0.0
  0
LINE
  5
CCF2
  8
ALPHA
 10
153.824638
 20
78.414515
 30
0.0
 11
153.495348
 21
78.085226
 31
0.0
  0
LINE
  5
CCF3
  8
ALPHA
 10
153.412506
 20
78.126647
 30
0.0
 11
153.699117
 21
78.413259
 31
0.0
  0
LINE
  5
CCF4
  8
ALPHA
 10
153.824638
 20
79.414515
 30
0.0
 11
153.495348
 21
79.085226
 31
0.0
  0
LINE
  5
CCF5
  8
ALPHA
 10
153.412506
 20
79.126647
 30
0.0
 11
153.699117
 21
79.413259
 31
0.0
  0
LINE
  5
CCF6
  8
ALPHA
 10
153.824638
 20
80.414515
 30
0.0
 11
153.495348
 21
80.085226
 31
0.0
  0
LINE
  5
CCF7
  8
ALPHA
 10
153.412506
 20
80.126647
 30
0.0
 11
153.699117
 21
80.413259
 31
0.0
  0
ARC
  5
CCF8
  8
ALPHA
 10
153.559993
 20
76.020581
 30
0.0
 40
0.091421
 50
135.0
 51
225.0
  0
ARC
  5
CCF9
  8
ALPHA
 10
153.559993
 20
77.020581
 30
0.0
 40
0.091421
 50
135.0
 51
225.0
  0
ARC
  5
CCFA
  8
ALPHA
 10
153.559993
 20
78.020581
 30
0.0
 40
0.091421
 50
135.0
 51
225.0
  0
ARC
  5
CCFB
  8
ALPHA
 10
153.559993
 20
79.020581
 30
0.0
 40
0.091421
 50
135.0
 51
225.0
  0
ARC
  5
CCFC
  8
ALPHA
 10
153.559993
 20
80.020581
 30
0.0
 40
0.091421
 50
135.0
 51
225.0
  0
ARC
  5
CCFD
  8
ALPHA
 10
153.559993
 20
81.020581
 30
0.0
 40
0.091421
 50
135.0
 51
225.0
  0
ARC
  5
CCFE
  8
ALPHA
 10
153.518572
 20
81.020581
 30
0.0
 40
0.35
 50
180.0
 51
225.0
  0
ARC
  5
CCFF
  8
ALPHA
 10
153.518572
 20
77.020581
 30
0.0
 40
0.35
 50
135.0
 51
180.0
  0
ARC
  5
CD00
  8
ALPHA
 10
153.518572
 20
78.020581
 30
0.0
 40
0.35
 50
135.0
 51
225.0
  0
ARC
  5
CD01
  8
ALPHA
 10
153.518572
 20
79.020581
 30
0.0
 40
0.35
 50
135.0
 51
225.0
  0
ARC
  5
CD02
  8
ALPHA
 10
153.518572
 20
80.020581
 30
0.0
 40
0.35
 50
135.0
 51
225.0
  0
ARC
  5
CD03
  8
ALPHA
 10
153.518572
 20
77.020581
 30
0.0
 40
0.15
 50
135.0
 51
180.0
  0
ARC
  5
CD04
  8
ALPHA
 10
153.518572
 20
78.020581
 30
0.0
 40
0.15
 50
135.0
 51
225.0
  0
ARC
  5
CD05
  8
ALPHA
 10
153.518572
 20
79.020581
 30
0.0
 40
0.15
 50
135.0
 51
225.0
  0
ARC
  5
CD06
  8
ALPHA
 10
153.518572
 20
80.020581
 30
0.0
 40
0.15
 50
135.0
 51
225.0
  0
ARC
  5
CD07
  8
ALPHA
 10
153.518572
 20
81.020581
 30
0.0
 40
0.15
 50
180.0
 51
225.0
  0
ARC
  5
CD08
  8
ALPHA
 10
150.368572
 20
72.020581
 30
0.0
 40
5.15
 50
95.68929
 51
99.310531
  0
ARC
  5
CD09
  8
ALPHA
 10
149.877839
 20
76.946196
 30
0.0
 40
0.2
 50
13.0
 51
95.683193
  0
ARC
  5
CD0A
  8
ALPHA
 10
150.307176
 20
76.420153
 30
0.0
 40
0.1
 50
193.0
 51
270.799502
  0
ARC
  5
CD0B
  8
ALPHA
 10
150.368572
 20
72.020581
 30
0.0
 40
4.3
 50
89.200498
 51
90.799502
  0
ARC
  5
CD0C
  8
ALPHA
 10
150.429967
 20
76.420153
 30
0.0
 40
0.1
 50
269.200498
 51
347.0
  0
ARC
  5
CD0D
  8
ALPHA
 10
150.859305
 20
76.946196
 30
0.0
 40
0.2
 50
84.316807
 51
167.0
  0
ARC
  5
CD0E
  8
ALPHA
 10
150.368572
 20
72.020581
 30
0.0
 40
5.15
 50
80.689469
 51
84.31071
  0
ARC
  5
CD0F
  8
ALPHA
 10
151.169403
 20
76.905371
 30
0.0
 40
0.2
 50
358.0
 51
80.687808
  0
ARC
  5
CD10
  8
ALPHA
 10
151.447961
 20
76.286132
 30
0.0
 40
0.1
 50
178.0
 51
255.799502
  0
ARC
  5
CD11
  8
ALPHA
 10
150.368572
 20
72.020581
 30
0.0
 40
4.3
 50
74.200498
 51
75.799502
  0
ARC
  5
CD12
  8
ALPHA
 10
151.566568
 20
76.254351
 30
0.0
 40
0.1
 50
254.200498
 51
332.0
  0
ARC
  5
CD13
  8
ALPHA
 10
152.117427
 20
76.651349
 30
0.0
 40
0.2
 50
69.303621
 51
152.0
  0
ARC
  5
CD14
  8
ALPHA
 10
150.368572
 20
72.020581
 30
0.0
 40
5.15
 50
65.689807
 51
69.310198
  0
ARC
  5
CD15
  8
ALPHA
 10
152.406392
 20
76.531656
 30
0.0
 40
0.2
 50
343.0
 51
65.696522
  0
ARC
  5
CD16
  8
ALPHA
 10
152.515188
 20
75.86142
 30
0.0
 40
0.1
 50
163.0
 51
240.799502
  0
ARC
  5
CD17
  8
ALPHA
 10
150.368572
 20
72.020581
 30
0.0
 40
4.3
 50
59.200498
 51
60.799502
  0
ARC
  5
CD18
  8
ALPHA
 10
152.621528
 20
75.800025
 30
0.0
 40
0.1
 50
239.200498
 51
317.0
  0
ARC
  5
CD19
  8
ALPHA
 10
153.256367
 20
76.040922
 30
0.0
 40
0.2
 50
54.310082
 51
137.0
  0
ARC
  5
CD1A
  8
ALPHA
 10
150.368572
 20
72.020581
 30
0.0
 40
5.15
 50
52.398992
 51
54.310449
  0
LINE
  5
CD1B
  8
ALPHA
 10
153.523597
 20
80.520581
 30
0.0
 11
153.271084
 21
80.773094
 31
0.0
  0
LINE
  5
CD1C
  8
ALPHA
 10
153.271084
 20
80.268069
 30
0.0
 11
153.412506
 21
80.126647
 31
0.0
  0
LINE
  5
CD1D
  8
ALPHA
 10
153.523597
 20
79.520581
 30
0.0
 11
153.271084
 21
79.773094
 31
0.0
  0
LINE
  5
CD1E
  8
ALPHA
 10
153.168572
 20
81.020581
 30
0.0
 11
153.368572
 21
81.020581
 31
0.0
  0
LINE
  5
CD1F
  8
ALPHA
 10
153.271084
 20
79.268069
 30
0.0
 11
153.412506
 21
79.126647
 31
0.0
  0
LINE
  5
CD20
  8
ALPHA
 10
153.523597
 20
78.520581
 30
0.0
 11
153.271084
 21
78.773094
 31
0.0
  0
LINE
  5
CD21
  8
ALPHA
 10
153.271084
 20
78.268069
 30
0.0
 11
153.412506
 21
78.126647
 31
0.0
  0
LINE
  5
CD22
  8
ALPHA
 10
153.523597
 20
77.520581
 30
0.0
 11
153.271084
 21
77.773094
 31
0.0
  0
LINE
  5
CD23
  8
ALPHA
 10
153.412506
 20
77.126647
 30
0.0
 11
153.271084
 21
77.268069
 31
0.0
  0
LINE
  5
CD24
  8
ALPHA
 10
150.018572
 20
78.520581
 30
0.0
 11
150.718572
 21
78.520581
 31
0.0
  0
LINE
  5
CD25
  8
ALPHA
 10
153.368572
 20
77.020581
 30
0.0
 11
152.65986
 21
77.020581
 31
0.0
  0
LINE
  5
CD26
  8
ALPHA
 10
153.523597
 20
77.520581
 30
0.0
 11
153.271084
 21
77.268069
 31
0.0
  0
LINE
  5
CD27
  8
ALPHA
 10
153.110096
 20
76.177322
 30
0.0
 11
152.694663
 21
75.731825
 31
0.0
  0
LINE
  5
CD28
  8
ALPHA
 10
151.940837
 20
76.745243
 30
0.0
 11
151.654863
 21
76.207404
 31
0.0
  0
LINE
  5
CD29
  8
ALPHA
 10
152.419557
 20
75.890657
 30
0.0
 11
152.597653
 21
76.473181
 31
0.0
  0
LINE
  5
CD2A
  8
ALPHA
 10
151.348022
 20
76.289622
 30
0.0
 11
151.369281
 21
76.898391
 31
0.0
  0
LINE
  5
CD2B
  8
ALPHA
 10
150.209739
 20
76.397658
 30
0.0
 11
150.072713
 21
76.991186
 31
0.0
  0
LINE
  5
CD2C
  8
ALPHA
 10
153.271084
 20
77.773094
 30
0.0
 11
153.412506
 21
77.914515
 31
0.0
  0
LINE
  5
CD2D
  8
ALPHA
 10
153.271084
 20
78.268069
 30
0.0
 11
153.523597
 21
78.520581
 31
0.0
  0
LINE
  5
CD2E
  8
ALPHA
 10
153.271084
 20
78.773094
 30
0.0
 11
153.412506
 21
78.914515
 31
0.0
  0
LINE
  5
CD2F
  8
ALPHA
 10
153.271084
 20
79.268069
 30
0.0
 11
153.523597
 21
79.520581
 31
0.0
  0
LINE
  5
CD30
  8
ALPHA
 10
153.271084
 20
79.773094
 30
0.0
 11
153.412506
 21
79.914515
 31
0.0
  0
LINE
  5
CD31
  8
ALPHA
 10
153.271084
 20
80.268069
 30
0.0
 11
153.523597
 21
80.520581
 31
0.0
  0
LINE
  5
CD32
  8
ALPHA
 10
153.271084
 20
80.773094
 30
0.0
 11
153.412506
 21
80.914515
 31
0.0
  0
LINE
  5
CD33
  8
ALPHA
 10
150.664431
 20
76.991186
 30
0.0
 11
150.527404
 21
76.397658
 31
0.0
  0
LINE
  5
CD34
  8
ALPHA
 10
150.718572
 20
78.520581
 30
0.0
 11
150.718572
 21
80.720581
 31
0.0
  0
LINE
  5
CD35
  8
ALPHA
 10
150.018572
 20
80.720581
 30
0.0
 11
150.018572
 21
78.520581
 31
0.0
  0
ARC
  5
CD36
  8
ALPHA
 10
153.718572
 20
80.520581
 30
0.0
 40
0.15
 50
315.0
 51
45.0
  0
ARC
  5
CD37
  8
ALPHA
 10
153.718572
 20
79.520581
 30
0.0
 40
0.15
 50
315.0
 51
45.0
  0
ARC
  5
CD38
  8
ALPHA
 10
153.718572
 20
78.520581
 30
0.0
 40
0.15
 50
315.0
 51
45.0
  0
ARC
  5
CD39
  8
ALPHA
 10
153.718572
 20
77.520581
 30
0.0
 40
0.15
 50
315.0
 51
45.0
  0
ARC
  5
CD3A
  8
ALPHA
 10
153.718572
 20
76.520581
 30
0.0
 40
0.15
 50
315.0
 51
45.0
  0
ARC
  5
CD3B
  8
ALPHA
 10
153.718572
 20
75.520581
 30
0.0
 40
0.15
 50
315.0
 51
45.0
  0
ARC
  5
CD3C
  8
ALPHA
 10
153.591795
 20
80.520581
 30
0.0
 40
0.151777
 50
315.0
 51
45.0
  0
ARC
  5
CD3D
  8
ALPHA
 10
153.591795
 20
79.520581
 30
0.0
 40
0.151777
 50
315.0
 51
45.0
  0
ARC
  5
CD3E
  8
ALPHA
 10
153.591795
 20
78.520581
 30
0.0
 40
0.151777
 50
315.0
 51
45.0
  0
ARC
  5
CD3F
  8
ALPHA
 10
153.591795
 20
77.520581
 30
0.0
 40
0.151777
 50
315.0
 51
45.0
  0
ARC
  5
CD40
  8
ALPHA
 10
150.368572
 20
72.020581
 30
0.0
 40
10.0
 50
69.856216
 51
73.551387
  0
LINE
  5
CD41
  8
ALPHA
 10
153.495348
 20
84.955937
 30
0.0
 11
153.824638
 21
84.626647
 31
0.0
  0
LINE
  5
CD42
  8
ALPHA
 10
153.495348
 20
83.955937
 30
0.0
 11
153.824638
 21
83.626647
 31
0.0
  0
LINE
  5
CD43
  8
ALPHA
 10
153.495348
 20
82.955937
 30
0.0
 11
153.824638
 21
82.626647
 31
0.0
  0
LINE
  5
CD44
  8
ALPHA
 10
153.495348
 20
81.955937
 30
0.0
 11
153.824638
 21
81.626647
 31
0.0
  0
LINE
  5
CD45
  8
ALPHA
 10
153.824638
 20
82.414515
 30
0.0
 11
153.495348
 21
82.085226
 31
0.0
  0
LINE
  5
CD46
  8
ALPHA
 10
153.824638
 20
83.414515
 30
0.0
 11
153.495348
 21
83.085226
 31
0.0
  0
LINE
  5
CD47
  8
ALPHA
 10
153.824638
 20
84.414515
 30
0.0
 11
153.495348
 21
84.085226
 31
0.0
  0
LINE
  5
CD48
  8
ALPHA
 10
153.824638
 20
85.414515
 30
0.0
 11
153.495348
 21
85.085226
 31
0.0
  0
ARC
  5
CD49
  8
ALPHA
 10
153.559993
 20
82.020581
 30
0.0
 40
0.091421
 50
135.0
 51
225.0
  0
ARC
  5
CD4A
  8
ALPHA
 10
153.559993
 20
83.020581
 30
0.0
 40
0.091421
 50
135.0
 51
225.0
  0
ARC
  5
CD4B
  8
ALPHA
 10
153.559993
 20
84.020581
 30
0.0
 40
0.091421
 50
135.0
 51
225.0
  0
ARC
  5
CD4C
  8
ALPHA
 10
153.559993
 20
85.020581
 30
0.0
 40
0.091421
 50
135.0
 51
225.0
  0
ARC
  5
CD4D
  8
ALPHA
 10
150.368572
 20
81.070581
 30
0.0
 40
0.25
 50
14.663584
 51
165.336416
  0
ARC
  5
CD4E
  8
ALPHA
 10
153.718572
 20
85.520581
 30
0.0
 40
0.15
 50
315.0
 51
45.0
  0
ARC
  5
CD4F
  8
ALPHA
 10
153.718572
 20
84.520581
 30
0.0
 40
0.15
 50
315.0
 51
45.0
  0
ARC
  5
CD50
  8
ALPHA
 10
153.718572
 20
83.520581
 30
0.0
 40
0.15
 50
315.0
 51
45.0
  0
ARC
  5
CD51
  8
ALPHA
 10
153.718572
 20
82.520581
 30
0.0
 40
0.15
 50
315.0
 51
45.0
  0
ARC
  5
CD52
  8
ALPHA
 10
153.718572
 20
81.520581
 30
0.0
 40
0.15
 50
315.0
 51
45.0
  0
LINE
  5
CD53
  8
ALPHA
 10
153.69294
 20
85.758345
 30
0.0
 11
153.824638
 21
85.626647
 31
0.0
  0
ARC
  5
CD54
  8
ALPHA
 10
150.368572
 20
110.520581
 30
0.0
 40
21.395108
 50
214.973616
 51
265.026384
  0
LINE
  5
CD55
  8
ALPHA
 10
132.837076
 20
98.256923
 30
0.0
 11
146.715555
 21
106.269666
 31
0.0
  0
LINE
  5
CD56
  8
ALPHA
 10
132.339775
 20
98.890052
 30
0.0
 11
146.381942
 21
106.9973
 31
0.0
  0
LINE
  5
CD57
  8
ALPHA
 10
146.189103
 20
107.241539
 30
0.0
 11
132.185807
 21
99.156732
 31
0.0
  0
LINE
  5
CD58
  8
ALPHA
 10
131.435807
 20
100.45577
 30
0.0
 11
145.368572
 21
108.499855
 31
0.0
  0
LINE
  5
CD59
  8
ALPHA
 10
145.324006
 20
108.829699
 30
0.0
 11
131.281839
 21
100.722451
 31
0.0
  0
LINE
  5
CD5A
  8
ALPHA
 10
144.860663
 20
109.482433
 30
0.0
 11
130.982184
 21
101.46969
 31
0.0
  0
LINE
  5
CD5B
  8
ALPHA
 10
132.055331
 20
98.436025
 30
0.0
 11
132.339775
 21
98.890052
 31
0.0
  0
ARC
  5
CD5C
  8
ALPHA
 10
132.685807
 20
98.290707
 30
0.0
 40
1.0
 50
120.0
 51
214.668775
  0
LINE
  5
CD5D
  8
ALPHA
 10
130.296762
 20
98.768818
 30
0.0
 11
130.03112
 21
97.777425
 31
0.0
  0
LINE
  5
CD5E
  8
ALPHA
 10
133.116282
 20
94.711771
 30
0.0
 11
132.673916
 21
94.306416
 31
0.0
  0
LINE
  5
CD5F
  8
ALPHA
 10
132.055331
 20
98.436025
 30
0.0
 11
132.116616
 21
97.897039
 31
0.0
  0
LINE
  5
CD60
  8
ALPHA
 10
132.837076
 20
98.256923
 30
0.0
 11
132.055331
 21
98.436025
 31
0.0
  0
ARC
  5
CD61
  8
ALPHA
 10
150.368572
 20
110.520581
 30
0.0
 40
24.0
 50
212.07067
 51
222.5
  0
LINE
  5
CD62
  8
ALPHA
 10
131.863353
 20
97.721875
 30
0.0
 11
132.116616
 21
97.897039
 31
0.0
  0
ARC
  5
CD63
  8
ALPHA
 10
150.368572
 20
110.520581
 30
0.0
 40
24.0
 50
197.5
 51
207.92933
  0
LINE
  5
CD64
  8
ALPHA
 10
127.479365
 20
103.303642
 30
0.0
 11
128.051595
 21
103.484066
 31
0.0
  0
LINE
  5
CD65
  8
ALPHA
 10
130.746418
 20
100.703128
 30
0.0
 11
131.281839
 21
100.722451
 31
0.0
  0
LINE
  5
CD66
  8
ALPHA
 10
130.746418
 20
100.703128
 30
0.0
 11
130.310286
 21
101.025696
 31
0.0
  0
LINE
  5
CD67
  8
ALPHA
 10
130.982184
 20
101.46969
 30
0.0
 11
130.746418
 21
100.703128
 31
0.0
  0
ARC
  5
CD68
  8
ALPHA
 10
130.103577
 20
98.820581
 30
0.0
 40
0.2
 50
345.0
 51
75.0
  0
ARC
  5
CD69
  8
ALPHA
 10
130.935807
 20
101.321796
 30
0.0
 40
1.0
 50
205.331225
 51
300.0
  0
LINE
  5
CD6A
  8
ALPHA
 10
129.163948
 20
99.279409
 30
0.0
 11
130.155341
 21
99.013767
 31
0.0
  0
LINE
  5
CD6B
  8
ALPHA
 10
131.435807
 20
100.45577
 30
0.0
 11
131.281839
 21
100.722451
 31
0.0
  0
LINE
  5
CD6C
  8
ALPHA
 10
132.185807
 20
99.156732
 30
0.0
 11
132.339775
 21
98.890052
 31
0.0
  0
LINE
  5
CD6D
  8
ALPHA
 10
130.031958
 20
100.893945
 30
0.0
 11
130.310286
 21
101.025696
 31
0.0
  0
LINE
  5
CD6E
  8
ALPHA
 10
152.223464
 20
89.206032
 30
0.0
 11
152.223464
 21
105.231518
 31
0.0
  0
LINE
  5
CD6F
  8
ALPHA
 10
151.426508
 20
89.091921
 30
0.0
 11
151.426508
 21
105.306418
 31
0.0
  0
LINE
  5
CD70
  8
ALPHA
 10
151.118572
 20
105.306418
 30
0.0
 11
151.118572
 21
89.091921
 31
0.0
  0
LINE
  5
CD71
  8
ALPHA
 10
149.618572
 20
89.091921
 30
0.0
 11
149.618572
 21
105.306418
 31
0.0
  0
LINE
  5
CD72
  8
ALPHA
 10
149.310636
 20
105.306418
 30
0.0
 11
149.310636
 21
89.091921
 31
0.0
  0
LINE
  5
CD73
  8
ALPHA
 10
148.51368
 20
105.231518
 30
0.0
 11
148.51368
 21
89.206032
 31
0.0
  0
ARC
  5
CD74
  8
ALPHA
 10
148.618572
 20
89.091921
 30
0.0
 40
1.0
 50
265.331225
 51
0.0
  0
LINE
  5
CD75
  8
ALPHA
 10
149.618572
 20
89.091921
 30
0.0
 11
149.310636
 21
89.091921
 31
0.0
  0
LINE
  5
CD76
  8
ALPHA
 10
145.174021
 20
87.089477
 30
0.0
 11
145.303885
 21
87.675255
 31
0.0
  0
LINE
  5
CD77
  8
ALPHA
 10
149.059659
 20
88.618571
 30
0.0
 11
149.310636
 21
89.091921
 31
0.0
  0
LINE
  5
CD78
  8
ALPHA
 10
149.059659
 20
88.618571
 30
0.0
 11
148.562241
 21
88.402153
 31
0.0
  0
LINE
  5
CD79
  8
ALPHA
 10
148.51368
 20
89.206032
 30
0.0
 11
149.059659
 21
88.618571
 31
0.0
  0
LINE
  5
CD7A
  8
ALPHA
 10
148.537176
 20
88.095239
 30
0.0
 11
148.562241
 21
88.402153
 31
0.0
  0
LINE
  5
CD7B
  8
ALPHA
 10
151.677484
 20
88.618571
 30
0.0
 11
151.426508
 21
89.091921
 31
0.0
  0
LINE
  5
CD7C
  8
ALPHA
 10
151.677484
 20
88.618571
 30
0.0
 11
152.174903
 21
88.402153
 31
0.0
  0
LINE
  5
CD7D
  8
ALPHA
 10
152.223464
 20
89.206032
 30
0.0
 11
151.677484
 21
88.618571
 31
0.0
  0
ARC
  5
CD7E
  8
ALPHA
 10
150.368572
 20
87.120581
 30
0.0
 40
0.2
 50
45.0
 51
135.0
  0
ARC
  5
CD7F
  8
ALPHA
 10
152.118572
 20
89.091921
 30
0.0
 40
1.0
 50
180.0
 51
274.668775
  0
LINE
  5
CD80
  8
ALPHA
 10
151.118572
 20
89.091921
 30
0.0
 11
151.426508
 21
89.091921
 31
0.0
  0
LINE
  5
CD81
  8
ALPHA
 10
152.199967
 20
88.095239
 30
0.0
 11
152.174903
 21
88.402153
 31
0.0
  0
LINE
  5
CD82
  8
ALPHA
 10
155.433259
 20
87.675255
 30
0.0
 11
155.563122
 21
87.089477
 31
0.0
  0
ARC
  5
CD83
  8
ALPHA
 10
150.368572
 20
110.520581
 30
0.0
 40
5.0
 50
255.002127
 51
284.997873
  0
LINE
  5
CD84
  8
ALPHA
 10
149.618572
 20
105.306418
 30
0.0
 11
149.310636
 21
105.306418
 31
0.0
  0
LINE
  5
CD85
  8
ALPHA
 10
145.368572
 20
107.682475
 30
0.0
 11
150.368572
 21
104.995581
 31
0.0
  0
LINE
  5
CD86
  8
ALPHA
 10
145.370774
 20
108.865939
 30
0.0
 11
145.324006
 21
108.829699
 31
0.0
  0
LINE
  5
CD87
  8
ALPHA
 10
144.860663
 20
109.482433
 30
0.0
 11
145.36857
 21
109.258339
 31
0.0
  0
LINE
  5
CD88
  8
ALPHA
 10
145.368572
 20
108.752509
 30
0.0
 11
145.324006
 21
108.829699
 31
0.0
  0
LINE
  5
CD89
  8
ALPHA
 10
146.550065
 20
107.050061
 30
0.0
 11
146.381942
 21
106.9973
 31
0.0
  0
LINE
  5
CD8A
  8
ALPHA
 10
149.228512
 20
105.575702
 30
0.0
 11
149.310636
 21
105.306418
 31
0.0
  0
LINE
  5
CD8B
  8
ALPHA
 10
149.195741
 20
105.629775
 30
0.0
 11
149.228512
 21
105.575702
 31
0.0
  0
LINE
  5
CD8C
  8
ALPHA
 10
148.51368
 20
105.231518
 30
0.0
 11
149.09656
 21
105.662332
 31
0.0
  0
LINE
  5
CD8D
  8
ALPHA
 10
146.715555
 20
106.269666
 30
0.0
 11
146.787908
 21
106.919597
 31
0.0
  0
ARC
  5
CD8E
  8
ALPHA
 10
150.368572
 20
110.520581
 30
0.0
 40
5.604892
 50
229.325936
 51
250.674064
  0
LINE
  5
CD8F
  8
ALPHA
 10
146.264243
 20
107.20116
 30
0.0
 11
146.381942
 21
106.9973
 31
0.0
  0
ARC
  5
CD90
  8
ALPHA
 10
150.368572
 20
110.520581
 30
0.0
 40
5.604892
 50
289.325936
 51
310.674064
  0
LINE
  5
CD91
  8
ALPHA
 10
150.368572
 20
104.995581
 30
0.0
 11
155.368572
 21
107.682475
 31
0.0
  0
LINE
  5
CD92
  8
ALPHA
 10
151.508631
 20
105.575702
 30
0.0
 11
151.426508
 21
105.306418
 31
0.0
  0
LINE
  5
CD93
  8
ALPHA
 10
151.541402
 20
105.629775
 30
0.0
 11
151.508631
 21
105.575702
 31
0.0
  0
LINE
  5
CD94
  8
ALPHA
 10
152.223464
 20
105.231518
 30
0.0
 11
151.640584
 21
105.662332
 31
0.0
  0
ARC
  5
CD95
  8
ALPHA
 10
148.618572
 20
105.306418
 30
0.0
 40
1.0
 50
0.0
 51
5.969073
  0
ARC
  5
CD96
  8
ALPHA
 10
152.118572
 20
105.306418
 30
0.0
 40
1.0
 50
174.030927
 51
180.0
  0
LINE
  5
CD97
  8
ALPHA
 10
151.118572
 20
105.306418
 30
0.0
 11
151.426508
 21
105.306418
 31
0.0
  0
LINE
  5
CD98
  8
ALPHA
 10
155.36637
 20
108.865939
 30
0.0
 11
155.413138
 21
108.829699
 31
0.0
  0
LINE
  5
CD99
  8
ALPHA
 10
155.876481
 20
109.482433
 30
0.0
 11
155.368574
 21
109.258339
 31
0.0
  0
LINE
  5
CD9A
  8
ALPHA
 10
154.187078
 20
107.050061
 30
0.0
 11
154.355202
 21
106.9973
 31
0.0
  0
LINE
  5
CD9B
  8
ALPHA
 10
154.021589
 20
106.269666
 30
0.0
 11
153.949235
 21
106.919597
 31
0.0
  0
LINE
  5
CD9C
  8
ALPHA
 10
155.368572
 20
108.752509
 30
0.0
 11
155.413138
 21
108.829699
 31
0.0
  0
LINE
  5
CD9D
  8
ALPHA
 10
154.4729
 20
107.20116
 30
0.0
 11
154.355202
 21
106.9973
 31
0.0
  0
ARC
  5
CD9E
  8
ALPHA
 10
137.868572
 20
85.099399
 30
0.0
 40
20.0
 50
0.0
 51
4.532851
  0
LINE
  5
CD9F
  8
ALPHA
 10
168.681813
 20
98.436025
 30
0.0
 11
168.397368
 21
98.890052
 31
0.0
  0
ARC
  5
CDA0
  8
ALPHA
 10
168.051336
 20
98.290707
 30
0.0
 40
1.0
 50
325.331225
 51
60.0
  0
LINE
  5
CDA1
  8
ALPHA
 10
170.706024
 20
97.777425
 30
0.0
 11
170.440381
 21
98.768818
 31
0.0
  0
ARC
  5
CDA2
  8
ALPHA
 10
150.368572
 20
110.520581
 30
0.0
 40
24.0
 50
317.5
 51
327.92933
  0
LINE
  5
CDA3
  8
ALPHA
 10
168.681813
 20
98.436025
 30
0.0
 11
168.620527
 21
97.897039
 31
0.0
  0
LINE
  5
CDA4
  8
ALPHA
 10
167.900067
 20
98.256923
 30
0.0
 11
168.681813
 21
98.436025
 31
0.0
  0
LINE
  5
CDA5
  8
ALPHA
 10
168.87379
 20
97.721875
 30
0.0
 11
168.620527
 21
97.897039
 31
0.0
  0
LINE
  5
CDA6
  8
ALPHA
 10
168.063228
 20
94.306416
 30
0.0
 11
167.620861
 21
94.711771
 31
0.0
  0
LINE
  5
CDA7
  8
ALPHA
 10
169.990726
 20
100.703128
 30
0.0
 11
169.455304
 21
100.722451
 31
0.0
  0
LINE
  5
CDA8
  8
ALPHA
 10
169.754959
 20
101.46969
 30
0.0
 11
169.990726
 21
100.703128
 31
0.0
  0
ARC
  5
CDA9
  8
ALPHA
 10
169.801336
 20
101.321796
 30
0.0
 40
1.0
 50
240.0
 51
334.668775
  0
LINE
  5
CDAA
  8
ALPHA
 10
169.301336
 20
100.45577
 30
0.0
 11
169.455304
 21
100.722451
 31
0.0
  0
LINE
  5
CDAB
  8
ALPHA
 10
168.551336
 20
99.156732
 30
0.0
 11
168.397368
 21
98.890052
 31
0.0
  0
LINE
  5
CDAC
  8
ALPHA
 10
169.990726
 20
100.703128
 30
0.0
 11
170.426858
 21
101.025696
 31
0.0
  0
ARC
  5
CDAD
  8
ALPHA
 10
150.368572
 20
110.520581
 30
0.0
 40
24.0
 50
332.07067
 51
342.5
  0
ARC
  5
CDAE
  8
ALPHA
 10
170.633566
 20
98.820581
 30
0.0
 40
0.2
 50
105.0
 51
195.0
  0
LINE
  5
CDAF
  8
ALPHA
 10
170.705186
 20
100.893945
 30
0.0
 11
170.426858
 21
101.025696
 31
0.0
  0
LINE
  5
CDB0
  8
ALPHA
 10
172.685548
 20
103.484066
 30
0.0
 11
173.257779
 21
103.303642
 31
0.0
  0
LINE
  5
CDB1
  8
ALPHA
 10
170.581802
 20
99.013767
 30
0.0
 11
171.573195
 21
99.279409
 31
0.0
  0
ARC
  5
CDC4
  8
ALPHA
 10
150.368572
 20
110.520581
 30
0.0
 40
23.4
 50
42.5
 51
77.5
  0
ARC
  5
CDC5
  8
ALPHA
 10
150.368572
 20
110.520581
 30
0.0
 40
21.395108
 50
34.973616
 51
85.026384
  0
ARC
  5
CDC6
  8
ALPHA
 10
150.368572
 20
110.520581
 30
0.0
 40
22.192064
 50
34.668775
 51
85.331225
  0
ARC
  5
CDC7
  8
ALPHA
 10
150.368572
 20
110.520581
 30
0.0
 40
22.5
 50
34.668775
 51
85.331225
  0
LINE
  5
CDC8
  8
ALPHA
 10
155.876481
 20
111.55873
 30
0.0
 11
169.754959
 21
119.571473
 31
0.0
  0
LINE
  5
CDC9
  8
ALPHA
 10
155.413138
 20
112.211464
 30
0.0
 11
169.455304
 21
120.318712
 31
0.0
  0
LINE
  5
CDCA
  8
ALPHA
 10
169.301336
 20
120.585393
 30
0.0
 11
155.368572
 21
112.541307
 31
0.0
  0
LINE
  5
CDCB
  8
ALPHA
 10
154.54804
 20
113.799624
 30
0.0
 11
168.551336
 21
121.884431
 31
0.0
  0
LINE
  5
CDCC
  8
ALPHA
 10
168.397368
 20
122.151111
 30
0.0
 11
154.355202
 21
114.043863
 31
0.0
  0
LINE
  5
CDCD
  8
ALPHA
 10
167.900067
 20
122.78424
 30
0.0
 11
154.021589
 21
114.771496
 31
0.0
  0
ARC
  5
CDCE
  8
ALPHA
 10
150.368572
 20
110.520581
 30
0.0
 40
23.4
 50
102.5
 51
137.5
  0
ARC
  5
CDCF
  8
ALPHA
 10
150.368572
 20
110.520581
 30
0.0
 40
21.395108
 50
94.973616
 51
145.026384
  0
ARC
  5
CDD0
  8
ALPHA
 10
150.368572
 20
110.520581
 30
0.0
 40
22.192064
 50
94.668775
 51
145.331225
  0
ARC
  5
CDD1
  8
ALPHA
 10
150.368572
 20
110.520581
 30
0.0
 40
22.5
 50
94.668775
 51
145.331225
  0
LINE
  5
CDD2
  8
ALPHA
 10
146.715555
 20
114.771496
 30
0.0
 11
132.837076
 21
122.78424
 31
0.0
  0
LINE
  5
CDD3
  8
ALPHA
 10
146.381942
 20
114.043863
 30
0.0
 11
132.339775
 21
122.151111
 31
0.0
  0
LINE
  5
CDD4
  8
ALPHA
 10
132.185807
 20
121.884431
 30
0.0
 11
146.189103
 21
113.799624
 31
0.0
  0
LINE
  5
CDD5
  8
ALPHA
 10
145.368572
 20
112.541307
 30
0.0
 11
131.435807
 21
120.585393
 31
0.0
  0
LINE
  5
CDD6
  8
ALPHA
 10
131.281839
 20
120.318712
 30
0.0
 11
145.324006
 21
112.211464
 31
0.0
  0
LINE
  5
CDD7
  8
ALPHA
 10
130.982184
 20
119.571473
 30
0.0
 11
144.860663
 21
111.55873
 31
0.0
  0
ARC
  5
CDD8
  8
ALPHA
 10
150.368572
 20
110.520581
 30
0.0
 40
24.0
 50
152.07067
 51
162.5
  0
LINE
  5
CDD9
  8
ALPHA
 10
128.051595
 20
117.557097
 30
0.0
 11
127.479365
 21
117.737521
 31
0.0
  0
LINE
  5
CDDA
  8
ALPHA
 10
130.746418
 20
120.338035
 30
0.0
 11
131.281839
 21
120.318712
 31
0.0
  0
LINE
  5
CDDB
  8
ALPHA
 10
130.746418
 20
120.338035
 30
0.0
 11
130.310286
 21
120.015467
 31
0.0
  0
LINE
  5
CDDC
  8
ALPHA
 10
130.982184
 20
119.571473
 30
0.0
 11
130.746418
 21
120.338035
 31
0.0
  0
ARC
  5
CDDD
  8
ALPHA
 10
130.935807
 20
119.719367
 30
0.0
 40
1.0
 50
60.0
 51
154.668775
  0
LINE
  5
CDDE
  8
ALPHA
 10
130.031958
 20
120.147218
 30
0.0
 11
130.310286
 21
120.015467
 31
0.0
  0
LINE
  5
CDDF
  8
ALPHA
 10
131.435807
 20
120.585393
 30
0.0
 11
131.281839
 21
120.318712
 31
0.0
  0
LINE
  5
CDE0
  8
ALPHA
 10
132.673916
 20
126.734746
 30
0.0
 11
133.116282
 21
126.329392
 31
0.0
  0
LINE
  5
CDE1
  8
ALPHA
 10
132.055331
 20
122.605138
 30
0.0
 11
132.339775
 21
122.151111
 31
0.0
  0
LINE
  5
CDE2
  8
ALPHA
 10
132.055331
 20
122.605138
 30
0.0
 11
132.116616
 21
123.144124
 31
0.0
  0
LINE
  5
CDE3
  8
ALPHA
 10
132.837076
 20
122.78424
 30
0.0
 11
132.055331
 21
122.605138
 31
0.0
  0
ARC
  5
CDE4
  8
ALPHA
 10
130.103577
 20
122.220581
 30
0.0
 40
0.2
 50
285.0
 51
15.0
  0
ARC
  5
CDE5
  8
ALPHA
 10
150.368572
 20
110.520581
 30
0.0
 40
24.0
 50
137.5
 51
147.92933
  0
ARC
  5
CDE6
  8
ALPHA
 10
132.685807
 20
122.750456
 30
0.0
 40
1.0
 50
145.331225
 51
240.0
  0
LINE
  5
CDE7
  8
ALPHA
 10
130.155341
 20
122.027396
 30
0.0
 11
129.163948
 21
121.761753
 31
0.0
  0
LINE
  5
CDE8
  8
ALPHA
 10
131.863353
 20
123.319288
 30
0.0
 11
132.116616
 21
123.144124
 31
0.0
  0
LINE
  5
CDE9
  8
ALPHA
 10
130.03112
 20
123.263738
 30
0.0
 11
130.296762
 21
122.272345
 31
0.0
  0
LINE
  5
CDEA
  8
ALPHA
 10
132.185807
 20
121.884431
 30
0.0
 11
132.339775
 21
122.151111
 31
0.0
  0
LINE
  5
CDEB
  8
ALPHA
 10
152.223464
 20
115.809644
 30
0.0
 11
152.223464
 21
131.835131
 31
0.0
  0
LINE
  5
CDEC
  8
ALPHA
 10
151.426508
 20
115.734745
 30
0.0
 11
151.426508
 21
131.949242
 31
0.0
  0
LINE
  5
CDED
  8
ALPHA
 10
151.118572
 20
131.949242
 30
0.0
 11
151.118572
 21
115.734745
 31
0.0
  0
LINE
  5
CDEE
  8
ALPHA
 10
149.618572
 20
115.734745
 30
0.0
 11
149.618572
 21
131.949242
 31
0.0
  0
LINE
  5
CDEF
  8
ALPHA
 10
149.310636
 20
131.949242
 30
0.0
 11
149.310636
 21
115.734745
 31
0.0
  0
LINE
  5
CDF0
  8
ALPHA
 10
148.51368
 20
131.835131
 30
0.0
 11
148.51368
 21
115.809644
 31
0.0
  0
ARC
  5
CDF1
  8
ALPHA
 10
150.368572
 20
110.520581
 30
0.0
 40
5.0
 50
75.002127
 51
104.997873
  0
LINE
  5
CDF2
  8
ALPHA
 10
149.618572
 20
115.734745
 30
0.0
 11
149.310636
 21
115.734745
 31
0.0
  0
LINE
  5
CDF3
  8
ALPHA
 10
145.368572
 20
113.358688
 30
0.0
 11
150.368572
 21
116.045581
 31
0.0
  0
ARC
  5
CDF4
  8
ALPHA
 10
150.368572
 20
110.520581
 30
0.0
 40
5.604892
 50
109.325936
 51
130.674064
  0
LINE
  5
CDF5
  8
ALPHA
 10
145.370774
 20
112.175224
 30
0.0
 11
145.324006
 21
112.211464
 31
0.0
  0
LINE
  5
CDF6
  8
ALPHA
 10
144.860663
 20
111.55873
 30
0.0
 11
145.36857
 21
111.782824
 31
0.0
  0
LINE
  5
CDF7
  8
ALPHA
 10
145.368572
 20
112.288654
 30
0.0
 11
145.324006
 21
112.211464
 31
0.0
  0
LINE
  5
CDF8
  8
ALPHA
 10
149.228512
 20
115.465461
 30
0.0
 11
149.310636
 21
115.734745
 31
0.0
  0
LINE
  5
CDF9
  8
ALPHA
 10
149.195741
 20
115.411387
 30
0.0
 11
149.228512
 21
115.465461
 31
0.0
  0
LINE
  5
CDFA
  8
ALPHA
 10
146.550065
 20
113.991102
 30
0.0
 11
146.381942
 21
114.043863
 31
0.0
  0
LINE
  5
CDFB
  8
ALPHA
 10
146.715555
 20
114.771496
 30
0.0
 11
146.787908
 21
114.121566
 31
0.0
  0
LINE
  5
CDFC
  8
ALPHA
 10
148.51368
 20
115.809644
 30
0.0
 11
149.09656
 21
115.378831
 31
0.0
  0
LINE
  5
CDFD
  8
ALPHA
 10
146.264243
 20
113.840003
 30
0.0
 11
146.381942
 21
114.043863
 31
0.0
  0
ARC
  5
CDFE
  8
ALPHA
 10
150.368572
 20
110.520581
 30
0.0
 40
5.604892
 50
49.325936
 51
70.674064
  0
LINE
  5
CDFF
  8
ALPHA
 10
150.368572
 20
116.045581
 30
0.0
 11
155.368572
 21
113.358688
 31
0.0
  0
LINE
  5
CE00
  8
ALPHA
 10
151.508631
 20
115.465461
 30
0.0
 11
151.426508
 21
115.734745
 31
0.0
  0
LINE
  5
CE01
  8
ALPHA
 10
151.541402
 20
115.411387
 30
0.0
 11
151.508631
 21
115.465461
 31
0.0
  0
LINE
  5
CE02
  8
ALPHA
 10
152.223464
 20
115.809644
 30
0.0
 11
151.640584
 21
115.378831
 31
0.0
  0
ARC
  5
CE03
  8
ALPHA
 10
148.618572
 20
115.734745
 30
0.0
 40
1.0
 50
354.030927
 51
0.0
  0
ARC
  5
CE04
  8
ALPHA
 10
152.118572
 20
115.734745
 30
0.0
 40
1.0
 50
180.0
 51
185.969073
  0
LINE
  5
CE05
  8
ALPHA
 10
151.118572
 20
115.734745
 30
0.0
 11
151.426508
 21
115.734745
 31
0.0
  0
LINE
  5
CE06
  8
ALPHA
 10
154.187078
 20
113.991102
 30
0.0
 11
154.355202
 21
114.043863
 31
0.0
  0
LINE
  5
CE07
  8
ALPHA
 10
154.021589
 20
114.771496
 30
0.0
 11
153.949235
 21
114.121566
 31
0.0
  0
LINE
  5
CE08
  8
ALPHA
 10
155.36637
 20
112.175224
 30
0.0
 11
155.413138
 21
112.211464
 31
0.0
  0
LINE
  5
CE09
  8
ALPHA
 10
155.876481
 20
111.55873
 30
0.0
 11
155.368574
 21
111.782824
 31
0.0
  0
LINE
  5
CE0A
  8
ALPHA
 10
154.4729
 20
113.840003
 30
0.0
 11
154.355202
 21
114.043863
 31
0.0
  0
LINE
  5
CE0B
  8
ALPHA
 10
155.368572
 20
112.288654
 30
0.0
 11
155.413138
 21
112.211464
 31
0.0
  0
ARC
  5
CE0C
  8
ALPHA
 10
148.618572
 20
131.949242
 30
0.0
 40
1.0
 50
0.0
 51
94.668775
  0
LINE
  5
CE0D
  8
ALPHA
 10
149.618572
 20
131.949242
 30
0.0
 11
149.310636
 21
131.949242
 31
0.0
  0
LINE
  5
CE0E
  8
ALPHA
 10
149.059659
 20
132.422592
 30
0.0
 11
149.310636
 21
131.949242
 31
0.0
  0
LINE
  5
CE0F
  8
ALPHA
 10
149.059659
 20
132.422592
 30
0.0
 11
148.562241
 21
132.63901
 31
0.0
  0
LINE
  5
CE10
  8
ALPHA
 10
148.51368
 20
131.835131
 30
0.0
 11
149.059659
 21
132.422592
 31
0.0
  0
LINE
  5
CE11
  8
ALPHA
 10
148.537176
 20
132.945924
 30
0.0
 11
148.562241
 21
132.63901
 31
0.0
  0
LINE
  5
CE12
  8
ALPHA
 10
151.677484
 20
132.422592
 30
0.0
 11
152.174903
 21
132.63901
 31
0.0
  0
LINE
  5
CE13
  8
ALPHA
 10
152.223464
 20
131.835131
 30
0.0
 11
151.677484
 21
132.422592
 31
0.0
  0
LINE
  5
CE14
  8
ALPHA
 10
151.677484
 20
132.422592
 30
0.0
 11
151.426508
 21
131.949242
 31
0.0
  0
ARC
  5
CE15
  8
ALPHA
 10
152.118572
 20
131.949242
 30
0.0
 40
1.0
 50
85.331225
 51
180.0
  0
LINE
  5
CE16
  8
ALPHA
 10
151.118572
 20
131.949242
 30
0.0
 11
151.426508
 21
131.949242
 31
0.0
  0
LINE
  5
CE17
  8
ALPHA
 10
152.199967
 20
132.945924
 30
0.0
 11
152.174903
 21
132.63901
 31
0.0
  0
ARC
  5
CE18
  8
ALPHA
 10
150.368572
 20
110.520581
 30
0.0
 40
24.0
 50
92.07067
 51
102.5
  0
LINE
  5
CE19
  8
ALPHA
 10
145.303885
 20
133.365908
 30
0.0
 11
145.174021
 21
133.951686
 31
0.0
  0
ARC
  5
CE1A
  8
ALPHA
 10
150.368572
 20
110.520581
 30
0.0
 40
24.0
 50
77.5
 51
87.92933
  0
ARC
  5
CE1B
  8
ALPHA
 10
150.368572
 20
133.920581
 30
0.0
 40
0.2
 50
225.0
 51
315.0
  0
LINE
  5
CE1C
  8
ALPHA
 10
150.22715
 20
133.77916
 30
0.0
 11
149.501401
 21
134.50491
 31
0.0
  0
LINE
  5
CE1D
  8
ALPHA
 10
151.235743
 20
134.50491
 30
0.0
 11
150.509993
 21
133.77916
 31
0.0
  0
LINE
  5
CE1E
  8
ALPHA
 10
155.563122
 20
133.951686
 30
0.0
 11
155.433259
 21
133.365908
 31
0.0
  0
ARC
  5
CE1F
  8
ALPHA
 10
150.368572
 20
110.520581
 30
0.0
 40
24.0
 50
17.5
 51
27.92933
  0
LINE
  5
CE20
  8
ALPHA
 10
169.990726
 20
120.338035
 30
0.0
 11
169.455304
 21
120.318712
 31
0.0
  0
LINE
  5
CE21
  8
ALPHA
 10
169.754959
 20
119.571473
 30
0.0
 11
169.990726
 21
120.338035
 31
0.0
  0
ARC
  5
CE22
  8
ALPHA
 10
169.801336
 20
119.719367
 30
0.0
 40
1.0
 50
25.331225
 51
120.0
  0
LINE
  5
CE23
  8
ALPHA
 10
169.301336
 20
120.585393
 30
0.0
 11
169.455304
 21
120.318712
 31
0.0
  0
LINE
  5
CE24
  8
ALPHA
 10
169.990726
 20
120.338035
 30
0.0
 11
170.426858
 21
120.015467
 31
0.0
  0
LINE
  5
CE25
  8
ALPHA
 10
173.257779
 20
117.737521
 30
0.0
 11
172.685548
 21
117.557097
 31
0.0
  0
LINE
  5
CE26
  8
ALPHA
 10
170.705186
 20
120.147218
 30
0.0
 11
170.426858
 21
120.015467
 31
0.0
  0
ARC
  5
CE27
  8
ALPHA
 10
150.368572
 20
110.520581
 30
0.0
 40
24.0
 50
32.07067
 51
42.5
  0
LINE
  5
CE28
  8
ALPHA
 10
168.681813
 20
122.605138
 30
0.0
 11
168.620527
 21
123.144124
 31
0.0
  0
LINE
  5
CE29
  8
ALPHA
 10
168.681813
 20
122.605138
 30
0.0
 11
168.397368
 21
122.151111
 31
0.0
  0
LINE
  5
CE2A
  8
ALPHA
 10
167.900067
 20
122.78424
 30
0.0
 11
168.681813
 21
122.605138
 31
0.0
  0
ARC
  5
CE2B
  8
ALPHA
 10
168.051336
 20
122.750456
 30
0.0
 40
1.0
 50
300.0
 51
34.668775
  0
LINE
  5
CE2C
  8
ALPHA
 10
168.551336
 20
121.884431
 30
0.0
 11
168.397368
 21
122.151111
 31
0.0
  0
LINE
  5
CE2D
  8
ALPHA
 10
168.87379
 20
123.319288
 30
0.0
 11
168.620527
 21
123.144124
 31
0.0
  0
LINE
  5
CE2E
  8
ALPHA
 10
167.620861
 20
126.329392
 30
0.0
 11
168.063228
 21
126.734746
 31
0.0
  0
ARC
  5
CE2F
  8
ALPHA
 10
170.633566
 20
122.220581
 30
0.0
 40
0.2
 50
165.0
 51
255.0
  0
LINE
  5
CE30
  8
ALPHA
 10
171.573195
 20
121.761753
 30
0.0
 11
170.581802
 21
122.027396
 31
0.0
  0
LINE
  5
CE31
  8
ALPHA
 10
170.440381
 20
122.272345
 30
0.0
 11
170.706024
 21
123.263738
 31
0.0
  0
DIMENSION
  5
CE6C
  8
COTATION1
  2
*D3
 10
195.548572
 20
15.020581
 30
0.0
 11
195.548572
 21
75.270581
 31
0.0
 13
150.368572
 23
135.520581
 33
0.0
 14
152.868572
 24
15.020581
 34
0.0
 50
90.0
  0
LINE
  5
CE6D
  8
AXE
 10
140.192682
 20
72.020581
 30
0.0
 11
160.544461
 21
72.020581
 31
0.0
  0
TEXT
  5
CE6E
  8
AXE
 10
145.320953
 20
5.020581
 30
0.0
 40
5.0
  1
Y
 72
     2
 11
149.368572
 21
5.020581
 31
0.0
  0
LINE
  5
CE6F
  8
AXE
 10
150.368572
 20
5.020581
 30
0.0
 11
150.368572
 21
140.520581
 31
0.0
  0
LINE
  5
CE70
  8
AXE
 10
120.368572
 20
110.520581
 30
0.0
 11
185.368572
 21
110.520581
 31
0.0
  0
TEXT
  5
CE71
  8
AXE
 10
181.320953
 20
111.520581
 30
0.0
 40
5.0
  1
X
 72
     2
 11
185.368572
 21
111.520581
 31
0.0
  0
DIMENSION
  5
CE72
  8
COTATION1
  2
*D4
 10
175.368572
 20
150.520581
 30
0.0
 11
150.368572
 21
153.770581
 31
0.0
  1
%%c<>
 13
125.368572
 23
110.520581
 33
0.0
 14
175.368572
 24
110.520581
 34
0.0
  0
VIEWPORT
  5
494D
 67
     1
  8
0
 10
4.995325
 20
6.556512
 30
0.0
 40
22.70986
 41
13.988421
 68
    -1
 69
     1
1001
ACAD
1000
MVIEW
1002
{
1070
    16
1010
0.0
1020
0.0
1030
0.0
1010
0.0
1020
0.0
1030
1.0
1040
0.0
1040
13.988421
1040
4.995325
1040
6.556512
1040
50.0
1040
0.0
1040
0.0
1070
     0
1070
   100
1070
     1
1070
     1
1070
     0
1070
     0
1070
     0
1070
     0
1040
0.0
1040
0.0
1040
0.0
1040
10.0
1040
10.0
1040
10.0
1040
10.0
1070
     0
1002
{
1002
}
1002
}
  0
ENDSEC
  0
EOF
