  0
SECTION
  2
HEADER
  9
$ACADVER
  1
AC1009
  9
$INSBASE
 10
402.590624
 20
-1.041018
 30
0.0
  9
$EXTMIN
 10
-9.326621
 20
-1.139072
 30
0.0
  9
$EXTMAX
 10
108.773379
 20
85.647082
 30
0.0
  9
$LIMMIN
 10
-407.970438
 20
-367.832444
  9
$LIMMAX
 10
429.804077
 20
234.370848
  9
$ORTHOMODE
 70
     1
  9
$REGENMODE
 70
     1
  9
$FILLMODE
 70
     1
  9
$QTEXTMODE
 70
     0
  9
$MIRRTEXT
 70
     1
  9
$DRAGMODE
 70
     2
  9
$LTSCALE
 40
10.0
  9
$OSMODE
 70
   161
  9
$ATTMODE
 70
     1
  9
$TEXTSIZE
 40
6.0
  9
$TRACEWID
 40
1.0
  9
$TEXTSTYLE
  7
ROMANS
  9
$CLAYER
  8
ALPHA
  9
$CELTYPE
  6
BYLAYER
  9
$CECOLOR
 62
   256
  9
$DIMSCALE
 40
1.0
  9
$DIMASZ
 40
5.0
  9
$DIMEXO
 40
2.0
  9
$DIMDLI
 40
0.38
  9
$DIMRND
 40
0.0
  9
$DIMDLE
 40
0.0
  9
$DIMEXE
 40
2.5
  9
$DIMTP
 40
0.0
  9
$DIMTM
 40
0.0
  9
$DIMTXT
 40
2.5
  9
$DIMCEN
 40
0.0
  9
$DIMTSZ
 40
0.0
  9
$DIMTOL
 70
     0
  9
$DIMLIM
 70
     0
  9
$DIMTIH
 70
     1
  9
$DIMTOH
 70
     1
  9
$DIMSE1
 70
     0
  9
$DIMSE2
 70
     0
  9
$DIMTAD
 70
     1
  9
$DIMZIN
 70
    12
  9
$DIMBLK
  1
OPEN30
  9
$DIMASO
 70
     1
  9
$DIMSHO
 70
     1
  9
$DIMPOST
  1

  9
$DIMAPOST
  1

  9
$DIMALT
 70
     0
  9
$DIMALTD
 70
     2
  9
$DIMALTF
 40
25.4
  9
$DIMLFAC
 40
1.0
  9
$DIMTOFL
 70
     0
  9
$DIMTVP
 40
0.0
  9
$DIMTIX
 70
     0
  9
$DIMSOXD
 70
     0
  9
$DIMSAH
 70
     0
  9
$DIMBLK1
  1

  9
$DIMBLK2
  1

  9
$DIMSTYLE
  2
SC_DEFAUT
  9
$DIMCLRD
 70
     0
  9
$DIMCLRE
 70
     0
  9
$DIMCLRT
 70
     0
  9
$DIMTFAC
 40
1.0
  9
$DIMGAP
 40
2.0
  9
$LUNITS
 70
     2
  9
$LUPREC
 70
     1
  9
$SKETCHINC
 40
0.1
  9
$FILLETRAD
 40
0.0
  9
$AUNITS
 70
     0
  9
$AUPREC
 70
     0
  9
$MENU
  1
acad
  9
$ELEVATION
 40
0.0
  9
$PELEVATION
 40
0.0
  9
$THICKNESS
 40
0.0
  9
$LIMCHECK
 70
     0
  9
$BLIPMODE
 70
     0
  9
$CHAMFERA
 40
0.0
  9
$CHAMFERB
 40
0.0
  9
$SKPOLY
 70
     0
  9
$TDCREATE
 40
2450373.687919
  9
$TDUPDATE
 40
2453047.668992
  9
$TDINDWG
 40
1.179824
  9
$TDUSRTIMER
 40
1.179824
  9
$USRTIMER
 70
     1
  9
$ANGBASE
 50
0.0
  9
$ANGDIR
 70
     0
  9
$PDMODE
 70
    32
  9
$PDSIZE
 40
0.0
  9
$PLINEWID
 40
0.0
  9
$COORDS
 70
     1
  9
$SPLFRAME
 70
     0
  9
$SPLINETYPE
 70
     6
  9
$SPLINESEGS
 70
     8
  9
$ATTDIA
 70
     0
  9
$ATTREQ
 70
     1
  9
$HANDLING
 70
     1
  9
$HANDSEED
  5
EAE2
  9
$SURFTAB1
 70
     6
  9
$SURFTAB2
 70
     6
  9
$SURFTYPE
 70
     6
  9
$SURFU
 70
     6
  9
$SURFV
 70
     6
  9
$UCSNAME
  2

  9
$UCSORG
 10
0.0
 20
0.0
 30
0.0
  9
$UCSXDIR
 10
1.0
 20
0.0
 30
0.0
  9
$UCSYDIR
 10
0.0
 20
1.0
 30
0.0
  9
$PUCSNAME
  2

  9
$PUCSORG
 10
0.0
 20
0.0
 30
0.0
  9
$PUCSXDIR
 10
1.0
 20
0.0
 30
0.0
  9
$PUCSYDIR
 10
0.0
 20
1.0
 30
0.0
  9
$USERI1
 70
     0
  9
$USERI2
 70
     0
  9
$USERI3
 70
     0
  9
$USERI4
 70
     0
  9
$USERI5
 70
     0
  9
$USERR1
 40
0.0
  9
$USERR2
 40
0.0
  9
$USERR3
 40
0.0
  9
$USERR4
 40
0.0
  9
$USERR5
 40
0.0
  9
$WORLDVIEW
 70
     1
  9
$SHADEDGE
 70
     3
  9
$SHADEDIF
 70
    70
  9
$TILEMODE
 70
     1
  9
$MAXACTVP
 70
    16
  9
$PLIMCHECK
 70
     0
  9
$PEXTMIN
 10
-1.452248
 20
-0.437698
 30
0.0
  9
$PEXTMAX
 10
12.749749
 20
8.310198
 30
0.0
  9
$PLIMMIN
 10
0.0
 20
0.0
  9
$PLIMMAX
 10
12.0
 20
9.0
  9
$UNITMODE
 70
     0
  9
$VISRETAIN
 70
     0
  9
$PLINEGEN
 70
     0
  9
$PSLTSCALE
 70
     0
  0
ENDSEC
  0
SECTION
  2
TABLES
  0
TABLE
  2
VPORT
 70
     2
  0
VPORT
  2
*ACTIVE
 70
     0
 10
0.0
 20
0.0
 11
1.0
 21
1.0
 12
49.714515
 22
42.249475
 13
0.0
 23
0.0
 14
1.0
 24
1.0
 15
10.0
 25
10.0
 16
0.0
 26
0.0
 36
1.0
 17
0.0
 27
0.0
 37
0.0
 40
87.460501
 41
1.466346
 42
50.0
 43
0.0
 44
0.0
 50
0.0
 51
0.0
 71
     0
 72
   100
 73
     1
 74
     0
 75
     0
 76
     0
 77
     0
 78
     0
  0
ENDTAB
  0
TABLE
  2
LTYPE
 70
     2
  0
LTYPE
  2
CONTINUOUS
 70
     0
  3
Solid line
 72
    65
 73
     0
 40
0.0
  0
LTYPE
  2
AXES2
 70
     0
  3
___ _ ___ _ ___ _ ___ _ ___ _ ___ _ ___ _ ___ _
 72
    65
 73
     4
 40
1.125
 49
0.75
 49
-0.125
 49
0.125
 49
-0.125
  0
ENDTAB
  0
TABLE
  2
LAYER
 70
     5
  0
LAYER
  2
0
 70
     0
 62
   255
  6
CONTINUOUS
  0
LAYER
  2
COTATION1
 70
     0
 62
     2
  6
CONTINUOUS
  0
LAYER
  2
AXE
 70
     0
 62
    80
  6
AXES2
  0
LAYER
  2
DEFPOINTS
 70
     0
 62
     7
  6
CONTINUOUS
  0
LAYER
  2
ALPHA
 70
     0
 62
   254
  6
CONTINUOUS
  0
ENDTAB
  0
TABLE
  2
STYLE
 70
     2
  0
STYLE
  2
ROMANS
 70
     0
 40
0.0
 41
1.0
 50
0.0
 71
     0
 42
6.0
  3
romans
  4

  0
STYLE
  2
STANDARD
 70
     0
 40
0.0
 41
1.0
 50
0.0
 71
     0
 42
0.2
  3
txt
  4

  0
ENDTAB
  0
TABLE
  2
VIEW
 70
     0
  0
ENDTAB
  0
TABLE
  2
UCS
 70
     0
  0
ENDTAB
  0
TABLE
  2
APPID
 70
     1
  0
APPID
  2
ACAD
 70
     0
  0
ENDTAB
  0
TABLE
  2
DIMSTYLE
 70
     2
  0
DIMSTYLE
  2
SC_DEFAUT
 70
     0
  3

  4

  5
OPEN30
  6

  7

 40
1.0
 41
5.0
 42
2.0
 43
0.38
 44
2.5
 45
0.0
 46
0.0
 47
0.0
 48
0.0
140
2.5
141
0.0
142
0.0
143
25.4
144
1.0
145
0.0
146
1.0
147
2.0
 71
     0
 72
     0
 73
     1
 74
     1
 75
     0
 76
     0
 77
     1
 78
    12
170
     0
171
     2
172
     0
173
     0
174
     0
175
     0
176
     0
177
     0
178
     0
  0
DIMSTYLE
  2
STANDARD
 70
     0
  3

  4

  5

  6

  7

 40
1.0
 41
0.18
 42
0.0625
 43
0.38
 44
0.18
 45
0.0
 46
0.0
 47
0.0
 48
0.0
140
0.18
141
0.09
142
0.0
143
25.4
144
1.0
145
0.0
146
1.0
147
0.09
 71
     0
 72
     0
 73
     1
 74
     1
 75
     0
 76
     0
 77
     0
 78
     0
170
     0
171
     2
172
     0
173
     0
174
     0
175
     0
176
     0
177
     0
178
     0
  0
ENDTAB
  0
ENDSEC
  0
SECTION
  2
BLOCKS
  0
BLOCK
  8
0
  2
$MODEL_SPACE
 70
     0
 10
0.0
 20
0.0
 30
0.0
  3
$MODEL_SPACE
  1

  0
ENDBLK
  5
7D25
  8
0
  0
BLOCK
 67
     1
  8
0
  2
$PAPER_SPACE
 70
     0
 10
0.0
 20
0.0
 30
0.0
  3
$PAPER_SPACE
  1

  0
ENDBLK
  5
7D23
 67
     1
  8
0
  0
BLOCK
  8
0
  2
COTE
 70
     0
 10
0.0
 20
0.0
 30
0.0
  3
COTE
  1

  0
ENDBLK
  5
F
  8
0
  0
BLOCK
  8
0
  2
FOND
 70
     0
 10
0.0
 20
0.0
 30
0.0
  3
FOND
  1

  0
ENDBLK
  5
75
  8
0
  0
BLOCK
  8
0
  2
_OPEN30
 70
     0
 10
0.0
 20
0.0
 30
0.0
  3
_OPEN30
  1

  0
LINE
  5
4B05
  8
COTATION1
 62
     0
 10
-1.0
 20
0.267949
 30
0.0
 11
0.0
 21
0.0
 31
0.0
1001
ACAD
1000
RTLwPs
1070
   158
  0
LINE
  5
4B06
  8
COTATION1
 62
     0
 10
0.0
 20
0.0
 30
0.0
 11
-1.0
 21
-0.267949
 31
0.0
1001
ACAD
1000
RTLwPs
1070
   158
  0
LINE
  5
4B07
  8
COTATION1
 62
     0
 10
0.0
 20
0.0
 30
0.0
 11
-1.0
 21
0.0
 31
0.0
1001
ACAD
1000
RTLwPs
1070
   158
  0
ENDBLK
  5
4B09
  8
0
  0
BLOCK
  8
0
  2
*D3
 70
     1
 10
0.0
 20
0.0
 30
0.0
  3
*D3
  1

  0
LINE
  5
E81B
  8
COTATION1
 62
     0
 10
81.273379
 20
27.297082
 30
0.0
 11
81.273379
 21
-1.139072
 31
0.0
1001
ACAD
1000
RTLwPs
1070
   158
  0
LINE
  5
E81C
  8
COTATION1
 62
     0
 10
0.673379
 20
25.447089
 30
0.0
 11
0.673379
 21
-1.139072
 31
0.0
1001
ACAD
1000
RTLwPs
1070
   158
  0
LINE
  5
E81D
  8
COTATION1
 62
     0
 10
76.273379
 20
1.360928
 30
0.0
 11
5.673379
 21
1.360928
 31
0.0
1001
ACAD
1000
RTLwPs
1070
   158
  0
INSERT
  5
E81E
  8
COTATION1
 62
     0
  2
_OPEN30
 10
81.273379
 20
1.360928
 30
0.0
 41
5.0
 42
5.0
 43
5.0
1001
ACAD
1000
RTLwPs
1070
   158
  0
INSERT
  5
E81F
  8
COTATION1
 62
     0
  2
_OPEN30
 10
0.673379
 20
1.360928
 30
0.0
 41
5.0
 42
5.0
 43
5.0
 50
180.0
1001
ACAD
1000
RTLwPs
1070
   158
  0
TEXT
  8
0
  40
2.5
  5
EAE0
  62
0
  72
0
  71
0
 10
35.9734
 20
0.185928
 30
0.000000
  1
81
  0
POINT
  5
E821
  8
DEFPOINTS
 62
     0
 10
81.273379
 20
29.297082
 30
0.0
  0
POINT
  5
E822
  8
DEFPOINTS
 62
     0
 10
0.673379
 20
27.447089
 30
0.0
  0
POINT
  5
E823
  8
DEFPOINTS
 62
     0
 10
0.673379
 20
1.360928
 30
0.0
  0
ENDBLK
  5
DE78
  8
0
  0
BLOCK
  8
0
  2
*D4
 70
     1
 10
0.0
 20
0.0
 30
0.0
  3
*D4
  1

  0
LINE
  5
E8B6
  8
COTATION1
 62
     0
 10
60.973379
 20
73.147082
 30
0.0
 11
108.773379
 21
73.147082
 31
0.0
1001
ACAD
1000
RTLwPs
1070
   158
  0
LINE
  5
E8B7
  8
COTATION1
 62
     0
 10
77.473379
 20
22.147082
 30
0.0
 11
108.773379
 21
22.147082
 31
0.0
1001
ACAD
1000
RTLwPs
1070
   158
  0
LINE
  5
E8B8
  8
COTATION1
 62
     0
 10
106.273379
 20
68.147082
 30
0.0
 11
106.273379
 21
50.897082
 31
0.0
1001
ACAD
1000
RTLwPs
1070
   158
  0
LINE
  5
E8B9
  8
COTATION1
 62
     0
 10
106.273379
 20
27.147082
 30
0.0
 11
106.273379
 21
44.397082
 31
0.0
1001
ACAD
1000
RTLwPs
1070
   158
  0
INSERT
  5
E8BA
  8
COTATION1
 62
     0
  2
_OPEN30
 10
106.273379
 20
73.147082
 30
0.0
 41
5.0
 42
5.0
 43
5.0
 50
90.0
1001
ACAD
1000
RTLwPs
1070
   158
  0
INSERT
  5
E8BB
  8
COTATION1
 62
     0
  2
_OPEN30
 10
106.273379
 20
22.147082
 30
0.0
 41
5.0
 42
5.0
 43
5.0
 50
270.0
1001
ACAD
1000
RTLwPs
1070
   158
  0
TEXT
  8
0
  40
2.5
  5
EAE1
  62
0
  72
0
  71
0
 10
101.273
 20
43.2221
 30
0.000000
  1
51
  0
POINT
  5
E8BD
  8
DEFPOINTS
 62
     0
 10
58.973379
 20
73.147082
 30
0.0
  0
POINT
  5
E8BE
  8
DEFPOINTS
 62
     0
 10
75.473379
 20
22.147082
 30
0.0
  0
POINT
  5
E8BF
  8
DEFPOINTS
 62
     0
 10
106.273379
 20
22.147082
 30
0.0
  0
ENDBLK
  5
DE9E
  8
0
  0
ENDSEC
  0
SECTION
  2
ENTITIES
  0
INSERT
  5
A
  8
0
  2
COTE
 10
0.0
 20
0.0
 30
0.0
  0
INSERT
  5
17
  8
0
  2
COTE
 10
284.010391
 20
6.373258
 30
0.0
  0
INSERT
  5
72
  8
0
  2
FOND
 10
0.0
 20
0.0
 30
0.0
  0
LINE
  5
D94B
  8
0
  6
CONTINUOUS
 62
     2
 10
20.863895
 20
85.647082
 30
0.0
 11
29.363895
 21
85.647082
 31
0.0
  0
LINE
  5
D94C
  8
0
  6
CONTINUOUS
 62
     2
 10
29.363895
 20
80.647082
 30
0.0
 11
20.863895
 21
80.647082
 31
0.0
  0
LINE
  5
D94D
  8
0
  6
CONTINUOUS
 62
     2
 10
42.973379
 20
73.147082
 30
0.0
 11
25.113895
 21
73.147082
 31
0.0
  0
TEXT
  5
D954
  8
0
  6
CONTINUOUS
 62
     2
 10
22.113895
 20
81.897082
 30
0.0
 40
2.5
  1
HEAD
 41
0.654545
  7
STANDARD
 72
     5
 11
28.113895
 21
81.897082
 31
0.0
  0
SOLID
  5
D955
  8
0
  6
CONTINUOUS
 62
     2
 10
26.557271
 20
73.147082
 30
0.0
 11
23.670519
 21
73.147082
 31
0.0
 12
25.113895
 22
75.647082
 32
0.0
 13
25.113895
 23
75.647082
 33
0.0
  0
LINE
  5
D956
  8
0
  6
CONTINUOUS
 62
     2
 10
25.113895
 20
75.647082
 30
0.0
 11
25.113895
 21
80.647082
 31
0.0
  0
LINE
  5
D968
  8
0
  6
CONTINUOUS
 62
     2
 10
20.863895
 20
80.647082
 30
0.0
 11
20.863895
 21
85.647082
 31
0.0
  0
LINE
  5
D9D7
  8
ALPHA
 10
42.973379
 20
73.147082
 30
0.0
 11
58.973379
 21
73.147082
 31
0.0
  0
LINE
  5
DA47
  8
0
  6
CONTINUOUS
 62
     2
 10
29.363895
 20
85.647082
 30
0.0
 11
29.363895
 21
80.647082
 31
0.0
  0
LINE
  5
DD9C
  8
ALPHA
 10
21.673379
 20
53.147082
 30
0.0
 11
21.673379
 21
27.147082
 31
0.0
  0
LINE
  5
DD9D
  8
ALPHA
 10
79.973379
 20
27.447089
 30
0.0
 11
79.973379
 21
52.847055
 31
0.0
  0
LINE
  5
DDA1
  8
ALPHA
 10
0.673379
 20
52.847055
 30
0.0
 11
0.673379
 21
27.447089
 31
0.0
  0
LINE
  5
DDA2
  8
ALPHA
 10
0.973379
 20
27.147082
 30
0.0
 11
0.973379
 21
53.147082
 31
0.0
  0
LINE
  5
DDA3
  8
ALPHA
 10
0.973379
 20
27.147082
 30
0.0
 11
21.673379
 21
27.147082
 31
0.0
  0
LINE
  5
DDA4
  8
ALPHA
 10
21.673379
 20
27.147082
 30
0.0
 11
21.973379
 21
27.447082
 31
0.0
  0
LINE
  5
DDF5
  8
ALPHA
 10
0.673379
 20
27.447082
 30
0.0
 11
0.973379
 21
27.147082
 31
0.0
  0
LINE
  5
DDF6
  8
ALPHA
 10
0.973379
 20
53.147082
 30
0.0
 11
21.673379
 21
53.147082
 31
0.0
  0
LINE
  5
DDF7
  8
ALPHA
 10
21.673379
 20
53.147082
 30
0.0
 11
21.973379
 21
52.847082
 31
0.0
  0
LINE
  5
DE66
  8
ALPHA
 10
0.673379
 20
52.847082
 30
0.0
 11
0.973379
 21
53.147082
 31
0.0
  0
LINE
  5
DE68
  8
AXE
 10
50.973379
 20
11.360928
 30
0.0
 11
50.973379
 21
78.147082
 31
0.0
  0
DIMENSION
  5
DE69
  8
COTATION1
  2
*D3
 10
0.673379
 20
1.360928
 30
0.0
 11
40.973379
 21
4.610928
 31
0.0
 70
     0
  1
81
 13
81.273379
 23
29.297082
 33
0.0
 14
0.673379
 24
27.447089
 34
0.0
 50
180.0
  0
TEXT
  5
DE6C
  8
AXE
 10
45.92576
 20
11.360928
 30
0.0
 40
5.0
  1
Y
 72
     2
 11
49.973379
 21
11.360928
 31
0.0
  0
LINE
  5
DE8D
  8
AXE
 10
86.273379
 20
40.147082
 30
0.0
 11
-9.326621
 21
40.147082
 31
0.0
  0
TEXT
  5
DE8E
  8
AXE
 10
-5.279002
 20
41.147082
 30
0.0
 40
5.0
  1
X
 71
     2
 72
     2
 11
-9.326621
 21
41.147082
 31
0.0
  0
DIMENSION
  5
DE8F
  8
COTATION1
  2
*D4
 10
106.273379
 20
22.147082
 30
0.0
 11
106.273379
 21
47.647082
 31
0.0
 70
     0
 13
58.973379
 23
73.147082
 33
0.0
 14
75.473379
 24
22.147082
 34
0.0
 50
90.0
  0
ARC
  5
E33A
  8
ALPHA
 10
50.973379
 20
-53.102918
 30
0.0
 40
126.25
 50
78.952848
 51
101.047152
  0
LINE
  5
E33C
  8
ALPHA
 10
47.973379
 20
40.147082
 30
0.0
 11
53.973379
 21
40.147082
 31
0.0
  0
LINE
  5
E33D
  8
ALPHA
 10
40.973379
 20
30.647082
 30
0.0
 11
60.973379
 21
30.647082
 31
0.0
  0
LINE
  5
E33E
  8
ALPHA
 10
60.973379
 20
25.647082
 30
0.0
 11
40.973379
 21
25.647082
 31
0.0
  0
LINE
  5
E33F
  8
ALPHA
 10
75.473379
 20
22.147082
 30
0.0
 11
26.473379
 21
22.147082
 31
0.0
  0
LINE
  5
E341
  8
ALPHA
 10
37.173379
 20
25.547082
 30
0.0
 11
37.173379
 21
32.547082
 31
0.0
  0
LINE
  5
E342
  8
ALPHA
 10
30.973379
 20
34.147082
 30
0.0
 11
30.973379
 21
28.147082
 31
0.0
  0
POLYLINE
  5
E343
  8
ALPHA
 66
     1
 10
0.0
 20
0.0
 30
0.0
  0
VERTEX
  5
E903
  8
ALPHA
 10
26.956548
 20
31.797489
 30
0.0
  0
VERTEX
  5
E904
  8
ALPHA
 10
26.929381
 20
30.707608
 30
0.0
  0
VERTEX
  5
E905
  8
ALPHA
 10
26.899322
 20
29.904535
 30
0.0
  0
VERTEX
  5
E906
  8
ALPHA
 10
26.867286
 20
29.412706
 30
0.0
  0
VERTEX
  5
E907
  8
ALPHA
 10
26.834245
 20
29.247082
 30
0.0
  0
SEQEND
  5
E908
  8
ALPHA
  0
LINE
  5
E344
  8
ALPHA
 10
27.073379
 20
27.547082
 30
0.0
 11
27.073379
 21
54.56613
 31
0.0
  0
LINE
  5
E345
  8
ALPHA
 10
23.373379
 20
25.728034
 30
0.0
 11
23.373379
 21
54.56613
 31
0.0
  0
POLYLINE
  5
E347
  8
ALPHA
 66
     1
 10
0.0
 20
0.0
 30
0.0
  0
VERTEX
  5
E909
  8
ALPHA
 10
23.612514
 20
51.047082
 30
0.0
  0
VERTEX
  5
E90A
  8
ALPHA
 10
23.579472
 20
50.881457
 30
0.0
  0
VERTEX
  5
E90B
  8
ALPHA
 10
23.547436
 20
50.389629
 30
0.0
  0
VERTEX
  5
E90C
  8
ALPHA
 10
23.517377
 20
49.586555
 30
0.0
  0
VERTEX
  5
E90D
  8
ALPHA
 10
23.490211
 20
48.496674
 30
0.0
  0
VERTEX
  5
E90E
  8
ALPHA
 10
23.466761
 20
47.153113
 30
0.0
  0
VERTEX
  5
E90F
  8
ALPHA
 10
23.44774
 20
45.596738
 30
0.0
  0
VERTEX
  5
E910
  8
ALPHA
 10
23.433726
 20
43.874819
 30
0.0
  0
VERTEX
  5
E911
  8
ALPHA
 10
23.425143
 20
42.039693
 30
0.0
  0
VERTEX
  5
E912
  8
ALPHA
 10
23.422253
 20
40.147082
 30
0.0
  0
VERTEX
  5
E913
  8
ALPHA
 10
23.425143
 20
38.25447
 30
0.0
  0
VERTEX
  5
E914
  8
ALPHA
 10
23.433726
 20
36.419345
 30
0.0
  0
VERTEX
  5
E915
  8
ALPHA
 10
23.44774
 20
34.697426
 30
0.0
  0
VERTEX
  5
E916
  8
ALPHA
 10
23.466761
 20
33.141051
 30
0.0
  0
VERTEX
  5
E917
  8
ALPHA
 10
23.490211
 20
31.797489
 30
0.0
  0
VERTEX
  5
E918
  8
ALPHA
 10
23.517377
 20
30.707608
 30
0.0
  0
VERTEX
  5
E919
  8
ALPHA
 10
23.547436
 20
29.904535
 30
0.0
  0
VERTEX
  5
E91A
  8
ALPHA
 10
23.579472
 20
29.412706
 30
0.0
  0
VERTEX
  5
E91B
  8
ALPHA
 10
23.612514
 20
29.247082
 30
0.0
  0
SEQEND
  5
E91C
  8
ALPHA
  0
LINE
  5
E348
  8
ALPHA
 10
21.973379
 20
25.528031
 30
0.0
 11
21.973379
 21
54.766132
 31
0.0
  0
LINE
  5
E34B
  8
ALPHA
 10
32.823379
 20
25.547082
 30
0.0
 11
38.023379
 21
25.547082
 31
0.0
  0
LINE
  5
E34C
  8
ALPHA
 10
26.834245
 20
29.247082
 30
0.0
 11
23.612514
 21
29.247082
 31
0.0
  0
LINE
  5
E34D
  8
ALPHA
 10
27.073379
 20
25.728034
 30
0.0
 11
23.373379
 21
25.728034
 31
0.0
  0
POLYLINE
  5
E34E
  8
ALPHA
 66
     1
 10
0.0
 20
0.0
 30
0.0
  0
VERTEX
  5
E91D
  8
ALPHA
 10
26.764424
 20
28.565338
 30
0.0
  0
VERTEX
  5
E91E
  8
ALPHA
 10
26.790175
 20
28.109692
 30
0.0
  0
VERTEX
  5
E91F
  8
ALPHA
 10
26.816126
 20
27.693137
 30
0.0
  0
VERTEX
  5
E920
  8
ALPHA
 10
26.84226
 20
27.315962
 30
0.0
  0
SEQEND
  5
E921
  8
ALPHA
  0
POLYLINE
  5
E34F
  8
ALPHA
 66
     1
 10
0.0
 20
0.0
 30
0.0
  0
VERTEX
  5
E922
  8
ALPHA
 10
23.273379
 20
24.228014
 30
0.0
  0
VERTEX
  5
E923
  8
ALPHA
 10
22.939572
 20
24.271602
 30
0.0
  0
VERTEX
  5
E924
  8
ALPHA
 10
22.621207
 20
24.403441
 30
0.0
  0
VERTEX
  5
E925
  8
ALPHA
 10
22.354116
 20
24.608804
 30
0.0
  0
VERTEX
  5
E926
  8
ALPHA
 10
22.148803
 20
24.87585
 30
0.0
  0
VERTEX
  5
E927
  8
ALPHA
 10
22.016994
 20
25.194115
 30
0.0
  0
VERTEX
  5
E928
  8
ALPHA
 10
21.973379
 20
25.528031
 30
0.0
  0
SEQEND
  5
E929
  8
ALPHA
  0
LINE
  5
E352
  8
ALPHA
 10
25.973379
 20
24.228014
 30
0.0
 11
23.273379
 21
24.228014
 31
0.0
  0
ARC
  5
E353
  8
ALPHA
 10
26.473379
 20
22.647082
 30
0.0
 40
0.5
 50
180.0
 51
270.0
  0
LINE
  5
E354
  8
ALPHA
 10
25.973379
 20
22.647082
 30
0.0
 11
25.973379
 21
24.228014
 31
0.0
  0
LINE
  5
E355
  8
ALPHA
 10
23.682334
 20
28.565338
 30
0.0
 11
26.764424
 21
28.565338
 31
0.0
  0
POLYLINE
  5
E356
  8
ALPHA
 66
     1
 10
0.0
 20
0.0
 30
0.0
  0
VERTEX
  5
E92A
  8
ALPHA
 10
23.682334
 20
28.565338
 30
0.0
  0
VERTEX
  5
E92B
  8
ALPHA
 10
23.581226
 20
27.01515
 30
0.0
  0
VERTEX
  5
E92C
  8
ALPHA
 10
23.477879
 20
26.066056
 30
0.0
  0
VERTEX
  5
E92D
  8
ALPHA
 10
23.373379
 20
25.728034
 30
0.0
  0
SEQEND
  5
E92E
  8
ALPHA
  0
LINE
  5
E357
  8
ALPHA
 10
23.682334
 20
29.247082
 30
0.0
 11
23.682334
 21
28.565338
 31
0.0
  0
LINE
  5
E358
  8
ALPHA
 10
26.764424
 20
29.247082
 30
0.0
 11
26.764424
 21
28.565338
 31
0.0
  0
CIRCLE
  5
E359
  8
ALPHA
 10
30.973379
 20
25.547082
 30
0.0
 40
1.4
  0
CIRCLE
  5
E35A
  8
ALPHA
 10
30.973379
 20
25.547082
 30
0.0
 40
1.85
  0
CIRCLE
  5
E35B
  8
ALPHA
 10
30.973379
 20
25.547082
 30
0.0
 40
1.242904
  0
CIRCLE
  5
E35C
  8
ALPHA
 10
30.973379
 20
25.547082
 30
0.0
 40
1.55
  0
ARC
  5
E35D
  8
ALPHA
 10
30.973379
 20
25.547082
 30
0.0
 40
2.6
 50
129.715137
 51
237.795772
  0
ARC
  5
E35E
  8
ALPHA
 10
30.973379
 20
25.547082
 30
0.0
 40
2.896736
 50
143.985204
 51
221.074316
  0
LINE
  5
E35F
  8
ALPHA
 10
27.370115
 20
27.250346
 30
0.0
 11
27.370115
 21
23.643818
 31
0.0
  0
LINE
  5
E360
  8
ALPHA
 10
27.073379
 20
25.728034
 30
0.0
 11
27.073379
 21
23.347082
 31
0.0
  0
LINE
  5
E361
  8
ALPHA
 10
27.073379
 20
23.347082
 30
0.0
 11
29.587739
 21
23.347082
 31
0.0
  0
POLYLINE
  5
E362
  8
ALPHA
 66
     1
 10
0.0
 20
0.0
 30
0.0
  0
VERTEX
  5
E92F
  8
ALPHA
 10
29.587739
 20
23.347082
 30
0.0
  0
VERTEX
  5
E930
  8
ALPHA
 10
29.292505
 20
23.441388
 30
0.0
  0
VERTEX
  5
E931
  8
ALPHA
 10
29.030427
 20
23.540317
 30
0.0
  0
VERTEX
  5
E932
  8
ALPHA
 10
28.789651
 20
23.643818
 30
0.0
  0
SEQEND
  5
E933
  8
ALPHA
  0
LINE
  5
E363
  8
ALPHA
 10
27.073379
 20
23.347082
 30
0.0
 11
27.370115
 21
23.643818
 31
0.0
  0
LINE
  5
E364
  8
ALPHA
 10
27.370115
 20
23.643818
 30
0.0
 11
28.789651
 21
23.643818
 31
0.0
  0
POLYLINE
  5
E365
  8
ALPHA
 66
     1
 10
0.0
 20
0.0
 30
0.0
  0
VERTEX
  5
E934
  8
ALPHA
 10
29.312054
 20
27.547082
 30
0.0
  0
VERTEX
  5
E935
  8
ALPHA
 10
29.066517
 20
27.451851
 30
0.0
  0
VERTEX
  5
E936
  8
ALPHA
 10
28.841188
 20
27.352925
 30
0.0
  0
VERTEX
  5
E937
  8
ALPHA
 10
28.63031
 20
27.250346
 30
0.0
  0
SEQEND
  5
E938
  8
ALPHA
  0
LINE
  5
E366
  8
ALPHA
 10
29.312054
 20
27.547082
 30
0.0
 11
27.073379
 21
27.547082
 31
0.0
  0
LINE
  5
E367
  8
ALPHA
 10
27.073379
 20
27.547082
 30
0.0
 11
26.84226
 21
27.315962
 31
0.0
  0
LINE
  5
E368
  8
ALPHA
 10
26.84226
 20
27.315962
 30
0.0
 11
27.304498
 21
27.315962
 31
0.0
  0
LINE
  5
E369
  8
ALPHA
 10
28.63031
 20
27.250346
 30
0.0
 11
27.370115
 21
27.250346
 31
0.0
  0
POLYLINE
  5
E36A
  8
ALPHA
 66
     1
 10
0.0
 20
0.0
 30
0.0
  0
VERTEX
  5
E939
  8
ALPHA
 10
27.304498
 20
27.315962
 30
0.0
  0
VERTEX
  5
E93A
  8
ALPHA
 10
27.228238
 20
26.450735
 30
0.0
  0
VERTEX
  5
E93B
  8
ALPHA
 10
27.151049
 20
25.9204
 30
0.0
  0
VERTEX
  5
E93C
  8
ALPHA
 10
27.073379
 20
25.728034
 30
0.0
  0
SEQEND
  5
E93D
  8
ALPHA
  0
LINE
  5
E36B
  8
ALPHA
 10
27.304498
 20
27.315962
 30
0.0
 11
27.370115
 21
27.250346
 31
0.0
  0
ARC
  5
E36C
  8
ALPHA
 10
40.973379
 20
28.147082
 30
0.0
 40
2.5
 50
90.0
 51
270.0
  0
ARC
  5
E378
  8
ALPHA
 10
50.973379
 20
-53.102918
 30
0.0
 40
124.717228
 50
95.559612
 51
98.762826
  0
ARC
  5
E379
  8
ALPHA
 10
50.973379
 20
-22.352918
 30
0.0
 40
81.582772
 50
95.827051
 51
103.467414
  0
ARC
  5
E37A
  8
ALPHA
 10
50.973379
 20
-22.352918
 30
0.0
 40
81.3
 50
95.647099
 51
106.801262
  0
ARC
  5
E37B
  8
ALPHA
 10
50.973379
 20
-53.102918
 30
0.0
 40
125.0
 50
95.416787
 51
100.836089
  0
ARC
  5
E37C
  8
ALPHA
 10
30.973379
 20
63.147082
 30
0.0
 40
3.5
 50
270.0
 51
45.194009
  0
LINE
  5
E37E
  8
ALPHA
 10
36.185371
 20
64.179854
 30
0.0
 11
34.617881
 21
64.179854
 31
0.0
  0
LINE
  5
E37F
  8
ALPHA
 10
36.468143
 20
63.897082
 30
0.0
 11
34.397439
 21
63.897082
 31
0.0
  0
LINE
  5
E380
  8
ALPHA
 10
34.397439
 20
62.397082
 30
0.0
 11
36.54932
 21
62.397082
 31
0.0
  0
LINE
  5
E381
  8
ALPHA
 10
34.617881
 20
62.11431
 30
0.0
 11
36.328878
 21
62.11431
 31
0.0
  0
LINE
  5
E383
  8
ALPHA
 10
29.973379
 20
36.647082
 30
0.0
 11
47.973379
 21
36.647082
 31
0.0
  0
LINE
  5
E384
  8
ALPHA
 10
47.973379
 20
33.147082
 30
0.0
 11
30.973379
 21
33.147082
 31
0.0
  0
LINE
  5
E385
  8
ALPHA
 10
30.973379
 20
55.647082
 30
0.0
 11
30.973379
 21
39.147082
 31
0.0
  0
LINE
  5
E386
  8
ALPHA
 10
29.973379
 20
55.647082
 30
0.0
 11
29.973379
 21
35.647082
 31
0.0
  0
LINE
  5
E387
  8
ALPHA
 10
27.073379
 20
54.56613
 30
0.0
 11
23.373379
 21
54.56613
 31
0.0
  0
LINE
  5
E388
  8
ALPHA
 10
23.612514
 20
51.047082
 30
0.0
 11
26.834245
 21
51.047082
 31
0.0
  0
POLYLINE
  5
E389
  8
ALPHA
 66
     1
 10
0.0
 20
0.0
 30
0.0
  0
VERTEX
  5
E93E
  8
ALPHA
 10
27.073379
 20
54.56613
 30
0.0
  0
VERTEX
  5
E93F
  8
ALPHA
 10
26.968879
 20
54.228107
 30
0.0
  0
VERTEX
  5
E940
  8
ALPHA
 10
26.865532
 20
53.279013
 30
0.0
  0
VERTEX
  5
E941
  8
ALPHA
 10
26.764424
 20
51.728825
 30
0.0
  0
SEQEND
  5
E942
  8
ALPHA
  0
LINE
  5
E38C
  8
ALPHA
 10
23.682334
 20
51.728825
 30
0.0
 11
26.764424
 21
51.728825
 31
0.0
  0
POLYLINE
  5
E38D
  8
ALPHA
 66
     1
 10
0.0
 20
0.0
 30
0.0
  0
VERTEX
  5
E943
  8
ALPHA
 10
23.373379
 20
54.56613
 30
0.0
  0
VERTEX
  5
E944
  8
ALPHA
 10
23.477879
 20
54.228107
 30
0.0
  0
VERTEX
  5
E945
  8
ALPHA
 10
23.581226
 20
53.279013
 30
0.0
  0
VERTEX
  5
E946
  8
ALPHA
 10
23.682334
 20
51.728825
 30
0.0
  0
SEQEND
  5
E947
  8
ALPHA
  0
LINE
  5
E38E
  8
ALPHA
 10
23.682334
 20
51.728825
 30
0.0
 11
23.682334
 21
51.047082
 31
0.0
  0
LINE
  5
E38F
  8
ALPHA
 10
26.764424
 20
51.728825
 30
0.0
 11
26.764424
 21
51.047082
 31
0.0
  0
POLYLINE
  5
E390
  8
ALPHA
 66
     1
 10
0.0
 20
0.0
 30
0.0
  0
VERTEX
  5
E948
  8
ALPHA
 10
26.834245
 20
51.047082
 30
0.0
  0
VERTEX
  5
E949
  8
ALPHA
 10
26.867286
 20
50.881457
 30
0.0
  0
VERTEX
  5
E94A
  8
ALPHA
 10
26.899322
 20
50.389629
 30
0.0
  0
VERTEX
  5
E94B
  8
ALPHA
 10
26.929381
 20
49.586555
 30
0.0
  0
VERTEX
  5
E94C
  8
ALPHA
 10
26.956548
 20
48.496674
 30
0.0
  0
VERTEX
  5
E94D
  8
ALPHA
 10
26.979998
 20
47.153113
 30
0.0
  0
VERTEX
  5
E94E
  8
ALPHA
 10
26.999018
 20
45.596738
 30
0.0
  0
VERTEX
  5
E94F
  8
ALPHA
 10
27.013033
 20
43.874819
 30
0.0
  0
VERTEX
  5
E950
  8
ALPHA
 10
27.021615
 20
42.039693
 30
0.0
  0
VERTEX
  5
E951
  8
ALPHA
 10
27.024505
 20
40.147082
 30
0.0
  0
VERTEX
  5
E952
  8
ALPHA
 10
27.021615
 20
38.25447
 30
0.0
  0
VERTEX
  5
E953
  8
ALPHA
 10
27.013033
 20
36.419345
 30
0.0
  0
VERTEX
  5
E954
  8
ALPHA
 10
26.999018
 20
34.697426
 30
0.0
  0
VERTEX
  5
E955
  8
ALPHA
 10
26.979998
 20
33.141051
 30
0.0
  0
VERTEX
  5
E956
  8
ALPHA
 10
26.956548
 20
31.797489
 30
0.0
  0
SEQEND
  5
E957
  8
ALPHA
  0
ARC
  5
E391
  8
ALPHA
 10
29.973379
 20
63.147082
 30
0.0
 40
3.505237
 50
180.0
 51
224.502601
  0
ARC
  5
E392
  8
ALPHA
 10
29.973379
 20
65.147082
 30
0.0
 40
3.505237
 50
135.497399
 51
180.0
  0
ARC
  5
E393
  8
ALPHA
 10
29.973379
 20
65.147082
 30
0.0
 40
3.5
 50
7.936093
 51
180.0
  0
ARC
  5
E394
  8
ALPHA
 10
29.973379
 20
63.147082
 30
0.0
 40
3.5
 50
180.0
 51
270.0
  0
ARC
  5
E395
  8
ALPHA
 10
26.973379
 20
69.826177
 30
0.0
 40
1.0
 50
101.047152
 51
180.0
  0
LINE
  5
E396
  8
ALPHA
 10
25.973379
 20
56.066149
 30
0.0
 11
25.973379
 21
69.826177
 31
0.0
  0
POLYLINE
  5
E397
  8
ALPHA
 66
     1
 10
0.0
 20
0.0
 30
0.0
  0
VERTEX
  5
E958
  8
ALPHA
 10
21.973379
 20
54.766132
 30
0.0
  0
VERTEX
  5
E959
  8
ALPHA
 10
22.016994
 20
55.100048
 30
0.0
  0
VERTEX
  5
E95A
  8
ALPHA
 10
22.148803
 20
55.418314
 30
0.0
  0
VERTEX
  5
E95B
  8
ALPHA
 10
22.354116
 20
55.685359
 30
0.0
  0
VERTEX
  5
E95C
  8
ALPHA
 10
22.621207
 20
55.890723
 30
0.0
  0
VERTEX
  5
E95D
  8
ALPHA
 10
22.939572
 20
56.022561
 30
0.0
  0
VERTEX
  5
E95E
  8
ALPHA
 10
23.273379
 20
56.066149
 30
0.0
  0
SEQEND
  5
E95F
  8
ALPHA
  0
LINE
  5
E399
  8
ALPHA
 10
25.973379
 20
56.066149
 30
0.0
 11
23.273379
 21
56.066149
 31
0.0
  0
LINE
  5
E39A
  8
ALPHA
 10
26.468143
 20
65.147082
 30
0.0
 11
26.473379
 21
65.147082
 31
0.0
  0
LINE
  5
E39B
  8
ALPHA
 10
26.468143
 20
63.147082
 30
0.0
 11
26.473379
 21
63.147082
 31
0.0
  0
LINE
  5
E39C
  8
ALPHA
 10
26.473379
 20
65.147082
 30
0.0
 11
26.473379
 21
63.147082
 31
0.0
  0
LINE
  5
E39D
  8
ALPHA
 10
26.468143
 20
65.147082
 30
0.0
 11
26.468143
 21
63.147082
 31
0.0
  0
ARC
  5
E39F
  8
ALPHA
 10
29.973379
 20
65.147082
 30
0.0
 40
3.788009
 50
9.398467
 51
58.130798
  0
ARC
  5
E3A0
  8
ALPHA
 10
29.973379
 20
65.147082
 30
0.0
 40
2.313808
 50
0.0
 51
180.0
  0
ARC
  5
E3A1
  8
ALPHA
 10
29.973379
 20
65.147082
 30
0.0
 40
2.1
 50
0.0
 51
180.0
  0
ARC
  5
E3A2
  8
ALPHA
 10
50.973379
 20
-22.352918
 30
0.0
 40
81.687502
 50
103.525365
 51
106.435632
  0
LINE
  5
E3A3
  8
ALPHA
 10
29.973379
 20
61.047082
 30
0.0
 11
30.973379
 21
61.047082
 31
0.0
  0
LINE
  5
E3A4
  8
ALPHA
 10
30.973379
 20
60.833273
 30
0.0
 11
29.973379
 21
60.833273
 31
0.0
  0
LINE
  5
E3A5
  8
ALPHA
 10
29.973379
 20
59.647082
 30
0.0
 11
30.973379
 21
59.647082
 31
0.0
  0
LINE
  5
E3A6
  8
ALPHA
 10
29.973379
 20
59.254343
 30
0.0
 11
30.973379
 21
59.254343
 31
0.0
  0
ARC
  5
E3A7
  8
ALPHA
 10
29.973379
 20
63.147082
 30
0.0
 40
2.313808
 50
180.0
 51
270.0
  0
POLYLINE
  5
E3A8
  8
ALPHA
 66
     1
 10
0.0
 20
0.0
 30
0.0
  0
VERTEX
  5
E960
  8
ALPHA
 10
27.860882
 20
59.877407
 30
0.0
  0
VERTEX
  5
E961
  8
ALPHA
 10
27.727035
 20
60.133246
 30
0.0
  0
VERTEX
  5
E962
  8
ALPHA
 10
27.59786
 20
60.402677
 30
0.0
  0
VERTEX
  5
E963
  8
ALPHA
 10
27.473379
 20
60.690115
 30
0.0
  0
SEQEND
  5
E964
  8
ALPHA
  0
LINE
  5
E3A9
  8
ALPHA
 10
27.473379
 20
55.476639
 30
0.0
 11
27.473379
 21
60.690115
 31
0.0
  0
ARC
  5
E3AA
  8
ALPHA
 10
29.973379
 20
63.147082
 30
0.0
 40
3.892739
 50
237.133981
 51
270.0
  0
LINE
  5
E3AB
  8
ALPHA
 10
27.860882
 20
55.996686
 30
0.0
 11
27.860882
 21
59.877407
 31
0.0
  0
LINE
  5
E3AC
  8
ALPHA
 10
27.473379
 20
55.476639
 30
0.0
 11
27.860882
 21
55.996686
 31
0.0
  0
LINE
  5
E3AD
  8
ALPHA
 10
29.973379
 20
59.254343
 30
0.0
 11
29.973379
 21
59.647082
 31
0.0
  0
ARC
  5
E3AE
  8
ALPHA
 10
29.973379
 20
63.147082
 30
0.0
 40
2.1
 50
180.0
 51
270.0
  0
LINE
  5
E3AF
  8
ALPHA
 10
27.659571
 20
65.147082
 30
0.0
 11
27.873379
 21
65.147082
 31
0.0
  0
LINE
  5
E3B0
  8
ALPHA
 10
27.659571
 20
63.147082
 30
0.0
 11
27.873379
 21
63.147082
 31
0.0
  0
LINE
  5
E3B1
  8
ALPHA
 10
27.873379
 20
65.147082
 30
0.0
 11
27.873379
 21
63.147082
 31
0.0
  0
LINE
  5
E3B2
  8
ALPHA
 10
27.659571
 20
63.147082
 30
0.0
 11
27.659571
 21
65.147082
 31
0.0
  0
LINE
  5
E3B3
  8
ALPHA
 10
29.973379
 20
61.047082
 30
0.0
 11
29.973379
 21
60.833273
 31
0.0
  0
ARC
  5
E3B4
  8
ALPHA
 10
30.973379
 20
63.147082
 30
0.0
 40
3.788009
 50
285.307004
 51
344.178429
  0
ARC
  5
E3B5
  8
ALPHA
 10
30.973379
 20
63.147082
 30
0.0
 40
2.313808
 50
270.0
 51
55.402205
  0
ARC
  5
E3B6
  8
ALPHA
 10
30.973379
 20
63.147082
 30
0.0
 40
3.892739
 50
270.0
 51
283.296159
  0
LINE
  5
E3B7
  8
ALPHA
 10
31.868649
 20
57.069102
 30
0.0
 11
31.973379
 21
56.986534
 31
0.0
  0
LINE
  5
E3B8
  8
ALPHA
 10
31.973379
 20
59.493452
 30
0.0
 11
31.973379
 21
56.986534
 31
0.0
  0
LINE
  5
E3B9
  8
ALPHA
 10
31.868649
 20
59.35869
 30
0.0
 11
31.868649
 21
57.069102
 31
0.0
  0
LINE
  5
E3BA
  8
ALPHA
 10
30.973379
 20
59.647082
 30
0.0
 11
30.973379
 21
59.254343
 31
0.0
  0
POLYLINE
  5
E3BB
  8
ALPHA
 66
     1
 10
0.0
 20
0.0
 30
0.0
  0
VERTEX
  5
E965
  8
ALPHA
 10
31.868649
 20
59.35869
 30
0.0
  0
VERTEX
  5
E966
  8
ALPHA
 10
31.903759
 20
59.403327
 30
0.0
  0
VERTEX
  5
E967
  8
ALPHA
 10
31.938669
 20
59.448245
 30
0.0
  0
VERTEX
  5
E968
  8
ALPHA
 10
31.973379
 20
59.493452
 30
0.0
  0
SEQEND
  5
E969
  8
ALPHA
  0
ARC
  5
E3BC
  8
ALPHA
 10
30.973379
 20
63.147082
 30
0.0
 40
2.1
 50
270.0
 51
58.411864
  0
LINE
  5
E3BD
  8
ALPHA
 10
32.073379
 20
65.147082
 30
0.0
 11
32.287187
 21
65.147082
 31
0.0
  0
LINE
  5
E3BE
  8
ALPHA
 10
32.287187
 20
65.147082
 30
0.0
 11
32.287187
 21
65.051712
 31
0.0
  0
LINE
  5
E3BF
  8
ALPHA
 10
32.073379
 20
64.935936
 30
0.0
 11
32.073379
 21
65.147082
 31
0.0
  0
LINE
  5
E3C0
  8
ALPHA
 10
30.973379
 20
61.047082
 30
0.0
 11
30.973379
 21
60.833273
 31
0.0
  0
LINE
  5
E3C1
  8
ALPHA
 10
32.073379
 20
64.935936
 30
0.0
 11
32.287187
 21
65.051712
 31
0.0
  0
ARC
  5
E3C2
  8
ALPHA
 10
30.973379
 20
63.147082
 30
0.0
 40
3.788009
 50
15.821571
 51
43.731635
  0
ARC
  5
E3C3
  8
ALPHA
 10
30.973379
 20
63.147082
 30
0.0
 40
3.505237
 50
347.645152
 51
12.354848
  0
LINE
  5
E3C4
  8
ALPHA
 10
34.617881
 20
62.11431
 30
0.0
 11
34.397439
 21
62.397082
 31
0.0
  0
LINE
  5
E3C5
  8
ALPHA
 10
33.439859
 20
65.630321
 30
0.0
 11
33.710539
 21
65.765662
 31
0.0
  0
LINE
  5
E3C6
  8
ALPHA
 10
34.617881
 20
64.179854
 30
0.0
 11
34.397439
 21
63.897082
 31
0.0
  0
ARC
  5
E3C7
  8
ALPHA
 10
50.973379
 20
-53.102918
 30
0.0
 40
124.612498
 50
98.818976
 51
100.688825
  0
ARC
  5
E3C8
  8
ALPHA
 10
29.973379
 20
65.147082
 30
0.0
 40
3.892739
 50
60.864739
 51
122.866019
  0
LINE
  5
E3C9
  8
ALPHA
 10
27.860882
 20
69.347427
 30
0.0
 11
27.473379
 21
69.66821
 31
0.0
  0
LINE
  5
E3CA
  8
ALPHA
 10
27.860882
 20
68.416756
 30
0.0
 11
27.860882
 21
69.347427
 31
0.0
  0
LINE
  5
E3CB
  8
ALPHA
 10
27.473379
 20
67.604048
 30
0.0
 11
27.473379
 21
69.66821
 31
0.0
  0
POLYLINE
  5
E3CC
  8
ALPHA
 66
     1
 10
0.0
 20
0.0
 30
0.0
  0
VERTEX
  5
E96A
  8
ALPHA
 10
27.473379
 20
67.604048
 30
0.0
  0
VERTEX
  5
E96B
  8
ALPHA
 10
27.597782
 20
67.891315
 30
0.0
  0
VERTEX
  5
E96C
  8
ALPHA
 10
27.726955
 20
68.160759
 30
0.0
  0
VERTEX
  5
E96D
  8
ALPHA
 10
27.860882
 20
68.416756
 30
0.0
  0
SEQEND
  5
E96E
  8
ALPHA
  0
POLYLINE
  5
E3CD
  8
ALPHA
 66
     1
 10
0.0
 20
0.0
 30
0.0
  0
VERTEX
  5
E96F
  8
ALPHA
 10
31.868649
 20
68.547283
 30
0.0
  0
VERTEX
  5
E970
  8
ALPHA
 10
31.903826
 20
68.486866
 30
0.0
  0
VERTEX
  5
E971
  8
ALPHA
 10
31.938736
 20
68.425807
 30
0.0
  0
VERTEX
  5
E972
  8
ALPHA
 10
31.973379
 20
68.364069
 30
0.0
  0
SEQEND
  5
E973
  8
ALPHA
  0
LINE
  5
E3CE
  8
ALPHA
 10
31.973379
 20
70.158539
 30
0.0
 11
31.973379
 21
68.364069
 31
0.0
  0
LINE
  5
E3CF
  8
ALPHA
 10
31.868649
 20
70.036368
 30
0.0
 11
31.868649
 21
68.547283
 31
0.0
  0
LINE
  5
E3D0
  8
ALPHA
 10
31.868649
 20
70.036368
 30
0.0
 11
31.973379
 21
70.158539
 31
0.0
  0
LINE
  5
E3D1
  8
ALPHA
 10
50.223379
 20
54.813748
 30
0.0
 11
50.223379
 21
54.480416
 31
0.0
  0
LINE
  5
E3D2
  8
ALPHA
 10
40.973379
 20
55.647082
 30
0.0
 11
40.973379
 21
52.147082
 31
0.0
  0
LINE
  5
E3D3
  8
ALPHA
 10
39.973379
 20
55.647082
 30
0.0
 11
39.973379
 21
48.147082
 31
0.0
  0
LINE
  5
E3D4
  8
ALPHA
 10
37.173379
 20
53.647082
 30
0.0
 11
37.173379
 21
55.647082
 31
0.0
  0
LINE
  5
E3D5
  8
ALPHA
 10
40.973379
 20
53.147082
 30
0.0
 11
47.973379
 21
53.147082
 31
0.0
  0
LINE
  5
E3D6
  8
ALPHA
 10
39.973379
 20
49.147082
 30
0.0
 11
47.973379
 21
49.147082
 31
0.0
  0
LINE
  5
E3D7
  8
ALPHA
 10
37.173379
 20
40.747082
 30
0.0
 11
37.173379
 21
44.347082
 31
0.0
  0
LINE
  5
E3D8
  8
ALPHA
 10
37.173379
 20
37.247082
 30
0.0
 11
37.173379
 21
39.547082
 31
0.0
  0
LINE
  5
E3D9
  8
ALPHA
 10
37.173379
 20
33.747082
 30
0.0
 11
37.173379
 21
36.047082
 31
0.0
  0
LINE
  5
E3DA
  8
ALPHA
 10
37.140046
 20
47.897082
 30
0.0
 11
36.640046
 21
48.047081
 31
0.0
  0
LINE
  5
E3DB
  8
ALPHA
 10
36.973379
 20
45.797081
 30
0.0
 11
37.306712
 21
46.097082
 31
0.0
  0
LINE
  5
E3DC
  8
ALPHA
 10
36.306712
 20
45.947081
 30
0.0
 11
36.473379
 21
45.947081
 31
0.0
  0
LINE
  5
E3DD
  8
ALPHA
 10
36.640046
 20
48.047081
 30
0.0
 11
35.973379
 21
48.347082
 31
0.0
  0
LINE
  5
E3DE
  8
ALPHA
 10
36.473379
 20
45.947081
 30
0.0
 11
36.640046
 21
45.797081
 31
0.0
  0
LINE
  5
E3DF
  8
ALPHA
 10
36.640046
 20
45.797081
 30
0.0
 11
36.806712
 21
45.497082
 31
0.0
  0
LINE
  5
E3E0
  8
ALPHA
 10
36.140046
 20
44.897082
 30
0.0
 11
35.973379
 21
45.197081
 31
0.0
  0
LINE
  5
E3E1
  8
ALPHA
 10
36.140046
 20
45.797081
 30
0.0
 11
36.306712
 21
45.947081
 31
0.0
  0
LINE
  5
E3E2
  8
ALPHA
 10
36.806712
 20
45.497082
 30
0.0
 11
36.973379
 21
45.797081
 31
0.0
  0
LINE
  5
E3E3
  8
ALPHA
 10
35.973379
 20
45.497082
 30
0.0
 11
36.140046
 21
45.797081
 31
0.0
  0
LINE
  5
E3E4
  8
ALPHA
 10
36.806712
 20
45.197081
 30
0.0
 11
36.806712
 21
45.497082
 31
0.0
  0
LINE
  5
E3E5
  8
ALPHA
 10
35.973379
 20
45.197081
 30
0.0
 11
35.973379
 21
45.497082
 31
0.0
  0
LINE
  5
E3E6
  8
ALPHA
 10
35.973379
 20
48.347082
 30
0.0
 11
35.973379
 21
47.147082
 31
0.0
  0
LINE
  5
E3E7
  8
ALPHA
 10
37.973379
 20
47.747082
 30
0.0
 11
37.140046
 21
47.897082
 31
0.0
  0
LINE
  5
E3E8
  8
ALPHA
 10
37.306712
 20
46.097082
 30
0.0
 11
37.473379
 21
46.097082
 31
0.0
  0
LINE
  5
E3E9
  8
ALPHA
 10
37.473379
 20
46.097082
 30
0.0
 11
37.806712
 21
45.797081
 31
0.0
  0
LINE
  5
E3EA
  8
ALPHA
 10
37.806712
 20
45.797081
 30
0.0
 11
37.973379
 21
45.497082
 31
0.0
  0
LINE
  5
E3EB
  8
ALPHA
 10
37.806712
 20
44.897082
 30
0.0
 11
37.640046
 21
44.747082
 31
0.0
  0
LINE
  5
E3EC
  8
ALPHA
 10
37.973379
 20
45.197081
 30
0.0
 11
37.806712
 21
44.897082
 31
0.0
  0
LINE
  5
E3ED
  8
ALPHA
 10
37.973379
 20
45.497082
 30
0.0
 11
37.973379
 21
45.197081
 31
0.0
  0
LINE
  5
E3EE
  8
ALPHA
 10
37.306712
 20
51.947081
 30
0.0
 11
36.640046
 21
51.947081
 31
0.0
  0
LINE
  5
E3EF
  8
ALPHA
 10
37.306712
 20
51.947081
 30
0.0
 11
36.973379
 21
52.097082
 31
0.0
  0
LINE
  5
E3F0
  8
ALPHA
 10
36.973379
 20
52.997082
 30
0.0
 11
37.306712
 21
53.147082
 31
0.0
  0
LINE
  5
E3F1
  8
ALPHA
 10
36.640046
 20
51.947081
 30
0.0
 11
36.306712
 21
52.097082
 31
0.0
  0
LINE
  5
E3F2
  8
ALPHA
 10
36.306712
 20
52.097082
 30
0.0
 11
36.140046
 21
52.247082
 31
0.0
  0
LINE
  5
E3F3
  8
ALPHA
 10
36.973379
 20
52.097082
 30
0.0
 11
36.806712
 21
52.547081
 31
0.0
  0
LINE
  5
E3F4
  8
ALPHA
 10
36.140046
 20
52.247082
 30
0.0
 11
35.973379
 21
52.547081
 31
0.0
  0
LINE
  5
E3F5
  8
ALPHA
 10
36.140046
 20
52.847082
 30
0.0
 11
36.306712
 21
52.997082
 31
0.0
  0
LINE
  5
E3F6
  8
ALPHA
 10
36.806712
 20
52.547081
 30
0.0
 11
36.973379
 21
52.997082
 31
0.0
  0
LINE
  5
E3F7
  8
ALPHA
 10
35.973379
 20
52.547081
 30
0.0
 11
36.140046
 21
52.847082
 31
0.0
  0
LINE
  5
E3F8
  8
ALPHA
 10
37.806712
 20
50.147082
 30
0.0
 11
37.973379
 21
50.147082
 31
0.0
  0
LINE
  5
E3F9
  8
ALPHA
 10
37.306712
 20
53.147082
 30
0.0
 11
37.640046
 21
52.997082
 31
0.0
  0
LINE
  5
E3FA
  8
ALPHA
 10
37.640046
 20
52.997082
 30
0.0
 11
37.806712
 21
52.847082
 31
0.0
  0
LINE
  5
E3FB
  8
ALPHA
 10
37.973379
 20
50.147082
 30
0.0
 11
38.306712
 21
49.847082
 31
0.0
  0
LINE
  5
E3FC
  8
ALPHA
 10
37.806712
 20
52.847082
 30
0.0
 11
37.973379
 21
52.547081
 31
0.0
  0
LINE
  5
E3FD
  8
ALPHA
 10
37.640046
 20
52.097082
 30
0.0
 11
37.306712
 21
51.947081
 31
0.0
  0
LINE
  5
E3FE
  8
ALPHA
 10
37.973379
 20
50.147082
 30
0.0
 11
37.806712
 21
49.997082
 31
0.0
  0
LINE
  5
E3FF
  8
ALPHA
 10
37.806712
 20
49.997082
 30
0.0
 11
37.806712
 21
50.147082
 31
0.0
  0
LINE
  5
E400
  8
ALPHA
 10
37.806712
 20
52.247082
 30
0.0
 11
37.640046
 21
52.097082
 31
0.0
  0
LINE
  5
E401
  8
ALPHA
 10
37.973379
 20
52.547081
 30
0.0
 11
37.806712
 21
52.247082
 31
0.0
  0
LINE
  5
E402
  8
ALPHA
 10
50.035879
 20
37.647082
 30
0.0
 11
48.723379
 21
36.147082
 31
0.0
  0
LINE
  5
E403
  8
ALPHA
 10
50.035879
 20
35.647082
 30
0.0
 11
50.035879
 21
37.647082
 31
0.0
  0
LINE
  5
E404
  8
ALPHA
 10
50.035879
 20
34.047083
 30
0.0
 11
48.723379
 21
32.547083
 31
0.0
  0
LINE
  5
E405
  8
ALPHA
 10
48.723379
 20
36.147082
 30
0.0
 11
50.410879
 21
36.147082
 31
0.0
  0
LINE
  5
E406
  8
ALPHA
 10
48.723379
 20
32.547083
 30
0.0
 11
50.410879
 21
32.547083
 31
0.0
  0
LINE
  5
E407
  8
ALPHA
 10
50.035879
 20
32.047083
 30
0.0
 11
50.035879
 21
34.047083
 31
0.0
  0
LINE
  5
E408
  8
ALPHA
 10
50.035879
 20
41.147082
 30
0.0
 11
48.723379
 21
39.647082
 31
0.0
  0
LINE
  5
E409
  8
ALPHA
 10
48.723379
 20
39.647082
 30
0.0
 11
50.410879
 21
39.647082
 31
0.0
  0
LINE
  5
E40A
  8
ALPHA
 10
50.035879
 20
39.147082
 30
0.0
 11
50.035879
 21
41.147082
 31
0.0
  0
LINE
  5
E40B
  8
ALPHA
 10
48.723379
 20
53.147082
 30
0.0
 11
50.223379
 21
53.147082
 31
0.0
  0
LINE
  5
E40C
  8
ALPHA
 10
49.285879
 20
51.647082
 30
0.0
 11
49.660879
 21
51.647082
 31
0.0
  0
LINE
  5
E40D
  8
ALPHA
 10
48.723379
 20
49.647082
 30
0.0
 11
50.223379
 21
49.647082
 31
0.0
  0
LINE
  5
E40E
  8
ALPHA
 10
50.035879
 20
50.813748
 30
0.0
 11
49.285879
 21
50.480416
 31
0.0
  0
LINE
  5
E40F
  8
ALPHA
 10
50.035879
 20
54.313748
 30
0.0
 11
49.285879
 21
53.980416
 31
0.0
  0
LINE
  5
E410
  8
ALPHA
 10
48.910879
 20
50.147082
 30
0.0
 11
48.723379
 21
49.647082
 31
0.0
  0
LINE
  5
E411
  8
ALPHA
 10
48.910879
 20
51.480416
 30
0.0
 11
49.285879
 21
51.647082
 31
0.0
  0
LINE
  5
E412
  8
ALPHA
 10
49.285879
 20
50.480416
 30
0.0
 11
48.910879
 21
50.147082
 31
0.0
  0
LINE
  5
E413
  8
ALPHA
 10
48.723379
 20
51.313748
 30
0.0
 11
48.910879
 21
51.480416
 31
0.0
  0
LINE
  5
E414
  8
ALPHA
 10
48.910879
 20
53.647082
 30
0.0
 11
48.723379
 21
53.147082
 31
0.0
  0
LINE
  5
E415
  8
ALPHA
 10
49.285879
 20
53.980416
 30
0.0
 11
48.910879
 21
53.647082
 31
0.0
  0
LINE
  5
E416
  8
ALPHA
 10
49.660879
 20
51.647082
 30
0.0
 11
50.035879
 21
51.480416
 31
0.0
  0
LINE
  5
E417
  8
ALPHA
 10
50.035879
 20
51.480416
 30
0.0
 11
50.223379
 21
51.313748
 31
0.0
  0
LINE
  5
E418
  8
ALPHA
 10
50.223379
 20
51.313748
 30
0.0
 11
50.223379
 21
50.980416
 31
0.0
  0
LINE
  5
E419
  8
ALPHA
 10
50.223379
 20
50.980416
 30
0.0
 11
50.035879
 21
50.813748
 31
0.0
  0
LINE
  5
E41A
  8
ALPHA
 10
50.223379
 20
54.480416
 30
0.0
 11
50.035879
 21
54.313748
 31
0.0
  0
ARC
  5
E41B
  8
ALPHA
 10
40.973379
 20
63.147082
 30
0.0
 40
2.313808
 50
270.0
 51
55.402205
  0
ARC
  5
E41C
  8
ALPHA
 10
40.973379
 20
63.147082
 30
0.0
 40
2.1
 50
270.0
 51
58.411864
  0
LINE
  5
E41D
  8
ALPHA
 10
42.973379
 20
73.147082
 30
0.0
 11
49.569356
 21
73.147082
 31
0.0
  0
LINE
  5
E41E
  8
ALPHA
 10
40.160427
 20
70.597082
 30
0.0
 11
50.373379
 21
70.597082
 31
0.0
  0
LINE
  5
E41F
  8
ALPHA
 10
40.473379
 20
69.997082
 30
0.0
 11
43.626969
 21
69.997082
 31
0.0
  0
LINE
  5
E420
  8
ALPHA
 10
41.473379
 20
69.962074
 30
0.0
 11
43.644001
 21
69.962074
 31
0.0
  0
POLYLINE
  5
E421
  8
ALPHA
 66
     1
 10
0.0
 20
0.0
 30
0.0
  0
VERTEX
  5
E974
  8
ALPHA
 10
42.973379
 20
69.297082
 30
0.0
  0
VERTEX
  5
E975
  8
ALPHA
 10
43.081204
 20
69.274232
 30
0.0
  0
VERTEX
  5
E976
  8
ALPHA
 10
43.404708
 20
69.251849
 30
0.0
  0
SEQEND
  5
E977
  8
ALPHA
  0
LINE
  5
E422
  8
ALPHA
 10
41.473379
 20
69.397082
 30
0.0
 11
45.273379
 21
69.397082
 31
0.0
  0
LINE
  5
E423
  8
ALPHA
 10
42.973379
 20
69.297082
 30
0.0
 11
44.573379
 21
69.297082
 31
0.0
  0
LINE
  5
E424
  8
ALPHA
 10
43.968143
 20
67.578893
 30
0.0
 11
41.355008
 21
67.578893
 31
0.0
  0
POLYLINE
  5
E425
  8
ALPHA
 66
     1
 10
0.0
 20
0.0
 30
0.0
  0
VERTEX
  5
E978
  8
ALPHA
 10
42.973379
 20
67.797082
 30
0.0
  0
VERTEX
  5
E979
  8
ALPHA
 10
43.111108
 20
67.771282
 30
0.0
  0
VERTEX
  5
E97A
  8
ALPHA
 10
43.519556
 20
67.74637
 30
0.0
  0
VERTEX
  5
E97B
  8
ALPHA
 10
44.184598
 20
67.723206
 30
0.0
  0
VERTEX
  5
E97C
  8
ALPHA
 10
45.083383
 20
67.702586
 30
0.0
  0
VERTEX
  5
E97D
  8
ALPHA
 10
46.184842
 20
67.685219
 30
0.0
  0
VERTEX
  5
E97E
  8
ALPHA
 10
47.451156
 20
67.671704
 30
0.0
  0
VERTEX
  5
E97F
  8
ALPHA
 10
48.838629
 20
67.662505
 30
0.0
  0
VERTEX
  5
E980
  8
ALPHA
 10
50.299572
 20
67.657937
 30
0.0
  0
SEQEND
  5
E981
  8
ALPHA
  0
LINE
  5
E426
  8
ALPHA
 10
39.973379
 20
59.647082
 30
0.0
 11
43.968143
 21
59.647082
 31
0.0
  0
LINE
  5
E427
  8
ALPHA
 10
42.973379
 20
59.641845
 30
0.0
 11
43.973379
 21
59.641845
 31
0.0
  0
ARC
  5
E428
  8
ALPHA
 10
39.973379
 20
65.147082
 30
0.0
 40
3.788009
 50
106.609187
 51
180.0
  0
ARC
  5
E429
  8
ALPHA
 10
39.973379
 20
65.147082
 30
0.0
 40
2.313808
 50
0.0
 51
180.0
  0
ARC
  5
E42A
  8
ALPHA
 10
39.973379
 20
65.147082
 30
0.0
 40
3.5
 50
86.894187
 51
180.0
  0
ARC
  5
E42B
  8
ALPHA
 10
39.973379
 20
65.147082
 30
0.0
 40
2.1
 50
0.0
 51
180.0
  0
ARC
  5
E42C
  8
ALPHA
 10
39.973379
 20
63.147082
 30
0.0
 40
3.788009
 50
195.821571
 51
270.0
  0
ARC
  5
E42D
  8
ALPHA
 10
39.973379
 20
63.147082
 30
0.0
 40
2.313808
 50
180.0
 51
270.0
  0
ARC
  5
E42E
  8
ALPHA
 10
39.973379
 20
63.147082
 30
0.0
 40
3.5
 50
180.0
 51
270.0
  0
ARC
  5
E42F
  8
ALPHA
 10
39.973379
 20
63.147082
 30
0.0
 40
2.1
 50
180.0
 51
270.0
  0
LINE
  5
E430
  8
ALPHA
 10
36.473379
 20
63.147082
 30
0.0
 11
37.659571
 21
63.147082
 31
0.0
  0
ARC
  5
E431
  8
ALPHA
 10
39.973379
 20
63.147082
 30
0.0
 40
3.505237
 50
180.0
 51
192.354848
  0
LINE
  5
E432
  8
ALPHA
 10
36.185371
 20
65.147082
 30
0.0
 11
36.473379
 21
65.147082
 31
0.0
  0
LINE
  5
E433
  8
ALPHA
 10
36.468143
 20
63.147082
 30
0.0
 11
36.473379
 21
63.147082
 31
0.0
  0
LINE
  5
E434
  8
ALPHA
 10
36.185371
 20
64.179854
 30
0.0
 11
36.468143
 21
63.897082
 31
0.0
  0
LINE
  5
E435
  8
ALPHA
 10
36.473379
 20
65.147082
 30
0.0
 11
36.473379
 21
63.147082
 31
0.0
  0
LINE
  5
E436
  8
ALPHA
 10
36.468143
 20
63.897082
 30
0.0
 11
36.468143
 21
63.147082
 31
0.0
  0
LINE
  5
E437
  8
ALPHA
 10
36.185371
 20
65.147082
 30
0.0
 11
36.185371
 21
64.179854
 31
0.0
  0
LINE
  5
E438
  8
ALPHA
 10
36.328878
 20
62.11431
 30
0.0
 11
36.54932
 21
62.397082
 31
0.0
  0
LINE
  5
E439
  8
ALPHA
 10
37.659571
 20
65.147082
 30
0.0
 11
37.873379
 21
65.147082
 31
0.0
  0
LINE
  5
E43A
  8
ALPHA
 10
37.873379
 20
63.147082
 30
0.0
 11
37.659571
 21
63.147082
 31
0.0
  0
LINE
  5
E43B
  8
ALPHA
 10
37.873379
 20
65.147082
 30
0.0
 11
37.873379
 21
63.147082
 31
0.0
  0
LINE
  5
E43C
  8
ALPHA
 10
37.659571
 20
63.147082
 30
0.0
 11
37.659571
 21
65.147082
 31
0.0
  0
LINE
  5
E43D
  8
ALPHA
 10
37.173379
 20
63.147082
 30
0.0
 11
37.173379
 21
61.547082
 31
0.0
  0
LINE
  5
E43E
  8
ALPHA
 10
39.973379
 20
59.359073
 30
0.0
 11
42.690607
 21
59.359073
 31
0.0
  0
LINE
  5
E43F
  8
ALPHA
 10
39.973379
 20
59.359073
 30
0.0
 11
39.973379
 21
59.647082
 31
0.0
  0
LINE
  5
E440
  8
ALPHA
 10
42.690607
 20
58.808306
 30
0.0
 11
42.973379
 21
58.55252
 31
0.0
  0
LINE
  5
E441
  8
ALPHA
 10
42.973379
 20
59.641845
 30
0.0
 11
42.973379
 21
58.55252
 31
0.0
  0
LINE
  5
E442
  8
ALPHA
 10
42.690607
 20
59.359073
 30
0.0
 11
42.690607
 21
58.808306
 31
0.0
  0
LINE
  5
E443
  8
ALPHA
 10
42.690607
 20
59.359073
 30
0.0
 11
42.973379
 21
59.641845
 31
0.0
  0
LINE
  5
E444
  8
ALPHA
 10
39.973379
 20
61.047082
 30
0.0
 11
40.973379
 21
61.047082
 31
0.0
  0
LINE
  5
E445
  8
ALPHA
 10
40.973379
 20
60.833273
 30
0.0
 11
39.973379
 21
60.833273
 31
0.0
  0
LINE
  5
E446
  8
ALPHA
 10
40.973379
 20
61.047082
 30
0.0
 11
40.973379
 21
60.833273
 31
0.0
  0
LINE
  5
E447
  8
ALPHA
 10
39.973379
 20
61.047082
 30
0.0
 11
39.973379
 21
60.833273
 31
0.0
  0
LINE
  5
E448
  8
ALPHA
 10
42.073379
 20
65.147082
 30
0.0
 11
42.287187
 21
65.147082
 31
0.0
  0
LINE
  5
E449
  8
ALPHA
 10
42.287187
 20
65.147082
 30
0.0
 11
42.287187
 21
65.051712
 31
0.0
  0
LINE
  5
E44A
  8
ALPHA
 10
42.073379
 20
64.935936
 30
0.0
 11
42.073379
 21
65.147082
 31
0.0
  0
LINE
  5
E44B
  8
ALPHA
 10
42.073379
 20
64.935936
 30
0.0
 11
42.287187
 21
65.051712
 31
0.0
  0
LINE
  5
E44C
  8
ALPHA
 10
38.890607
 20
68.777042
 30
0.0
 11
39.173379
 21
68.559805
 31
0.0
  0
LINE
  5
E44D
  8
ALPHA
 10
38.890607
 20
71.027632
 30
0.0
 11
39.173379
 21
71.338875
 31
0.0
  0
LINE
  5
E44E
  8
ALPHA
 10
38.890607
 20
71.027632
 30
0.0
 11
38.890607
 21
68.777042
 31
0.0
  0
POLYLINE
  5
E44F
  8
ALPHA
 66
     1
 10
0.0
 20
0.0
 30
0.0
  0
VERTEX
  5
E982
  8
ALPHA
 10
41.356596
 20
69.650865
 30
0.0
  0
VERTEX
  5
E983
  8
ALPHA
 10
41.228571
 20
69.674223
 30
0.0
  0
VERTEX
  5
E984
  8
ALPHA
 10
41.149197
 20
69.701847
 30
0.0
  0
VERTEX
  5
E985
  8
ALPHA
 10
41.123379
 20
69.73148
 30
0.0
  0
SEQEND
  5
E986
  8
ALPHA
  0
LINE
  5
E450
  8
ALPHA
 10
40.373379
 20
69.297082
 30
0.0
 11
42.486039
 21
69.297082
 31
0.0
  0
LINE
  5
E451
  8
ALPHA
 10
41.483383
 20
69.207085
 30
0.0
 11
40.245972
 21
69.169675
 31
0.0
  0
POLYLINE
  5
E452
  8
ALPHA
 66
     1
 10
0.0
 20
0.0
 30
0.0
  0
VERTEX
  5
E987
  8
ALPHA
 10
41.355008
 20
67.578893
 30
0.0
  0
VERTEX
  5
E988
  8
ALPHA
 10
41.011324
 20
67.629159
 30
0.0
  0
VERTEX
  5
E989
  8
ALPHA
 10
40.693233
 20
67.777871
 30
0.0
  0
VERTEX
  5
E98A
  8
ALPHA
 10
40.436115
 20
68.007173
 30
0.0
  0
VERTEX
  5
E98B
  8
ALPHA
 10
40.252113
 20
68.306242
 30
0.0
  0
VERTEX
  5
E98C
  8
ALPHA
 10
40.16301
 20
68.641941
 30
0.0
  0
SEQEND
  5
E98D
  8
ALPHA
  0
POLYLINE
  5
E453
  8
ALPHA
 66
     1
 10
0.0
 20
0.0
 30
0.0
  0
VERTEX
  5
E98E
  8
ALPHA
 10
40.245972
 20
68.869492
 30
0.0
  0
VERTEX
  5
E98F
  8
ALPHA
 10
40.264247
 20
68.664563
 30
0.0
  0
VERTEX
  5
E990
  8
ALPHA
 10
40.323217
 20
68.454479
 30
0.0
  0
VERTEX
  5
E991
  8
ALPHA
 10
40.415775
 20
68.267922
 30
0.0
  0
VERTEX
  5
E992
  8
ALPHA
 10
40.535437
 20
68.106957
 30
0.0
  0
VERTEX
  5
E993
  8
ALPHA
 10
40.679451
 20
67.970401
 30
0.0
  0
VERTEX
  5
E994
  8
ALPHA
 10
40.846196
 20
67.859038
 30
0.0
  0
VERTEX
  5
E995
  8
ALPHA
 10
41.035217
 20
67.774932
 30
0.0
  0
VERTEX
  5
E996
  8
ALPHA
 10
41.247268
 20
67.721958
 30
0.0
  0
VERTEX
  5
E997
  8
ALPHA
 10
41.483383
 20
67.707068
 30
0.0
  0
SEQEND
  5
E998
  8
ALPHA
  0
POLYLINE
  5
E454
  8
ALPHA
 66
     1
 10
0.0
 20
0.0
 30
0.0
  0
VERTEX
  5
E999
  8
ALPHA
 10
41.123379
 20
69.73148
 30
0.0
  0
VERTEX
  5
E99A
  8
ALPHA
 10
41.149573
 20
69.762734
 30
0.0
  0
VERTEX
  5
E99B
  8
ALPHA
 10
41.228912
 20
69.794286
 30
0.0
  0
VERTEX
  5
E99C
  8
ALPHA
 10
41.356712
 20
69.823381
 30
0.0
  0
SEQEND
  5
E99D
  8
ALPHA
  0
ARC
  5
E455
  8
ALPHA
 10
39.973379
 20
65.147082
 30
0.0
 40
3.505237
 50
86.812578
 51
103.192885
  0
LINE
  5
E456
  8
ALPHA
 10
41.123379
 20
69.997082
 30
0.0
 11
41.123379
 21
69.73148
 31
0.0
  0
LINE
  5
E457
  8
ALPHA
 10
40.473379
 20
70.597082
 30
0.0
 11
40.473379
 21
69.997082
 31
0.0
  0
LINE
  5
E458
  8
ALPHA
 10
40.373379
 20
70.597082
 30
0.0
 11
40.373379
 21
69.297082
 31
0.0
  0
LINE
  5
E459
  8
ALPHA
 10
40.245972
 20
69.169675
 30
0.0
 11
40.245972
 21
68.869492
 31
0.0
  0
LINE
  5
E45A
  8
ALPHA
 10
40.160427
 20
68.783947
 30
0.0
 11
40.160427
 21
70.597082
 31
0.0
  0
POLYLINE
  5
E45B
  8
ALPHA
 66
     1
 10
0.0
 20
0.0
 30
0.0
  0
VERTEX
  5
E99E
  8
ALPHA
 10
40.168278
 20
68.646896
 30
0.0
  0
VERTEX
  5
E99F
  8
ALPHA
 10
40.163919
 20
68.692467
 30
0.0
  0
VERTEX
  5
E9A0
  8
ALPHA
 10
40.161301
 20
68.738173
 30
0.0
  0
VERTEX
  5
E9A1
  8
ALPHA
 10
40.160427
 20
68.783947
 30
0.0
  0
SEQEND
  5
E9A2
  8
ALPHA
  0
LINE
  5
E45C
  8
ALPHA
 10
39.173379
 20
71.338875
 30
0.0
 11
39.173379
 21
68.559805
 31
0.0
  0
LINE
  5
E45D
  8
ALPHA
 10
40.16301
 20
68.641941
 30
0.0
 11
40.168278
 21
68.646896
 31
0.0
  0
LINE
  5
E45E
  8
ALPHA
 10
40.245972
 20
68.869492
 30
0.0
 11
40.160427
 21
68.783947
 31
0.0
  0
LINE
  5
E45F
  8
ALPHA
 10
40.373379
 20
69.297082
 30
0.0
 11
40.245972
 21
69.169675
 31
0.0
  0
ARC
  5
E460
  8
ALPHA
 10
42.973379
 20
68.947082
 30
0.0
 40
0.6
 50
130.744079
 51
144.314665
  0
POLYLINE
  5
E461
  8
ALPHA
 66
     1
 10
0.0
 20
0.0
 30
0.0
  0
VERTEX
  5
E9A3
  8
ALPHA
 10
41.356712
 20
69.823381
 30
0.0
  0
VERTEX
  5
E9A4
  8
ALPHA
 10
41.420216
 20
69.838199
 30
0.0
  0
VERTEX
  5
E9A5
  8
ALPHA
 10
41.459882
 20
69.855211
 30
0.0
  0
VERTEX
  5
E9A6
  8
ALPHA
 10
41.473379
 20
69.873583
 30
0.0
  0
SEQEND
  5
E9A7
  8
ALPHA
  0
LINE
  5
E462
  8
ALPHA
 10
41.473379
 20
69.48041
 30
0.0
 11
41.373379
 21
69.492774
 31
0.0
  0
LINE
  5
E463
  8
ALPHA
 10
42.973379
 20
67.797082
 30
0.0
 11
41.573379
 21
67.797082
 31
0.0
  0
POLYLINE
  5
E464
  8
ALPHA
 66
     1
 10
0.0
 20
0.0
 30
0.0
  0
VERTEX
  5
E9A8
  8
ALPHA
 10
41.473379
 20
69.614737
 30
0.0
  0
VERTEX
  5
E9A9
  8
ALPHA
 10
41.459921
 20
69.627378
 30
0.0
  0
VERTEX
  5
E9AA
  8
ALPHA
 10
41.420292
 20
69.639664
 30
0.0
  0
VERTEX
  5
E9AB
  8
ALPHA
 10
41.356596
 20
69.650865
 30
0.0
  0
SEQEND
  5
E9AC
  8
ALPHA
  0
LINE
  5
E465
  8
ALPHA
 10
43.14769
 20
70.597082
 30
0.0
 11
43.14769
 21
69.997082
 31
0.0
  0
LINE
  5
E466
  8
ALPHA
 10
42.973379
 20
69.297082
 30
0.0
 11
42.973379
 21
67.797082
 31
0.0
  0
LINE
  5
E467
  8
ALPHA
 10
41.573379
 20
69.297082
 30
0.0
 11
41.573379
 21
67.797082
 31
0.0
  0
LINE
  5
E468
  8
ALPHA
 10
41.483383
 20
69.207085
 30
0.0
 11
41.483383
 21
67.707068
 31
0.0
  0
LINE
  5
E469
  8
ALPHA
 10
41.473379
 20
69.873583
 30
0.0
 11
41.473379
 21
69.997082
 31
0.0
  0
LINE
  5
E46A
  8
ALPHA
 10
41.473379
 20
69.614737
 30
0.0
 11
41.473379
 21
69.397088
 31
0.0
  0
LINE
  5
E46B
  8
ALPHA
 10
41.373379
 20
69.650865
 30
0.0
 11
41.373379
 21
69.297082
 31
0.0
  0
LINE
  5
E46C
  8
ALPHA
 10
41.356712
 20
69.997082
 30
0.0
 11
41.356712
 21
69.823381
 31
0.0
  0
LINE
  5
E46D
  8
ALPHA
 10
41.268305
 20
70.597082
 30
0.0
 11
41.268305
 21
69.997082
 31
0.0
  0
LINE
  5
E46E
  8
ALPHA
 10
41.573379
 20
67.797082
 30
0.0
 11
41.355008
 21
67.578893
 31
0.0
  0
LINE
  5
E46F
  8
ALPHA
 10
41.573379
 20
69.297082
 30
0.0
 11
41.483383
 21
69.207085
 31
0.0
  0
LINE
  5
E471
  8
ALPHA
 10
42.973379
 20
73.147082
 30
0.0
 11
42.70444
 21
72.878143
 31
0.0
  0
LINE
  5
E472
  8
ALPHA
 10
43.973379
 20
66.297082
 30
0.0
 11
44.114457
 21
66.156004
 31
0.0
  0
LINE
  5
E473
  8
ALPHA
 10
50.373379
 20
66.297082
 30
0.0
 11
50.373379
 21
58.844865
 31
0.0
  0
LINE
  5
E474
  8
ALPHA
 10
43.968143
 20
59.647082
 30
0.0
 11
43.968143
 21
67.578893
 31
0.0
  0
LINE
  5
E475
  8
ALPHA
 10
50.373379
 20
66.297082
 30
0.0
 11
50.299572
 21
66.223274
 31
0.0
  0
ARC
  5
E476
  8
ALPHA
 10
50.973379
 20
-22.352918
 30
0.0
 40
81.2
 50
90.423372
 51
94.94543
  0
POLYLINE
  5
E477
  8
ALPHA
 66
     1
 10
0.0
 20
0.0
 30
0.0
  0
VERTEX
  5
E9AD
  8
ALPHA
 10
50.299572
 20
66.223274
 30
0.0
  0
VERTEX
  5
E9AE
  8
ALPHA
 10
48.814381
 20
66.218589
 30
0.0
  0
VERTEX
  5
E9AF
  8
ALPHA
 10
47.399772
 20
66.209064
 30
0.0
  0
VERTEX
  5
E9B0
  8
ALPHA
 10
46.123111
 20
66.195179
 30
0.0
  0
VERTEX
  5
E9B1
  8
ALPHA
 10
45.009946
 20
66.177212
 30
0.0
  0
VERTEX
  5
E9B2
  8
ALPHA
 10
44.114457
 20
66.156004
 30
0.0
  0
SEQEND
  5
E9B3
  8
ALPHA
  0
POLYLINE
  5
E478
  8
ALPHA
 66
     1
 10
0.0
 20
0.0
 30
0.0
  0
VERTEX
  5
E9B4
  8
ALPHA
 10
44.114457
 20
58.698461
 30
0.0
  0
VERTEX
  5
E9B5
  8
ALPHA
 10
45.010264
 20
58.748015
 30
0.0
  0
VERTEX
  5
E9B6
  8
ALPHA
 10
46.123475
 20
58.804195
 30
0.0
  0
VERTEX
  5
E9B7
  8
ALPHA
 10
47.399983
 20
58.856517
 30
0.0
  0
VERTEX
  5
E9B8
  8
ALPHA
 10
48.814463
 20
58.896896
 30
0.0
  0
VERTEX
  5
E9B9
  8
ALPHA
 10
50.299572
 20
58.918096
 30
0.0
  0
SEQEND
  5
E9BA
  8
ALPHA
  0
LINE
  5
E479
  8
ALPHA
 10
44.114457
 20
66.156004
 30
0.0
 11
44.114457
 21
58.698461
 31
0.0
  0
LINE
  5
E47A
  8
ALPHA
 10
43.973379
 20
59.641845
 30
0.0
 11
43.968143
 21
59.647082
 31
0.0
  0
LINE
  5
E47B
  8
ALPHA
 10
43.973379
 20
59.641845
 30
0.0
 11
43.973379
 21
58.544795
 31
0.0
  0
LINE
  5
E47C
  8
ALPHA
 10
43.973379
 20
58.544795
 30
0.0
 11
44.114457
 21
58.698461
 31
0.0
  0
LINE
  5
E47D
  8
ALPHA
 10
50.299572
 20
58.918096
 30
0.0
 11
50.299572
 21
66.223274
 31
0.0
  0
LINE
  5
E47E
  8
ALPHA
 10
49.285879
 20
55.147082
 30
0.0
 11
49.660879
 21
55.147082
 31
0.0
  0
LINE
  5
E47F
  8
ALPHA
 10
49.035879
 20
57.647082
 30
0.0
 11
49.973379
 21
55.980416
 31
0.0
  0
LINE
  5
E480
  8
ALPHA
 10
49.035879
 20
55.647082
 30
0.0
 11
49.035879
 21
57.647082
 31
0.0
  0
LINE
  5
E481
  8
ALPHA
 10
48.723379
 20
54.813748
 30
0.0
 11
48.910879
 21
54.980416
 31
0.0
  0
LINE
  5
E482
  8
ALPHA
 10
48.910879
 20
54.980416
 30
0.0
 11
49.285879
 21
55.147082
 31
0.0
  0
LINE
  5
E483
  8
ALPHA
 10
50.373379
 20
58.844865
 30
0.0
 11
50.299572
 21
58.918096
 31
0.0
  0
LINE
  5
E484
  8
ALPHA
 10
49.660879
 20
55.147082
 30
0.0
 11
50.035879
 21
54.980416
 31
0.0
  0
LINE
  5
E485
  8
ALPHA
 10
50.035879
 20
54.980416
 30
0.0
 11
50.223379
 21
54.813748
 31
0.0
  0
LINE
  5
E486
  8
ALPHA
 10
50.910879
 20
57.647082
 30
0.0
 11
50.910879
 21
55.647082
 31
0.0
  0
LINE
  5
E487
  8
ALPHA
 10
49.973379
 20
55.980416
 30
0.0
 11
50.910879
 21
57.647082
 31
0.0
  0
LINE
  5
E488
  8
ALPHA
 10
43.973379
 20
67.58413
 30
0.0
 11
50.373379
 21
67.58413
 31
0.0
  0
LINE
  5
E489
  8
ALPHA
 10
50.373379
 20
66.297082
 30
0.0
 11
43.973379
 21
66.297082
 31
0.0
  0
LINE
  5
E48A
  8
ALPHA
 10
46.573379
 20
70.447082
 30
0.0
 11
44.564728
 21
70.447082
 31
0.0
  0
POLYLINE
  5
E48B
  8
ALPHA
 66
     1
 10
0.0
 20
0.0
 30
0.0
  0
VERTEX
  5
E9BB
  8
ALPHA
 10
44.573379
 20
69.297082
 30
0.0
  0
VERTEX
  5
E9BC
  8
ALPHA
 10
44.657612
 20
69.279017
 30
0.0
  0
VERTEX
  5
E9BD
  8
ALPHA
 10
44.909193
 20
69.261371
 30
0.0
  0
VERTEX
  5
E9BE
  8
ALPHA
 10
45.318604
 20
69.244764
 30
0.0
  0
VERTEX
  5
E9BF
  8
ALPHA
 10
45.879782
 20
69.229444
 30
0.0
  0
VERTEX
  5
E9C0
  8
ALPHA
 10
46.573379
 20
69.215958
 30
0.0
  0
SEQEND
  5
E9C1
  8
ALPHA
  0
POLYLINE
  5
E48C
  8
ALPHA
 66
     1
 10
0.0
 20
0.0
 30
0.0
  0
VERTEX
  5
E9C2
  8
ALPHA
 10
45.273379
 20
69.472022
 30
0.0
  0
VERTEX
  5
E9C3
  8
ALPHA
 10
45.129192
 20
69.484046
 30
0.0
  0
VERTEX
  5
E9C4
  8
ALPHA
 10
44.990256
 20
69.497366
 30
0.0
  0
SEQEND
  5
E9C5
  8
ALPHA
  0
POLYLINE
  5
E48D
  8
ALPHA
 66
     1
 10
0.0
 20
0.0
 30
0.0
  0
VERTEX
  5
E9C6
  8
ALPHA
 10
44.646516
 20
69.211622
 30
0.0
  0
VERTEX
  5
E9C7
  8
ALPHA
 10
45.539526
 20
69.194596
 30
0.0
  0
VERTEX
  5
E9C8
  8
ALPHA
 10
46.573379
 20
69.180459
 30
0.0
  0
SEQEND
  5
E9C9
  8
ALPHA
  0
POLYLINE
  5
E48E
  8
ALPHA
 66
     1
 10
0.0
 20
0.0
 30
0.0
  0
VERTEX
  5
E9CA
  8
ALPHA
 10
43.992022
 20
70.159156
 30
0.0
  0
VERTEX
  5
E9CB
  8
ALPHA
 10
44.127547
 20
70.005745
 30
0.0
  0
VERTEX
  5
E9CC
  8
ALPHA
 10
44.388463
 20
69.881591
 30
0.0
  0
VERTEX
  5
E9CD
  8
ALPHA
 10
44.771042
 20
69.784339
 30
0.0
  0
VERTEX
  5
E9CE
  8
ALPHA
 10
45.273379
 20
69.711521
 30
0.0
  0
SEQEND
  5
E9CF
  8
ALPHA
  0
POLYLINE
  5
E48F
  8
ALPHA
 66
     1
 10
0.0
 20
0.0
 30
0.0
  0
VERTEX
  5
E9D0
  8
ALPHA
 10
43.992022
 20
70.553322
 30
0.0
  0
VERTEX
  5
E9D1
  8
ALPHA
 10
44.126356
 20
70.402324
 30
0.0
  0
VERTEX
  5
E9D2
  8
ALPHA
 10
44.388072
 20
70.27877
 30
0.0
  0
VERTEX
  5
E9D3
  8
ALPHA
 10
44.773614
 20
70.181909
 30
0.0
  0
VERTEX
  5
E9D4
  8
ALPHA
 10
45.273379
 20
70.110333
 30
0.0
  0
SEQEND
  5
E9D5
  8
ALPHA
  0
LINE
  5
E490
  8
ALPHA
 10
44.990271
 20
69.497364
 30
0.0
 11
45.273379
 21
69.711521
 31
0.0
  0
ARC
  5
E491
  8
ALPHA
 10
42.973379
 20
68.947082
 30
0.0
 40
0.6
 50
35.685335
 51
49.255921
  0
ARC
  5
E492
  8
ALPHA
 10
44.564728
 20
70.947082
 30
0.0
 40
0.5
 50
224.532775
 51
270.0
  0
LINE
  5
E493
  8
ALPHA
 10
43.992022
 20
70.553322
 30
0.0
 11
44.263404
 21
70.553322
 31
0.0
  0
POLYLINE
  5
E494
  8
ALPHA
 66
     1
 10
0.0
 20
0.0
 30
0.0
  0
VERTEX
  5
E9D6
  8
ALPHA
 10
44.990256
 20
69.497366
 30
0.0
  0
VERTEX
  5
E9D7
  8
ALPHA
 10
44.467826
 20
69.569259
 30
0.0
  0
VERTEX
  5
E9D8
  8
ALPHA
 10
44.064165
 20
69.668567
 30
0.0
  0
VERTEX
  5
E9D9
  8
ALPHA
 10
43.788644
 20
69.79759
 30
0.0
  0
VERTEX
  5
E9DA
  8
ALPHA
 10
43.64716
 20
69.956583
 30
0.0
  0
SEQEND
  5
E9DB
  8
ALPHA
  0
LINE
  5
E495
  8
ALPHA
 10
43.404708
 20
69.251849
 30
0.0
 11
43.930706
 21
69.230843
 31
0.0
  0
LINE
  5
E496
  8
ALPHA
 10
43.930706
 20
69.230843
 30
0.0
 11
44.646516
 21
69.211622
 31
0.0
  0
POLYLINE
  5
E497
  8
ALPHA
 66
     1
 10
0.0
 20
0.0
 30
0.0
  0
VERTEX
  5
E9DC
  8
ALPHA
 10
43.64716
 20
69.956583
 30
0.0
  0
VERTEX
  5
E9DD
  8
ALPHA
 10
43.64538
 20
69.959465
 30
0.0
  0
VERTEX
  5
E9DE
  8
ALPHA
 10
43.644001
 20
69.962074
 30
0.0
  0
SEQEND
  5
E9DF
  8
ALPHA
  0
LINE
  5
E498
  8
ALPHA
 10
43.973379
 20
70.597082
 30
0.0
 11
43.992022
 21
70.553322
 31
0.0
  0
LINE
  5
E499
  8
ALPHA
 10
43.644001
 20
69.962074
 30
0.0
 11
43.626969
 21
69.997082
 31
0.0
  0
LINE
  5
E49A
  8
ALPHA
 10
43.973379
 20
70.197082
 30
0.0
 11
43.992022
 21
70.159156
 31
0.0
  0
LINE
  5
E49B
  8
ALPHA
 10
43.992022
 20
70.553322
 30
0.0
 11
43.992022
 21
70.159156
 31
0.0
  0
LINE
  5
E49C
  8
ALPHA
 10
43.973379
 20
70.197082
 30
0.0
 11
43.973379
 21
70.597082
 31
0.0
  0
LINE
  5
E49D
  8
ALPHA
 10
43.973379
 20
66.297082
 30
0.0
 11
43.973379
 21
67.58413
 31
0.0
  0
LINE
  5
E49E
  8
ALPHA
 10
43.773379
 20
70.081612
 30
0.0
 11
43.773379
 21
70.597082
 31
0.0
  0
LINE
  5
E49F
  8
ALPHA
 10
43.973379
 20
67.58413
 30
0.0
 11
43.968143
 21
67.578893
 31
0.0
  0
LINE
  5
E4A0
  8
ALPHA
 10
43.626969
 20
69.997082
 30
0.0
 11
43.973379
 21
70.197082
 31
0.0
  0
LINE
  5
E4A1
  8
ALPHA
 10
43.795351
 20
70.044095
 30
0.0
 11
43.992022
 21
70.159156
 31
0.0
  0
LINE
  5
E4A2
  8
ALPHA
 10
43.646937
 20
69.956857
 30
0.0
 11
43.795351
 21
70.044095
 31
0.0
  0
LINE
  5
E4A3
  8
ALPHA
 10
46.573379
 20
69.997082
 30
0.0
 11
46.473379
 21
69.997082
 31
0.0
  0
POLYLINE
  5
E4A4
  8
ALPHA
 66
     1
 10
0.0
 20
0.0
 30
0.0
  0
VERTEX
  5
E9E0
  8
ALPHA
 10
45.273379
 20
69.998262
 30
0.0
  0
VERTEX
  5
E9E1
  8
ALPHA
 10
45.322644
 20
70.011479
 30
0.0
  0
VERTEX
  5
E9E2
  8
ALPHA
 10
45.470553
 20
70.03894
 30
0.0
  0
VERTEX
  5
E9E3
  8
ALPHA
 10
45.713782
 20
70.07892
 30
0.0
  0
VERTEX
  5
E9E4
  8
ALPHA
 10
46.05057
 20
70.129347
 30
0.0
  0
VERTEX
  5
E9E5
  8
ALPHA
 10
46.473379
 20
70.186747
 30
0.0
  0
SEQEND
  5
E9E6
  8
ALPHA
  0
POLYLINE
  5
E4A5
  8
ALPHA
 66
     1
 10
0.0
 20
0.0
 30
0.0
  0
VERTEX
  5
E9E7
  8
ALPHA
 10
45.292086
 20
69.403378
 30
0.0
  0
VERTEX
  5
E9E8
  8
ALPHA
 10
45.322644
 20
69.411706
 30
0.0
  0
VERTEX
  5
E9E9
  8
ALPHA
 10
45.470553
 20
69.439599
 30
0.0
  0
VERTEX
  5
E9EA
  8
ALPHA
 10
45.713782
 20
69.480207
 30
0.0
  0
VERTEX
  5
E9EB
  8
ALPHA
 10
46.05057
 20
69.531428
 30
0.0
  0
VERTEX
  5
E9EC
  8
ALPHA
 10
46.473379
 20
69.589731
 30
0.0
  0
SEQEND
  5
E9ED
  8
ALPHA
  0
LINE
  5
E4A6
  8
ALPHA
 10
46.473379
 20
69.697082
 30
0.0
 11
46.573379
 21
69.697082
 31
0.0
  0
LINE
  5
E4A7
  8
ALPHA
 10
46.573379
 20
69.180459
 30
0.0
 11
46.573379
 21
70.597082
 31
0.0
  0
LINE
  5
E4A8
  8
ALPHA
 10
46.473379
 20
70.186747
 30
0.0
 11
46.473379
 21
70.447082
 31
0.0
  0
LINE
  5
E4A9
  8
ALPHA
 10
46.473379
 20
70.186747
 30
0.0
 11
46.473379
 21
69.589731
 31
0.0
  0
LINE
  5
E4AA
  8
ALPHA
 10
45.273379
 20
70.110333
 30
0.0
 11
45.273379
 21
69.397082
 31
0.0
  0
LINE
  5
E4AC
  8
ALPHA
 10
50.373379
 20
67.58413
 30
0.0
 11
50.299572
 21
67.657937
 31
0.0
  0
LINE
  5
E4AD
  8
ALPHA
 10
50.373379
 20
67.58413
 30
0.0
 11
50.373379
 21
70.597082
 31
0.0
  0
LINE
  5
E4AE
  8
ALPHA
 10
50.299572
 20
67.657937
 30
0.0
 11
50.299572
 21
70.597082
 31
0.0
  0
POLYLINE
  5
E4B1
  8
ALPHA
 66
     1
 10
0.0
 20
0.0
 30
0.0
  0
VERTEX
  5
E9EE
  8
ALPHA
 10
78.334245
 20
29.247082
 30
0.0
  0
VERTEX
  5
E9EF
  8
ALPHA
 10
78.367286
 20
29.412706
 30
0.0
  0
VERTEX
  5
E9F0
  8
ALPHA
 10
78.399322
 20
29.904535
 30
0.0
  0
VERTEX
  5
E9F1
  8
ALPHA
 10
78.429381
 20
30.707608
 30
0.0
  0
VERTEX
  5
E9F2
  8
ALPHA
 10
78.456548
 20
31.797489
 30
0.0
  0
VERTEX
  5
E9F3
  8
ALPHA
 10
78.479998
 20
33.141051
 30
0.0
  0
VERTEX
  5
E9F4
  8
ALPHA
 10
78.499018
 20
34.697426
 30
0.0
  0
VERTEX
  5
E9F5
  8
ALPHA
 10
78.513033
 20
36.419345
 30
0.0
  0
VERTEX
  5
E9F6
  8
ALPHA
 10
78.521615
 20
38.25447
 30
0.0
  0
VERTEX
  5
E9F7
  8
ALPHA
 10
78.524505
 20
40.147082
 30
0.0
  0
VERTEX
  5
E9F8
  8
ALPHA
 10
78.521615
 20
42.039693
 30
0.0
  0
VERTEX
  5
E9F9
  8
ALPHA
 10
78.513033
 20
43.874819
 30
0.0
  0
VERTEX
  5
E9FA
  8
ALPHA
 10
78.499018
 20
45.596738
 30
0.0
  0
VERTEX
  5
E9FB
  8
ALPHA
 10
78.479998
 20
47.153113
 30
0.0
  0
VERTEX
  5
E9FC
  8
ALPHA
 10
78.456548
 20
48.496674
 30
0.0
  0
VERTEX
  5
E9FD
  8
ALPHA
 10
78.429381
 20
49.586555
 30
0.0
  0
VERTEX
  5
E9FE
  8
ALPHA
 10
78.399322
 20
50.389629
 30
0.0
  0
VERTEX
  5
E9FF
  8
ALPHA
 10
78.367286
 20
50.881457
 30
0.0
  0
VERTEX
  5
EA00
  8
ALPHA
 10
78.334245
 20
51.047082
 30
0.0
  0
SEQEND
  5
EA01
  8
ALPHA
  0
LINE
  5
E4B4
  8
ALPHA
 10
79.973379
 20
54.766132
 30
0.0
 11
79.973379
 21
25.528031
 31
0.0
  0
LINE
  5
E4B6
  8
ALPHA
 10
78.573379
 20
54.56613
 30
0.0
 11
78.573379
 21
25.728034
 31
0.0
  0
LINE
  5
E4B7
  8
ALPHA
 10
74.873379
 20
54.56613
 30
0.0
 11
74.873379
 21
27.547082
 31
0.0
  0
POLYLINE
  5
E4B8
  8
ALPHA
 66
     1
 10
0.0
 20
0.0
 30
0.0
  0
VERTEX
  5
EA02
  8
ALPHA
 10
75.112514
 20
29.247082
 30
0.0
  0
VERTEX
  5
EA03
  8
ALPHA
 10
75.079472
 20
29.412706
 30
0.0
  0
VERTEX
  5
EA04
  8
ALPHA
 10
75.047436
 20
29.904535
 30
0.0
  0
VERTEX
  5
EA05
  8
ALPHA
 10
75.017377
 20
30.707608
 30
0.0
  0
VERTEX
  5
EA06
  8
ALPHA
 10
74.990211
 20
31.797489
 30
0.0
  0
VERTEX
  5
EA07
  8
ALPHA
 10
74.966761
 20
33.141051
 30
0.0
  0
VERTEX
  5
EA08
  8
ALPHA
 10
74.94774
 20
34.697426
 30
0.0
  0
VERTEX
  5
EA09
  8
ALPHA
 10
74.933726
 20
36.419345
 30
0.0
  0
VERTEX
  5
EA0A
  8
ALPHA
 10
74.925143
 20
38.25447
 30
0.0
  0
VERTEX
  5
EA0B
  8
ALPHA
 10
74.922253
 20
40.147082
 30
0.0
  0
VERTEX
  5
EA0C
  8
ALPHA
 10
74.925143
 20
42.039693
 30
0.0
  0
VERTEX
  5
EA0D
  8
ALPHA
 10
74.933726
 20
43.874819
 30
0.0
  0
VERTEX
  5
EA0E
  8
ALPHA
 10
74.94774
 20
45.596738
 30
0.0
  0
VERTEX
  5
EA0F
  8
ALPHA
 10
74.966761
 20
47.153113
 30
0.0
  0
VERTEX
  5
EA10
  8
ALPHA
 10
74.990211
 20
48.496674
 30
0.0
  0
VERTEX
  5
EA11
  8
ALPHA
 10
75.017377
 20
49.586555
 30
0.0
  0
VERTEX
  5
EA12
  8
ALPHA
 10
75.047436
 20
50.389629
 30
0.0
  0
VERTEX
  5
EA13
  8
ALPHA
 10
75.079472
 20
50.881457
 30
0.0
  0
VERTEX
  5
EA14
  8
ALPHA
 10
75.112514
 20
51.047082
 30
0.0
  0
SEQEND
  5
EA15
  8
ALPHA
  0
LINE
  5
E4B9
  8
ALPHA
 10
69.327545
 20
31.580414
 30
0.0
 11
69.202545
 21
31.413748
 31
0.0
  0
LINE
  5
E4BA
  8
ALPHA
 10
66.140046
 20
29.747082
 30
0.0
 11
67.806713
 21
32.747082
 31
0.0
  0
LINE
  5
E4BB
  8
ALPHA
 10
65.973379
 20
31.247082
 30
0.0
 11
66.140046
 21
31.747082
 31
0.0
  0
LINE
  5
E4BC
  8
ALPHA
 10
70.973379
 20
34.147082
 30
0.0
 11
70.973379
 21
28.147082
 31
0.0
  0
LINE
  5
E4BD
  8
ALPHA
 10
67.806713
 20
31.747082
 30
0.0
 11
67.973379
 21
31.247082
 31
0.0
  0
LINE
  5
E4BE
  8
ALPHA
 10
64.773379
 20
25.547082
 30
0.0
 11
64.773379
 21
32.547082
 31
0.0
  0
LINE
  5
E4C0
  8
ALPHA
 10
67.806713
 20
30.747082
 30
0.0
 11
67.473379
 21
30.413748
 31
0.0
  0
LINE
  5
E4C1
  8
ALPHA
 10
70.179908
 20
30.047082
 30
0.0
 11
65.679908
 21
30.047082
 31
0.0
  0
LINE
  5
E4C2
  8
ALPHA
 10
69.123379
 20
25.547082
 30
0.0
 11
63.923379
 21
25.547082
 31
0.0
  0
ARC
  5
E4C3
  8
ALPHA
 10
60.973379
 20
28.147082
 30
0.0
 40
2.5
 50
270.0
 51
90.0
  0
LINE
  5
E4C4
  8
ALPHA
 10
67.473379
 20
30.413748
 30
0.0
 11
66.973379
 21
30.247082
 31
0.0
  0
LINE
  5
E4C5
  8
ALPHA
 10
66.140046
 20
30.747082
 30
0.0
 11
65.973379
 21
31.247082
 31
0.0
  0
LINE
  5
E4C6
  8
ALPHA
 10
66.473379
 20
30.413748
 30
0.0
 11
66.140046
 21
30.747082
 31
0.0
  0
LINE
  5
E4C7
  8
ALPHA
 10
66.973379
 20
30.247082
 30
0.0
 11
66.473379
 21
30.413748
 31
0.0
  0
ARC
  5
E4C8
  8
ALPHA
 10
75.473379
 20
22.647082
 30
0.0
 40
0.5
 50
270.0
 51
0.0
  0
LINE
  5
E4C9
  8
ALPHA
 10
78.334245
 20
29.247082
 30
0.0
 11
75.112514
 21
29.247082
 31
0.0
  0
LINE
  5
E4CA
  8
ALPHA
 10
78.264424
 20
28.565338
 30
0.0
 11
75.182334
 21
28.565338
 31
0.0
  0
LINE
  5
E4CB
  8
ALPHA
 10
74.873379
 20
25.728034
 30
0.0
 11
78.573379
 21
25.728034
 31
0.0
  0
LINE
  5
E4CC
  8
ALPHA
 10
75.973379
 20
24.228014
 30
0.0
 11
78.673379
 21
24.228014
 31
0.0
  0
CIRCLE
  5
E4CD
  8
ALPHA
 10
70.973379
 20
25.547082
 30
0.0
 40
1.85
  0
CIRCLE
  5
E4CE
  8
ALPHA
 10
70.973379
 20
25.547082
 30
0.0
 40
1.242904
  0
CIRCLE
  5
E4CF
  8
ALPHA
 10
70.973379
 20
25.547082
 30
0.0
 40
1.4
  0
CIRCLE
  5
E4D0
  8
ALPHA
 10
70.973379
 20
25.547082
 30
0.0
 40
1.55
  0
LINE
  5
E4D1
  8
ALPHA
 10
69.327545
 20
30.413748
 30
0.0
 11
69.202545
 21
30.247082
 31
0.0
  0
LINE
  5
E4D2
  8
ALPHA
 10
69.452545
 20
30.747082
 30
0.0
 11
69.327545
 21
30.413748
 31
0.0
  0
LINE
  5
E4D3
  8
ALPHA
 10
67.973379
 20
31.247082
 30
0.0
 11
67.806713
 21
30.747082
 31
0.0
  0
LINE
  5
E4D4
  8
ALPHA
 10
69.452545
 20
30.913748
 30
0.0
 11
69.452545
 21
30.747082
 31
0.0
  0
LINE
  5
E4D5
  8
ALPHA
 10
69.327545
 20
31.247082
 30
0.0
 11
69.452545
 21
30.913748
 31
0.0
  0
LINE
  5
E4D6
  8
ALPHA
 10
68.952545
 20
30.413748
 30
0.0
 11
68.890045
 21
30.580414
 31
0.0
  0
LINE
  5
E4D7
  8
ALPHA
 10
69.202545
 20
31.413748
 30
0.0
 11
69.327545
 21
31.247082
 31
0.0
  0
LINE
  5
E4D8
  8
ALPHA
 10
69.077545
 20
30.247082
 30
0.0
 11
68.952545
 21
30.413748
 31
0.0
  0
LINE
  5
E4D9
  8
ALPHA
 10
69.077545
 20
31.413748
 30
0.0
 11
69.202545
 21
31.413748
 31
0.0
  0
LINE
  5
E4DA
  8
ALPHA
 10
69.202545
 20
30.247082
 30
0.0
 11
69.077545
 21
30.247082
 31
0.0
  0
LINE
  5
E4DB
  8
ALPHA
 10
70.65213
 20
27.368976
 30
0.0
 11
70.179908
 21
30.047082
 31
0.0
  0
ARC
  5
E4DC
  8
ALPHA
 10
70.973379
 20
25.547082
 30
0.0
 40
2.6
 50
302.204228
 51
50.284863
  0
ARC
  5
E4DD
  8
ALPHA
 10
70.973379
 20
25.547082
 30
0.0
 40
2.896736
 50
318.925684
 51
36.014796
  0
LINE
  5
E4DE
  8
ALPHA
 10
74.873379
 20
23.347082
 30
0.0
 11
74.873379
 21
25.728034
 31
0.0
  0
LINE
  5
E4DF
  8
ALPHA
 10
74.576643
 20
23.643818
 30
0.0
 11
74.576643
 21
27.250346
 31
0.0
  0
LINE
  5
E4E0
  8
ALPHA
 10
73.157107
 20
23.643818
 30
0.0
 11
74.576643
 21
23.643818
 31
0.0
  0
LINE
  5
E4E1
  8
ALPHA
 10
72.35902
 20
23.347082
 30
0.0
 11
74.873379
 21
23.347082
 31
0.0
  0
POLYLINE
  5
E4E2
  8
ALPHA
 66
     1
 10
0.0
 20
0.0
 30
0.0
  0
VERTEX
  5
EA16
  8
ALPHA
 10
72.35902
 20
23.347082
 30
0.0
  0
VERTEX
  5
EA17
  8
ALPHA
 10
72.654253
 20
23.441388
 30
0.0
  0
VERTEX
  5
EA18
  8
ALPHA
 10
72.916332
 20
23.540317
 30
0.0
  0
VERTEX
  5
EA19
  8
ALPHA
 10
73.157107
 20
23.643818
 30
0.0
  0
SEQEND
  5
EA1A
  8
ALPHA
  0
LINE
  5
E4E3
  8
ALPHA
 10
75.973379
 20
24.228014
 30
0.0
 11
75.973379
 21
22.647082
 31
0.0
  0
LINE
  5
E4E4
  8
ALPHA
 10
74.873379
 20
23.347082
 30
0.0
 11
74.576643
 21
23.643818
 31
0.0
  0
LINE
  5
E4E5
  8
ALPHA
 10
74.873379
 20
27.547082
 30
0.0
 11
72.634704
 21
27.547082
 31
0.0
  0
LINE
  5
E4E6
  8
ALPHA
 10
74.576643
 20
27.250346
 30
0.0
 11
73.316448
 21
27.250346
 31
0.0
  0
POLYLINE
  5
E4E7
  8
ALPHA
 66
     1
 10
0.0
 20
0.0
 30
0.0
  0
VERTEX
  5
EA1B
  8
ALPHA
 10
72.634704
 20
27.547082
 30
0.0
  0
VERTEX
  5
EA1C
  8
ALPHA
 10
72.880241
 20
27.451851
 30
0.0
  0
VERTEX
  5
EA1D
  8
ALPHA
 10
73.10557
 20
27.352925
 30
0.0
  0
VERTEX
  5
EA1E
  8
ALPHA
 10
73.316448
 20
27.250346
 30
0.0
  0
SEQEND
  5
EA1F
  8
ALPHA
  0
LINE
  5
E4E8
  8
ALPHA
 10
74.64226
 20
27.315962
 30
0.0
 11
74.576643
 21
27.250346
 31
0.0
  0
POLYLINE
  5
E4E9
  8
ALPHA
 66
     1
 10
0.0
 20
0.0
 30
0.0
  0
VERTEX
  5
EA20
  8
ALPHA
 10
75.104498
 20
27.315962
 30
0.0
  0
VERTEX
  5
EA21
  8
ALPHA
 10
75.130632
 20
27.693137
 30
0.0
  0
VERTEX
  5
EA22
  8
ALPHA
 10
75.156584
 20
28.109692
 30
0.0
  0
VERTEX
  5
EA23
  8
ALPHA
 10
75.182334
 20
28.565338
 30
0.0
  0
SEQEND
  5
EA24
  8
ALPHA
  0
LINE
  5
E4EA
  8
ALPHA
 10
75.182334
 20
28.565338
 30
0.0
 11
75.182334
 21
29.247082
 31
0.0
  0
POLYLINE
  5
E4EB
  8
ALPHA
 66
     1
 10
0.0
 20
0.0
 30
0.0
  0
VERTEX
  5
EA25
  8
ALPHA
 10
74.873379
 20
25.728034
 30
0.0
  0
VERTEX
  5
EA26
  8
ALPHA
 10
74.79571
 20
25.9204
 30
0.0
  0
VERTEX
  5
EA27
  8
ALPHA
 10
74.718521
 20
26.450735
 30
0.0
  0
VERTEX
  5
EA28
  8
ALPHA
 10
74.64226
 20
27.315962
 30
0.0
  0
SEQEND
  5
EA29
  8
ALPHA
  0
LINE
  5
E4EC
  8
ALPHA
 10
74.873379
 20
27.547082
 30
0.0
 11
75.104498
 21
27.315962
 31
0.0
  0
LINE
  5
E4ED
  8
ALPHA
 10
75.104498
 20
27.315962
 30
0.0
 11
74.64226
 21
27.315962
 31
0.0
  0
POLYLINE
  5
E4EF
  8
ALPHA
 66
     1
 10
0.0
 20
0.0
 30
0.0
  0
VERTEX
  5
EA2A
  8
ALPHA
 10
79.973379
 20
25.528031
 30
0.0
  0
VERTEX
  5
EA2B
  8
ALPHA
 10
79.929764
 20
25.194115
 30
0.0
  0
VERTEX
  5
EA2C
  8
ALPHA
 10
79.797955
 20
24.87585
 30
0.0
  0
VERTEX
  5
EA2D
  8
ALPHA
 10
79.592642
 20
24.608804
 30
0.0
  0
VERTEX
  5
EA2E
  8
ALPHA
 10
79.325552
 20
24.403441
 30
0.0
  0
VERTEX
  5
EA2F
  8
ALPHA
 10
79.007186
 20
24.271602
 30
0.0
  0
VERTEX
  5
EA30
  8
ALPHA
 10
78.673379
 20
24.228014
 30
0.0
  0
SEQEND
  5
EA31
  8
ALPHA
  0
LINE
  5
E4F0
  8
ALPHA
 10
78.264424
 20
28.565338
 30
0.0
 11
78.264424
 21
29.247082
 31
0.0
  0
POLYLINE
  5
E4F1
  8
ALPHA
 66
     1
 10
0.0
 20
0.0
 30
0.0
  0
VERTEX
  5
EA32
  8
ALPHA
 10
78.573379
 20
25.728034
 30
0.0
  0
VERTEX
  5
EA33
  8
ALPHA
 10
78.468879
 20
26.066056
 30
0.0
  0
VERTEX
  5
EA34
  8
ALPHA
 10
78.365532
 20
27.01515
 30
0.0
  0
VERTEX
  5
EA35
  8
ALPHA
 10
78.264424
 20
28.565338
 30
0.0
  0
SEQEND
  5
EA36
  8
ALPHA
  0
ARC
  5
E4F4
  8
ALPHA
 10
70.973379
 20
63.147082
 30
0.0
 40
3.788009
 50
195.821571
 51
254.692996
  0
ARC
  5
E4F5
  8
ALPHA
 10
50.973379
 20
-22.352918
 30
0.0
 40
81.582772
 50
76.532586
 51
84.172949
  0
ARC
  5
E4F6
  8
ALPHA
 10
50.973379
 20
-53.102918
 30
0.0
 40
124.717228
 50
81.237174
 51
84.440388
  0
ARC
  5
E4F7
  8
ALPHA
 10
70.973379
 20
63.147082
 30
0.0
 40
3.788009
 50
136.268365
 51
164.178429
  0
ARC
  5
E4F8
  8
ALPHA
 10
50.973379
 20
-53.102918
 30
0.0
 40
125.0
 50
79.163911
 51
84.583213
  0
ARC
  5
E4F9
  8
ALPHA
 10
50.973379
 20
-22.352918
 30
0.0
 40
81.3
 50
73.198738
 51
84.352901
  0
ARC
  5
E4FA
  8
ALPHA
 10
70.973379
 20
63.147082
 30
0.0
 40
3.5
 50
134.805991
 51
270.0
  0
LINE
  5
E4FB
  8
ALPHA
 10
67.473379
 20
32.080414
 30
0.0
 11
67.806713
 21
31.747082
 31
0.0
  0
LINE
  5
E4FD
  8
ALPHA
 10
53.973379
 20
36.647082
 30
0.0
 11
71.973379
 21
36.647082
 31
0.0
  0
LINE
  5
E4FE
  8
ALPHA
 10
70.973379
 20
33.147082
 30
0.0
 11
53.973379
 21
33.147082
 31
0.0
  0
LINE
  5
E4FF
  8
ALPHA
 10
64.773379
 20
53.647082
 30
0.0
 11
64.773379
 21
55.647082
 31
0.0
  0
LINE
  5
E500
  8
ALPHA
 10
61.973379
 20
55.647082
 30
0.0
 11
61.973379
 21
48.147082
 31
0.0
  0
LINE
  5
E501
  8
ALPHA
 10
60.973379
 20
55.647082
 30
0.0
 11
60.973379
 21
52.147082
 31
0.0
  0
LINE
  5
E502
  8
ALPHA
 10
53.035879
 20
54.813748
 30
0.0
 11
53.223379
 21
54.480416
 31
0.0
  0
LINE
  5
E503
  8
ALPHA
 10
51.723379
 20
54.480416
 30
0.0
 11
51.910879
 21
54.813748
 31
0.0
  0
LINE
  5
E504
  8
ALPHA
 10
53.973379
 20
53.147082
 30
0.0
 11
60.973379
 21
53.147082
 31
0.0
  0
LINE
  5
E505
  8
ALPHA
 10
53.973379
 20
49.147082
 30
0.0
 11
61.973379
 21
49.147082
 31
0.0
  0
LINE
  5
E506
  8
ALPHA
 10
53.223379
 20
37.31375
 30
0.0
 11
53.223379
 21
36.980414
 31
0.0
  0
LINE
  5
E507
  8
ALPHA
 10
52.848379
 20
32.213747
 30
0.0
 11
52.473379
 21
32.047083
 31
0.0
  0
LINE
  5
E508
  8
ALPHA
 10
52.098379
 20
33.880415
 30
0.0
 11
52.473379
 21
34.047083
 31
0.0
  0
LINE
  5
E509
  8
ALPHA
 10
53.035879
 20
32.380415
 30
0.0
 11
52.848379
 21
32.213747
 31
0.0
  0
LINE
  5
E50A
  8
ALPHA
 10
53.035879
 20
36.81375
 30
0.0
 11
52.285879
 21
36.480414
 31
0.0
  0
LINE
  5
E50B
  8
ALPHA
 10
51.910879
 20
33.713747
 30
0.0
 11
52.098379
 21
33.880415
 31
0.0
  0
LINE
  5
E50C
  8
ALPHA
 10
53.223379
 20
36.980414
 30
0.0
 11
53.035879
 21
36.81375
 31
0.0
  0
LINE
  5
E50D
  8
ALPHA
 10
52.285879
 20
36.480414
 30
0.0
 11
51.910879
 21
36.147082
 31
0.0
  0
LINE
  5
E50E
  8
ALPHA
 10
53.223379
 20
32.713747
 30
0.0
 11
53.035879
 21
32.380415
 31
0.0
  0
LINE
  5
E50F
  8
ALPHA
 10
51.723379
 20
33.380415
 30
0.0
 11
51.910879
 21
33.713747
 31
0.0
  0
LINE
  5
E510
  8
ALPHA
 10
51.910879
 20
36.147082
 30
0.0
 11
51.723379
 21
35.647082
 31
0.0
  0
LINE
  5
E511
  8
ALPHA
 10
53.223379
 20
33.380415
 30
0.0
 11
53.223379
 21
32.713747
 31
0.0
  0
LINE
  5
E512
  8
ALPHA
 10
51.723379
 20
32.713747
 30
0.0
 11
51.723379
 21
33.380415
 31
0.0
  0
LINE
  5
E513
  8
ALPHA
 10
53.035879
 20
33.713747
 30
0.0
 11
53.223379
 21
33.380415
 31
0.0
  0
LINE
  5
E514
  8
ALPHA
 10
51.910879
 20
32.380415
 30
0.0
 11
51.723379
 21
32.713747
 31
0.0
  0
LINE
  5
E515
  8
ALPHA
 10
52.848379
 20
33.880415
 30
0.0
 11
53.035879
 21
33.713747
 31
0.0
  0
LINE
  5
E516
  8
ALPHA
 10
52.098379
 20
32.213747
 30
0.0
 11
51.910879
 21
32.380415
 31
0.0
  0
LINE
  5
E517
  8
ALPHA
 10
52.473379
 20
34.047083
 30
0.0
 11
52.848379
 21
33.880415
 31
0.0
  0
LINE
  5
E518
  8
ALPHA
 10
51.723379
 20
35.647082
 30
0.0
 11
53.223379
 21
35.647082
 31
0.0
  0
LINE
  5
E519
  8
ALPHA
 10
52.473379
 20
32.047083
 30
0.0
 11
52.098379
 21
32.213747
 31
0.0
  0
LINE
  5
E51A
  8
ALPHA
 10
51.910879
 20
37.480414
 30
0.0
 11
52.285879
 21
37.647082
 31
0.0
  0
LINE
  5
E51B
  8
ALPHA
 10
52.848379
 20
39.31375
 30
0.0
 11
52.473379
 21
39.147082
 31
0.0
  0
LINE
  5
E51C
  8
ALPHA
 10
51.723379
 20
37.31375
 30
0.0
 11
51.910879
 21
37.480414
 31
0.0
  0
LINE
  5
E51D
  8
ALPHA
 10
53.035879
 20
39.480414
 30
0.0
 11
52.848379
 21
39.31375
 31
0.0
  0
LINE
  5
E51E
  8
ALPHA
 10
53.223379
 20
39.81375
 30
0.0
 11
53.035879
 21
39.480414
 31
0.0
  0
LINE
  5
E51F
  8
ALPHA
 10
53.035879
 20
40.81375
 30
0.0
 11
53.223379
 21
40.480414
 31
0.0
  0
LINE
  5
E520
  8
ALPHA
 10
52.098379
 20
40.980414
 30
0.0
 11
52.473379
 21
41.147082
 31
0.0
  0
LINE
  5
E521
  8
ALPHA
 10
51.910879
 20
40.81375
 30
0.0
 11
52.098379
 21
40.980414
 31
0.0
  0
LINE
  5
E522
  8
ALPHA
 10
51.723379
 20
40.480414
 30
0.0
 11
51.910879
 21
40.81375
 31
0.0
  0
LINE
  5
E523
  8
ALPHA
 10
53.223379
 20
40.480414
 30
0.0
 11
53.223379
 21
39.81375
 31
0.0
  0
LINE
  5
E524
  8
ALPHA
 10
51.723379
 20
39.81375
 30
0.0
 11
51.723379
 21
40.480414
 31
0.0
  0
LINE
  5
E525
  8
ALPHA
 10
51.910879
 20
39.480414
 30
0.0
 11
51.723379
 21
39.81375
 31
0.0
  0
LINE
  5
E526
  8
ALPHA
 10
52.848379
 20
40.980414
 30
0.0
 11
53.035879
 21
40.81375
 31
0.0
  0
LINE
  5
E527
  8
ALPHA
 10
52.473379
 20
41.147082
 30
0.0
 11
52.848379
 21
40.980414
 31
0.0
  0
LINE
  5
E528
  8
ALPHA
 10
52.098379
 20
39.31375
 30
0.0
 11
51.910879
 21
39.480414
 31
0.0
  0
LINE
  5
E529
  8
ALPHA
 10
53.035879
 20
37.480414
 30
0.0
 11
53.223379
 21
37.31375
 31
0.0
  0
LINE
  5
E52A
  8
ALPHA
 10
52.473379
 20
39.147082
 30
0.0
 11
52.098379
 21
39.31375
 31
0.0
  0
LINE
  5
E52B
  8
ALPHA
 10
52.660879
 20
37.647082
 30
0.0
 11
53.035879
 21
37.480414
 31
0.0
  0
LINE
  5
E52C
  8
ALPHA
 10
52.285879
 20
37.647082
 30
0.0
 11
52.660879
 21
37.647082
 31
0.0
  0
LINE
  5
E52D
  8
ALPHA
 10
52.473379
 20
53.147082
 30
0.0
 11
52.098379
 21
53.313748
 31
0.0
  0
LINE
  5
E52E
  8
ALPHA
 10
52.098379
 20
53.313748
 30
0.0
 11
51.910879
 21
53.480416
 31
0.0
  0
LINE
  5
E52F
  8
ALPHA
 10
53.035879
 20
51.480416
 30
0.0
 11
53.223379
 21
51.313748
 31
0.0
  0
LINE
  5
E530
  8
ALPHA
 10
52.660879
 20
51.647082
 30
0.0
 11
53.035879
 21
51.480416
 31
0.0
  0
LINE
  5
E531
  8
ALPHA
 10
52.285879
 20
51.647082
 30
0.0
 11
52.660879
 21
51.647082
 31
0.0
  0
LINE
  5
E532
  8
ALPHA
 10
51.910879
 20
53.480416
 30
0.0
 11
51.723379
 21
53.813748
 31
0.0
  0
LINE
  5
E533
  8
ALPHA
 10
51.723379
 20
49.647082
 30
0.0
 11
53.223379
 21
49.647082
 31
0.0
  0
LINE
  5
E534
  8
ALPHA
 10
53.223379
 20
51.313748
 30
0.0
 11
53.223379
 21
50.980416
 31
0.0
  0
LINE
  5
E535
  8
ALPHA
 10
53.223379
 20
54.480416
 30
0.0
 11
53.223379
 21
53.813748
 31
0.0
  0
LINE
  5
E536
  8
ALPHA
 10
51.723379
 20
53.813748
 30
0.0
 11
51.723379
 21
54.480416
 31
0.0
  0
LINE
  5
E537
  8
ALPHA
 10
51.910879
 20
50.147082
 30
0.0
 11
51.723379
 21
49.647082
 31
0.0
  0
LINE
  5
E538
  8
ALPHA
 10
53.223379
 20
50.980416
 30
0.0
 11
53.035879
 21
50.813748
 31
0.0
  0
LINE
  5
E539
  8
ALPHA
 10
52.285879
 20
50.480416
 30
0.0
 11
51.910879
 21
50.147082
 31
0.0
  0
LINE
  5
E53A
  8
ALPHA
 10
51.723379
 20
51.313748
 30
0.0
 11
51.910879
 21
51.480416
 31
0.0
  0
LINE
  5
E53B
  8
ALPHA
 10
53.223379
 20
53.813748
 30
0.0
 11
53.035879
 21
53.480416
 31
0.0
  0
LINE
  5
E53C
  8
ALPHA
 10
53.035879
 20
50.813748
 30
0.0
 11
52.285879
 21
50.480416
 31
0.0
  0
LINE
  5
E53D
  8
ALPHA
 10
51.910879
 20
51.480416
 30
0.0
 11
52.285879
 21
51.647082
 31
0.0
  0
LINE
  5
E53E
  8
ALPHA
 10
52.848379
 20
53.313748
 30
0.0
 11
52.473379
 21
53.147082
 31
0.0
  0
LINE
  5
E53F
  8
ALPHA
 10
53.035879
 20
53.480416
 30
0.0
 11
52.848379
 21
53.313748
 31
0.0
  0
LINE
  5
E540
  8
ALPHA
 10
64.773379
 20
40.747082
 30
0.0
 11
64.773379
 21
44.347082
 31
0.0
  0
LINE
  5
E541
  8
ALPHA
 10
64.773379
 20
37.247082
 30
0.0
 11
64.773379
 21
39.547082
 31
0.0
  0
LINE
  5
E542
  8
ALPHA
 10
64.773379
 20
33.747082
 30
0.0
 11
64.773379
 21
36.047082
 31
0.0
  0
LINE
  5
E543
  8
ALPHA
 10
66.140046
 20
31.747082
 30
0.0
 11
66.473379
 21
32.080414
 31
0.0
  0
LINE
  5
E544
  8
ALPHA
 10
66.473379
 20
32.080414
 30
0.0
 11
66.973379
 21
32.247082
 31
0.0
  0
LINE
  5
E545
  8
ALPHA
 10
66.973379
 20
32.247082
 30
0.0
 11
67.473379
 21
32.080414
 31
0.0
  0
LINE
  5
E546
  8
ALPHA
 10
63.806712
 20
52.097082
 30
0.0
 11
63.640046
 21
52.247082
 31
0.0
  0
LINE
  5
E547
  8
ALPHA
 10
63.806712
 20
47.297081
 30
0.0
 11
63.640046
 21
47.447081
 31
0.0
  0
LINE
  5
E548
  8
ALPHA
 10
63.640046
 20
45.797081
 30
0.0
 11
63.806712
 21
45.947081
 31
0.0
  0
LINE
  5
E549
  8
ALPHA
 10
63.640046
 20
48.047081
 30
0.0
 11
63.806712
 21
48.197081
 31
0.0
  0
LINE
  5
E54A
  8
ALPHA
 10
63.640046
 20
52.847082
 30
0.0
 11
63.806712
 21
52.997082
 31
0.0
  0
LINE
  5
E54B
  8
ALPHA
 10
63.640046
 20
47.447081
 30
0.0
 11
63.473379
 21
47.747082
 31
0.0
  0
LINE
  5
E54C
  8
ALPHA
 10
63.473379
 20
45.197081
 30
0.0
 11
63.473379
 21
45.497082
 31
0.0
  0
LINE
  5
E54D
  8
ALPHA
 10
63.640046
 20
44.897082
 30
0.0
 11
63.473379
 21
45.197081
 31
0.0
  0
LINE
  5
E54E
  8
ALPHA
 10
63.473379
 20
45.497082
 30
0.0
 11
63.640046
 21
45.797081
 31
0.0
  0
LINE
  5
E54F
  8
ALPHA
 10
63.473379
 20
47.747082
 30
0.0
 11
63.640046
 21
48.047081
 31
0.0
  0
LINE
  5
E550
  8
ALPHA
 10
63.640046
 20
52.247082
 30
0.0
 11
63.473379
 21
52.547081
 31
0.0
  0
LINE
  5
E551
  8
ALPHA
 10
63.473379
 20
52.547081
 30
0.0
 11
63.640046
 21
52.847082
 31
0.0
  0
LINE
  5
E552
  8
ALPHA
 10
64.473379
 20
48.197081
 30
0.0
 11
64.640046
 21
47.747082
 31
0.0
  0
LINE
  5
E553
  8
ALPHA
 10
65.306712
 20
48.047081
 30
0.0
 11
65.473379
 21
47.747082
 31
0.0
  0
LINE
  5
E554
  8
ALPHA
 10
65.306712
 20
45.797081
 30
0.0
 11
65.473379
 21
45.497082
 31
0.0
  0
LINE
  5
E555
  8
ALPHA
 10
64.140046
 20
45.797081
 30
0.0
 11
64.306712
 21
45.497082
 31
0.0
  0
LINE
  5
E556
  8
ALPHA
 10
65.140046
 20
48.197081
 30
0.0
 11
65.306712
 21
48.047081
 31
0.0
  0
LINE
  5
E557
  8
ALPHA
 10
65.473379
 20
45.197081
 30
0.0
 11
65.306712
 21
44.897082
 31
0.0
  0
LINE
  5
E558
  8
ALPHA
 10
65.473379
 20
45.497082
 30
0.0
 11
65.473379
 21
45.197081
 31
0.0
  0
LINE
  5
E559
  8
ALPHA
 10
64.306712
 20
45.197081
 30
0.0
 11
64.306712
 21
45.497082
 31
0.0
  0
LINE
  5
E55A
  8
ALPHA
 10
64.973379
 20
46.097082
 30
0.0
 11
65.306712
 21
45.797081
 31
0.0
  0
LINE
  5
E55B
  8
ALPHA
 10
63.973379
 20
45.947081
 30
0.0
 11
64.140046
 21
45.797081
 31
0.0
  0
LINE
  5
E55C
  8
ALPHA
 10
64.806712
 20
48.347082
 30
0.0
 11
65.140046
 21
48.197081
 31
0.0
  0
LINE
  5
E55D
  8
ALPHA
 10
64.140046
 20
48.347082
 30
0.0
 11
64.473379
 21
48.197081
 31
0.0
  0
LINE
  5
E55E
  8
ALPHA
 10
64.306712
 20
45.497082
 30
0.0
 11
64.473379
 21
45.797081
 31
0.0
  0
LINE
  5
E55F
  8
ALPHA
 10
65.473379
 20
47.747082
 30
0.0
 11
65.306712
 21
47.447081
 31
0.0
  0
LINE
  5
E560
  8
ALPHA
 10
64.640046
 20
47.747082
 30
0.0
 11
64.473379
 21
47.297081
 31
0.0
  0
LINE
  5
E561
  8
ALPHA
 10
64.140046
 20
47.147082
 30
0.0
 11
63.806712
 21
47.297081
 31
0.0
  0
LINE
  5
E562
  8
ALPHA
 10
65.306712
 20
44.897082
 30
0.0
 11
65.140046
 21
44.747082
 31
0.0
  0
LINE
  5
E563
  8
ALPHA
 10
64.473379
 20
45.797081
 30
0.0
 11
64.806712
 21
46.097082
 31
0.0
  0
LINE
  5
E564
  8
ALPHA
 10
65.306712
 20
47.447081
 30
0.0
 11
65.140046
 21
47.297081
 31
0.0
  0
LINE
  5
E565
  8
ALPHA
 10
64.140046
 20
48.347082
 30
0.0
 11
64.806712
 21
48.347082
 31
0.0
  0
LINE
  5
E566
  8
ALPHA
 10
64.806712
 20
46.097082
 30
0.0
 11
64.973379
 21
46.097082
 31
0.0
  0
LINE
  5
E567
  8
ALPHA
 10
63.806712
 20
45.947081
 30
0.0
 11
63.973379
 21
45.947081
 31
0.0
  0
LINE
  5
E568
  8
ALPHA
 10
64.473379
 20
47.297081
 30
0.0
 11
64.140046
 21
47.147082
 31
0.0
  0
LINE
  5
E569
  8
ALPHA
 10
63.806712
 20
48.197081
 30
0.0
 11
64.140046
 21
48.347082
 31
0.0
  0
LINE
  5
E56A
  8
ALPHA
 10
65.473379
 20
50.147082
 30
0.0
 11
65.806712
 21
49.847082
 31
0.0
  0
LINE
  5
E56B
  8
ALPHA
 10
64.473379
 20
52.097082
 30
0.0
 11
64.306712
 21
52.547081
 31
0.0
  0
LINE
  5
E56C
  8
ALPHA
 10
65.306712
 20
52.847082
 30
0.0
 11
65.473379
 21
52.547081
 31
0.0
  0
LINE
  5
E56D
  8
ALPHA
 10
65.140046
 20
52.997082
 30
0.0
 11
65.306712
 21
52.847082
 31
0.0
  0
LINE
  5
E56E
  8
ALPHA
 10
64.806712
 20
53.147082
 30
0.0
 11
65.140046
 21
52.997082
 31
0.0
  0
LINE
  5
E56F
  8
ALPHA
 10
64.806712
 20
51.947081
 30
0.0
 11
64.473379
 21
52.097082
 31
0.0
  0
LINE
  5
E570
  8
ALPHA
 10
64.140046
 20
51.947081
 30
0.0
 11
63.806712
 21
52.097082
 31
0.0
  0
LINE
  5
E571
  8
ALPHA
 10
65.306712
 20
49.997082
 30
0.0
 11
65.306712
 21
50.147082
 31
0.0
  0
LINE
  5
E572
  8
ALPHA
 10
64.306712
 20
52.547081
 30
0.0
 11
64.473379
 21
52.997082
 31
0.0
  0
LINE
  5
E573
  8
ALPHA
 10
64.806712
 20
51.947081
 30
0.0
 11
64.140046
 21
51.947081
 31
0.0
  0
LINE
  5
E574
  8
ALPHA
 10
65.306712
 20
50.147082
 30
0.0
 11
65.473379
 21
50.147082
 31
0.0
  0
LINE
  5
E575
  8
ALPHA
 10
65.473379
 20
52.547081
 30
0.0
 11
65.306712
 21
52.247082
 31
0.0
  0
LINE
  5
E576
  8
ALPHA
 10
65.473379
 20
50.147082
 30
0.0
 11
65.306712
 21
49.997082
 31
0.0
  0
LINE
  5
E577
  8
ALPHA
 10
65.306712
 20
52.247082
 30
0.0
 11
65.140046
 21
52.097082
 31
0.0
  0
LINE
  5
E578
  8
ALPHA
 10
65.140046
 20
52.097082
 30
0.0
 11
64.806712
 21
51.947081
 31
0.0
  0
LINE
  5
E579
  8
ALPHA
 10
64.473379
 20
52.997082
 30
0.0
 11
64.806712
 21
53.147082
 31
0.0
  0
ARC
  5
E57A
  8
ALPHA
 10
60.973379
 20
63.147082
 30
0.0
 40
2.313808
 50
124.597795
 51
270.0
  0
ARC
  5
E57B
  8
ALPHA
 10
60.973379
 20
63.147082
 30
0.0
 40
2.1
 50
121.588136
 51
270.0
  0
LINE
  5
E57C
  8
ALPHA
 10
51.573379
 20
70.597082
 30
0.0
 11
61.786331
 21
70.597082
 31
0.0
  0
LINE
  5
E57D
  8
ALPHA
 10
58.319789
 20
69.997082
 30
0.0
 11
61.473379
 21
69.997082
 31
0.0
  0
LINE
  5
E57E
  8
ALPHA
 10
58.302758
 20
69.962074
 30
0.0
 11
60.473379
 21
69.962074
 31
0.0
  0
LINE
  5
E57F
  8
ALPHA
 10
56.673379
 20
69.397082
 30
0.0
 11
60.473379
 21
69.397082
 31
0.0
  0
LINE
  5
E580
  8
ALPHA
 10
59.460719
 20
69.297082
 30
0.0
 11
61.573379
 21
69.297082
 31
0.0
  0
LINE
  5
E581
  8
ALPHA
 10
60.373379
 20
67.797082
 30
0.0
 11
58.973379
 21
67.797082
 31
0.0
  0
LINE
  5
E582
  8
ALPHA
 10
60.59175
 20
67.578893
 30
0.0
 11
57.978616
 21
67.578893
 31
0.0
  0
LINE
  5
E583
  8
ALPHA
 10
57.978616
 20
59.647082
 30
0.0
 11
61.973379
 21
59.647082
 31
0.0
  0
LINE
  5
E584
  8
ALPHA
 10
61.973379
 20
59.359073
 30
0.0
 11
59.256151
 21
59.359073
 31
0.0
  0
LINE
  5
E585
  8
ALPHA
 10
51.573379
 20
66.297082
 30
0.0
 11
51.647187
 21
66.223274
 31
0.0
  0
LINE
  5
E586
  8
ALPHA
 10
57.978616
 20
67.578893
 30
0.0
 11
57.978616
 21
59.647082
 31
0.0
  0
LINE
  5
E587
  8
ALPHA
 10
51.573379
 20
66.297082
 30
0.0
 11
51.573379
 21
58.844865
 31
0.0
  0
LINE
  5
E588
  8
ALPHA
 10
57.973379
 20
66.297082
 30
0.0
 11
57.832302
 21
66.156004
 31
0.0
  0
ARC
  5
E589
  8
ALPHA
 10
50.973379
 20
-22.352918
 30
0.0
 40
81.2
 50
85.05457
 51
89.576628
  0
POLYLINE
  5
E58A
  8
ALPHA
 66
     1
 10
0.0
 20
0.0
 30
0.0
  0
VERTEX
  5
EA37
  8
ALPHA
 10
57.832302
 20
66.156004
 30
0.0
  0
VERTEX
  5
EA38
  8
ALPHA
 10
56.936812
 20
66.177212
 30
0.0
  0
VERTEX
  5
EA39
  8
ALPHA
 10
55.823647
 20
66.195179
 30
0.0
  0
VERTEX
  5
EA3A
  8
ALPHA
 10
54.546986
 20
66.209064
 30
0.0
  0
VERTEX
  5
EA3B
  8
ALPHA
 10
53.132378
 20
66.218589
 30
0.0
  0
VERTEX
  5
EA3C
  8
ALPHA
 10
51.647187
 20
66.223274
 30
0.0
  0
SEQEND
  5
EA3D
  8
ALPHA
  0
POLYLINE
  5
E58B
  8
ALPHA
 66
     1
 10
0.0
 20
0.0
 30
0.0
  0
VERTEX
  5
EA3E
  8
ALPHA
 10
51.647187
 20
58.918096
 30
0.0
  0
VERTEX
  5
EA3F
  8
ALPHA
 10
53.132296
 20
58.896896
 30
0.0
  0
VERTEX
  5
EA40
  8
ALPHA
 10
54.546779
 20
58.856517
 30
0.0
  0
VERTEX
  5
EA41
  8
ALPHA
 10
55.823287
 20
58.804195
 30
0.0
  0
VERTEX
  5
EA42
  8
ALPHA
 10
56.936495
 20
58.748015
 30
0.0
  0
VERTEX
  5
EA43
  8
ALPHA
 10
57.832302
 20
58.698461
 30
0.0
  0
SEQEND
  5
EA44
  8
ALPHA
  0
LINE
  5
E58C
  8
ALPHA
 10
51.647187
 20
66.223274
 30
0.0
 11
51.647187
 21
58.918096
 31
0.0
  0
LINE
  5
E58D
  8
ALPHA
 10
52.223379
 20
56.147082
 30
0.0
 11
53.910879
 21
56.147082
 31
0.0
  0
LINE
  5
E58E
  8
ALPHA
 10
53.535879
 20
57.647082
 30
0.0
 11
52.223379
 21
56.147082
 31
0.0
  0
LINE
  5
E58F
  8
ALPHA
 10
52.848379
 20
54.980416
 30
0.0
 11
53.035879
 21
54.813748
 31
0.0
  0
LINE
  5
E590
  8
ALPHA
 10
52.473379
 20
55.147082
 30
0.0
 11
52.848379
 21
54.980416
 31
0.0
  0
LINE
  5
E591
  8
ALPHA
 10
51.910879
 20
54.813748
 30
0.0
 11
52.098379
 21
54.980416
 31
0.0
  0
LINE
  5
E592
  8
ALPHA
 10
52.098379
 20
54.980416
 30
0.0
 11
52.473379
 21
55.147082
 31
0.0
  0
LINE
  5
E593
  8
ALPHA
 10
51.573379
 20
58.844865
 30
0.0
 11
51.647187
 21
58.918096
 31
0.0
  0
LINE
  5
E594
  8
ALPHA
 10
53.535879
 20
55.647082
 30
0.0
 11
53.535879
 21
57.647082
 31
0.0
  0
LINE
  5
E595
  8
ALPHA
 10
57.832302
 20
58.698461
 30
0.0
 11
57.832302
 21
66.156004
 31
0.0
  0
LINE
  5
E596
  8
ALPHA
 10
57.973379
 20
58.544795
 30
0.0
 11
57.832302
 21
58.698461
 31
0.0
  0
LINE
  5
E597
  8
ALPHA
 10
59.256151
 20
59.359073
 30
0.0
 11
58.973379
 21
59.641845
 31
0.0
  0
LINE
  5
E598
  8
ALPHA
 10
57.973379
 20
59.641845
 30
0.0
 11
58.973379
 21
59.641845
 31
0.0
  0
LINE
  5
E599
  8
ALPHA
 10
59.256151
 20
58.808306
 30
0.0
 11
59.256151
 21
59.359073
 31
0.0
  0
LINE
  5
E59A
  8
ALPHA
 10
58.973379
 20
58.55252
 30
0.0
 11
58.973379
 21
59.641845
 31
0.0
  0
LINE
  5
E59B
  8
ALPHA
 10
57.973379
 20
59.641845
 30
0.0
 11
57.973379
 21
58.544795
 31
0.0
  0
LINE
  5
E59C
  8
ALPHA
 10
59.256151
 20
58.808306
 30
0.0
 11
58.973379
 21
58.55252
 31
0.0
  0
LINE
  5
E59D
  8
ALPHA
 10
57.973379
 20
59.641845
 30
0.0
 11
57.978616
 21
59.647082
 31
0.0
  0
LINE
  5
E59E
  8
ALPHA
 10
58.973379
 20
73.147082
 30
0.0
 11
52.377402
 21
73.147082
 31
0.0
  0
POLYLINE
  5
E59F
  8
ALPHA
 66
     1
 10
0.0
 20
0.0
 30
0.0
  0
VERTEX
  5
EA45
  8
ALPHA
 10
55.473379
 20
69.589731
 30
0.0
  0
VERTEX
  5
EA46
  8
ALPHA
 10
55.896139
 20
69.531435
 30
0.0
  0
VERTEX
  5
EA47
  8
ALPHA
 10
56.232921
 20
69.480216
 30
0.0
  0
VERTEX
  5
EA48
  8
ALPHA
 10
56.476168
 20
69.439605
 30
0.0
  0
VERTEX
  5
EA49
  8
ALPHA
 10
56.624102
 20
69.411709
 30
0.0
  0
VERTEX
  5
EA4A
  8
ALPHA
 10
56.654673
 20
69.403378
 30
0.0
  0
SEQEND
  5
EA4B
  8
ALPHA
  0
POLYLINE
  5
E5A0
  8
ALPHA
 66
     1
 10
0.0
 20
0.0
 30
0.0
  0
VERTEX
  5
EA4C
  8
ALPHA
 10
55.473379
 20
70.186747
 30
0.0
  0
VERTEX
  5
EA4D
  8
ALPHA
 10
55.896139
 20
70.129354
 30
0.0
  0
VERTEX
  5
EA4E
  8
ALPHA
 10
56.232921
 20
70.078928
 30
0.0
  0
VERTEX
  5
EA4F
  8
ALPHA
 10
56.476168
 20
70.038946
 30
0.0
  0
VERTEX
  5
EA50
  8
ALPHA
 10
56.624102
 20
70.011482
 30
0.0
  0
VERTEX
  5
EA51
  8
ALPHA
 10
56.673379
 20
69.998262
 30
0.0
  0
SEQEND
  5
EA52
  8
ALPHA
  0
LINE
  5
E5A1
  8
ALPHA
 10
57.382031
 20
70.447082
 30
0.0
 11
55.373379
 21
70.447082
 31
0.0
  0
LINE
  5
E5A2
  8
ALPHA
 10
51.573379
 20
67.58413
 30
0.0
 11
57.973379
 21
67.58413
 31
0.0
  0
POLYLINE
  5
E5A3
  8
ALPHA
 66
     1
 10
0.0
 20
0.0
 30
0.0
  0
VERTEX
  5
EA53
  8
ALPHA
 10
51.647187
 20
67.657937
 30
0.0
  0
VERTEX
  5
EA54
  8
ALPHA
 10
53.10813
 20
67.662505
 30
0.0
  0
VERTEX
  5
EA55
  8
ALPHA
 10
54.495603
 20
67.671704
 30
0.0
  0
VERTEX
  5
EA56
  8
ALPHA
 10
55.761916
 20
67.685219
 30
0.0
  0
VERTEX
  5
EA57
  8
ALPHA
 10
56.863376
 20
67.702586
 30
0.0
  0
VERTEX
  5
EA58
  8
ALPHA
 10
57.762161
 20
67.723206
 30
0.0
  0
VERTEX
  5
EA59
  8
ALPHA
 10
58.427202
 20
67.74637
 30
0.0
  0
VERTEX
  5
EA5A
  8
ALPHA
 10
58.83565
 20
67.771282
 30
0.0
  0
VERTEX
  5
EA5B
  8
ALPHA
 10
58.973379
 20
67.797082
 30
0.0
  0
SEQEND
  5
EA5C
  8
ALPHA
  0
POLYLINE
  5
E5A4
  8
ALPHA
 66
     1
 10
0.0
 20
0.0
 30
0.0
  0
VERTEX
  5
EA5D
  8
ALPHA
 10
55.373379
 20
69.180459
 30
0.0
  0
VERTEX
  5
EA5E
  8
ALPHA
 10
56.407232
 20
69.194596
 30
0.0
  0
VERTEX
  5
EA5F
  8
ALPHA
 10
57.300242
 20
69.211622
 30
0.0
  0
SEQEND
  5
EA60
  8
ALPHA
  0
POLYLINE
  5
E5A5
  8
ALPHA
 66
     1
 10
0.0
 20
0.0
 30
0.0
  0
VERTEX
  5
EA61
  8
ALPHA
 10
55.373379
 20
69.215958
 30
0.0
  0
VERTEX
  5
EA62
  8
ALPHA
 10
56.066976
 20
69.229444
 30
0.0
  0
VERTEX
  5
EA63
  8
ALPHA
 10
56.628154
 20
69.244764
 30
0.0
  0
VERTEX
  5
EA64
  8
ALPHA
 10
57.037565
 20
69.261371
 30
0.0
  0
VERTEX
  5
EA65
  8
ALPHA
 10
57.289146
 20
69.279017
 30
0.0
  0
VERTEX
  5
EA66
  8
ALPHA
 10
57.373379
 20
69.297082
 30
0.0
  0
SEQEND
  5
EA67
  8
ALPHA
  0
LINE
  5
E5A6
  8
ALPHA
 10
57.973379
 20
66.297082
 30
0.0
 11
51.573379
 21
66.297082
 31
0.0
  0
LINE
  5
E5A7
  8
ALPHA
 10
51.647187
 20
70.597082
 30
0.0
 11
51.647187
 21
67.657937
 31
0.0
  0
LINE
  5
E5A8
  8
ALPHA
 10
51.573379
 20
67.58413
 30
0.0
 11
51.573379
 21
70.597082
 31
0.0
  0
LINE
  5
E5A9
  8
ALPHA
 10
51.573379
 20
67.58413
 30
0.0
 11
51.647187
 21
67.657937
 31
0.0
  0
LINE
  5
E5AA
  8
ALPHA
 10
55.473379
 20
69.997082
 30
0.0
 11
55.373379
 21
69.997082
 31
0.0
  0
LINE
  5
E5AB
  8
ALPHA
 10
55.373379
 20
69.697082
 30
0.0
 11
55.473379
 21
69.697082
 31
0.0
  0
LINE
  5
E5AC
  8
ALPHA
 10
55.473379
 20
70.186747
 30
0.0
 11
55.473379
 21
70.447082
 31
0.0
  0
LINE
  5
E5AD
  8
ALPHA
 10
55.473379
 20
70.186747
 30
0.0
 11
55.473379
 21
69.589731
 31
0.0
  0
LINE
  5
E5AE
  8
ALPHA
 10
55.373379
 20
69.180459
 30
0.0
 11
55.373379
 21
70.597082
 31
0.0
  0
ARC
  5
E5AF
  8
ALPHA
 10
57.382031
 20
70.947082
 30
0.0
 40
0.5
 50
270.0
 51
315.467225
  0
LINE
  5
E5B0
  8
ALPHA
 10
57.373379
 20
69.297082
 30
0.0
 11
58.973379
 21
69.297082
 31
0.0
  0
LINE
  5
E5B1
  8
ALPHA
 10
57.300242
 20
69.211622
 30
0.0
 11
58.016052
 21
69.230843
 31
0.0
  0
POLYLINE
  5
E5B2
  8
ALPHA
 66
     1
 10
0.0
 20
0.0
 30
0.0
  0
VERTEX
  5
EA68
  8
ALPHA
 10
56.673379
 20
70.110333
 30
0.0
  0
VERTEX
  5
EA69
  8
ALPHA
 10
57.173102
 20
70.181901
 30
0.0
  0
VERTEX
  5
EA6A
  8
ALPHA
 10
57.55865
 20
70.278757
 30
0.0
  0
VERTEX
  5
EA6B
  8
ALPHA
 10
57.820392
 20
70.402317
 30
0.0
  0
VERTEX
  5
EA6C
  8
ALPHA
 10
57.954737
 20
70.553322
 30
0.0
  0
SEQEND
  5
EA6D
  8
ALPHA
  0
POLYLINE
  5
E5B3
  8
ALPHA
 66
     1
 10
0.0
 20
0.0
 30
0.0
  0
VERTEX
  5
EA6E
  8
ALPHA
 10
56.673379
 20
69.711521
 30
0.0
  0
VERTEX
  5
EA6F
  8
ALPHA
 10
57.175665
 20
69.78433
 30
0.0
  0
VERTEX
  5
EA70
  8
ALPHA
 10
57.558232
 20
69.881569
 30
0.0
  0
VERTEX
  5
EA71
  8
ALPHA
 10
57.819153
 20
70.005705
 30
0.0
  0
VERTEX
  5
EA72
  8
ALPHA
 10
57.954737
 20
70.159156
 30
0.0
  0
SEQEND
  5
EA73
  8
ALPHA
  0
POLYLINE
  5
E5B4
  8
ALPHA
 66
     1
 10
0.0
 20
0.0
 30
0.0
  0
VERTEX
  5
EA74
  8
ALPHA
 10
58.299598
 20
69.956582
 30
0.0
  0
VERTEX
  5
EA75
  8
ALPHA
 10
58.158021
 20
69.797526
 30
0.0
  0
VERTEX
  5
EA76
  8
ALPHA
 10
57.882375
 20
69.668494
 30
0.0
  0
VERTEX
  5
EA77
  8
ALPHA
 10
57.478726
 20
69.569221
 30
0.0
  0
VERTEX
  5
EA78
  8
ALPHA
 10
56.956502
 20
69.497366
 30
0.0
  0
SEQEND
  5
EA79
  8
ALPHA
  0
LINE
  5
E5B5
  8
ALPHA
 10
56.956487
 20
69.497364
 30
0.0
 11
56.673379
 21
69.711521
 31
0.0
  0
POLYLINE
  5
E5B6
  8
ALPHA
 66
     1
 10
0.0
 20
0.0
 30
0.0
  0
VERTEX
  5
EA7A
  8
ALPHA
 10
56.956502
 20
69.497366
 30
0.0
  0
VERTEX
  5
EA7B
  8
ALPHA
 10
56.817524
 20
69.484042
 30
0.0
  0
VERTEX
  5
EA7C
  8
ALPHA
 10
56.673379
 20
69.472022
 30
0.0
  0
SEQEND
  5
EA7D
  8
ALPHA
  0
LINE
  5
E5B7
  8
ALPHA
 10
56.673379
 20
69.397082
 30
0.0
 11
56.673379
 21
70.110333
 31
0.0
  0
ARC
  5
E5B8
  8
ALPHA
 10
58.973379
 20
68.947082
 30
0.0
 40
0.6
 50
130.744079
 51
144.314665
  0
ARC
  5
E5B9
  8
ALPHA
 10
58.973379
 20
68.947082
 30
0.0
 40
0.6
 50
35.685335
 51
49.255921
  0
LINE
  5
E5BA
  8
ALPHA
 10
58.299768
 20
69.956857
 30
0.0
 11
58.184853
 21
70.024508
 31
0.0
  0
LINE
  5
E5BB
  8
ALPHA
 10
58.184853
 20
70.024508
 30
0.0
 11
57.954737
 21
70.159156
 31
0.0
  0
LINE
  5
E5BC
  8
ALPHA
 10
58.319789
 20
69.997082
 30
0.0
 11
57.973379
 21
70.197082
 31
0.0
  0
LINE
  5
E5BD
  8
ALPHA
 10
57.683354
 20
70.553322
 30
0.0
 11
57.954737
 21
70.553322
 31
0.0
  0
LINE
  5
E5BE
  8
ALPHA
 10
58.016052
 20
69.230843
 30
0.0
 11
58.54205
 21
69.251849
 31
0.0
  0
POLYLINE
  5
E5BF
  8
ALPHA
 66
     1
 10
0.0
 20
0.0
 30
0.0
  0
VERTEX
  5
EA7E
  8
ALPHA
 10
58.54205
 20
69.251849
 30
0.0
  0
VERTEX
  5
EA7F
  8
ALPHA
 10
58.865555
 20
69.274232
 30
0.0
  0
VERTEX
  5
EA80
  8
ALPHA
 10
58.973379
 20
69.297082
 30
0.0
  0
SEQEND
  5
EA81
  8
ALPHA
  0
LINE
  5
E5C0
  8
ALPHA
 10
57.973379
 20
67.58413
 30
0.0
 11
57.978616
 21
67.578893
 31
0.0
  0
LINE
  5
E5C1
  8
ALPHA
 10
58.973379
 20
69.297082
 30
0.0
 11
58.973379
 21
67.797082
 31
0.0
  0
LINE
  5
E5C2
  8
ALPHA
 10
58.799068
 20
70.597082
 30
0.0
 11
58.799068
 21
69.997082
 31
0.0
  0
LINE
  5
E5C3
  8
ALPHA
 10
58.173379
 20
70.081612
 30
0.0
 11
58.173379
 21
70.597082
 31
0.0
  0
LINE
  5
E5C4
  8
ALPHA
 10
57.973379
 20
70.197082
 30
0.0
 11
57.973379
 21
70.597082
 31
0.0
  0
LINE
  5
E5C5
  8
ALPHA
 10
57.973379
 20
67.58413
 30
0.0
 11
57.973379
 21
66.297082
 31
0.0
  0
LINE
  5
E5C6
  8
ALPHA
 10
57.954737
 20
70.553322
 30
0.0
 11
57.954737
 21
70.159156
 31
0.0
  0
LINE
  5
E5C7
  8
ALPHA
 10
58.319789
 20
69.997082
 30
0.0
 11
58.302758
 21
69.962074
 31
0.0
  0
LINE
  5
E5C8
  8
ALPHA
 10
57.954737
 20
70.553322
 30
0.0
 11
57.973379
 21
70.597082
 31
0.0
  0
POLYLINE
  5
E5C9
  8
ALPHA
 66
     1
 10
0.0
 20
0.0
 30
0.0
  0
VERTEX
  5
EA82
  8
ALPHA
 10
58.302758
 20
69.962074
 30
0.0
  0
VERTEX
  5
EA83
  8
ALPHA
 10
58.301378
 20
69.959464
 30
0.0
  0
VERTEX
  5
EA84
  8
ALPHA
 10
58.299598
 20
69.956582
 30
0.0
  0
SEQEND
  5
EA85
  8
ALPHA
  0
LINE
  5
E5CA
  8
ALPHA
 10
57.954737
 20
70.159156
 30
0.0
 11
57.973379
 21
70.197082
 31
0.0
  0
LINE
  5
E5CB
  8
ALPHA
 10
58.973379
 20
73.147082
 30
0.0
 11
59.242318
 21
72.878142
 31
0.0
  0
ARC
  5
E5CD
  8
ALPHA
 10
61.973379
 20
65.147082
 30
0.0
 40
3.788009
 50
0.0
 51
73.390813
  0
ARC
  5
E5CE
  8
ALPHA
 10
61.973379
 20
65.147082
 30
0.0
 40
2.313808
 50
0.0
 51
180.0
  0
ARC
  5
E5CF
  8
ALPHA
 10
61.973379
 20
65.147082
 30
0.0
 40
3.5
 50
0.0
 51
93.105813
  0
ARC
  5
E5D0
  8
ALPHA
 10
61.973379
 20
65.147082
 30
0.0
 40
2.1
 50
0.0
 51
180.0
  0
ARC
  5
E5D1
  8
ALPHA
 10
61.973379
 20
63.147082
 30
0.0
 40
3.788009
 50
270.0
 51
344.178429
  0
ARC
  5
E5D2
  8
ALPHA
 10
61.973379
 20
63.147082
 30
0.0
 40
2.313808
 50
270.0
 51
0.0
  0
ARC
  5
E5D3
  8
ALPHA
 10
61.973379
 20
63.147082
 30
0.0
 40
3.5
 50
270.0
 51
0.0
  0
ARC
  5
E5D4
  8
ALPHA
 10
61.973379
 20
63.147082
 30
0.0
 40
2.1
 50
270.0
 51
0.0
  0
LINE
  5
E5D5
  8
ALPHA
 10
61.973379
 20
59.359073
 30
0.0
 11
61.973379
 21
59.647082
 31
0.0
  0
LINE
  5
E5D6
  8
ALPHA
 10
60.973379
 20
61.047082
 30
0.0
 11
61.973379
 21
61.047082
 31
0.0
  0
LINE
  5
E5D7
  8
ALPHA
 10
61.973379
 20
60.833273
 30
0.0
 11
60.973379
 21
60.833273
 31
0.0
  0
LINE
  5
E5D8
  8
ALPHA
 10
59.873379
 20
64.935936
 30
0.0
 11
59.659571
 21
65.051712
 31
0.0
  0
LINE
  5
E5D9
  8
ALPHA
 10
59.873379
 20
65.147082
 30
0.0
 11
59.659571
 21
65.147082
 31
0.0
  0
LINE
  5
E5DA
  8
ALPHA
 10
60.973379
 20
61.047082
 30
0.0
 11
60.973379
 21
60.833273
 31
0.0
  0
LINE
  5
E5DB
  8
ALPHA
 10
59.873379
 20
65.147082
 30
0.0
 11
59.873379
 21
64.935936
 31
0.0
  0
LINE
  5
E5DC
  8
ALPHA
 10
59.659571
 20
65.051712
 30
0.0
 11
59.659571
 21
65.147082
 31
0.0
  0
LINE
  5
E5DD
  8
ALPHA
 10
61.973379
 20
61.047082
 30
0.0
 11
61.973379
 21
60.833273
 31
0.0
  0
LINE
  5
E5DE
  8
ALPHA
 10
65.473379
 20
65.147082
 30
0.0
 11
65.761388
 21
65.147082
 31
0.0
  0
LINE
  5
E5DF
  8
ALPHA
 10
67.54932
 20
63.897082
 30
0.0
 11
65.478616
 21
63.897082
 31
0.0
  0
LINE
  5
E5E0
  8
ALPHA
 10
65.397439
 20
62.397082
 30
0.0
 11
67.54932
 21
62.397082
 31
0.0
  0
LINE
  5
E5E1
  8
ALPHA
 10
65.617881
 20
62.11431
 30
0.0
 11
67.328878
 21
62.11431
 31
0.0
  0
LINE
  5
E5E2
  8
ALPHA
 10
65.761388
 20
64.179854
 30
0.0
 11
65.478616
 21
63.897082
 31
0.0
  0
ARC
  5
E5E3
  8
ALPHA
 10
61.973379
 20
63.147082
 30
0.0
 40
3.505237
 50
347.645152
 51
0.0
  0
LINE
  5
E5E4
  8
ALPHA
 10
65.617881
 20
62.11431
 30
0.0
 11
65.397439
 21
62.397082
 31
0.0
  0
LINE
  5
E5E5
  8
ALPHA
 10
64.073379
 20
65.147082
 30
0.0
 11
64.287187
 21
65.147082
 31
0.0
  0
LINE
  5
E5E6
  8
ALPHA
 10
65.473379
 20
65.147082
 30
0.0
 11
64.287187
 21
65.147082
 31
0.0
  0
LINE
  5
E5E7
  8
ALPHA
 10
64.287187
 20
63.147082
 30
0.0
 11
64.073379
 21
63.147082
 31
0.0
  0
LINE
  5
E5E8
  8
ALPHA
 10
65.478616
 20
63.147082
 30
0.0
 11
65.473379
 21
63.147082
 31
0.0
  0
LINE
  5
E5E9
  8
ALPHA
 10
65.478616
 20
63.147082
 30
0.0
 11
65.478616
 21
63.897082
 31
0.0
  0
LINE
  5
E5EA
  8
ALPHA
 10
65.473379
 20
63.147082
 30
0.0
 11
65.473379
 21
65.147082
 31
0.0
  0
LINE
  5
E5EB
  8
ALPHA
 10
64.773379
 20
61.547082
 30
0.0
 11
64.773379
 21
65.147082
 31
0.0
  0
LINE
  5
E5EC
  8
ALPHA
 10
64.287187
 20
65.147082
 30
0.0
 11
64.287187
 21
63.147082
 31
0.0
  0
LINE
  5
E5ED
  8
ALPHA
 10
64.073379
 20
63.147082
 30
0.0
 11
64.073379
 21
65.147082
 31
0.0
  0
ARC
  5
E5EE
  8
ALPHA
 10
70.973379
 20
63.147082
 30
0.0
 40
3.505237
 50
167.645152
 51
192.354848
  0
LINE
  5
E5EF
  8
ALPHA
 10
67.328878
 20
64.179854
 30
0.0
 11
67.54932
 21
63.897082
 31
0.0
  0
LINE
  5
E5F0
  8
ALPHA
 10
67.328878
 20
64.179854
 30
0.0
 11
65.761388
 21
64.179854
 31
0.0
  0
LINE
  5
E5F1
  8
ALPHA
 10
65.761388
 20
64.179854
 30
0.0
 11
65.761388
 21
65.147082
 31
0.0
  0
LINE
  5
E5F2
  8
ALPHA
 10
67.328878
 20
62.11431
 30
0.0
 11
67.54932
 21
62.397082
 31
0.0
  0
LINE
  5
E5F3
  8
ALPHA
 10
61.700786
 20
69.169675
 30
0.0
 11
61.573379
 21
69.297082
 31
0.0
  0
LINE
  5
E5F4
  8
ALPHA
 10
61.700786
 20
69.169675
 30
0.0
 11
60.463375
 21
69.207085
 31
0.0
  0
POLYLINE
  5
E5F5
  8
ALPHA
 66
     1
 10
0.0
 20
0.0
 30
0.0
  0
VERTEX
  5
EA86
  8
ALPHA
 10
60.463375
 20
67.707068
 30
0.0
  0
VERTEX
  5
EA87
  8
ALPHA
 10
60.69949
 20
67.721958
 30
0.0
  0
VERTEX
  5
EA88
  8
ALPHA
 10
60.911541
 20
67.774932
 30
0.0
  0
VERTEX
  5
EA89
  8
ALPHA
 10
61.100562
 20
67.859038
 30
0.0
  0
VERTEX
  5
EA8A
  8
ALPHA
 10
61.267308
 20
67.970401
 30
0.0
  0
VERTEX
  5
EA8B
  8
ALPHA
 10
61.411322
 20
68.106957
 30
0.0
  0
VERTEX
  5
EA8C
  8
ALPHA
 10
61.530983
 20
68.267922
 30
0.0
  0
VERTEX
  5
EA8D
  8
ALPHA
 10
61.623541
 20
68.454479
 30
0.0
  0
VERTEX
  5
EA8E
  8
ALPHA
 10
61.682512
 20
68.664563
 30
0.0
  0
VERTEX
  5
EA8F
  8
ALPHA
 10
61.700786
 20
68.869492
 30
0.0
  0
SEQEND
  5
EA90
  8
ALPHA
  0
POLYLINE
  5
E5F6
  8
ALPHA
 66
     1
 10
0.0
 20
0.0
 30
0.0
  0
VERTEX
  5
EA91
  8
ALPHA
 10
61.783749
 20
68.641941
 30
0.0
  0
VERTEX
  5
EA92
  8
ALPHA
 10
61.694645
 20
68.306242
 30
0.0
  0
VERTEX
  5
EA93
  8
ALPHA
 10
61.510643
 20
68.007173
 30
0.0
  0
VERTEX
  5
EA94
  8
ALPHA
 10
61.253526
 20
67.777871
 30
0.0
  0
VERTEX
  5
EA95
  8
ALPHA
 10
60.935434
 20
67.629159
 30
0.0
  0
VERTEX
  5
EA96
  8
ALPHA
 10
60.59175
 20
67.578893
 30
0.0
  0
SEQEND
  5
EA97
  8
ALPHA
  0
POLYLINE
  5
E5F7
  8
ALPHA
 66
     1
 10
0.0
 20
0.0
 30
0.0
  0
VERTEX
  5
EA98
  8
ALPHA
 10
60.590046
 20
69.823381
 30
0.0
  0
VERTEX
  5
EA99
  8
ALPHA
 10
60.717837
 20
69.794289
 30
0.0
  0
VERTEX
  5
EA9A
  8
ALPHA
 10
60.797295
 20
69.762668
 30
0.0
  0
VERTEX
  5
EA9B
  8
ALPHA
 10
60.823379
 20
69.731475
 30
0.0
  0
SEQEND
  5
EA9C
  8
ALPHA
  0
LINE
  5
E5F8
  8
ALPHA
 10
60.463375
 20
69.207085
 30
0.0
 11
60.373379
 21
69.297082
 31
0.0
  0
LINE
  5
E5F9
  8
ALPHA
 10
60.373379
 20
67.797082
 30
0.0
 11
60.59175
 21
67.578893
 31
0.0
  0
LINE
  5
E5FA
  8
ALPHA
 10
60.473379
 20
69.48041
 30
0.0
 11
60.573379
 21
69.492774
 31
0.0
  0
POLYLINE
  5
E5FB
  8
ALPHA
 66
     1
 10
0.0
 20
0.0
 30
0.0
  0
VERTEX
  5
EA9D
  8
ALPHA
 10
60.590162
 20
69.650865
 30
0.0
  0
VERTEX
  5
EA9E
  8
ALPHA
 10
60.526466
 20
69.639664
 30
0.0
  0
VERTEX
  5
EA9F
  8
ALPHA
 10
60.486837
 20
69.627378
 30
0.0
  0
VERTEX
  5
EAA0
  8
ALPHA
 10
60.473379
 20
69.614737
 30
0.0
  0
SEQEND
  5
EAA1
  8
ALPHA
  0
POLYLINE
  5
E5FC
  8
ALPHA
 66
     1
 10
0.0
 20
0.0
 30
0.0
  0
VERTEX
  5
EAA2
  8
ALPHA
 10
60.473379
 20
69.873583
 30
0.0
  0
VERTEX
  5
EAA3
  8
ALPHA
 10
60.486876
 20
69.855211
 30
0.0
  0
VERTEX
  5
EAA4
  8
ALPHA
 10
60.526543
 20
69.838199
 30
0.0
  0
VERTEX
  5
EAA5
  8
ALPHA
 10
60.590046
 20
69.823381
 30
0.0
  0
SEQEND
  5
EAA6
  8
ALPHA
  0
LINE
  5
E5FD
  8
ALPHA
 10
61.573379
 20
70.597082
 30
0.0
 11
61.573379
 21
69.297082
 31
0.0
  0
LINE
  5
E5FE
  8
ALPHA
 10
61.473379
 20
70.597082
 30
0.0
 11
61.473379
 21
69.997082
 31
0.0
  0
LINE
  5
E5FF
  8
ALPHA
 10
60.823379
 20
69.731475
 30
0.0
 11
60.823379
 21
69.997082
 31
0.0
  0
LINE
  5
E600
  8
ALPHA
 10
60.678453
 20
70.597082
 30
0.0
 11
60.678453
 21
69.997082
 31
0.0
  0
LINE
  5
E601
  8
ALPHA
 10
60.590046
 20
69.997082
 30
0.0
 11
60.590046
 21
69.823381
 31
0.0
  0
LINE
  5
E602
  8
ALPHA
 10
60.573379
 20
69.650865
 30
0.0
 11
60.573379
 21
69.297082
 31
0.0
  0
LINE
  5
E603
  8
ALPHA
 10
60.473379
 20
69.873583
 30
0.0
 11
60.473379
 21
69.997082
 31
0.0
  0
LINE
  5
E604
  8
ALPHA
 10
60.473379
 20
69.614737
 30
0.0
 11
60.473379
 21
69.397088
 31
0.0
  0
LINE
  5
E605
  8
ALPHA
 10
60.463375
 20
69.207085
 30
0.0
 11
60.463375
 21
67.707085
 31
0.0
  0
LINE
  5
E606
  8
ALPHA
 10
60.373379
 20
69.297082
 30
0.0
 11
60.373379
 21
67.797082
 31
0.0
  0
POLYLINE
  5
E607
  8
ALPHA
 66
     1
 10
0.0
 20
0.0
 30
0.0
  0
VERTEX
  5
EAA7
  8
ALPHA
 10
60.823379
 20
69.731475
 30
0.0
  0
VERTEX
  5
EAA8
  8
ALPHA
 10
60.797452
 20
69.701787
 30
0.0
  0
VERTEX
  5
EAA9
  8
ALPHA
 10
60.718199
 20
69.674226
 30
0.0
  0
VERTEX
  5
EAAA
  8
ALPHA
 10
60.590162
 20
69.650865
 30
0.0
  0
SEQEND
  5
EAAB
  8
ALPHA
  0
ARC
  5
E608
  8
ALPHA
 10
61.973379
 20
65.147082
 30
0.0
 40
3.505237
 50
76.807115
 51
93.187422
  0
LINE
  5
E609
  8
ALPHA
 10
63.056151
 20
71.027632
 30
0.0
 11
62.773379
 21
71.338875
 31
0.0
  0
LINE
  5
E60A
  8
ALPHA
 10
61.700786
 20
68.869492
 30
0.0
 11
61.786331
 21
68.783947
 31
0.0
  0
LINE
  5
E60B
  8
ALPHA
 10
61.77848
 20
68.646896
 30
0.0
 11
61.783749
 21
68.641941
 31
0.0
  0
LINE
  5
E60C
  8
ALPHA
 10
63.056151
 20
68.777042
 30
0.0
 11
63.056151
 21
71.027632
 31
0.0
  0
POLYLINE
  5
E60D
  8
ALPHA
 66
     1
 10
0.0
 20
0.0
 30
0.0
  0
VERTEX
  5
EAAC
  8
ALPHA
 10
61.786331
 20
68.783947
 30
0.0
  0
VERTEX
  5
EAAD
  8
ALPHA
 10
61.785458
 20
68.738173
 30
0.0
  0
VERTEX
  5
EAAE
  8
ALPHA
 10
61.782839
 20
68.692467
 30
0.0
  0
VERTEX
  5
EAAF
  8
ALPHA
 10
61.77848
 20
68.646896
 30
0.0
  0
SEQEND
  5
EAB0
  8
ALPHA
  0
LINE
  5
E60E
  8
ALPHA
 10
62.773379
 20
68.559805
 30
0.0
 11
62.773379
 21
71.338875
 31
0.0
  0
LINE
  5
E60F
  8
ALPHA
 10
61.786331
 20
68.783947
 30
0.0
 11
61.786331
 21
70.597082
 31
0.0
  0
LINE
  5
E610
  8
ALPHA
 10
61.700786
 20
69.169675
 30
0.0
 11
61.700786
 21
68.869492
 31
0.0
  0
LINE
  5
E611
  8
ALPHA
 10
63.056151
 20
68.777042
 30
0.0
 11
62.773379
 21
68.559805
 31
0.0
  0
LINE
  5
E612
  8
ALPHA
 10
71.973379
 20
55.647082
 30
0.0
 11
71.973379
 21
35.647082
 31
0.0
  0
LINE
  5
E613
  8
ALPHA
 10
70.973379
 20
55.647082
 30
0.0
 11
70.973379
 21
39.147082
 31
0.0
  0
LINE
  5
E614
  8
ALPHA
 10
74.873379
 20
54.56613
 30
0.0
 11
78.573379
 21
54.56613
 31
0.0
  0
LINE
  5
E615
  8
ALPHA
 10
78.264424
 20
51.728825
 30
0.0
 11
75.182334
 21
51.728825
 31
0.0
  0
LINE
  5
E616
  8
ALPHA
 10
78.334245
 20
51.047082
 30
0.0
 11
75.112514
 21
51.047082
 31
0.0
  0
LINE
  5
E618
  8
ALPHA
 10
68.952545
 20
32.080414
 30
0.0
 11
69.077545
 21
32.247082
 31
0.0
  0
LINE
  5
E619
  8
ALPHA
 10
69.390045
 20
31.747082
 30
0.0
 11
69.327545
 21
31.580414
 31
0.0
  0
LINE
  5
E61A
  8
ALPHA
 10
69.390045
 20
31.913748
 30
0.0
 11
69.390045
 21
31.747082
 31
0.0
  0
LINE
  5
E61B
  8
ALPHA
 10
69.327545
 20
32.080414
 30
0.0
 11
69.390045
 21
31.913748
 31
0.0
  0
LINE
  5
E61C
  8
ALPHA
 10
69.202545
 20
32.247082
 30
0.0
 11
69.327545
 21
32.080414
 31
0.0
  0
LINE
  5
E61D
  8
ALPHA
 10
69.077545
 20
32.247082
 30
0.0
 11
69.202545
 21
32.247082
 31
0.0
  0
LINE
  5
E61E
  8
ALPHA
 10
75.182334
 20
51.047082
 30
0.0
 11
75.182334
 21
51.728825
 31
0.0
  0
POLYLINE
  5
E61F
  8
ALPHA
 66
     1
 10
0.0
 20
0.0
 30
0.0
  0
VERTEX
  5
EAB1
  8
ALPHA
 10
75.182334
 20
51.728825
 30
0.0
  0
VERTEX
  5
EAB2
  8
ALPHA
 10
75.081226
 20
53.279013
 30
0.0
  0
VERTEX
  5
EAB3
  8
ALPHA
 10
74.977879
 20
54.228107
 30
0.0
  0
VERTEX
  5
EAB4
  8
ALPHA
 10
74.873379
 20
54.56613
 30
0.0
  0
SEQEND
  5
EAB5
  8
ALPHA
  0
POLYLINE
  5
E621
  8
ALPHA
 66
     1
 10
0.0
 20
0.0
 30
0.0
  0
VERTEX
  5
EAB6
  8
ALPHA
 10
78.264424
 20
51.728825
 30
0.0
  0
VERTEX
  5
EAB7
  8
ALPHA
 10
78.365532
 20
53.279013
 30
0.0
  0
VERTEX
  5
EAB8
  8
ALPHA
 10
78.468879
 20
54.228107
 30
0.0
  0
VERTEX
  5
EAB9
  8
ALPHA
 10
78.573379
 20
54.56613
 30
0.0
  0
SEQEND
  5
EABA
  8
ALPHA
  0
LINE
  5
E622
  8
ALPHA
 10
78.264424
 20
51.047082
 30
0.0
 11
78.264424
 21
51.728825
 31
0.0
  0
ARC
  5
E624
  8
ALPHA
 10
71.973379
 20
63.147082
 30
0.0
 40
3.5
 50
270.0
 51
0.0
  0
ARC
  5
E625
  8
ALPHA
 10
74.973379
 20
69.826177
 30
0.0
 40
1.0
 50
0.0
 51
78.952848
  0
LINE
  5
E626
  8
ALPHA
 10
75.973379
 20
56.066149
 30
0.0
 11
78.673379
 21
56.066149
 31
0.0
  0
ARC
  5
E627
  8
ALPHA
 10
71.973379
 20
65.147082
 30
0.0
 40
3.788009
 50
121.869202
 51
170.601533
  0
ARC
  5
E628
  8
ALPHA
 10
71.973379
 20
65.147082
 30
0.0
 40
3.505237
 50
0.0
 51
44.502601
  0
ARC
  5
E629
  8
ALPHA
 10
71.973379
 20
65.147082
 30
0.0
 40
3.5
 50
0.0
 51
172.063907
  0
ARC
  5
E62A
  8
ALPHA
 10
71.973379
 20
65.147082
 30
0.0
 40
2.313808
 50
0.0
 51
180.0
  0
ARC
  5
E62B
  8
ALPHA
 10
71.973379
 20
65.147082
 30
0.0
 40
2.1
 50
0.0
 51
180.0
  0
LINE
  5
E62C
  8
ALPHA
 10
75.973379
 20
69.826177
 30
0.0
 11
75.973379
 21
56.066149
 31
0.0
  0
ARC
  5
E62D
  8
ALPHA
 10
50.973379
 20
-22.352918
 30
0.0
 40
81.687502
 50
73.564368
 51
76.474635
  0
LINE
  5
E62E
  8
ALPHA
 10
70.973379
 20
61.047082
 30
0.0
 11
71.973379
 21
61.047082
 31
0.0
  0
LINE
  5
E62F
  8
ALPHA
 10
71.973379
 20
60.833273
 30
0.0
 11
70.973379
 21
60.833273
 31
0.0
  0
LINE
  5
E630
  8
ALPHA
 10
70.973379
 20
59.647082
 30
0.0
 11
71.973379
 21
59.647082
 31
0.0
  0
LINE
  5
E631
  8
ALPHA
 10
70.973379
 20
59.254343
 30
0.0
 11
71.973379
 21
59.254343
 31
0.0
  0
ARC
  5
E632
  8
ALPHA
 10
70.973379
 20
63.147082
 30
0.0
 40
2.313808
 50
124.597795
 51
270.0
  0
ARC
  5
E633
  8
ALPHA
 10
70.973379
 20
63.147082
 30
0.0
 40
3.892739
 50
256.703841
 51
270.0
  0
POLYLINE
  5
E634
  8
ALPHA
 66
     1
 10
0.0
 20
0.0
 30
0.0
  0
VERTEX
  5
EABB
  8
ALPHA
 10
70.07811
 20
59.35869
 30
0.0
  0
VERTEX
  5
EABC
  8
ALPHA
 10
70.043
 20
59.403327
 30
0.0
  0
VERTEX
  5
EABD
  8
ALPHA
 10
70.008089
 20
59.448245
 30
0.0
  0
VERTEX
  5
EABE
  8
ALPHA
 10
69.973379
 20
59.493452
 30
0.0
  0
SEQEND
  5
EABF
  8
ALPHA
  0
LINE
  5
E635
  8
ALPHA
 10
70.973379
 20
59.254343
 30
0.0
 11
70.973379
 21
59.647082
 31
0.0
  0
LINE
  5
E636
  8
ALPHA
 10
70.07811
 20
57.069102
 30
0.0
 11
70.07811
 21
59.35869
 31
0.0
  0
LINE
  5
E637
  8
ALPHA
 10
69.973379
 20
56.986534
 30
0.0
 11
69.973379
 21
59.493452
 31
0.0
  0
LINE
  5
E638
  8
ALPHA
 10
70.07811
 20
57.069102
 30
0.0
 11
69.973379
 21
56.986534
 31
0.0
  0
ARC
  5
E639
  8
ALPHA
 10
70.973379
 20
63.147082
 30
0.0
 40
2.1
 50
121.588136
 51
270.0
  0
LINE
  5
E63A
  8
ALPHA
 10
69.873379
 20
64.935936
 30
0.0
 11
69.659571
 21
65.051712
 31
0.0
  0
LINE
  5
E63B
  8
ALPHA
 10
69.873379
 20
65.147082
 30
0.0
 11
69.659571
 21
65.147082
 31
0.0
  0
LINE
  5
E63C
  8
ALPHA
 10
68.236219
 20
65.765662
 30
0.0
 11
68.5069
 21
65.630321
 31
0.0
  0
LINE
  5
E63D
  8
ALPHA
 10
69.659571
 20
65.051712
 30
0.0
 11
69.659571
 21
65.147082
 31
0.0
  0
LINE
  5
E63E
  8
ALPHA
 10
70.973379
 20
60.833273
 30
0.0
 11
70.973379
 21
61.047082
 31
0.0
  0
LINE
  5
E63F
  8
ALPHA
 10
69.873379
 20
65.147082
 30
0.0
 11
69.873379
 21
64.935936
 31
0.0
  0
ARC
  5
E640
  8
ALPHA
 10
71.973379
 20
63.147082
 30
0.0
 40
2.313808
 50
270.0
 51
0.0
  0
LINE
  5
E641
  8
ALPHA
 10
74.473379
 20
60.690115
 30
0.0
 11
74.473379
 21
55.476639
 31
0.0
  0
POLYLINE
  5
E642
  8
ALPHA
 66
     1
 10
0.0
 20
0.0
 30
0.0
  0
VERTEX
  5
EAC0
  8
ALPHA
 10
74.473379
 20
60.690115
 30
0.0
  0
VERTEX
  5
EAC1
  8
ALPHA
 10
74.348977
 20
60.402848
 30
0.0
  0
VERTEX
  5
EAC2
  8
ALPHA
 10
74.219803
 20
60.133405
 30
0.0
  0
VERTEX
  5
EAC3
  8
ALPHA
 10
74.085877
 20
59.877407
 30
0.0
  0
SEQEND
  5
EAC4
  8
ALPHA
  0
ARC
  5
E643
  8
ALPHA
 10
71.973379
 20
63.147082
 30
0.0
 40
3.892739
 50
270.0
 51
302.866019
  0
LINE
  5
E644
  8
ALPHA
 10
71.973379
 20
59.254343
 30
0.0
 11
71.973379
 21
59.647082
 31
0.0
  0
LINE
  5
E645
  8
ALPHA
 10
74.085877
 20
55.996686
 30
0.0
 11
74.473379
 21
55.476639
 31
0.0
  0
LINE
  5
E646
  8
ALPHA
 10
74.085877
 20
59.877407
 30
0.0
 11
74.085877
 21
55.996686
 31
0.0
  0
ARC
  5
E647
  8
ALPHA
 10
71.973379
 20
63.147082
 30
0.0
 40
2.1
 50
270.0
 51
0.0
  0
LINE
  5
E648
  8
ALPHA
 10
71.973379
 20
61.047082
 30
0.0
 11
71.973379
 21
60.833273
 31
0.0
  0
ARC
  5
E649
  8
ALPHA
 10
71.973379
 20
63.147082
 30
0.0
 40
3.505237
 50
315.497399
 51
0.0
  0
LINE
  5
E64A
  8
ALPHA
 10
75.478616
 20
63.147082
 30
0.0
 11
75.478616
 21
65.147082
 31
0.0
  0
LINE
  5
E64B
  8
ALPHA
 10
75.473379
 20
63.147082
 30
0.0
 11
75.473379
 21
65.147082
 31
0.0
  0
LINE
  5
E64C
  8
ALPHA
 10
74.073379
 20
65.147082
 30
0.0
 11
74.287187
 21
65.147082
 31
0.0
  0
LINE
  5
E64D
  8
ALPHA
 10
75.478616
 20
65.147082
 30
0.0
 11
75.473379
 21
65.147082
 31
0.0
  0
LINE
  5
E64E
  8
ALPHA
 10
74.287187
 20
65.147082
 30
0.0
 11
74.287187
 21
63.147082
 31
0.0
  0
LINE
  5
E64F
  8
ALPHA
 10
74.073379
 20
63.147082
 30
0.0
 11
74.073379
 21
65.147082
 31
0.0
  0
LINE
  5
E650
  8
ALPHA
 10
74.073379
 20
63.147082
 30
0.0
 11
74.287187
 21
63.147082
 31
0.0
  0
LINE
  5
E651
  8
ALPHA
 10
75.478616
 20
63.147082
 30
0.0
 11
75.473379
 21
63.147082
 31
0.0
  0
ARC
  5
E652
  8
ALPHA
 10
50.973379
 20
-53.102918
 30
0.0
 40
124.612498
 50
79.311175
 51
81.181024
  0
ARC
  5
E653
  8
ALPHA
 10
71.973379
 20
65.147082
 30
0.0
 40
3.892739
 50
57.133981
 51
119.135261
  0
LINE
  5
E654
  8
ALPHA
 10
70.07811
 20
70.036368
 30
0.0
 11
69.973379
 21
70.158539
 31
0.0
  0
LINE
  5
E655
  8
ALPHA
 10
70.07811
 20
68.547283
 30
0.0
 11
70.07811
 21
70.036368
 31
0.0
  0
LINE
  5
E656
  8
ALPHA
 10
69.973379
 20
68.364069
 30
0.0
 11
69.973379
 21
70.158539
 31
0.0
  0
POLYLINE
  5
E657
  8
ALPHA
 66
     1
 10
0.0
 20
0.0
 30
0.0
  0
VERTEX
  5
EAC5
  8
ALPHA
 10
70.07811
 20
68.547283
 30
0.0
  0
VERTEX
  5
EAC6
  8
ALPHA
 10
70.042933
 20
68.486866
 30
0.0
  0
VERTEX
  5
EAC7
  8
ALPHA
 10
70.008022
 20
68.425807
 30
0.0
  0
VERTEX
  5
EAC8
  8
ALPHA
 10
69.973379
 20
68.364069
 30
0.0
  0
SEQEND
  5
EAC9
  8
ALPHA
  0
POLYLINE
  5
E658
  8
ALPHA
 66
     1
 10
0.0
 20
0.0
 30
0.0
  0
VERTEX
  5
EACA
  8
ALPHA
 10
74.085877
 20
68.416756
 30
0.0
  0
VERTEX
  5
EACB
  8
ALPHA
 10
74.219724
 20
68.160917
 30
0.0
  0
VERTEX
  5
EACC
  8
ALPHA
 10
74.348898
 20
67.891487
 30
0.0
  0
VERTEX
  5
EACD
  8
ALPHA
 10
74.473379
 20
67.604048
 30
0.0
  0
SEQEND
  5
EACE
  8
ALPHA
  0
LINE
  5
E659
  8
ALPHA
 10
74.473379
 20
69.66821
 30
0.0
 11
74.473379
 21
67.604048
 31
0.0
  0
LINE
  5
E65A
  8
ALPHA
 10
74.085877
 20
69.347427
 30
0.0
 11
74.085877
 21
68.416756
 31
0.0
  0
LINE
  5
E65B
  8
ALPHA
 10
74.085877
 20
69.347427
 30
0.0
 11
74.473379
 21
69.66821
 31
0.0
  0
POLYLINE
  5
E65D
  8
ALPHA
 66
     1
 10
0.0
 20
0.0
 30
0.0
  0
VERTEX
  5
EACF
  8
ALPHA
 10
78.673379
 20
56.066149
 30
0.0
  0
VERTEX
  5
EAD0
  8
ALPHA
 10
79.007186
 20
56.022561
 30
0.0
  0
VERTEX
  5
EAD1
  8
ALPHA
 10
79.325552
 20
55.890723
 30
0.0
  0
VERTEX
  5
EAD2
  8
ALPHA
 10
79.592642
 20
55.685359
 30
0.0
  0
VERTEX
  5
EAD3
  8
ALPHA
 10
79.797955
 20
55.418314
 30
0.0
  0
VERTEX
  5
EAD4
  8
ALPHA
 10
79.929764
 20
55.100048
 30
0.0
  0
VERTEX
  5
EAD5
  8
ALPHA
 10
79.973379
 20
54.766132
 30
0.0
  0
SEQEND
  5
EAD6
  8
ALPHA
  0
POLYLINE
  5
E754
  8
ALPHA
 66
     1
 10
0.0
 20
0.0
 30
0.0
  0
VERTEX
  5
EAD7
  8
ALPHA
 10
23.273379
 20
56.066149
 30
0.0
  0
VERTEX
  5
EAD8
  8
ALPHA
 10
22.939572
 20
56.022561
 30
0.0
  0
VERTEX
  5
EAD9
  8
ALPHA
 10
22.621207
 20
55.890723
 30
0.0
  0
VERTEX
  5
EADA
  8
ALPHA
 10
22.354116
 20
55.685359
 30
0.0
  0
VERTEX
  5
EADB
  8
ALPHA
 10
22.148803
 20
55.418314
 30
0.0
  0
VERTEX
  5
EADC
  8
ALPHA
 10
22.016994
 20
55.100048
 30
0.0
  0
VERTEX
  5
EADD
  8
ALPHA
 10
21.973379
 20
54.766132
 30
0.0
  0
SEQEND
  5
EADE
  8
ALPHA
  0
LINE
  5
E760
  8
ALPHA
 10
81.273379
 20
29.297082
 30
0.0
 11
81.273379
 21
50.997082
 31
0.0
  0
LINE
  5
E761
  8
ALPHA
 10
80.473379
 20
50.997082
 30
0.0
 11
80.473379
 21
29.297082
 31
0.0
  0
LINE
  5
E762
  8
ALPHA
 10
80.473379
 20
29.297082
 30
0.0
 11
81.273379
 21
29.297082
 31
0.0
  0
ARC
  5
E763
  8
ALPHA
 10
80.473379
 20
29.797082
 30
0.0
 40
0.5
 50
180.0
 51
270.0
  0
LINE
  5
E764
  8
ALPHA
 10
80.473379
 20
50.997082
 30
0.0
 11
81.273379
 21
50.997082
 31
0.0
  0
ARC
  5
E765
  8
ALPHA
 10
80.473379
 20
50.497082
 30
0.0
 40
0.5
 50
90.0
 51
180.0
  0
LINE
  5
E8AE
  8
0
  6
CONTINUOUS
 62
     2
 10
99.473379
 20
65.218273
 30
0.0
 11
86.473379
 21
65.218273
 31
0.0
  0
LINE
  5
E8AF
  8
0
  6
CONTINUOUS
 62
     2
 10
86.473379
 20
60.218273
 30
0.0
 11
99.473379
 21
60.218273
 31
0.0
  0
LINE
  5
E8B0
  8
0
  6
CONTINUOUS
 62
     2
 10
99.473379
 20
60.218273
 30
0.0
 11
99.473379
 21
65.218273
 31
0.0
  0
LINE
  5
E8B1
  8
0
  6
CONTINUOUS
 62
     2
 10
78.973379
 20
32.333856
 30
0.0
 11
78.973379
 21
62.718273
 31
0.0
  0
LINE
  5
E8B2
  8
0
  6
CONTINUOUS
 62
     2
 10
86.473379
 20
65.218273
 30
0.0
 11
86.473379
 21
60.218273
 31
0.0
  0
SOLID
  5
E8B3
  8
0
  6
CONTINUOUS
 62
     2
 10
78.973379
 20
64.161649
 30
0.0
 11
78.973379
 21
61.274898
 31
0.0
 12
81.473379
 22
62.718273
 32
0.0
 13
81.473379
 23
62.718273
 33
0.0
  0
LINE
  5
E8B4
  8
0
  6
CONTINUOUS
 62
     2
 10
81.473379
 20
62.718273
 30
0.0
 11
86.473379
 21
62.718273
 31
0.0
  0
TEXT
  5
E8B5
  8
0
  6
CONTINUOUS
 62
     2
 10
87.723379
 20
61.468273
 30
0.0
 40
2.5
  1
ENTRY_2
 41
0.63
  7
STANDARD
 72
     5
 11
98.223379
 21
61.468273
 31
0.0
  0
VIEWPORT
  5
494D
 67
     1
  8
0
 10
4.995325
 20
6.556512
 30
0.0
 40
22.70986
 41
13.988421
 68
    -1
 69
     1
1001
ACAD
1000
MVIEW
1002
{
1070
    16
1010
0.0
1020
0.0
1030
0.0
1010
0.0
1020
0.0
1030
1.0
1040
0.0
1040
13.988421
1040
4.995325
1040
6.556512
1040
50.0
1040
0.0
1040
0.0
1070
     0
1070
   100
1070
     1
1070
     1
1070
     0
1070
     0
1070
     0
1070
     0
1040
0.0
1040
0.0
1040
0.0
1040
10.0
1040
10.0
1040
10.0
1040
10.0
1070
     0
1002
{
1002
}
1002
}
  0
ENDSEC
  0
EOF
