  0
SECTION
  2
HEADER
  9
$ACADVER
  1
AC1009
  9
$INSBASE
 10
402.590624
 20
-1.041018
 30
0.0
  9
$EXTMIN
 10
1.091617
 20
1.205796
 30
0.0
  9
$EXTMAX
 10
80.258739
 20
102.04195
 30
0.0
  9
$LIMMIN
 10
-407.970438
 20
-367.832444
  9
$LIMMAX
 10
429.804077
 20
234.370848
  9
$ORTHOMODE
 70
     1
  9
$REGENMODE
 70
     1
  9
$FILLMODE
 70
     1
  9
$QTEXTMODE
 70
     0
  9
$MIRRTEXT
 70
     1
  9
$DRAGMODE
 70
     2
  9
$LTSCALE
 40
10.0
  9
$OSMODE
 70
    35
  9
$ATTMODE
 70
     1
  9
$TEXTSIZE
 40
6.0
  9
$TRACEWID
 40
1.0
  9
$TEXTSTYLE
  7
ROMANS
  9
$CLAYER
  8
ALPHA
  9
$CELTYPE
  6
BYLAYER
  9
$CECOLOR
 62
   256
  9
$DIMSCALE
 40
1.0
  9
$DIMASZ
 40
5.0
  9
$DIMEXO
 40
2.0
  9
$DIMDLI
 40
0.38
  9
$DIMRND
 40
0.0
  9
$DIMDLE
 40
0.0
  9
$DIMEXE
 40
2.5
  9
$DIMTP
 40
0.0
  9
$DIMTM
 40
0.0
  9
$DIMTXT
 40
2.5
  9
$DIMCEN
 40
0.0
  9
$DIMTSZ
 40
0.0
  9
$DIMTOL
 70
     0
  9
$DIMLIM
 70
     0
  9
$DIMTIH
 70
     1
  9
$DIMTOH
 70
     1
  9
$DIMSE1
 70
     0
  9
$DIMSE2
 70
     0
  9
$DIMTAD
 70
     1
  9
$DIMZIN
 70
    12
  9
$DIMBLK
  1
OPEN30
  9
$DIMASO
 70
     1
  9
$DIMSHO
 70
     1
  9
$DIMPOST
  1

  9
$DIMAPOST
  1

  9
$DIMALT
 70
     0
  9
$DIMALTD
 70
     2
  9
$DIMALTF
 40
25.4
  9
$DIMLFAC
 40
1.0
  9
$DIMTOFL
 70
     0
  9
$DIMTVP
 40
0.0
  9
$DIMTIX
 70
     0
  9
$DIMSOXD
 70
     0
  9
$DIMSAH
 70
     0
  9
$DIMBLK1
  1

  9
$DIMBLK2
  1

  9
$DIMSTYLE
  2
SC_DEFAUT
  9
$DIMCLRD
 70
     0
  9
$DIMCLRE
 70
     0
  9
$DIMCLRT
 70
     0
  9
$DIMTFAC
 40
1.0
  9
$DIMGAP
 40
2.0
  9
$LUNITS
 70
     2
  9
$LUPREC
 70
     1
  9
$SKETCHINC
 40
0.1
  9
$FILLETRAD
 40
0.0
  9
$AUNITS
 70
     0
  9
$AUPREC
 70
     0
  9
$MENU
  1
acad
  9
$ELEVATION
 40
0.0
  9
$PELEVATION
 40
0.0
  9
$THICKNESS
 40
0.0
  9
$LIMCHECK
 70
     0
  9
$BLIPMODE
 70
     0
  9
$CHAMFERA
 40
0.0
  9
$CHAMFERB
 40
0.0
  9
$SKPOLY
 70
     0
  9
$TDCREATE
 40
2450373.687919
  9
$TDUPDATE
 40
2453038.420373
  9
$TDINDWG
 40
1.143373
  9
$TDUSRTIMER
 40
1.143373
  9
$USRTIMER
 70
     1
  9
$ANGBASE
 50
0.0
  9
$ANGDIR
 70
     0
  9
$PDMODE
 70
    32
  9
$PDSIZE
 40
0.0
  9
$PLINEWID
 40
0.0
  9
$COORDS
 70
     1
  9
$SPLFRAME
 70
     0
  9
$SPLINETYPE
 70
     6
  9
$SPLINESEGS
 70
     8
  9
$ATTDIA
 70
     0
  9
$ATTREQ
 70
     1
  9
$HANDLING
 70
     1
  9
$HANDSEED
  5
E93D
  9
$SURFTAB1
 70
     6
  9
$SURFTAB2
 70
     6
  9
$SURFTYPE
 70
     6
  9
$SURFU
 70
     6
  9
$SURFV
 70
     6
  9
$UCSNAME
  2

  9
$UCSORG
 10
0.0
 20
0.0
 30
0.0
  9
$UCSXDIR
 10
1.0
 20
0.0
 30
0.0
  9
$UCSYDIR
 10
0.0
 20
1.0
 30
0.0
  9
$PUCSNAME
  2

  9
$PUCSORG
 10
0.0
 20
0.0
 30
0.0
  9
$PUCSXDIR
 10
1.0
 20
0.0
 30
0.0
  9
$PUCSYDIR
 10
0.0
 20
1.0
 30
0.0
  9
$USERI1
 70
     0
  9
$USERI2
 70
     0
  9
$USERI3
 70
     0
  9
$USERI4
 70
     0
  9
$USERI5
 70
     0
  9
$USERR1
 40
0.0
  9
$USERR2
 40
0.0
  9
$USERR3
 40
0.0
  9
$USERR4
 40
0.0
  9
$USERR5
 40
0.0
  9
$WORLDVIEW
 70
     1
  9
$SHADEDGE
 70
     3
  9
$SHADEDIF
 70
    70
  9
$TILEMODE
 70
     1
  9
$MAXACTVP
 70
    16
  9
$PLIMCHECK
 70
     0
  9
$PEXTMIN
 10
-1.452248
 20
-0.437698
 30
0.0
  9
$PEXTMAX
 10
12.749749
 20
8.310198
 30
0.0
  9
$PLIMMIN
 10
0.0
 20
0.0
  9
$PLIMMAX
 10
12.0
 20
9.0
  9
$UNITMODE
 70
     0
  9
$VISRETAIN
 70
     0
  9
$PLINEGEN
 70
     0
  9
$PSLTSCALE
 70
     0
  0
ENDSEC
  0
SECTION
  2
TABLES
  0
TABLE
  2
VPORT
 70
     2
  0
VPORT
  2
*ACTIVE
 70
     0
 10
0.0
 20
0.0
 11
1.0
 21
1.0
 12
40.670242
 22
51.622145
 13
0.0
 23
0.0
 14
1.0
 24
1.0
 15
10.0
 25
10.0
 16
0.0
 26
0.0
 36
1.0
 17
0.0
 27
0.0
 37
0.0
 40
101.620772
 41
1.466346
 42
50.0
 43
0.0
 44
0.0
 50
0.0
 51
0.0
 71
     0
 72
   100
 73
     1
 74
     0
 75
     0
 76
     0
 77
     0
 78
     0
  0
ENDTAB
  0
TABLE
  2
LTYPE
 70
     2
  0
LTYPE
  2
CONTINUOUS
 70
     0
  3
Solid line
 72
    65
 73
     0
 40
0.0
  0
LTYPE
  2
AXES2
 70
     0
  3
___ _ ___ _ ___ _ ___ _ ___ _ ___ _ ___ _ ___ _
 72
    65
 73
     4
 40
1.125
 49
0.75
 49
-0.125
 49
0.125
 49
-0.125
  0
ENDTAB
  0
TABLE
  2
LAYER
 70
     5
  0
LAYER
  2
0
 70
     0
 62
   255
  6
CONTINUOUS
  0
LAYER
  2
COTATION1
 70
     0
 62
     2
  6
CONTINUOUS
  0
LAYER
  2
AXE
 70
     0
 62
    80
  6
AXES2
  0
LAYER
  2
DEFPOINTS
 70
     0
 62
     7
  6
CONTINUOUS
  0
LAYER
  2
ALPHA
 70
     0
 62
   254
  6
CONTINUOUS
  0
ENDTAB
  0
TABLE
  2
STYLE
 70
     2
  0
STYLE
  2
ROMANS
 70
     0
 40
0.0
 41
1.0
 50
0.0
 71
     0
 42
6.0
  3
romans
  4

  0
STYLE
  2
STANDARD
 70
     0
 40
0.0
 41
1.0
 50
0.0
 71
     0
 42
0.2
  3
txt
  4

  0
ENDTAB
  0
TABLE
  2
VIEW
 70
     0
  0
ENDTAB
  0
TABLE
  2
UCS
 70
     0
  0
ENDTAB
  0
TABLE
  2
APPID
 70
     1
  0
APPID
  2
ACAD
 70
     0
  0
ENDTAB
  0
TABLE
  2
DIMSTYLE
 70
     2
  0
DIMSTYLE
  2
SC_DEFAUT
 70
     0
  3

  4

  5
OPEN30
  6

  7

 40
1.0
 41
5.0
 42
2.0
 43
0.38
 44
2.5
 45
0.0
 46
0.0
 47
0.0
 48
0.0
140
2.5
141
0.0
142
0.0
143
25.4
144
1.0
145
0.0
146
1.0
147
2.0
 71
     0
 72
     0
 73
     1
 74
     1
 75
     0
 76
     0
 77
     1
 78
    12
170
     0
171
     2
172
     0
173
     0
174
     0
175
     0
176
     0
177
     0
178
     0
  0
DIMSTYLE
  2
STANDARD
 70
     0
  3

  4

  5

  6

  7

 40
1.0
 41
0.18
 42
0.0625
 43
0.38
 44
0.18
 45
0.0
 46
0.0
 47
0.0
 48
0.0
140
0.18
141
0.09
142
0.0
143
25.4
144
1.0
145
0.0
146
1.0
147
0.09
 71
     0
 72
     0
 73
     1
 74
     1
 75
     0
 76
     0
 77
     0
 78
     0
170
     0
171
     2
172
     0
173
     0
174
     0
175
     0
176
     0
177
     0
178
     0
  0
ENDTAB
  0
ENDSEC
  0
SECTION
  2
BLOCKS
  0
BLOCK
  8
0
  2
$MODEL_SPACE
 70
     0
 10
0.0
 20
0.0
 30
0.0
  3
$MODEL_SPACE
  1

  0
ENDBLK
  5
E428
  8
0
  0
BLOCK
 67
     1
  8
0
  2
$PAPER_SPACE
 70
     0
 10
0.0
 20
0.0
 30
0.0
  3
$PAPER_SPACE
  1

  0
ENDBLK
  5
E426
 67
     1
  8
0
  0
BLOCK
  8
0
  2
COTE
 70
     0
 10
0.0
 20
0.0
 30
0.0
  3
COTE
  1

  0
ENDBLK
  5
F
  8
0
  0
BLOCK
  8
0
  2
FOND
 70
     0
 10
0.0
 20
0.0
 30
0.0
  3
FOND
  1

  0
ENDBLK
  5
75
  8
0
  0
BLOCK
  8
0
  2
_OPEN30
 70
     0
 10
0.0
 20
0.0
 30
0.0
  3
_OPEN30
  1

  0
LINE
  5
4B05
  8
COTATION1
 62
     0
 10
-1.0
 20
0.267949
 30
0.0
 11
0.0
 21
0.0
 31
0.0
1001
ACAD
1000
RTLwPs
1070
   158
  0
LINE
  5
4B06
  8
COTATION1
 62
     0
 10
0.0
 20
0.0
 30
0.0
 11
-1.0
 21
-0.267949
 31
0.0
1001
ACAD
1000
RTLwPs
1070
   158
  0
LINE
  5
4B07
  8
COTATION1
 62
     0
 10
0.0
 20
0.0
 30
0.0
 11
-1.0
 21
0.0
 31
0.0
1001
ACAD
1000
RTLwPs
1070
   158
  0
ENDBLK
  5
4B09
  8
0
  0
BLOCK
  8
0
  2
*D3
 70
     1
 10
0.0
 20
0.0
 30
0.0
  3
*D3
  1

  0
LINE
  5
DE67
  8
COTATION1
 62
     0
 10
25.708739
 20
22.24195
 30
0.0
 11
25.708739
 21
1.205796
 31
0.0
1001
ACAD
1000
RTLwPs
1070
   158
  0
LINE
  5
DE68
  8
COTATION1
 62
     0
 10
56.508739
 20
22.24195
 30
0.0
 11
56.508739
 21
1.205796
 31
0.0
1001
ACAD
1000
RTLwPs
1070
   158
  0
LINE
  5
DE69
  8
COTATION1
 62
     0
 10
30.708739
 20
3.705796
 30
0.0
 11
51.508739
 21
3.705796
 31
0.0
1001
ACAD
1000
RTLwPs
1070
   158
  0
INSERT
  5
DE6A
  8
COTATION1
 62
     0
  2
_OPEN30
 10
25.708739
 20
3.705796
 30
0.0
 41
5.0
 42
5.0
 43
5.0
 50
180.0
1001
ACAD
1000
RTLwPs
1070
   158
  0
INSERT
  5
DE6B
  8
COTATION1
 62
     0
  2
_OPEN30
 10
56.508739
 20
3.705796
 30
0.0
 41
5.0
 42
5.0
 43
5.0
1001
ACAD
1000
RTLwPs
1070
   158
  0
TEXT
  5
DE6C
  8
COTATION1
 62
     0
 10
36.942072
 20
5.705796
 30
0.0
 40
2.5
  1
30.8
1001
ACAD
1000
MTEXTBEGIN
1070
    73
1070
     1
1070
    44
1040
1.0
1070
    74
1070
     0
1000
MTEXTEND
  0
POINT
  5
DE6D
  8
DEFPOINTS
 62
     0
 10
25.708739
 20
24.24195
 30
0.0
  0
POINT
  5
DE6E
  8
DEFPOINTS
 62
     0
 10
56.508739
 20
24.24195
 30
0.0
  0
POINT
  5
DE6F
  8
DEFPOINTS
 62
     0
 10
56.508739
 20
3.705796
 30
0.0
  0
ENDBLK
  5
DE3B
  8
0
  0
BLOCK
  8
0
  2
*D4
 70
     1
 10
0.0
 20
0.0
 30
0.0
  3
*D4
  1

  0
LINE
  5
DE5D
  8
COTATION1
 62
     0
 10
51.108739
 20
89.54195
 30
0.0
 11
79.008739
 21
89.54195
 31
0.0
1001
ACAD
1000
RTLwPs
1070
   158
  0
LINE
  5
DE5E
  8
COTATION1
 62
     0
 10
58.508739
 20
24.24195
 30
0.0
 11
79.008739
 21
24.24195
 31
0.0
1001
ACAD
1000
RTLwPs
1070
   158
  0
LINE
  5
DE5F
  8
COTATION1
 62
     0
 10
76.508739
 20
84.54195
 30
0.0
 11
76.508739
 21
60.14195
 31
0.0
1001
ACAD
1000
RTLwPs
1070
   158
  0
LINE
  5
DE60
  8
COTATION1
 62
     0
 10
76.508739
 20
29.24195
 30
0.0
 11
76.508739
 21
53.64195
 31
0.0
1001
ACAD
1000
RTLwPs
1070
   158
  0
INSERT
  5
DE61
  8
COTATION1
 62
     0
  2
_OPEN30
 10
76.508739
 20
89.54195
 30
0.0
 41
5.0
 42
5.0
 43
5.0
 50
90.0
1001
ACAD
1000
RTLwPs
1070
   158
  0
INSERT
  5
DE62
  8
COTATION1
 62
     0
  2
_OPEN30
 10
76.508739
 20
24.24195
 30
0.0
 41
5.0
 42
5.0
 43
5.0
 50
270.0
1001
ACAD
1000
RTLwPs
1070
   158
  0
TEXT
  5
DE63
  8
COTATION1
 62
     0
 10
72.282548
 20
55.64195
 30
0.0
 40
2.5
  1
65.3
1001
ACAD
1000
MTEXTBEGIN
1070
    73
1070
     1
1070
    44
1040
1.0
1070
    74
1070
     0
1000
MTEXTEND
  0
POINT
  5
DE64
  8
DEFPOINTS
 62
     0
 10
49.108739
 20
89.54195
 30
0.0
  0
POINT
  5
DE65
  8
DEFPOINTS
 62
     0
 10
56.508739
 20
24.24195
 30
0.0
  0
POINT
  5
DE66
  8
DEFPOINTS
 62
     0
 10
76.508739
 20
24.24195
 30
0.0
  0
ENDBLK
  5
DE48
  8
0
  0
ENDSEC
  0
SECTION
  2
ENTITIES
  0
INSERT
  5
A
  8
0
  2
COTE
 10
0.0
 20
0.0
 30
0.0
  0
INSERT
  5
17
  8
0
  2
COTE
 10
284.010391
 20
6.373258
 30
0.0
  0
INSERT
  5
72
  8
0
  2
FOND
 10
0.0
 20
0.0
 30
0.0
  0
ARC
  5
D9D6
  8
ALPHA
 10
41.108739
 20
29.25195
 30
0.0
 40
60.29
 50
75.99646
 51
104.00354
  0
CIRCLE
  5
D9D7
  8
ALPHA
 10
41.108739
 20
53.24195
 30
0.0
 40
4.45
  0
CIRCLE
  5
D9D8
  8
ALPHA
 10
41.108739
 20
53.24195
 30
0.0
 40
0.5
  0
CIRCLE
  5
D9D9
  8
ALPHA
 10
41.108739
 20
68.54195
 30
0.0
 40
1.0
  0
LINE
  5
D9DB
  8
ALPHA
 10
41.483739
 20
65.435565
 30
0.0
 11
41.558739
 21
65.244079
 31
0.0
  0
LINE
  5
D9DC
  8
ALPHA
 10
41.858739
 20
61.83982
 30
0.0
 11
41.483739
 21
61.83982
 31
0.0
  0
LINE
  5
D9DD
  8
ALPHA
 10
44.108739
 20
59.54195
 30
0.0
 11
41.408739
 21
59.54195
 31
0.0
  0
LINE
  5
D9DE
  8
ALPHA
 10
41.408739
 20
59.861099
 30
0.0
 11
43.508739
 21
61.456844
 31
0.0
  0
LINE
  5
D9DF
  8
ALPHA
 10
41.483739
 20
61.83982
 30
0.0
 11
41.558739
 21
62.095142
 31
0.0
  0
LINE
  5
D9E0
  8
ALPHA
 10
41.558739
 20
66.83982
 30
0.0
 11
41.483739
 21
66.648334
 31
0.0
  0
LINE
  5
D9E1
  8
ALPHA
 10
47.608739
 20
43.54195
 30
0.0
 11
34.608739
 21
43.54195
 31
0.0
  0
LINE
  5
D9E2
  8
ALPHA
 10
34.608739
 20
35.54195
 30
0.0
 11
47.608739
 21
35.54195
 31
0.0
  0
LINE
  5
D9E3
  8
ALPHA
 10
41.808739
 20
34.84195
 30
0.0
 11
41.433739
 21
34.84195
 31
0.0
  0
LINE
  5
D9E4
  8
ALPHA
 10
41.883739
 20
34.522801
 30
0.0
 11
41.358739
 21
34.522801
 31
0.0
  0
LINE
  5
D9E5
  8
ALPHA
 10
41.358739
 20
33.246205
 30
0.0
 11
41.883739
 21
33.246205
 31
0.0
  0
LINE
  5
D9E6
  8
ALPHA
 10
41.433739
 20
32.927056
 30
0.0
 11
41.808739
 21
32.927056
 31
0.0
  0
LINE
  5
D9E8
  8
ALPHA
 10
41.883739
 20
32.161098
 30
0.0
 11
41.433739
 21
32.161098
 31
0.0
  0
POLYLINE
  5
D9E9
  8
ALPHA
 66
     1
 10
0.0
 20
0.0
 30
0.0
  0
VERTEX
  5
E42E
  8
ALPHA
 10
49.690725
 20
30.95969
 30
0.0
  0
VERTEX
  5
E42F
  8
ALPHA
 10
49.216851
 20
30.966779
 30
0.0
  0
VERTEX
  5
E430
  8
ALPHA
 10
48.673929
 20
30.974108
 30
0.0
  0
VERTEX
  5
E431
  8
ALPHA
 10
48.050155
 20
30.981602
 30
0.0
  0
VERTEX
  5
E432
  8
ALPHA
 10
47.333289
 20
30.989125
 30
0.0
  0
VERTEX
  5
E433
  8
ALPHA
 10
46.510855
 20
30.996474
 30
0.0
  0
VERTEX
  5
E434
  8
ALPHA
 10
45.570782
 20
31.003364
 30
0.0
  0
VERTEX
  5
E435
  8
ALPHA
 10
44.502315
 20
31.009417
 30
0.0
  0
VERTEX
  5
E436
  8
ALPHA
 10
43.297229
 20
31.014154
 30
0.0
  0
VERTEX
  5
E437
  8
ALPHA
 10
41.957981
 20
31.016971
 30
0.0
  0
VERTEX
  5
E438
  8
ALPHA
 10
40.552026
 20
31.017254
 30
0.0
  0
VERTEX
  5
E439
  8
ALPHA
 10
39.181648
 20
31.014902
 30
0.0
  0
VERTEX
  5
E43A
  8
ALPHA
 10
37.930365
 20
31.010421
 30
0.0
  0
VERTEX
  5
E43B
  8
ALPHA
 10
36.813402
 20
31.004428
 30
0.0
  0
VERTEX
  5
E43C
  8
ALPHA
 10
35.826573
 20
30.997439
 30
0.0
  0
VERTEX
  5
E43D
  8
ALPHA
 10
34.962276
 20
30.989879
 30
0.0
  0
VERTEX
  5
E43E
  8
ALPHA
 10
34.210888
 20
30.982091
 30
0.0
  0
VERTEX
  5
E43F
  8
ALPHA
 10
33.561758
 20
30.974341
 30
0.0
  0
VERTEX
  5
E440
  8
ALPHA
 10
33.003976
 20
30.966827
 30
0.0
  0
VERTEX
  5
E441
  8
ALPHA
 10
32.526753
 20
30.95969
 30
0.0
  0
SEQEND
  5
E442
  8
ALPHA
  0
POLYLINE
  5
D9EA
  8
ALPHA
 66
     1
 10
0.0
 20
0.0
 30
0.0
  0
VERTEX
  5
E443
  8
ALPHA
 10
49.728849
 20
31.26206
 30
0.0
  0
VERTEX
  5
E444
  8
ALPHA
 10
49.240339
 20
31.268976
 30
0.0
  0
VERTEX
  5
E445
  8
ALPHA
 10
48.683128
 20
31.276095
 30
0.0
  0
VERTEX
  5
E446
  8
ALPHA
 10
48.045994
 20
31.283339
 30
0.0
  0
VERTEX
  5
E447
  8
ALPHA
 10
47.317635
 20
31.290571
 30
0.0
  0
VERTEX
  5
E448
  8
ALPHA
 10
46.486651
 20
31.297596
 30
0.0
  0
VERTEX
  5
E449
  8
ALPHA
 10
45.54213
 20
31.304144
 30
0.0
  0
VERTEX
  5
E44A
  8
ALPHA
 10
44.474438
 20
31.309865
 30
0.0
  0
VERTEX
  5
E44B
  8
ALPHA
 10
43.276541
 20
31.314317
 30
0.0
  0
VERTEX
  5
E44C
  8
ALPHA
 10
41.952097
 20
31.316954
 30
0.0
  0
VERTEX
  5
E44D
  8
ALPHA
 10
40.565099
 20
31.317227
 30
0.0
  0
VERTEX
  5
E44E
  8
ALPHA
 10
39.21077
 20
31.315045
 30
0.0
  0
VERTEX
  5
E44F
  8
ALPHA
 10
37.967818
 20
31.310854
 30
0.0
  0
VERTEX
  5
E450
  8
ALPHA
 10
36.852268
 20
31.305211
 30
0.0
  0
VERTEX
  5
E451
  8
ALPHA
 10
35.861176
 20
31.298587
 30
0.0
  0
VERTEX
  5
E452
  8
ALPHA
 10
34.987831
 20
31.291375
 30
0.0
  0
VERTEX
  5
E453
  8
ALPHA
 10
34.223676
 20
31.283893
 30
0.0
  0
VERTEX
  5
E454
  8
ALPHA
 10
33.559095
 20
31.276394
 30
0.0
  0
VERTEX
  5
E455
  8
ALPHA
 10
32.984107
 20
31.26907
 30
0.0
  0
VERTEX
  5
E456
  8
ALPHA
 10
32.488628
 20
31.26206
 30
0.0
  0
SEQEND
  5
E457
  8
ALPHA
  0
LINE
  5
D9EB
  8
ALPHA
 10
41.508739
 20
31.84195
 30
0.0
 11
41.808739
 21
31.84195
 31
0.0
  0
LINE
  5
D9EC
  8
ALPHA
 10
49.808739
 20
31.34195
 30
0.0
 11
32.408739
 21
31.34195
 31
0.0
  0
POLYLINE
  5
D9ED
  8
ALPHA
 66
     1
 10
0.0
 20
0.0
 30
0.0
  0
VERTEX
  5
E458
  8
ALPHA
 10
32.488628
 20
25.821839
 30
0.0
  0
VERTEX
  5
E459
  8
ALPHA
 10
32.987701
 20
25.814781
 30
0.0
  0
VERTEX
  5
E45A
  8
ALPHA
 10
33.56332
 20
25.807454
 30
0.0
  0
VERTEX
  5
E45B
  8
ALPHA
 10
34.225925
 20
25.799982
 30
0.0
  0
VERTEX
  5
E45C
  8
ALPHA
 10
34.985898
 20
25.792542
 30
0.0
  0
VERTEX
  5
E45D
  8
ALPHA
 10
35.853365
 20
25.78537
 30
0.0
  0
VERTEX
  5
E45E
  8
ALPHA
 10
36.837534
 20
25.778775
 30
0.0
  0
VERTEX
  5
E45F
  8
ALPHA
 10
37.945906
 20
25.773138
 30
0.0
  0
VERTEX
  5
E460
  8
ALPHA
 10
39.182431
 20
25.768926
 30
0.0
  0
VERTEX
  5
E461
  8
ALPHA
 10
40.532911
 20
25.766696
 30
0.0
  0
VERTEX
  5
E462
  8
ALPHA
 10
41.91994
 20
25.76691
 30
0.0
  0
VERTEX
  5
E463
  8
ALPHA
 10
43.248331
 20
25.769502
 30
0.0
  0
VERTEX
  5
E464
  8
ALPHA
 10
44.452586
 20
25.773935
 30
0.0
  0
VERTEX
  5
E465
  8
ALPHA
 10
45.527407
 20
25.779665
 30
0.0
  0
VERTEX
  5
E466
  8
ALPHA
 10
46.478851
 20
25.786243
 30
0.0
  0
VERTEX
  5
E467
  8
ALPHA
 10
47.315743
 20
25.79331
 30
0.0
  0
VERTEX
  5
E468
  8
ALPHA
 10
48.048322
 20
25.800585
 30
0.0
  0
VERTEX
  5
E469
  8
ALPHA
 10
48.687455
 20
25.807856
 30
0.0
  0
VERTEX
  5
E46A
  8
ALPHA
 10
49.244019
 20
25.814973
 30
0.0
  0
VERTEX
  5
E46B
  8
ALPHA
 10
49.728849
 20
25.821839
 30
0.0
  0
SEQEND
  5
E46C
  8
ALPHA
  0
LINE
  5
D9EE
  8
ALPHA
 10
49.808739
 20
25.74195
 30
0.0
 11
32.408739
 21
25.74195
 31
0.0
  0
LINE
  5
D9EF
  8
ALPHA
 10
53.308739
 20
24.54195
 30
0.0
 11
28.908739
 21
24.54195
 31
0.0
  0
LINE
  5
D9F0
  8
ALPHA
 10
51.230614
 20
24.49195
 30
0.0
 11
30.986864
 21
24.49195
 31
0.0
  0
POLYLINE
  5
D9F1
  8
ALPHA
 66
     1
 10
0.0
 20
0.0
 30
0.0
  0
VERTEX
  5
E46D
  8
ALPHA
 10
49.690725
 20
26.124209
 30
0.0
  0
VERTEX
  5
E46E
  8
ALPHA
 10
49.221947
 20
26.117192
 30
0.0
  0
VERTEX
  5
E46F
  8
ALPHA
 10
48.680911
 20
26.10988
 30
0.0
  0
VERTEX
  5
E470
  8
ALPHA
 10
48.056182
 20
26.102365
 30
0.0
  0
VERTEX
  5
E471
  8
ALPHA
 10
47.335956
 20
26.0948
 30
0.0
  0
VERTEX
  5
E472
  8
ALPHA
 10
46.508313
 20
26.087405
 30
0.0
  0
VERTEX
  5
E473
  8
ALPHA
 10
45.561877
 20
26.080478
 30
0.0
  0
VERTEX
  5
E474
  8
ALPHA
 10
44.486753
 20
26.074407
 30
0.0
  0
VERTEX
  5
E475
  8
ALPHA
 10
43.275726
 20
26.06968
 30
0.0
  0
VERTEX
  5
E476
  8
ALPHA
 10
41.932772
 20
26.066899
 30
0.0
  0
VERTEX
  5
E477
  8
ALPHA
 10
40.526832
 20
26.066665
 30
0.0
  0
VERTEX
  5
E478
  8
ALPHA
 10
39.160117
 20
26.069055
 30
0.0
  0
VERTEX
  5
E479
  8
ALPHA
 10
37.914851
 20
26.073548
 30
0.0
  0
VERTEX
  5
E47A
  8
ALPHA
 10
36.80457
 20
26.079526
 30
0.0
  0
VERTEX
  5
E47B
  8
ALPHA
 10
35.824079
 20
26.08648
 30
0.0
  0
VERTEX
  5
E47C
  8
ALPHA
 10
34.96494
 20
26.093994
 30
0.0
  0
VERTEX
  5
E47D
  8
ALPHA
 10
34.216853
 20
26.101741
 30
0.0
  0
VERTEX
  5
E47E
  8
ALPHA
 10
33.568641
 20
26.109471
 30
0.0
  0
VERTEX
  5
E47F
  8
ALPHA
 10
33.008986
 20
26.117001
 30
0.0
  0
VERTEX
  5
E480
  8
ALPHA
 10
32.526753
 20
26.124209
 30
0.0
  0
SEQEND
  5
E481
  8
ALPHA
  0
LINE
  5
D9F3
  8
ALPHA
 10
34.608739
 20
49.04195
 30
0.0
 11
34.608739
 21
44.04195
 31
0.0
  0
POLYLINE
  5
D9F4
  8
ALPHA
 66
     1
 10
0.0
 20
0.0
 30
0.0
  0
VERTEX
  5
E482
  8
ALPHA
 10
25.842458
 20
30.84195
 30
0.0
  0
VERTEX
  5
E483
  8
ALPHA
 10
25.863313
 20
46.050323
 30
0.0
  0
VERTEX
  5
E484
  8
ALPHA
 10
25.890867
 20
59.599104
 30
0.0
  0
VERTEX
  5
E485
  8
ALPHA
 10
25.92275
 20
71.621279
 30
0.0
  0
SEQEND
  5
E486
  8
ALPHA
  0
LINE
  5
D9F5
  8
ALPHA
 10
25.70874
 20
72.141417
 30
0.0
 11
25.708739
 21
24.24195
 31
0.0
  0
CIRCLE
  5
D9FE
  8
ALPHA
 10
31.608739
 20
28.54195
 30
0.0
 40
1.85
  0
ARC
  5
D9FF
  8
ALPHA
 10
31.608739
 20
28.54195
 30
0.0
 40
2.5
 50
288.662925
 51
71.337075
  0
ARC
  5
DA00
  8
ALPHA
 10
34.608739
 20
39.54195
 30
0.0
 40
4.0
 50
90.0
 51
270.0
  0
POLYLINE
  5
DA01
  8
ALPHA
 66
     1
 10
0.0
 20
0.0
 30
0.0
  0
VERTEX
  5
E487
  8
ALPHA
 10
32.526753
 20
26.124209
 30
0.0
  0
VERTEX
  5
E488
  8
ALPHA
 10
33.055124
 20
26.407367
 30
0.0
  0
VERTEX
  5
E489
  8
ALPHA
 10
33.490885
 20
26.787986
 30
0.0
  0
VERTEX
  5
E48A
  8
ALPHA
 10
33.822446
 20
27.239051
 30
0.0
  0
VERTEX
  5
E48B
  8
ALPHA
 10
34.046777
 20
27.74151
 30
0.0
  0
VERTEX
  5
E48C
  8
ALPHA
 10
34.159048
 20
28.269507
 30
0.0
  0
VERTEX
  5
E48D
  8
ALPHA
 10
34.159068
 20
28.814204
 30
0.0
  0
VERTEX
  5
E48E
  8
ALPHA
 10
34.046852
 20
29.34216
 30
0.0
  0
VERTEX
  5
E48F
  8
ALPHA
 10
33.822511
 20
29.844735
 30
0.0
  0
VERTEX
  5
E490
  8
ALPHA
 10
33.49097
 20
30.29582
 30
0.0
  0
VERTEX
  5
E491
  8
ALPHA
 10
33.055146
 20
30.676516
 30
0.0
  0
VERTEX
  5
E492
  8
ALPHA
 10
32.526753
 20
30.95969
 30
0.0
  0
SEQEND
  5
E493
  8
ALPHA
  0
LINE
  5
DA02
  8
ALPHA
 10
31.608739
 20
33.34195
 30
0.0
 11
35.808739
 21
33.34195
 31
0.0
  0
LINE
  5
DA03
  8
ALPHA
 10
31.608739
 20
31.34195
 30
0.0
 11
31.608739
 21
34.34195
 31
0.0
  0
LINE
  5
DA04
  8
ALPHA
 10
28.841369
 20
27.992581
 30
0.0
 11
28.908739
 21
28.059502
 31
0.0
  0
POLYLINE
  5
DA05
  8
ALPHA
 66
     1
 10
0.0
 20
0.0
 30
0.0
  0
VERTEX
  5
E494
  8
ALPHA
 10
28.689553
 20
28.212745
 30
0.0
  0
VERTEX
  5
E495
  8
ALPHA
 10
28.68553
 20
28.191397
 30
0.0
  0
VERTEX
  5
E496
  8
ALPHA
 10
28.681828
 20
28.102712
 30
0.0
  0
VERTEX
  5
E497
  8
ALPHA
 10
28.678901
 20
27.945223
 30
0.0
  0
VERTEX
  5
E498
  8
ALPHA
 10
28.676985
 20
27.741028
 30
0.0
  0
SEQEND
  5
E499
  8
ALPHA
  0
LINE
  5
DA06
  8
ALPHA
 10
28.706267
 20
28.002819
 30
0.0
 11
28.707342
 21
28.181933
 31
0.0
  0
POLYLINE
  5
DA07
  8
ALPHA
 66
     1
 10
0.0
 20
0.0
 30
0.0
  0
VERTEX
  5
E49A
  8
ALPHA
 10
28.752272
 20
28.039681
 30
0.0
  0
VERTEX
  5
E49B
  8
ALPHA
 10
28.751368
 20
27.864961
 30
0.0
  0
VERTEX
  5
E49C
  8
ALPHA
 10
28.749432
 20
27.720383
 30
0.0
  0
VERTEX
  5
E49D
  8
ALPHA
 10
28.74672
 20
27.625163
 30
0.0
  0
VERTEX
  5
E49E
  8
ALPHA
 10
28.743592
 20
27.59195
 30
0.0
  0
SEQEND
  5
E49F
  8
ALPHA
  0
LINE
  5
DA08
  8
ALPHA
 10
28.752272
 20
28.039681
 30
0.0
 11
28.752023
 21
27.903815
 31
0.0
  0
LINE
  5
DA09
  8
ALPHA
 10
28.908739
 20
24.54195
 30
0.0
 11
28.908739
 21
30.84195
 31
0.0
  0
LINE
  5
DA0A
  8
ALPHA
 10
28.008739
 20
28.602374
 30
0.0
 11
28.008739
 21
26.330026
 31
0.0
  0
LINE
  5
DA0B
  8
ALPHA
 10
28.676985
 20
27.741028
 30
0.0
 11
28.029297
 21
28.862856
 31
0.0
  0
LINE
  5
DA0C
  8
ALPHA
 10
28.008739
 20
26.330026
 30
0.0
 11
25.708739
 21
26.330026
 31
0.0
  0
LINE
  5
DA0D
  8
ALPHA
 10
28.670668
 20
24.317224
 30
0.0
 11
25.708739
 21
24.317224
 31
0.0
  0
LINE
  5
DA0E
  8
ALPHA
 10
25.708739
 20
24.24195
 30
0.0
 11
28.745943
 21
24.24195
 31
0.0
  0
LINE
  5
DA0F
  8
ALPHA
 10
28.781354
 20
24.277361
 30
0.0
 11
28.745943
 21
24.24195
 31
0.0
  0
LINE
  5
DA10
  8
ALPHA
 10
28.752023
 20
27.903815
 30
0.0
 11
28.841369
 21
27.992581
 31
0.0
  0
LINE
  5
DA11
  8
ALPHA
 10
28.781354
 20
24.277361
 30
0.0
 11
28.833234
 21
24.518463
 31
0.0
  0
POLYLINE
  5
DA12
  8
ALPHA
 66
     1
 10
0.0
 20
0.0
 30
0.0
  0
VERTEX
  5
E4A0
  8
ALPHA
 10
28.833234
 20
24.518463
 30
0.0
  0
VERTEX
  5
E4A1
  8
ALPHA
 10
28.884148
 20
25.133768
 30
0.0
  0
VERTEX
  5
E4A2
  8
ALPHA
 10
28.908739
 20
25.623946
 30
0.0
  0
SEQEND
  5
E4A3
  8
ALPHA
  0
LINE
  5
DA13
  8
ALPHA
 10
28.676985
 20
27.741028
 30
0.0
 11
28.656251
 21
24.582509
 31
0.0
  0
POLYLINE
  5
DA14
  8
ALPHA
 66
     1
 10
0.0
 20
0.0
 30
0.0
  0
VERTEX
  5
E4A4
  8
ALPHA
 10
28.656251
 20
24.582509
 30
0.0
  0
VERTEX
  5
E4A5
  8
ALPHA
 10
28.660722
 20
24.440464
 30
0.0
  0
VERTEX
  5
E4A6
  8
ALPHA
 10
28.665589
 20
24.350899
 30
0.0
  0
VERTEX
  5
E4A7
  8
ALPHA
 10
28.670668
 20
24.317224
 30
0.0
  0
SEQEND
  5
E4A8
  8
ALPHA
  0
POLYLINE
  5
DA15
  8
ALPHA
 66
     1
 10
0.0
 20
0.0
 30
0.0
  0
VERTEX
  5
E4A9
  8
ALPHA
 10
28.711133
 20
27.59195
 30
0.0
  0
VERTEX
  5
E4AA
  8
ALPHA
 10
28.709152
 20
27.614237
 30
0.0
  0
VERTEX
  5
E4AB
  8
ALPHA
 10
28.707437
 20
27.679454
 30
0.0
  0
VERTEX
  5
E4AC
  8
ALPHA
 10
28.70632
 20
27.773738
 30
0.0
  0
VERTEX
  5
E4AD
  8
ALPHA
 10
28.705897
 20
27.889162
 30
0.0
  0
VERTEX
  5
E4AE
  8
ALPHA
 10
28.706267
 20
28.002819
 30
0.0
  0
SEQEND
  5
E4AF
  8
ALPHA
  0
POLYLINE
  5
DA16
  8
ALPHA
 66
     1
 10
0.0
 20
0.0
 30
0.0
  0
VERTEX
  5
E4B0
  8
ALPHA
 10
28.789847
 20
27.631991
 30
0.0
  0
VERTEX
  5
E4B1
  8
ALPHA
 10
28.777118
 20
27.764954
 30
0.0
  0
VERTEX
  5
E4B2
  8
ALPHA
 10
28.764513
 20
27.855462
 30
0.0
  0
VERTEX
  5
E4B3
  8
ALPHA
 10
28.752023
 20
27.903815
 30
0.0
  0
SEQEND
  5
E4B4
  8
ALPHA
  0
POLYLINE
  5
DA17
  8
ALPHA
 66
     1
 10
0.0
 20
0.0
 30
0.0
  0
VERTEX
  5
E4B5
  8
ALPHA
 10
28.656251
 20
24.582509
 30
0.0
  0
VERTEX
  5
E4B6
  8
ALPHA
 10
28.435789
 20
24.862001
 30
0.0
  0
VERTEX
  5
E4B7
  8
ALPHA
 10
28.251551
 20
25.207452
 30
0.0
  0
VERTEX
  5
E4B8
  8
ALPHA
 10
28.116891
 20
25.583865
 30
0.0
  0
VERTEX
  5
E4B9
  8
ALPHA
 10
28.034621
 20
25.972664
 30
0.0
  0
VERTEX
  5
E4BA
  8
ALPHA
 10
28.008739
 20
26.330026
 30
0.0
  0
SEQEND
  5
E4BB
  8
ALPHA
  0
LINE
  5
DA18
  8
ALPHA
 10
28.789847
 20
27.631991
 30
0.0
 11
28.908739
 21
27.513099
 31
0.0
  0
LINE
  5
DA19
  8
ALPHA
 10
28.789845
 20
27.631993
 30
0.0
 11
28.908739
 21
27.624588
 31
0.0
  0
LINE
  5
DA1A
  8
ALPHA
 10
28.743592
 20
27.59195
 30
0.0
 11
28.711133
 21
27.59195
 31
0.0
  0
LINE
  5
DA1B
  8
ALPHA
 10
28.670668
 20
24.317224
 30
0.0
 11
28.745943
 21
24.24195
 31
0.0
  0
LINE
  5
DA1C
  8
ALPHA
 10
25.737147
 20
30.84195
 30
0.0
 11
28.908739
 21
30.84195
 31
0.0
  0
LINE
  5
DA1D
  8
ALPHA
 10
25.7323
 20
29.887186
 30
0.0
 11
28.908739
 21
29.887186
 31
0.0
  0
LINE
  5
DA1E
  8
ALPHA
 10
28.008739
 20
29.39195
 30
0.0
 11
25.708739
 21
29.39195
 31
0.0
  0
LINE
  5
DA1F
  8
ALPHA
 10
28.008739
 20
28.602374
 30
0.0
 11
25.708739
 21
28.602374
 31
0.0
  0
LINE
  5
DA20
  8
ALPHA
 10
25.737147
 20
30.84195
 30
0.0
 11
25.7323
 21
29.887186
 31
0.0
  0
POLYLINE
  5
DA21
  8
ALPHA
 66
     1
 10
0.0
 20
0.0
 30
0.0
  0
VERTEX
  5
E4BC
  8
ALPHA
 10
25.7323
 20
29.887186
 30
0.0
  0
VERTEX
  5
E4BD
  8
ALPHA
 10
25.731132
 20
29.615551
 30
0.0
  0
VERTEX
  5
E4BE
  8
ALPHA
 10
25.730482
 20
29.391886
 30
0.0
  0
SEQEND
  5
E4BF
  8
ALPHA
  0
POLYLINE
  5
DA22
  8
ALPHA
 66
     1
 10
0.0
 20
0.0
 30
0.0
  0
VERTEX
  5
E4C0
  8
ALPHA
 10
28.029297
 20
28.862856
 30
0.0
  0
VERTEX
  5
E4C1
  8
ALPHA
 10
28.057657
 20
29.084457
 30
0.0
  0
VERTEX
  5
E4C2
  8
ALPHA
 10
28.057657
 20
29.250972
 30
0.0
  0
VERTEX
  5
E4C3
  8
ALPHA
 10
28.029297
 20
29.356341
 30
0.0
  0
SEQEND
  5
E4C4
  8
ALPHA
  0
POLYLINE
  5
DA23
  8
ALPHA
 66
     1
 10
0.0
 20
0.0
 30
0.0
  0
VERTEX
  5
E4C5
  8
ALPHA
 10
28.008739
 20
28.602374
 30
0.0
  0
VERTEX
  5
E4C6
  8
ALPHA
 10
28.013898
 20
28.736681
 30
0.0
  0
VERTEX
  5
E4C7
  8
ALPHA
 10
28.029297
 20
28.862856
 30
0.0
  0
SEQEND
  5
E4C8
  8
ALPHA
  0
LINE
  5
DA24
  8
ALPHA
 10
28.707342
 20
28.181933
 30
0.0
 11
28.008739
 21
29.39195
 31
0.0
  0
LINE
  5
DA25
  8
ALPHA
 10
28.210811
 20
29.04195
 30
0.0
 11
28.908739
 21
29.04195
 31
0.0
  0
LINE
  5
DA26
  8
ALPHA
 10
28.355149
 20
28.79195
 30
0.0
 11
28.908739
 21
28.79195
 31
0.0
  0
LINE
  5
DA27
  8
ALPHA
 10
28.908739
 20
28.382859
 30
0.0
 11
28.591338
 21
28.382859
 31
0.0
  0
LINE
  5
DA28
  8
ALPHA
 10
28.908739
 20
28.14195
 30
0.0
 11
28.707342
 21
28.14195
 31
0.0
  0
LINE
  5
DA29
  8
ALPHA
 10
28.706267
 20
28.039681
 30
0.0
 11
28.752272
 21
28.039681
 31
0.0
  0
CIRCLE
  5
DA2A
  8
ALPHA
 10
31.608739
 20
28.54195
 30
0.0
 40
1.55
  0
ARC
  5
DA2B
  8
ALPHA
 10
30.986864
 20
24.99195
 30
0.0
 40
0.5
 50
245.478972
 51
270.0
  0
POLYLINE
  5
DA2C
  8
ALPHA
 66
     1
 10
0.0
 20
0.0
 30
0.0
  0
VERTEX
  5
E4C9
  8
ALPHA
 10
32.495361
 20
26.112028
 30
0.0
  0
VERTEX
  5
E4CA
  8
ALPHA
 10
32.505879
 20
26.116061
 30
0.0
  0
VERTEX
  5
E4CB
  8
ALPHA
 10
32.516332
 20
26.120122
 30
0.0
  0
VERTEX
  5
E4CC
  8
ALPHA
 10
32.526848
 20
26.124261
 30
0.0
  0
SEQEND
  5
E4CD
  8
ALPHA
  0
LINE
  5
DA2D
  8
ALPHA
 10
32.408739
 20
25.74195
 30
0.0
 11
32.488628
 21
25.821839
 31
0.0
  0
POLYLINE
  5
DA2E
  8
ALPHA
 66
     1
 10
0.0
 20
0.0
 30
0.0
  0
VERTEX
  5
E4CE
  8
ALPHA
 10
32.488628
 20
25.821839
 30
0.0
  0
VERTEX
  5
E4CF
  8
ALPHA
 10
32.491285
 20
25.848504
 30
0.0
  0
VERTEX
  5
E4D0
  8
ALPHA
 10
32.493403
 20
25.913795
 30
0.0
  0
VERTEX
  5
E4D1
  8
ALPHA
 10
32.494842
 20
26.009462
 30
0.0
  0
VERTEX
  5
E4D2
  8
ALPHA
 10
32.495361
 20
26.112028
 30
0.0
  0
SEQEND
  5
E4D3
  8
ALPHA
  0
LINE
  5
DA2F
  8
ALPHA
 10
32.408739
 20
26.173406
 30
0.0
 11
32.408739
 21
25.74195
 31
0.0
  0
POLYLINE
  5
DA30
  8
ALPHA
 66
     1
 10
0.0
 20
0.0
 30
0.0
  0
VERTEX
  5
E4D4
  8
ALPHA
 10
32.408739
 20
26.173406
 30
0.0
  0
VERTEX
  5
E4D5
  8
ALPHA
 10
32.437503
 20
26.15285
 30
0.0
  0
VERTEX
  5
E4D6
  8
ALPHA
 10
32.466378
 20
26.132391
 30
0.0
  0
VERTEX
  5
E4D7
  8
ALPHA
 10
32.495361
 20
26.112028
 30
0.0
  0
SEQEND
  5
E4D8
  8
ALPHA
  0
POLYLINE
  5
DA31
  8
ALPHA
 66
     1
 10
0.0
 20
0.0
 30
0.0
  0
VERTEX
  5
E4D9
  8
ALPHA
 10
32.408739
 20
30.910493
 30
0.0
  0
VERTEX
  5
E4DA
  8
ALPHA
 10
32.437502
 20
30.931049
 30
0.0
  0
VERTEX
  5
E4DB
  8
ALPHA
 10
32.466376
 20
30.951507
 30
0.0
  0
VERTEX
  5
E4DC
  8
ALPHA
 10
32.495361
 20
30.971871
 30
0.0
  0
SEQEND
  5
E4DD
  8
ALPHA
  0
LINE
  5
DA32
  8
ALPHA
 10
32.408739
 20
31.34195
 30
0.0
 11
32.408739
 21
30.910493
 31
0.0
  0
POLYLINE
  5
DA33
  8
ALPHA
 66
     1
 10
0.0
 20
0.0
 30
0.0
  0
VERTEX
  5
E4DE
  8
ALPHA
 10
32.495361
 20
30.971871
 30
0.0
  0
VERTEX
  5
E4DF
  8
ALPHA
 10
32.494842
 20
31.074437
 30
0.0
  0
VERTEX
  5
E4E0
  8
ALPHA
 10
32.493403
 20
31.170104
 30
0.0
  0
VERTEX
  5
E4E1
  8
ALPHA
 10
32.491285
 20
31.235395
 30
0.0
  0
VERTEX
  5
E4E2
  8
ALPHA
 10
32.488628
 20
31.26206
 30
0.0
  0
SEQEND
  5
E4E3
  8
ALPHA
  0
LINE
  5
DA34
  8
ALPHA
 10
32.408739
 20
31.34195
 30
0.0
 11
32.488628
 21
31.26206
 31
0.0
  0
POLYLINE
  5
DA35
  8
ALPHA
 66
     1
 10
0.0
 20
0.0
 30
0.0
  0
VERTEX
  5
E4E4
  8
ALPHA
 10
32.526848
 20
30.959638
 30
0.0
  0
VERTEX
  5
E4E5
  8
ALPHA
 10
32.516332
 20
30.963777
 30
0.0
  0
VERTEX
  5
E4E6
  8
ALPHA
 10
32.505879
 20
30.967838
 30
0.0
  0
VERTEX
  5
E4E7
  8
ALPHA
 10
32.495361
 20
30.971871
 30
0.0
  0
SEQEND
  5
E4E8
  8
ALPHA
  0
LINE
  5
DA36
  8
ALPHA
 10
40.683739
 20
33.948332
 30
0.0
 11
40.683739
 21
33.820673
 31
0.0
  0
LINE
  5
DA37
  8
ALPHA
 10
40.308739
 20
34.012163
 30
0.0
 11
40.308739
 21
33.756843
 31
0.0
  0
LINE
  5
DA38
  8
ALPHA
 10
39.708739
 20
34.84195
 30
0.0
 11
39.708739
 21
31.84195
 31
0.0
  0
LINE
  5
DA39
  8
ALPHA
 10
39.258739
 20
31.84195
 30
0.0
 11
39.258739
 21
34.331312
 31
0.0
  0
LINE
  5
DA3A
  8
ALPHA
 10
34.608739
 20
32.89195
 30
0.0
 11
34.608739
 21
31.69195
 31
0.0
  0
LINE
  5
DA3B
  8
ALPHA
 10
34.108739
 20
28.54195
 30
0.0
 11
33.458739
 21
28.54195
 31
0.0
  0
LINE
  5
DA3C
  8
ALPHA
 10
39.708739
 20
31.84195
 30
0.0
 11
39.258739
 21
31.84195
 31
0.0
  0
LINE
  5
DA3D
  8
ALPHA
 10
40.683739
 20
33.820673
 30
0.0
 11
40.758739
 21
33.629184
 31
0.0
  0
LINE
  5
DA3E
  8
ALPHA
 10
40.458739
 20
32.544077
 30
0.0
 11
40.533739
 21
32.352588
 31
0.0
  0
LINE
  5
DA3F
  8
ALPHA
 10
40.308739
 20
33.756843
 30
0.0
 11
40.458739
 21
33.437694
 31
0.0
  0
LINE
  5
DA40
  8
ALPHA
 10
40.758739
 20
33.629184
 30
0.0
 11
40.908739
 21
33.437694
 31
0.0
  0
LINE
  5
DA41
  8
ALPHA
 10
40.983739
 20
32.352588
 30
0.0
 11
40.833739
 21
32.544077
 31
0.0
  0
LINE
  5
DA42
  8
ALPHA
 10
40.458739
 20
33.437694
 30
0.0
 11
40.683739
 21
33.182375
 31
0.0
  0
LINE
  5
DA43
  8
ALPHA
 10
40.533739
 20
32.352588
 30
0.0
 11
40.758739
 21
32.097269
 31
0.0
  0
LINE
  5
DA44
  8
ALPHA
 10
40.908739
 20
33.437694
 30
0.0
 11
41.133739
 21
33.310035
 31
0.0
  0
LINE
  5
DA45
  8
ALPHA
 10
41.208739
 20
32.224928
 30
0.0
 11
40.983739
 21
32.352588
 31
0.0
  0
LINE
  5
DA46
  8
ALPHA
 10
40.683739
 20
33.182375
 30
0.0
 11
41.058739
 21
32.990886
 31
0.0
  0
LINE
  5
DA47
  8
ALPHA
 10
40.758739
 20
32.097269
 30
0.0
 11
41.133739
 21
31.905779
 31
0.0
  0
LINE
  5
DA48
  8
ALPHA
 10
41.133739
 20
33.310035
 30
0.0
 11
41.358739
 21
33.246205
 31
0.0
  0
LINE
  5
DA49
  8
ALPHA
 10
41.433739
 20
32.161098
 30
0.0
 11
41.208739
 21
32.224928
 31
0.0
  0
LINE
  5
DA4A
  8
ALPHA
 10
41.058739
 20
32.990886
 30
0.0
 11
41.433739
 21
32.927056
 31
0.0
  0
LINE
  5
DA4B
  8
ALPHA
 10
41.133739
 20
31.905779
 30
0.0
 11
41.508739
 21
31.84195
 31
0.0
  0
LINE
  5
DA4C
  8
ALPHA
 10
40.833739
 20
32.544077
 30
0.0
 11
40.458739
 21
32.544077
 31
0.0
  0
LINE
  5
DA4D
  8
ALPHA
 10
34.608739
 20
35.04195
 30
0.0
 11
34.608739
 21
33.89195
 31
0.0
  0
LINE
  5
DA4E
  8
ALPHA
 10
39.258739
 20
34.84195
 30
0.0
 11
39.708739
 21
34.84195
 31
0.0
  0
LINE
  5
DA4F
  8
ALPHA
 10
39.258739
 20
34.331312
 30
0.0
 11
38.808739
 21
33.884503
 31
0.0
  0
LINE
  5
DA50
  8
ALPHA
 10
38.808739
 20
34.395141
 30
0.0
 11
39.258739
 21
34.84195
 31
0.0
  0
LINE
  5
DA51
  8
ALPHA
 10
38.808739
 20
33.884503
 30
0.0
 11
38.808739
 21
34.395141
 31
0.0
  0
LINE
  5
DA52
  8
ALPHA
 10
41.058739
 20
34.778119
 30
0.0
 11
40.683739
 21
34.58663
 31
0.0
  0
LINE
  5
DA53
  8
ALPHA
 10
41.133739
 20
34.458971
 30
0.0
 11
40.908739
 21
34.331312
 31
0.0
  0
LINE
  5
DA54
  8
ALPHA
 10
40.683739
 20
34.58663
 30
0.0
 11
40.458739
 21
34.331312
 31
0.0
  0
LINE
  5
DA55
  8
ALPHA
 10
40.908739
 20
34.331312
 30
0.0
 11
40.758739
 21
34.139822
 31
0.0
  0
LINE
  5
DA56
  8
ALPHA
 10
40.458739
 20
34.331312
 30
0.0
 11
40.308739
 21
34.012163
 31
0.0
  0
LINE
  5
DA57
  8
ALPHA
 10
40.758739
 20
34.139822
 30
0.0
 11
40.683739
 21
33.948332
 31
0.0
  0
LINE
  5
DA58
  8
ALPHA
 10
41.433739
 20
34.84195
 30
0.0
 11
41.058739
 21
34.778119
 31
0.0
  0
LINE
  5
DA59
  8
ALPHA
 10
41.358739
 20
34.522801
 30
0.0
 11
41.133739
 21
34.458971
 31
0.0
  0
LINE
  5
DA60
  8
ALPHA
 10
34.608739
 20
73.24195
 30
0.0
 11
34.608739
 21
66.04195
 31
0.0
  0
LINE
  5
DA61
  8
ALPHA
 10
31.108739
 20
65.54195
 30
0.0
 11
37.608739
 21
65.54195
 31
0.0
  0
LINE
  5
DA62
  8
ALPHA
 10
30.108739
 20
60.54195
 30
0.0
 11
37.608739
 21
60.54195
 31
0.0
  0
LINE
  5
DA63
  8
ALPHA
 10
33.108739
 20
53.64195
 30
0.0
 11
36.108739
 21
53.64195
 31
0.0
  0
LINE
  5
DA64
  8
ALPHA
 10
33.427888
 20
51.99195
 30
0.0
 11
33.108739
 21
51.99195
 31
0.0
  0
LINE
  5
DA65
  8
ALPHA
 10
33.555547
 20
52.74195
 30
0.0
 11
33.108739
 21
53.191949
 31
0.0
  0
LINE
  5
DA66
  8
ALPHA
 10
33.108739
 20
49.441949
 30
0.0
 11
34.768313
 21
49.441949
 31
0.0
  0
LINE
  5
DA67
  8
ALPHA
 10
33.108739
 20
51.99195
 30
0.0
 11
33.108739
 21
49.441949
 31
0.0
  0
LINE
  5
DA68
  8
ALPHA
 10
33.108739
 20
53.191949
 30
0.0
 11
33.108739
 21
53.64195
 31
0.0
  0
LINE
  5
DA69
  8
ALPHA
 10
30.108739
 20
62.54195
 30
0.0
 11
30.108739
 21
59.54195
 31
0.0
  0
LINE
  5
DA6A
  8
ALPHA
 10
31.108739
 20
67.54195
 30
0.0
 11
31.108739
 21
64.54195
 31
0.0
  0
LINE
  5
DA6B
  8
ALPHA
 10
34.608739
 20
59.94195
 30
0.0
 11
34.608739
 21
54.04195
 31
0.0
  0
LINE
  5
DA6C
  8
ALPHA
 10
36.108739
 20
51.01695
 30
0.0
 11
36.044909
 21
51.39195
 31
0.0
  0
LINE
  5
DA6D
  8
ALPHA
 10
35.72576
 20
51.316949
 30
0.0
 11
35.78959
 21
51.01695
 31
0.0
  0
LINE
  5
DA6E
  8
ALPHA
 10
34.512994
 20
51.01695
 30
0.0
 11
34.576824
 21
51.316949
 31
0.0
  0
LINE
  5
DA6F
  8
ALPHA
 10
34.257675
 20
51.39195
 30
0.0
 11
34.193845
 21
51.01695
 31
0.0
  0
LINE
  5
DA70
  8
ALPHA
 10
33.427888
 20
49.816949
 30
0.0
 11
33.427888
 21
51.99195
 31
0.0
  0
LINE
  5
DA71
  8
ALPHA
 10
35.342781
 20
49.441949
 30
0.0
 11
35.5981
 21
49.591949
 31
0.0
  0
LINE
  5
DA72
  8
ALPHA
 10
35.5981
 20
50.04195
 30
0.0
 11
35.342781
 21
49.89195
 31
0.0
  0
LINE
  5
DA73
  8
ALPHA
 10
35.342781
 20
49.89195
 30
0.0
 11
35.342781
 21
49.441949
 31
0.0
  0
LINE
  5
DA74
  8
ALPHA
 10
34.768313
 20
49.441949
 30
0.0
 11
34.768313
 21
49.966949
 31
0.0
  0
LINE
  5
DA75
  8
ALPHA
 10
34.512994
 20
50.566949
 30
0.0
 11
34.512994
 21
51.01695
 31
0.0
  0
LINE
  5
DA76
  8
ALPHA
 10
34.193845
 20
51.01695
 30
0.0
 11
34.193845
 21
50.566949
 31
0.0
  0
LINE
  5
DA77
  8
ALPHA
 10
34.193845
 20
50.566949
 30
0.0
 11
34.257675
 21
50.191949
 31
0.0
  0
LINE
  5
DA78
  8
ALPHA
 10
34.576824
 20
50.26695
 30
0.0
 11
34.512994
 21
50.566949
 31
0.0
  0
LINE
  5
DA79
  8
ALPHA
 10
34.257675
 20
50.191949
 30
0.0
 11
34.449164
 21
49.816949
 31
0.0
  0
LINE
  5
DA7A
  8
ALPHA
 10
34.768313
 20
49.966949
 30
0.0
 11
34.576824
 21
50.26695
 31
0.0
  0
LINE
  5
DA7B
  8
ALPHA
 10
34.449164
 20
49.816949
 30
0.0
 11
33.427888
 21
49.816949
 31
0.0
  0
LINE
  5
DA7C
  8
ALPHA
 10
35.5981
 20
49.591949
 30
0.0
 11
35.85342
 21
49.816949
 31
0.0
  0
LINE
  5
DA7D
  8
ALPHA
 10
35.72576
 20
50.26695
 30
0.0
 11
35.5981
 21
50.04195
 31
0.0
  0
LINE
  5
DA7E
  8
ALPHA
 10
35.85342
 20
49.816949
 30
0.0
 11
36.044909
 21
50.191949
 31
0.0
  0
LINE
  5
DA7F
  8
ALPHA
 10
35.78959
 20
50.566949
 30
0.0
 11
35.72576
 21
50.26695
 31
0.0
  0
LINE
  5
DA80
  8
ALPHA
 10
36.044909
 20
50.191949
 30
0.0
 11
36.108739
 21
50.566949
 31
0.0
  0
LINE
  5
DA81
  8
ALPHA
 10
36.108739
 20
50.566949
 30
0.0
 11
36.108739
 21
51.01695
 31
0.0
  0
LINE
  5
DA82
  8
ALPHA
 10
35.78959
 20
51.01695
 30
0.0
 11
35.78959
 21
50.566949
 31
0.0
  0
LINE
  5
DA83
  8
ALPHA
 10
36.108739
 20
53.191949
 30
0.0
 11
33.619377
 21
53.191949
 31
0.0
  0
LINE
  5
DA84
  8
ALPHA
 10
35.5981
 20
51.99195
 30
0.0
 11
35.278951
 21
52.14195
 31
0.0
  0
LINE
  5
DA85
  8
ALPHA
 10
35.215121
 20
51.76695
 30
0.0
 11
35.406611
 21
51.691949
 31
0.0
  0
LINE
  5
DA86
  8
ALPHA
 10
34.895972
 20
51.691949
 30
0.0
 11
35.087462
 21
51.76695
 31
0.0
  0
LINE
  5
DA87
  8
ALPHA
 10
35.023632
 20
52.14195
 30
0.0
 11
34.704483
 21
51.99195
 31
0.0
  0
LINE
  5
DA88
  8
ALPHA
 10
34.704483
 20
51.54195
 30
0.0
 11
34.895972
 21
51.691949
 31
0.0
  0
LINE
  5
DA89
  8
ALPHA
 10
34.704483
 20
51.99195
 30
0.0
 11
34.449164
 21
51.76695
 31
0.0
  0
LINE
  5
DA8A
  8
ALPHA
 10
34.576824
 20
51.316949
 30
0.0
 11
34.704483
 21
51.54195
 31
0.0
  0
LINE
  5
DA8B
  8
ALPHA
 10
34.449164
 20
51.76695
 30
0.0
 11
34.257675
 21
51.39195
 31
0.0
  0
LINE
  5
DA8C
  8
ALPHA
 10
34.066185
 20
52.74195
 30
0.0
 11
33.555547
 21
52.74195
 31
0.0
  0
LINE
  5
DA8D
  8
ALPHA
 10
35.278951
 20
52.14195
 30
0.0
 11
35.023632
 21
52.14195
 31
0.0
  0
LINE
  5
DA8E
  8
ALPHA
 10
35.087462
 20
51.76695
 30
0.0
 11
35.215121
 21
51.76695
 31
0.0
  0
LINE
  5
DA8F
  8
ALPHA
 10
33.619377
 20
53.191949
 30
0.0
 11
34.066185
 21
52.74195
 31
0.0
  0
LINE
  5
DA90
  8
ALPHA
 10
36.044909
 20
51.39195
 30
0.0
 11
35.85342
 21
51.76695
 31
0.0
  0
LINE
  5
DA91
  8
ALPHA
 10
36.108739
 20
53.64195
 30
0.0
 11
36.108739
 21
53.191949
 31
0.0
  0
LINE
  5
DA92
  8
ALPHA
 10
35.5981
 20
51.54195
 30
0.0
 11
35.72576
 21
51.316949
 31
0.0
  0
LINE
  5
DA93
  8
ALPHA
 10
35.85342
 20
51.76695
 30
0.0
 11
35.5981
 21
51.99195
 31
0.0
  0
LINE
  5
DA94
  8
ALPHA
 10
35.406611
 20
51.691949
 30
0.0
 11
35.5981
 21
51.54195
 31
0.0
  0
LINE
  5
DA95
  8
ALPHA
 10
34.608739
 20
65.04195
 30
0.0
 11
34.608739
 21
60.94195
 31
0.0
  0
LINE
  5
DA96
  8
ALPHA
 10
39.383739
 20
62.54195
 30
0.0
 11
39.683739
 21
62.54195
 31
0.0
  0
LINE
  5
DA97
  8
ALPHA
 10
39.608739
 20
62.222801
 30
0.0
 11
39.308739
 21
62.222801
 31
0.0
  0
LINE
  5
DA98
  8
ALPHA
 10
38.708739
 20
59.861099
 30
0.0
 11
40.808739
 21
59.861099
 31
0.0
  0
LINE
  5
DA99
  8
ALPHA
 10
40.808739
 20
59.54195
 30
0.0
 11
38.108739
 21
59.54195
 31
0.0
  0
LINE
  5
DA9A
  8
ALPHA
 10
40.583739
 20
61.265354
 30
0.0
 11
38.708739
 21
59.861099
 31
0.0
  0
LINE
  5
DA9B
  8
ALPHA
 10
38.108739
 20
59.861099
 30
0.0
 11
40.208739
 21
61.456844
 31
0.0
  0
LINE
  5
DA9C
  8
ALPHA
 10
38.558739
 20
61.83982
 30
0.0
 11
38.183739
 21
61.83982
 31
0.0
  0
LINE
  5
DA9D
  8
ALPHA
 10
38.858739
 20
62.478118
 30
0.0
 11
39.383739
 21
62.54195
 31
0.0
  0
LINE
  5
DA9E
  8
ALPHA
 10
39.308739
 20
62.222801
 30
0.0
 11
38.933739
 21
62.158969
 31
0.0
  0
LINE
  5
DA9F
  8
ALPHA
 10
38.708739
 20
62.03131
 30
0.0
 11
38.558739
 21
61.83982
 31
0.0
  0
LINE
  5
DAA0
  8
ALPHA
 10
38.183739
 20
61.83982
 30
0.0
 11
38.258739
 21
62.095142
 31
0.0
  0
LINE
  5
DAA1
  8
ALPHA
 10
38.108739
 20
59.54195
 30
0.0
 11
38.108739
 21
59.861099
 31
0.0
  0
LINE
  5
DAA2
  8
ALPHA
 10
38.558739
 20
62.350459
 30
0.0
 11
38.858739
 21
62.478118
 31
0.0
  0
LINE
  5
DAA3
  8
ALPHA
 10
38.933739
 20
62.158969
 30
0.0
 11
38.708739
 21
62.03131
 31
0.0
  0
LINE
  5
DAA4
  8
ALPHA
 10
38.258739
 20
62.095142
 30
0.0
 11
38.558739
 21
62.350459
 31
0.0
  0
LINE
  5
DAA5
  8
ALPHA
 10
40.433739
 20
62.350459
 30
0.0
 11
40.733739
 21
62.095142
 31
0.0
  0
LINE
  5
DAA6
  8
ALPHA
 10
40.208739
 20
62.03131
 30
0.0
 11
39.983739
 21
62.158969
 31
0.0
  0
LINE
  5
DAA7
  8
ALPHA
 10
40.133739
 20
62.478118
 30
0.0
 11
40.433739
 21
62.350459
 31
0.0
  0
LINE
  5
DAA8
  8
ALPHA
 10
39.983739
 20
62.158969
 30
0.0
 11
39.608739
 21
62.222801
 31
0.0
  0
LINE
  5
DAA9
  8
ALPHA
 10
39.683739
 20
62.54195
 30
0.0
 11
40.133739
 21
62.478118
 31
0.0
  0
LINE
  5
DAAA
  8
ALPHA
 10
40.733739
 20
62.095142
 30
0.0
 11
40.808739
 21
61.83982
 31
0.0
  0
LINE
  5
DAAB
  8
ALPHA
 10
40.358739
 20
61.83982
 30
0.0
 11
40.208739
 21
62.03131
 31
0.0
  0
LINE
  5
DAAC
  8
ALPHA
 10
40.808739
 20
61.712161
 30
0.0
 11
40.733739
 21
61.456844
 31
0.0
  0
LINE
  5
DAAD
  8
ALPHA
 10
41.408739
 20
59.54195
 30
0.0
 11
41.408739
 21
59.861099
 31
0.0
  0
LINE
  5
DAAE
  8
ALPHA
 10
40.808739
 20
59.861099
 30
0.0
 11
40.808739
 21
59.54195
 31
0.0
  0
LINE
  5
DAAF
  8
ALPHA
 10
40.808739
 20
61.83982
 30
0.0
 11
40.808739
 21
61.712161
 31
0.0
  0
LINE
  5
DAB0
  8
ALPHA
 10
40.358739
 20
61.712161
 30
0.0
 11
40.358739
 21
61.83982
 31
0.0
  0
LINE
  5
DAB1
  8
ALPHA
 10
40.733739
 20
61.456844
 30
0.0
 11
40.583739
 21
61.265354
 31
0.0
  0
LINE
  5
DAB2
  8
ALPHA
 10
40.208739
 20
61.456844
 30
0.0
 11
40.358739
 21
61.712161
 31
0.0
  0
LINE
  5
DAB3
  8
ALPHA
 10
39.383739
 20
67.54195
 30
0.0
 11
39.683739
 21
67.54195
 31
0.0
  0
LINE
  5
DAB4
  8
ALPHA
 10
39.608739
 20
67.222801
 30
0.0
 11
39.308739
 21
67.222801
 31
0.0
  0
LINE
  5
DAB5
  8
ALPHA
 10
38.708739
 20
64.861099
 30
0.0
 11
40.808739
 21
64.861099
 31
0.0
  0
LINE
  5
DAB6
  8
ALPHA
 10
40.808739
 20
64.54195
 30
0.0
 11
38.108739
 21
64.54195
 31
0.0
  0
LINE
  5
DAB7
  8
ALPHA
 10
40.583739
 20
66.265354
 30
0.0
 11
38.708739
 21
64.861099
 31
0.0
  0
LINE
  5
DAB8
  8
ALPHA
 10
38.108739
 20
64.861099
 30
0.0
 11
40.208739
 21
66.456844
 31
0.0
  0
LINE
  5
DAB9
  8
ALPHA
 10
38.558739
 20
66.83982
 30
0.0
 11
38.183739
 21
66.83982
 31
0.0
  0
LINE
  5
DABA
  8
ALPHA
 10
38.858739
 20
67.478118
 30
0.0
 11
39.383739
 21
67.54195
 31
0.0
  0
LINE
  5
DABB
  8
ALPHA
 10
39.308739
 20
67.222801
 30
0.0
 11
38.933739
 21
67.158969
 31
0.0
  0
LINE
  5
DABC
  8
ALPHA
 10
38.108739
 20
64.54195
 30
0.0
 11
38.108739
 21
64.861099
 31
0.0
  0
LINE
  5
DABD
  8
ALPHA
 10
38.183739
 20
66.83982
 30
0.0
 11
38.258739
 21
67.095142
 31
0.0
  0
LINE
  5
DABE
  8
ALPHA
 10
38.558739
 20
67.350459
 30
0.0
 11
38.858739
 21
67.478118
 31
0.0
  0
LINE
  5
DABF
  8
ALPHA
 10
38.933739
 20
67.158969
 30
0.0
 11
38.708739
 21
67.03131
 31
0.0
  0
LINE
  5
DAC0
  8
ALPHA
 10
38.258739
 20
67.095142
 30
0.0
 11
38.558739
 21
67.350459
 31
0.0
  0
LINE
  5
DAC1
  8
ALPHA
 10
38.708739
 20
67.03131
 30
0.0
 11
38.558739
 21
66.83982
 31
0.0
  0
LINE
  5
DAC2
  8
ALPHA
 10
40.133739
 20
67.478118
 30
0.0
 11
40.433739
 21
67.350459
 31
0.0
  0
LINE
  5
DAC3
  8
ALPHA
 10
39.983739
 20
67.158969
 30
0.0
 11
39.608739
 21
67.222801
 31
0.0
  0
LINE
  5
DAC4
  8
ALPHA
 10
39.683739
 20
67.54195
 30
0.0
 11
40.133739
 21
67.478118
 31
0.0
  0
LINE
  5
DAC5
  8
ALPHA
 10
40.433739
 20
67.350459
 30
0.0
 11
40.733739
 21
67.095142
 31
0.0
  0
LINE
  5
DAC6
  8
ALPHA
 10
40.208739
 20
67.03131
 30
0.0
 11
39.983739
 21
67.158969
 31
0.0
  0
LINE
  5
DAC7
  8
ALPHA
 10
40.358739
 20
66.83982
 30
0.0
 11
40.208739
 21
67.03131
 31
0.0
  0
LINE
  5
DAC8
  8
ALPHA
 10
41.408739
 20
65.754714
 30
0.0
 11
41.483739
 21
65.435565
 31
0.0
  0
LINE
  5
DAC9
  8
ALPHA
 10
40.733739
 20
67.095142
 30
0.0
 11
40.808739
 21
66.83982
 31
0.0
  0
LINE
  5
DACA
  8
ALPHA
 10
41.483739
 20
66.648334
 30
0.0
 11
41.408739
 21
66.329185
 31
0.0
  0
LINE
  5
DACB
  8
ALPHA
 10
41.408739
 20
66.329185
 30
0.0
 11
41.408739
 21
65.754714
 31
0.0
  0
LINE
  5
DACC
  8
ALPHA
 10
40.808739
 20
64.861099
 30
0.0
 11
40.808739
 21
64.54195
 31
0.0
  0
LINE
  5
DACD
  8
ALPHA
 10
40.808739
 20
66.83982
 30
0.0
 11
40.808739
 21
66.712161
 31
0.0
  0
LINE
  5
DACE
  8
ALPHA
 10
40.358739
 20
66.712161
 30
0.0
 11
40.358739
 21
66.83982
 31
0.0
  0
LINE
  5
DACF
  8
ALPHA
 10
40.808739
 20
66.712161
 30
0.0
 11
40.733739
 21
66.456844
 31
0.0
  0
LINE
  5
DAD0
  8
ALPHA
 10
40.733739
 20
66.456844
 30
0.0
 11
40.583739
 21
66.265354
 31
0.0
  0
LINE
  5
DAD1
  8
ALPHA
 10
40.208739
 20
66.456844
 30
0.0
 11
40.358739
 21
66.712161
 31
0.0
  0
ARC
  5
DAD2
  8
ALPHA
 10
31.108739
 20
79.54195
 30
0.0
 40
2.1
 50
270.0
 51
58.411864
  0
ARC
  5
DAD3
  8
ALPHA
 10
41.108739
 20
30.324963
 30
0.0
 40
44.0
 50
96.524979
 51
110.186468
  0
LINE
  5
DAD4
  8
ALPHA
 10
33.108696
 20
89.54195
 30
0.0
 11
39.729502
 21
89.54195
 31
0.0
  0
LINE
  5
DAD5
  8
ALPHA
 10
30.29055
 20
86.99195
 30
0.0
 11
40.203456
 21
86.99195
 31
0.0
  0
LINE
  5
DAD6
  8
ALPHA
 10
30.608739
 20
86.39195
 30
0.0
 11
33.762328
 21
86.39195
 31
0.0
  0
LINE
  5
DAD7
  8
ALPHA
 10
31.608739
 20
86.356941
 30
0.0
 11
33.77936
 21
86.356941
 31
0.0
  0
LINE
  5
DAD8
  8
ALPHA
 10
31.608739
 20
85.79195
 30
0.0
 11
35.408739
 21
85.79195
 31
0.0
  0
LINE
  5
DAD9
  8
ALPHA
 10
33.358739
 20
84.19195
 30
0.0
 11
31.758739
 21
84.19195
 31
0.0
  0
LINE
  5
DADA
  8
ALPHA
 10
31.490368
 20
83.973761
 30
0.0
 11
34.108739
 21
83.973761
 31
0.0
  0
LINE
  5
DADB
  8
ALPHA
 10
33.208739
 20
79.54195
 30
0.0
 11
34.108739
 21
79.54195
 31
0.0
  0
LINE
  5
DADC
  8
ALPHA
 10
28.008739
 20
79.54195
 30
0.0
 11
28.008739
 21
81.54195
 31
0.0
  0
POLYLINE
  5
DADD
  8
ALPHA
 66
     1
 10
0.0
 20
0.0
 30
0.0
  0
VERTEX
  5
E4E9
  8
ALPHA
 10
25.761634
 20
86.783661
 30
0.0
  0
VERTEX
  5
E4EA
  8
ALPHA
 10
25.748715
 20
83.330169
 30
0.0
  0
VERTEX
  5
E4EB
  8
ALPHA
 10
25.735609
 20
79.754012
 30
0.0
  0
VERTEX
  5
E4EC
  8
ALPHA
 10
25.722383
 20
76.05888
 30
0.0
  0
SEQEND
  5
E4ED
  8
ALPHA
  0
POLYLINE
  5
DADE
  8
ALPHA
 66
     1
 10
0.0
 20
0.0
 30
0.0
  0
VERTEX
  5
E4EE
  8
ALPHA
 10
25.976485
 20
86.836821
 30
0.0
  0
VERTEX
  5
E4EF
  8
ALPHA
 10
25.958864
 20
81.99881
 30
0.0
  0
VERTEX
  5
E4F0
  8
ALPHA
 10
25.941811
 20
76.937477
 30
0.0
  0
VERTEX
  5
E4F1
  8
ALPHA
 10
25.925371
 20
71.622243
 30
0.0
  0
SEQEND
  5
E4F2
  8
ALPHA
  0
ARC
  5
DADF
  8
ALPHA
 10
30.108739
 20
79.54195
 30
0.0
 40
3.510761
 50
235.150095
 51
270.0
  0
ARC
  5
DAE0
  8
ALPHA
 10
30.108739
 20
79.54195
 30
0.0
 40
3.710731
 50
235.150095
 51
270.0
  0
ARC
  5
DAE1
  8
ALPHA
 10
41.108739
 20
31.19195
 30
0.0
 40
44.410761
 50
100.867362
 51
108.140226
  0
ARC
  5
DAE2
  8
ALPHA
 10
41.108739
 20
31.19195
 30
0.0
 40
44.610731
 50
100.867362
 51
108.140227
  0
ARC
  5
DAE3
  8
ALPHA
 10
41.108739
 20
31.19195
 30
0.0
 40
44.1
 50
100.53544
 51
108.695746
  0
ARC
  5
DAE4
  8
ALPHA
 10
30.108739
 20
79.54195
 30
0.0
 40
3.2
 50
235.150095
 51
257.190717
  0
ARC
  5
DAE5
  8
ALPHA
 10
30.108739
 20
79.54195
 30
0.0
 40
2.1
 50
180.0
 51
270.0
  0
LINE
  5
DAE6
  8
ALPHA
 10
27.219469
 20
73.585408
 30
0.0
 11
27.219469
 21
76.095212
 31
0.0
  0
LINE
  5
DAE7
  8
ALPHA
 10
27.0195
 20
73.58541
 30
0.0
 11
27.0195
 21
76.095212
 31
0.0
  0
LINE
  5
DAE8
  8
ALPHA
 10
26.708739
 20
73.15439
 30
0.0
 11
26.708739
 21
76.095212
 31
0.0
  0
LINE
  5
DAE9
  8
ALPHA
 10
25.722383
 20
76.05888
 30
0.0
 11
25.70874
 21
72.141417
 31
0.0
  0
LINE
  5
DAEA
  8
ALPHA
 10
27.219469
 20
73.58541
 30
0.0
 11
27.0195
 21
73.58541
 31
0.0
  0
POLYLINE
  5
DAEB
  8
ALPHA
 66
     1
 10
0.0
 20
0.0
 30
0.0
  0
VERTEX
  5
E4F3
  8
ALPHA
 10
27.0195
 20
73.58541
 30
0.0
  0
VERTEX
  5
E4F4
  8
ALPHA
 10
27.032959
 20
73.513372
 30
0.0
  0
VERTEX
  5
E4F5
  8
ALPHA
 10
27.072594
 20
73.449789
 30
0.0
  0
VERTEX
  5
E4F6
  8
ALPHA
 10
27.133733
 20
73.404811
 30
0.0
  0
VERTEX
  5
E4F7
  8
ALPHA
 10
27.20675
 20
73.385879
 30
0.0
  0
VERTEX
  5
E4F8
  8
ALPHA
 10
27.281729
 20
73.395379
 30
0.0
  0
SEQEND
  5
E4F9
  8
ALPHA
  0
POLYLINE
  5
DAEC
  8
ALPHA
 66
     1
 10
0.0
 20
0.0
 30
0.0
  0
VERTEX
  5
E4FA
  8
ALPHA
 10
27.281729
 20
73.395379
 30
0.0
  0
VERTEX
  5
E4FB
  8
ALPHA
 10
27.178872
 20
73.252563
 30
0.0
  0
VERTEX
  5
E4FC
  8
ALPHA
 10
27.075898
 20
73.109096
 30
0.0
  0
VERTEX
  5
E4FD
  8
ALPHA
 10
26.972807
 20
72.964972
 30
0.0
  0
SEQEND
  5
E4FE
  8
ALPHA
  0
POLYLINE
  5
DAED
  8
ALPHA
 66
     1
 10
0.0
 20
0.0
 30
0.0
  0
VERTEX
  5
E4FF
  8
ALPHA
 10
26.972807
 20
72.964972
 30
0.0
  0
VERTEX
  5
E500
  8
ALPHA
 10
26.879222
 20
72.956598
 30
0.0
  0
VERTEX
  5
E501
  8
ALPHA
 10
26.792144
 20
72.991888
 30
0.0
  0
VERTEX
  5
E502
  8
ALPHA
 10
26.730804
 20
73.063059
 30
0.0
  0
VERTEX
  5
E503
  8
ALPHA
 10
26.708739
 20
73.15439
 30
0.0
  0
SEQEND
  5
E504
  8
ALPHA
  0
LINE
  5
DAEE
  8
ALPHA
 10
25.712101
 20
73.106433
 30
0.0
 11
25.700601
 21
73.029641
 31
0.0
  0
LINE
  5
DAEF
  8
ALPHA
 10
25.70595
 20
72.1414
 30
0.0
 11
25.700601
 21
73.029641
 31
0.0
  0
POLYLINE
  5
DAF0
  8
ALPHA
 66
     1
 10
0.0
 20
0.0
 30
0.0
  0
VERTEX
  5
E505
  8
ALPHA
 10
27.0195
 20
73.58541
 30
0.0
  0
VERTEX
  5
E506
  8
ALPHA
 10
26.916034
 20
73.442393
 30
0.0
  0
VERTEX
  5
E507
  8
ALPHA
 10
26.812447
 20
73.298722
 30
0.0
  0
VERTEX
  5
E508
  8
ALPHA
 10
26.708739
 20
73.15439
 30
0.0
  0
SEQEND
  5
E509
  8
ALPHA
  0
POLYLINE
  5
DAF1
  8
ALPHA
 66
     1
 10
0.0
 20
0.0
 30
0.0
  0
VERTEX
  5
E50A
  8
ALPHA
 10
27.219469
 20
73.58541
 30
0.0
  0
VERTEX
  5
E50B
  8
ALPHA
 10
27.242567
 20
73.515648
 30
0.0
  0
VERTEX
  5
E50C
  8
ALPHA
 10
27.262108
 20
73.454161
 30
0.0
  0
VERTEX
  5
E50D
  8
ALPHA
 10
27.277022
 20
73.410892
 30
0.0
  0
VERTEX
  5
E50E
  8
ALPHA
 10
27.281729
 20
73.395379
 30
0.0
  0
SEQEND
  5
E50F
  8
ALPHA
  0
ARC
  5
DAF2
  8
ALPHA
 10
27.708739
 20
76.095212
 30
0.0
 40
0.689239
 50
55.150095
 51
180.0
  0
ARC
  5
DAF3
  8
ALPHA
 10
27.708739
 20
76.095212
 30
0.0
 40
0.489269
 50
55.150095
 51
180.0
  0
ARC
  5
DAF4
  8
ALPHA
 10
27.708739
 20
76.095212
 30
0.0
 40
1.0
 50
55.150095
 51
180.0
  0
LINE
  5
DAF5
  8
ALPHA
 10
27.219469
 20
76.095212
 30
0.0
 11
26.708739
 21
76.095212
 31
0.0
  0
LINE
  5
DAF6
  8
ALPHA
 10
27.988321
 20
76.496732
 30
0.0
 11
28.280167
 21
76.915864
 31
0.0
  0
LINE
  5
DAF7
  8
ALPHA
 10
30.108739
 20
76.132489
 30
0.0
 11
31.608739
 21
76.132489
 31
0.0
  0
LINE
  5
DAF8
  8
ALPHA
 10
30.108739
 20
75.831219
 30
0.0
 11
32.897978
 21
75.831219
 31
0.0
  0
LINE
  5
DAF9
  8
ALPHA
 10
30.108739
 20
76.031188
 30
0.0
 11
32.698008
 21
76.031188
 31
0.0
  0
ARC
  5
DAFA
  8
ALPHA
 10
30.108739
 20
79.54195
 30
0.0
 40
3.409461
 50
261.567117
 51
270.0
  0
LINE
  5
DAFB
  8
ALPHA
 10
30.108739
 20
77.44195
 30
0.0
 11
31.108739
 21
77.44195
 31
0.0
  0
POLYLINE
  5
DAFC
  8
ALPHA
 66
     1
 10
0.0
 20
0.0
 30
0.0
  0
VERTEX
  5
E510
  8
ALPHA
 10
29.399278
 20
76.421587
 30
0.0
  0
VERTEX
  5
E511
  8
ALPHA
 10
29.468253
 20
76.336333
 30
0.0
  0
VERTEX
  5
E512
  8
ALPHA
 10
29.538074
 20
76.252284
 30
0.0
  0
VERTEX
  5
E513
  8
ALPHA
 10
29.608739
 20
76.169351
 30
0.0
  0
SEQEND
  5
E514
  8
ALPHA
  0
LINE
  5
DAFD
  8
ALPHA
 10
30.108739
 20
75.831219
 30
0.0
 11
30.108739
 21
76.132489
 31
0.0
  0
LINE
  5
DAFE
  8
ALPHA
 10
29.608739
 20
77.502342
 30
0.0
 11
29.608739
 21
76.169351
 31
0.0
  0
LINE
  5
DAFF
  8
ALPHA
 10
29.399278
 20
77.565421
 30
0.0
 11
29.399278
 21
76.421587
 31
0.0
  0
LINE
  5
DB00
  8
ALPHA
 10
31.818199
 20
76.34195
 30
0.0
 11
33.008769
 21
76.34195
 31
0.0
  0
POLYLINE
  5
DB01
  8
ALPHA
 66
     1
 10
0.0
 20
0.0
 30
0.0
  0
VERTEX
  5
E515
  8
ALPHA
 10
33.008769
 20
76.34195
 30
0.0
  0
VERTEX
  5
E516
  8
ALPHA
 10
33.085405
 20
76.326685
 30
0.0
  0
VERTEX
  5
E517
  8
ALPHA
 10
33.150173
 20
76.283384
 30
0.0
  0
VERTEX
  5
E518
  8
ALPHA
 10
33.193474
 20
76.218616
 30
0.0
  0
VERTEX
  5
E519
  8
ALPHA
 10
33.208739
 20
76.14198
 30
0.0
  0
SEQEND
  5
E51A
  8
ALPHA
  0
LINE
  5
DB02
  8
ALPHA
 10
32.698008
 20
75.002643
 30
0.0
 11
32.897978
 21
75.002643
 31
0.0
  0
POLYLINE
  5
DB03
  8
ALPHA
 66
     1
 10
0.0
 20
0.0
 30
0.0
  0
VERTEX
  5
E51B
  8
ALPHA
 10
32.897978
 20
75.002643
 30
0.0
  0
VERTEX
  5
E51C
  8
ALPHA
 10
33.001443
 20
74.917068
 30
0.0
  0
VERTEX
  5
E51D
  8
ALPHA
 10
33.10503
 20
74.831224
 30
0.0
  0
VERTEX
  5
E51E
  8
ALPHA
 10
33.208739
 20
74.74511
 30
0.0
  0
SEQEND
  5
E51F
  8
ALPHA
  0
POLYLINE
  5
DB04
  8
ALPHA
 66
     1
 10
0.0
 20
0.0
 30
0.0
  0
VERTEX
  5
E520
  8
ALPHA
 10
32.735709
 20
74.80626
 30
0.0
  0
VERTEX
  5
E521
  8
ALPHA
 10
32.838798
 20
74.720612
 30
0.0
  0
VERTEX
  5
E522
  8
ALPHA
 10
32.942006
 20
74.634697
 30
0.0
  0
VERTEX
  5
E523
  8
ALPHA
 10
33.045332
 20
74.548512
 30
0.0
  0
SEQEND
  5
E524
  8
ALPHA
  0
POLYLINE
  5
DB05
  8
ALPHA
 66
     1
 10
0.0
 20
0.0
 30
0.0
  0
VERTEX
  5
E525
  8
ALPHA
 10
32.897978
 20
75.831219
 30
0.0
  0
VERTEX
  5
E526
  8
ALPHA
 10
32.882509
 20
75.908283
 30
0.0
  0
VERTEX
  5
E527
  8
ALPHA
 10
32.837756
 20
75.974209
 30
0.0
  0
VERTEX
  5
E528
  8
ALPHA
 10
32.772715
 20
76.016687
 30
0.0
  0
VERTEX
  5
E529
  8
ALPHA
 10
32.698008
 20
76.031188
 30
0.0
  0
SEQEND
  5
E52A
  8
ALPHA
  0
POLYLINE
  5
DB06
  8
ALPHA
 66
     1
 10
0.0
 20
0.0
 30
0.0
  0
VERTEX
  5
E52B
  8
ALPHA
 10
32.698008
 20
75.002643
 30
0.0
  0
VERTEX
  5
E52C
  8
ALPHA
 10
32.71213
 20
74.929451
 30
0.0
  0
VERTEX
  5
E52D
  8
ALPHA
 10
32.724178
 20
74.865952
 30
0.0
  0
VERTEX
  5
E52E
  8
ALPHA
 10
32.732689
 20
74.822351
 30
0.0
  0
VERTEX
  5
E52F
  8
ALPHA
 10
32.735709
 20
74.80626
 30
0.0
  0
SEQEND
  5
E530
  8
ALPHA
  0
LINE
  5
DB07
  8
ALPHA
 10
33.208739
 20
76.14198
 30
0.0
 11
33.208739
 21
74.74511
 31
0.0
  0
LINE
  5
DB08
  8
ALPHA
 10
32.897978
 20
75.831219
 30
0.0
 11
32.897978
 21
75.002643
 31
0.0
  0
LINE
  5
DB09
  8
ALPHA
 10
32.698008
 20
75.002641
 30
0.0
 11
32.698008
 21
76.031188
 31
0.0
  0
LINE
  5
DB0A
  8
ALPHA
 10
31.818199
 20
76.34195
 30
0.0
 11
31.818199
 21
77.565421
 31
0.0
  0
LINE
  5
DB0B
  8
ALPHA
 10
31.608739
 20
76.132489
 30
0.0
 11
31.608739
 21
77.502342
 31
0.0
  0
POLYLINE
  5
DB0C
  8
ALPHA
 66
     1
 10
0.0
 20
0.0
 30
0.0
  0
VERTEX
  5
E531
  8
ALPHA
 10
33.208739
 20
74.74511
 30
0.0
  0
VERTEX
  5
E532
  8
ALPHA
 10
33.187748
 20
74.655919
 30
0.0
  0
VERTEX
  5
E533
  8
ALPHA
 10
33.129182
 20
74.585456
 30
0.0
  0
VERTEX
  5
E534
  8
ALPHA
 10
33.045332
 20
74.548512
 30
0.0
  0
SEQEND
  5
E535
  8
ALPHA
  0
POLYLINE
  5
DB0D
  8
ALPHA
 66
     1
 10
0.0
 20
0.0
 30
0.0
  0
VERTEX
  5
E536
  8
ALPHA
 10
32.735709
 20
74.80626
 30
0.0
  0
VERTEX
  5
E537
  8
ALPHA
 10
32.819692
 20
74.843982
 30
0.0
  0
VERTEX
  5
E538
  8
ALPHA
 10
32.877866
 20
74.915284
 30
0.0
  0
VERTEX
  5
E539
  8
ALPHA
 10
32.897978
 20
75.002643
 30
0.0
  0
SEQEND
  5
E53A
  8
ALPHA
  0
LINE
  5
DB0E
  8
ALPHA
 10
32.897978
 20
75.831219
 30
0.0
 11
33.208739
 21
76.14198
 31
0.0
  0
LINE
  5
DB0F
  8
ALPHA
 10
32.698008
 20
76.031188
 30
0.0
 11
33.008769
 21
76.34195
 31
0.0
  0
LINE
  5
DB10
  8
ALPHA
 10
31.818199
 20
76.34195
 30
0.0
 11
31.608739
 21
76.132489
 31
0.0
  0
ARC
  5
DB11
  8
ALPHA
 10
30.108739
 20
81.54195
 30
0.0
 40
3.610761
 50
103.827008
 51
135.885381
  0
ARC
  5
DB12
  8
ALPHA
 10
41.108739
 20
29.25195
 30
0.0
 40
59.2
 50
101.338765
 51
103.926581
  0
ARC
  5
DB13
  8
ALPHA
 10
30.108739
 20
81.54195
 30
0.0
 40
3.509461
 50
102.594255
 51
135.885381
  0
ARC
  5
DB14
  8
ALPHA
 10
30.108739
 20
81.54195
 30
0.0
 40
2.1
 50
0.0
 51
180.0
  0
POLYLINE
  5
DB15
  8
ALPHA
 66
     1
 10
0.0
 20
0.0
 30
0.0
  0
VERTEX
  5
E53B
  8
ALPHA
 10
29.157425
 20
86.915704
 30
0.0
  0
VERTEX
  5
E53C
  8
ALPHA
 10
29.245928
 20
86.914006
 30
0.0
  0
VERTEX
  5
E53D
  8
ALPHA
 10
29.325089
 20
86.874232
 30
0.0
  0
VERTEX
  5
E53E
  8
ALPHA
 10
29.3793
 20
86.804208
 30
0.0
  0
VERTEX
  5
E53F
  8
ALPHA
 10
29.397978
 20
86.719896
 30
0.0
  0
SEQEND
  5
E540
  8
ALPHA
  0
LINE
  5
DB16
  8
ALPHA
 10
29.198008
 20
86.719896
 30
0.0
 11
29.397978
 21
86.719896
 31
0.0
  0
POLYLINE
  5
DB17
  8
ALPHA
 66
     1
 10
0.0
 20
0.0
 30
0.0
  0
VERTEX
  5
E541
  8
ALPHA
 10
29.198008
 20
85.242252
 30
0.0
  0
VERTEX
  5
E542
  8
ALPHA
 10
29.272688
 20
85.242161
 30
0.0
  0
VERTEX
  5
E543
  8
ALPHA
 10
29.337323
 20
85.242345
 30
0.0
  0
VERTEX
  5
E544
  8
ALPHA
 10
29.381623
 20
85.242168
 30
0.0
  0
VERTEX
  5
E545
  8
ALPHA
 10
29.397978
 20
85.242252
 30
0.0
  0
SEQEND
  5
E546
  8
ALPHA
  0
LINE
  5
DB18
  8
ALPHA
 10
29.198008
 20
85.242252
 30
0.0
 11
29.245799
 21
85.048077
 31
0.0
  0
POLYLINE
  5
DB19
  8
ALPHA
 66
     1
 10
0.0
 20
0.0
 30
0.0
  0
VERTEX
  5
E547
  8
ALPHA
 10
29.469453
 20
87.296476
 30
0.0
  0
VERTEX
  5
E548
  8
ALPHA
 10
29.365536
 20
87.169943
 30
0.0
  0
VERTEX
  5
E549
  8
ALPHA
 10
29.261527
 20
87.04302
 30
0.0
  0
VERTEX
  5
E54A
  8
ALPHA
 10
29.157425
 20
86.915704
 30
0.0
  0
SEQEND
  5
E54B
  8
ALPHA
  0
LINE
  5
DB1A
  8
ALPHA
 10
29.198008
 20
86.719896
 30
0.0
 11
29.198008
 21
85.242252
 31
0.0
  0
LINE
  5
DB1B
  8
ALPHA
 10
27.219469
 20
84.256724
 30
0.0
 11
27.219469
 21
86.274037
 31
0.0
  0
LINE
  5
DB1C
  8
ALPHA
 10
27.0195
 20
84.256724
 30
0.0
 11
27.0195
 21
86.274038
 31
0.0
  0
LINE
  5
DB1D
  8
ALPHA
 10
26.708739
 20
86.51767
 30
0.0
 11
26.708739
 21
84.256724
 31
0.0
  0
ARC
  5
DB1E
  8
ALPHA
 10
27.308739
 20
84.256724
 30
0.0
 40
0.289239
 50
180.0
 51
315.885381
  0
ARC
  5
DB1F
  8
ALPHA
 10
27.308739
 20
84.256724
 30
0.0
 40
0.6
 50
180.0
 51
261.631432
  0
LINE
  5
DB20
  8
ALPHA
 10
26.708739
 20
84.256724
 30
0.0
 11
27.219469
 21
84.256724
 31
0.0
  0
ARC
  5
DB21
  8
ALPHA
 10
30.108739
 20
81.54195
 30
0.0
 40
3.810731
 50
103.827001
 51
135.885381
  0
ARC
  5
DB22
  8
ALPHA
 10
27.308739
 20
84.256724
 30
0.0
 40
0.089267
 50
180.0
 51
315.885381
  0
ARC
  5
DB23
  8
ALPHA
 10
27.308739
 20
84.256724
 30
0.0
 40
0.390539
 50
276.673736
 51
315.885381
  0
LINE
  5
DB24
  8
ALPHA
 10
27.589126
 20
83.984871
 30
0.0
 11
27.372829
 21
84.194584
 31
0.0
  0
LINE
  5
DB25
  8
ALPHA
 10
27.354125
 20
83.868831
 30
0.0
 11
28.136808
 21
82.264093
 31
0.0
  0
LINE
  5
DB26
  8
ALPHA
 10
27.221414
 20
83.663113
 30
0.0
 11
28.051155
 21
81.961892
 31
0.0
  0
POLYLINE
  5
DB27
  8
ALPHA
 66
     1
 10
0.0
 20
0.0
 30
0.0
  0
VERTEX
  5
E54C
  8
ALPHA
 10
27.354125
 20
83.868831
 30
0.0
  0
VERTEX
  5
E54D
  8
ALPHA
 10
27.312752
 20
83.797939
 30
0.0
  0
VERTEX
  5
E54E
  8
ALPHA
 10
27.268365
 20
83.729623
 30
0.0
  0
VERTEX
  5
E54F
  8
ALPHA
 10
27.221414
 20
83.663113
 30
0.0
  0
SEQEND
  5
E550
  8
ALPHA
  0
LINE
  5
DB28
  8
ALPHA
 10
27.219469
 20
86.274038
 30
0.0
 11
27.0195
 21
86.274038
 31
0.0
  0
POLYLINE
  5
DB29
  8
ALPHA
 66
     1
 10
0.0
 20
0.0
 30
0.0
  0
VERTEX
  5
E551
  8
ALPHA
 10
26.86058
 20
86.711761
 30
0.0
  0
VERTEX
  5
E552
  8
ALPHA
 10
27.068198
 20
86.549658
 30
0.0
  0
VERTEX
  5
E553
  8
ALPHA
 10
27.172145
 20
86.468327
 30
0.0
  0
SEQEND
  5
E554
  8
ALPHA
  0
POLYLINE
  5
DB2A
  8
ALPHA
 66
     1
 10
0.0
 20
0.0
 30
0.0
  0
VERTEX
  5
E555
  8
ALPHA
 10
27.0195
 20
86.274038
 30
0.0
  0
VERTEX
  5
E556
  8
ALPHA
 10
27.038272
 20
86.358588
 30
0.0
  0
VERTEX
  5
E557
  8
ALPHA
 10
27.092709
 20
86.428676
 30
0.0
  0
VERTEX
  5
E558
  8
ALPHA
 10
27.172145
 20
86.468327
 30
0.0
  0
SEQEND
  5
E559
  8
ALPHA
  0
POLYLINE
  5
DB2B
  8
ALPHA
 66
     1
 10
0.0
 20
0.0
 30
0.0
  0
VERTEX
  5
E55A
  8
ALPHA
 10
25.976485
 20
86.836821
 30
0.0
  0
VERTEX
  5
E55B
  8
ALPHA
 10
25.904848
 20
86.819191
 30
0.0
  0
VERTEX
  5
E55C
  8
ALPHA
 10
25.761634
 20
86.783661
 30
0.0
  0
SEQEND
  5
E55D
  8
ALPHA
  0
POLYLINE
  5
DB2C
  8
ALPHA
 66
     1
 10
0.0
 20
0.0
 30
0.0
  0
VERTEX
  5
E55E
  8
ALPHA
 10
26.708739
 20
86.51767
 30
0.0
  0
VERTEX
  5
E55F
  8
ALPHA
 10
26.915822
 20
86.355435
 30
0.0
  0
VERTEX
  5
E560
  8
ALPHA
 10
27.0195
 20
86.274038
 30
0.0
  0
SEQEND
  5
E561
  8
ALPHA
  0
POLYLINE
  5
DB2D
  8
ALPHA
 66
     1
 10
0.0
 20
0.0
 30
0.0
  0
VERTEX
  5
E562
  8
ALPHA
 10
26.708739
 20
86.51767
 30
0.0
  0
VERTEX
  5
E563
  8
ALPHA
 10
26.728005
 20
86.603313
 30
0.0
  0
VERTEX
  5
E564
  8
ALPHA
 10
26.782091
 20
86.672449
 30
0.0
  0
VERTEX
  5
E565
  8
ALPHA
 10
26.86058
 20
86.711761
 30
0.0
  0
SEQEND
  5
E566
  8
ALPHA
  0
POLYLINE
  5
DB2E
  8
ALPHA
 66
     1
 10
0.0
 20
0.0
 30
0.0
  0
VERTEX
  5
E567
  8
ALPHA
 10
26.519653
 20
87.750178
 30
0.0
  0
VERTEX
  5
E568
  8
ALPHA
 10
26.434237
 20
87.724783
 30
0.0
  0
VERTEX
  5
E569
  8
ALPHA
 10
26.353463
 20
87.692802
 30
0.0
  0
VERTEX
  5
E56A
  8
ALPHA
 10
26.275832
 20
87.653966
 30
0.0
  0
VERTEX
  5
E56B
  8
ALPHA
 10
26.200331
 20
87.607508
 30
0.0
  0
VERTEX
  5
E56C
  8
ALPHA
 10
26.128333
 20
87.553804
 30
0.0
  0
VERTEX
  5
E56D
  8
ALPHA
 10
26.06182
 20
87.494224
 30
0.0
  0
VERTEX
  5
E56E
  8
ALPHA
 10
26.002067
 20
87.430329
 30
0.0
  0
VERTEX
  5
E56F
  8
ALPHA
 10
25.948602
 20
87.36212
 30
0.0
  0
VERTEX
  5
E570
  8
ALPHA
 10
25.900942
 20
87.289029
 30
0.0
  0
VERTEX
  5
E571
  8
ALPHA
 10
25.85908
 20
87.210483
 30
0.0
  0
VERTEX
  5
E572
  8
ALPHA
 10
25.824118
 20
87.127854
 30
0.0
  0
VERTEX
  5
E573
  8
ALPHA
 10
25.796991
 20
87.043479
 30
0.0
  0
VERTEX
  5
E574
  8
ALPHA
 10
25.777782
 20
86.958913
 30
0.0
  0
VERTEX
  5
E575
  8
ALPHA
 10
25.765962
 20
86.872904
 30
0.0
  0
VERTEX
  5
E576
  8
ALPHA
 10
25.761634
 20
86.783661
 30
0.0
  0
SEQEND
  5
E577
  8
ALPHA
  0
POLYLINE
  5
DB2F
  8
ALPHA
 66
     1
 10
0.0
 20
0.0
 30
0.0
  0
VERTEX
  5
E578
  8
ALPHA
 10
26.738159
 20
87.804238
 30
0.0
  0
VERTEX
  5
E579
  8
ALPHA
 10
26.492398
 20
87.708067
 30
0.0
  0
VERTEX
  5
E57A
  8
ALPHA
 10
26.278628
 20
87.549282
 30
0.0
  0
VERTEX
  5
E57B
  8
ALPHA
 10
26.116475
 20
87.343326
 30
0.0
  0
VERTEX
  5
E57C
  8
ALPHA
 10
26.012294
 20
87.09827
 30
0.0
  0
VERTEX
  5
E57D
  8
ALPHA
 10
25.976485
 20
86.836821
 30
0.0
  0
SEQEND
  5
E57E
  8
ALPHA
  0
ARC
  5
DB30
  8
ALPHA
 10
41.108739
 20
29.25195
 30
0.0
 40
58.889239
 50
101.709264
 51
103.689361
  0
ARC
  5
DB31
  8
ALPHA
 10
41.108739
 20
29.25195
 30
0.0
 40
58.689269
 50
101.709264
 51
103.689361
  0
POLYLINE
  5
DB32
  8
ALPHA
 66
     1
 10
0.0
 20
0.0
 30
0.0
  0
VERTEX
  5
E57F
  8
ALPHA
 10
29.198008
 20
86.719896
 30
0.0
  0
VERTEX
  5
E580
  8
ALPHA
 10
29.182974
 20
86.7917
 30
0.0
  0
VERTEX
  5
E581
  8
ALPHA
 10
29.170252
 20
86.854877
 30
0.0
  0
VERTEX
  5
E582
  8
ALPHA
 10
29.160574
 20
86.899504
 30
0.0
  0
VERTEX
  5
E583
  8
ALPHA
 10
29.157425
 20
86.915704
 30
0.0
  0
SEQEND
  5
E584
  8
ALPHA
  0
POLYLINE
  5
DB33
  8
ALPHA
 66
     1
 10
0.0
 20
0.0
 30
0.0
  0
VERTEX
  5
E585
  8
ALPHA
 10
27.219469
 20
86.274038
 30
0.0
  0
VERTEX
  5
E586
  8
ALPHA
 10
27.20171
 20
86.346569
 30
0.0
  0
VERTEX
  5
E587
  8
ALPHA
 10
27.18659
 20
86.409411
 30
0.0
  0
VERTEX
  5
E588
  8
ALPHA
 10
27.175935
 20
86.452416
 30
0.0
  0
VERTEX
  5
E589
  8
ALPHA
 10
27.172145
 20
86.468327
 30
0.0
  0
SEQEND
  5
E58A
  8
ALPHA
  0
POLYLINE
  5
DB34
  8
ALPHA
 66
     1
 10
0.0
 20
0.0
 30
0.0
  0
VERTEX
  5
E58B
  8
ALPHA
 10
31.608739
 20
86.009605
 30
0.0
  0
VERTEX
  5
E58C
  8
ALPHA
 10
31.59528
 20
86.022245
 30
0.0
  0
VERTEX
  5
E58D
  8
ALPHA
 10
31.555651
 20
86.034532
 30
0.0
  0
VERTEX
  5
E58E
  8
ALPHA
 10
31.491956
 20
86.045733
 30
0.0
  0
SEQEND
  5
E58F
  8
ALPHA
  0
LINE
  5
DB35
  8
ALPHA
 10
31.508739
 20
85.69195
 30
0.0
 11
31.508739
 21
86.045733
 31
0.0
  0
LINE
  5
DB36
  8
ALPHA
 10
30.508739
 20
86.99195
 30
0.0
 11
30.508739
 21
85.69195
 31
0.0
  0
LINE
  5
DB37
  8
ALPHA
 10
30.29055
 20
85.173578
 30
0.0
 11
30.29055
 21
86.99195
 31
0.0
  0
LINE
  5
DB38
  8
ALPHA
 10
29.708739
 20
87.100409
 30
0.0
 11
29.708739
 21
83.603502
 31
0.0
  0
LINE
  5
DB39
  8
ALPHA
 10
29.397978
 20
86.719896
 30
0.0
 11
29.397978
 21
85.242253
 31
0.0
  0
LINE
  5
DB3A
  8
ALPHA
 10
30.508739
 20
85.69195
 30
0.0
 11
32.675726
 21
85.69195
 31
0.0
  0
LINE
  5
DB3B
  8
ALPHA
 10
31.680713
 20
85.613924
 30
0.0
 11
30.391744
 21
85.574955
 31
0.0
  0
POLYLINE
  5
DB3C
  8
ALPHA
 66
     1
 10
0.0
 20
0.0
 30
0.0
  0
VERTEX
  5
E590
  8
ALPHA
 10
31.490368
 20
83.973761
 30
0.0
  0
VERTEX
  5
E591
  8
ALPHA
 10
31.181645
 20
84.01415
 30
0.0
  0
VERTEX
  5
E592
  8
ALPHA
 10
30.888812
 20
84.13543
 30
0.0
  0
VERTEX
  5
E593
  8
ALPHA
 10
30.641946
 20
84.325157
 30
0.0
  0
VERTEX
  5
E594
  8
ALPHA
 10
30.452219
 20
84.572023
 30
0.0
  0
VERTEX
  5
E595
  8
ALPHA
 10
30.330939
 20
84.864856
 30
0.0
  0
VERTEX
  5
E596
  8
ALPHA
 10
30.29055
 20
85.173578
 30
0.0
  0
SEQEND
  5
E597
  8
ALPHA
  0
POLYLINE
  5
DB3D
  8
ALPHA
 66
     1
 10
0.0
 20
0.0
 30
0.0
  0
VERTEX
  5
E598
  8
ALPHA
 10
30.391744
 20
85.274772
 30
0.0
  0
VERTEX
  5
E599
  8
ALPHA
 10
30.409885
 20
85.070582
 30
0.0
  0
VERTEX
  5
E59A
  8
ALPHA
 10
30.468529
 20
84.860948
 30
0.0
  0
VERTEX
  5
E59B
  8
ALPHA
 10
30.560775
 20
84.674456
 30
0.0
  0
VERTEX
  5
E59C
  8
ALPHA
 10
30.680172
 20
84.513405
 30
0.0
  0
VERTEX
  5
E59D
  8
ALPHA
 10
30.824047
 20
84.37662
 30
0.0
  0
VERTEX
  5
E59E
  8
ALPHA
 10
30.99079
 20
84.264968
 30
0.0
  0
VERTEX
  5
E59F
  8
ALPHA
 10
31.179983
 20
84.18056
 30
0.0
  0
VERTEX
  5
E5A0
  8
ALPHA
 10
31.392413
 20
84.127337
 30
0.0
  0
VERTEX
  5
E5A1
  8
ALPHA
 10
31.628966
 20
84.11236
 30
0.0
  0
SEQEND
  5
E5A2
  8
ALPHA
  0
POLYLINE
  5
DB3E
  8
ALPHA
 66
     1
 10
0.0
 20
0.0
 30
0.0
  0
VERTEX
  5
E5A3
  8
ALPHA
 10
29.342943
 20
84.96684
 30
0.0
  0
VERTEX
  5
E5A4
  8
ALPHA
 10
29.29454
 20
85.007555
 30
0.0
  0
VERTEX
  5
E5A5
  8
ALPHA
 10
29.245798
 20
85.048077
 30
0.0
  0
SEQEND
  5
E5A6
  8
ALPHA
  0
POLYLINE
  5
DB3F
  8
ALPHA
 66
     1
 10
0.0
 20
0.0
 30
0.0
  0
VERTEX
  5
E5A7
  8
ALPHA
 10
29.499278
 20
85.16199
 30
0.0
  0
VERTEX
  5
E5A8
  8
ALPHA
 10
29.448773
 20
85.202226
 30
0.0
  0
VERTEX
  5
E5A9
  8
ALPHA
 10
29.397978
 20
85.242253
 30
0.0
  0
SEQEND
  5
E5AA
  8
ALPHA
  0
LINE
  5
DB40
  8
ALPHA
 10
30.391744
 20
85.574955
 30
0.0
 11
30.391744
 21
85.274772
 31
0.0
  0
LINE
  5
DB41
  8
ALPHA
 10
29.499278
 20
85.16199
 30
0.0
 11
29.499278
 21
83.551566
 31
0.0
  0
POLYLINE
  5
DB42
  8
ALPHA
 66
     1
 10
0.0
 20
0.0
 30
0.0
  0
VERTEX
  5
E5AB
  8
ALPHA
 10
29.499278
 20
85.16199
 30
0.0
  0
VERTEX
  5
E5AC
  8
ALPHA
 10
29.479348
 20
85.074959
 30
0.0
  0
VERTEX
  5
E5AD
  8
ALPHA
 10
29.423528
 20
85.005281
 30
0.0
  0
VERTEX
  5
E5AE
  8
ALPHA
 10
29.343488
 20
84.967099
 30
0.0
  0
SEQEND
  5
E5AF
  8
ALPHA
  0
POLYLINE
  5
DB43
  8
ALPHA
 66
     1
 10
0.0
 20
0.0
 30
0.0
  0
VERTEX
  5
E5B0
  8
ALPHA
 10
29.397978
 20
85.242252
 30
0.0
  0
VERTEX
  5
E5B1
  8
ALPHA
 10
29.378324
 20
85.155837
 30
0.0
  0
VERTEX
  5
E5B2
  8
ALPHA
 10
29.323294
 20
85.086416
 30
0.0
  0
VERTEX
  5
E5B3
  8
ALPHA
 10
29.245799
 20
85.048077
 30
0.0
  0
SEQEND
  5
E5B4
  8
ALPHA
  0
LINE
  5
DB44
  8
ALPHA
 10
30.29055
 20
85.173578
 30
0.0
 11
30.391744
 21
85.274772
 31
0.0
  0
LINE
  5
DB45
  8
ALPHA
 10
30.508739
 20
85.69195
 30
0.0
 11
30.391744
 21
85.574955
 31
0.0
  0
ARC
  5
DB46
  8
ALPHA
 10
33.108739
 20
85.44195
 30
0.0
 40
0.5
 50
134.87109
 51
150.0
  0
LINE
  5
DB47
  8
ALPHA
 10
31.608739
 20
85.875278
 30
0.0
 11
31.508739
 21
85.887642
 31
0.0
  0
LINE
  5
DB48
  8
ALPHA
 10
31.680713
 20
84.113924
 30
0.0
 11
31.628966
 21
84.11236
 31
0.0
  0
LINE
  5
DB49
  8
ALPHA
 10
32.208739
 20
81.54195
 30
0.0
 11
32.208739
 21
81.330804
 31
0.0
  0
LINE
  5
DB4A
  8
ALPHA
 10
31.758739
 20
85.69195
 30
0.0
 11
31.758739
 21
84.19195
 31
0.0
  0
LINE
  5
DB4B
  8
ALPHA
 10
31.680713
 20
85.613924
 30
0.0
 11
31.680713
 21
84.113924
 31
0.0
  0
LINE
  5
DB4C
  8
ALPHA
 10
31.608739
 20
86.009605
 30
0.0
 11
31.608739
 21
85.791955
 31
0.0
  0
LINE
  5
DB4D
  8
ALPHA
 10
31.758739
 20
84.19195
 30
0.0
 11
31.680713
 21
84.113924
 31
0.0
  0
LINE
  5
DB4E
  8
ALPHA
 10
31.490368
 20
83.973761
 30
0.0
 11
31.628966
 21
84.11236
 31
0.0
  0
LINE
  5
DB4F
  8
ALPHA
 10
31.758739
 20
85.69195
 30
0.0
 11
31.680713
 21
85.613924
 31
0.0
  0
POLYLINE
  5
DB50
  8
ALPHA
 66
     1
 10
0.0
 20
0.0
 30
0.0
  0
VERTEX
  5
E5B5
  8
ALPHA
 10
31.491956
 20
86.045733
 30
0.0
  0
VERTEX
  5
E5B6
  8
ALPHA
 10
31.36393
 20
86.069091
 30
0.0
  0
VERTEX
  5
E5B7
  8
ALPHA
 10
31.284557
 20
86.096714
 30
0.0
  0
VERTEX
  5
E5B8
  8
ALPHA
 10
31.258739
 20
86.126348
 30
0.0
  0
SEQEND
  5
E5B9
  8
ALPHA
  0
POLYLINE
  5
DB51
  8
ALPHA
 66
     1
 10
0.0
 20
0.0
 30
0.0
  0
VERTEX
  5
E5BA
  8
ALPHA
 10
31.258739
 20
86.126348
 30
0.0
  0
VERTEX
  5
E5BB
  8
ALPHA
 10
31.284932
 20
86.157602
 30
0.0
  0
VERTEX
  5
E5BC
  8
ALPHA
 10
31.364271
 20
86.189154
 30
0.0
  0
VERTEX
  5
E5BD
  8
ALPHA
 10
31.492072
 20
86.218249
 30
0.0
  0
SEQEND
  5
E5BE
  8
ALPHA
  0
POLYLINE
  5
DB52
  8
ALPHA
 66
     1
 10
0.0
 20
0.0
 30
0.0
  0
VERTEX
  5
E5BF
  8
ALPHA
 10
29.469453
 20
87.296476
 30
0.0
  0
VERTEX
  5
E5C0
  8
ALPHA
 10
29.557135
 20
87.294447
 30
0.0
  0
VERTEX
  5
E5C1
  8
ALPHA
 10
29.635515
 20
87.255094
 30
0.0
  0
VERTEX
  5
E5C2
  8
ALPHA
 10
29.68951
 20
87.185981
 30
0.0
  0
VERTEX
  5
E5C3
  8
ALPHA
 10
29.708739
 20
87.100409
 30
0.0
  0
SEQEND
  5
E5C4
  8
ALPHA
  0
LINE
  5
DB53
  8
ALPHA
 10
31.258739
 20
86.39195
 30
0.0
 11
31.258739
 21
86.126348
 31
0.0
  0
LINE
  5
DB54
  8
ALPHA
 10
30.608739
 20
86.99195
 30
0.0
 11
30.608739
 21
86.39195
 31
0.0
  0
POLYLINE
  5
DB55
  8
ALPHA
 66
     1
 10
0.0
 20
0.0
 30
0.0
  0
VERTEX
  5
E5C5
  8
ALPHA
 10
29.708739
 20
87.100409
 30
0.0
  0
VERTEX
  5
E5C6
  8
ALPHA
 10
29.605242
 20
86.973961
 30
0.0
  0
VERTEX
  5
E5C7
  8
ALPHA
 10
29.501655
 20
86.847124
 30
0.0
  0
VERTEX
  5
E5C8
  8
ALPHA
 10
29.397978
 20
86.719896
 30
0.0
  0
SEQEND
  5
E5C9
  8
ALPHA
  0
POLYLINE
  5
DB56
  8
ALPHA
 66
     1
 10
0.0
 20
0.0
 30
0.0
  0
VERTEX
  5
E5CA
  8
ALPHA
 10
31.492072
 20
86.218249
 30
0.0
  0
VERTEX
  5
E5CB
  8
ALPHA
 10
31.555575
 20
86.233067
 30
0.0
  0
VERTEX
  5
E5CC
  8
ALPHA
 10
31.595241
 20
86.250079
 30
0.0
  0
VERTEX
  5
E5CD
  8
ALPHA
 10
31.608739
 20
86.268451
 30
0.0
  0
SEQEND
  5
E5CE
  8
ALPHA
  0
LINE
  5
DB58
  8
ALPHA
 10
33.28305
 20
86.99195
 30
0.0
 11
33.28305
 21
86.39195
 31
0.0
  0
LINE
  5
DB59
  8
ALPHA
 10
31.608739
 20
86.268451
 30
0.0
 11
31.608739
 21
86.39195
 31
0.0
  0
LINE
  5
DB5A
  8
ALPHA
 10
31.492072
 20
86.39195
 30
0.0
 11
31.492072
 21
86.218249
 31
0.0
  0
LINE
  5
DB5B
  8
ALPHA
 10
31.403664
 20
86.99195
 30
0.0
 11
31.403664
 21
86.39195
 31
0.0
  0
LINE
  5
DB5C
  8
ALPHA
 10
33.108739
 20
89.54195
 30
0.0
 11
32.49425
 21
88.927461
 31
0.0
  0
LINE
  5
DB5D
  8
ALPHA
 10
40.503502
 20
82.686759
 30
0.0
 11
40.503502
 21
75.587913
 31
0.0
  0
LINE
  5
DB5E
  8
ALPHA
 10
40.441592
 20
75.648532
 30
0.0
 11
40.441592
 21
82.624849
 31
0.0
  0
LINE
  5
DB5F
  8
ALPHA
 10
40.261556
 20
75.648532
 30
0.0
 11
40.261556
 21
82.624849
 31
0.0
  0
LINE
  5
DB60
  8
ALPHA
 10
34.583189
 20
82.571057
 30
0.0
 11
34.583189
 21
75.224043
 31
0.0
  0
LINE
  5
DB61
  8
ALPHA
 10
34.229677
 20
82.571057
 30
0.0
 11
34.229677
 21
75.224043
 31
0.0
  0
LINE
  5
DB62
  8
ALPHA
 10
34.108739
 20
83.973761
 30
0.0
 11
34.108739
 21
75.083467
 31
0.0
  0
ARC
  5
DB63
  8
ALPHA
 10
41.108739
 20
31.19195
 30
0.0
 40
44.105237
 50
91.168039
 51
96.509343
  0
POLYLINE
  5
DB64
  8
ALPHA
 66
     1
 10
0.0
 20
0.0
 30
0.0
  0
VERTEX
  5
E5CF
  8
ALPHA
 10
34.571671
 20
74.92471
 30
0.0
  0
VERTEX
  5
E5D0
  8
ALPHA
 10
35.375511
 20
75.023005
 30
0.0
  0
VERTEX
  5
E5D1
  8
ALPHA
 10
36.376716
 20
75.128925
 30
0.0
  0
VERTEX
  5
E5D2
  8
ALPHA
 10
37.54136
 20
75.227558
 30
0.0
  0
VERTEX
  5
E5D3
  8
ALPHA
 10
38.817095
 20
75.304267
 30
0.0
  0
VERTEX
  5
E5D4
  8
ALPHA
 10
40.147982
 20
75.348826
 30
0.0
  0
SEQEND
  5
E5D5
  8
ALPHA
  0
POLYLINE
  5
DB65
  8
ALPHA
 66
     1
 10
0.0
 20
0.0
 30
0.0
  0
VERTEX
  5
E5D6
  8
ALPHA
 10
34.693065
 20
75.122482
 30
0.0
  0
VERTEX
  5
E5D7
  8
ALPHA
 10
35.48343
 20
75.221456
 30
0.0
  0
VERTEX
  5
E5D8
  8
ALPHA
 10
36.466204
 20
75.327902
 30
0.0
  0
VERTEX
  5
E5D9
  8
ALPHA
 10
37.609038
 20
75.42698
 30
0.0
  0
VERTEX
  5
E5DA
  8
ALPHA
 10
38.860469
 20
75.504007
 30
0.0
  0
VERTEX
  5
E5DB
  8
ALPHA
 10
40.165818
 20
75.548748
 30
0.0
  0
SEQEND
  5
E5DC
  8
ALPHA
  0
LINE
  5
DB66
  8
ALPHA
 10
36.108739
 20
74.039949
 30
0.0
 11
36.108739
 21
75.007586
 31
0.0
  0
ARC
  5
DB67
  8
ALPHA
 10
41.108739
 20
31.19195
 30
0.0
 40
44.1
 50
96.510119
 51
98.679208
  0
POLYLINE
  5
DB68
  8
ALPHA
 66
     1
 10
0.0
 20
0.0
 30
0.0
  0
VERTEX
  5
E5DD
  8
ALPHA
 10
34.453957
 20
74.786948
 30
0.0
  0
VERTEX
  5
E5DE
  8
ALPHA
 10
34.326057
 20
74.795113
 30
0.0
  0
VERTEX
  5
E5DF
  8
ALPHA
 10
34.213242
 20
74.855917
 30
0.0
  0
VERTEX
  5
E5E0
  8
ALPHA
 10
34.136111
 20
74.958265
 30
0.0
  0
VERTEX
  5
E5E1
  8
ALPHA
 10
34.108739
 20
75.083467
 30
0.0
  0
SEQEND
  5
E5E2
  8
ALPHA
  0
LINE
  5
DB69
  8
ALPHA
 10
34.229677
 20
75.224043
 30
0.0
 11
34.583189
 21
75.224043
 31
0.0
  0
POLYLINE
  5
DB6A
  8
ALPHA
 66
     1
 10
0.0
 20
0.0
 30
0.0
  0
VERTEX
  5
E5E3
  8
ALPHA
 10
34.583189
 20
75.224043
 30
0.0
  0
VERTEX
  5
E5E4
  8
ALPHA
 10
34.585836
 20
75.200636
 30
0.0
  0
VERTEX
  5
E5E5
  8
ALPHA
 10
34.594372
 20
75.176861
 30
0.0
  0
VERTEX
  5
E5E6
  8
ALPHA
 10
34.608712
 20
75.155424
 30
0.0
  0
VERTEX
  5
E5E7
  8
ALPHA
 10
34.627549
 20
75.138566
 30
0.0
  0
VERTEX
  5
E5E8
  8
ALPHA
 10
34.649058
 20
75.127423
 30
0.0
  0
VERTEX
  5
E5E9
  8
ALPHA
 10
34.671499
 20
75.122199
 30
0.0
  0
VERTEX
  5
E5EA
  8
ALPHA
 10
34.693065
 20
75.122482
 30
0.0
  0
SEQEND
  5
E5EB
  8
ALPHA
  0
POLYLINE
  5
DB6B
  8
ALPHA
 66
     1
 10
0.0
 20
0.0
 30
0.0
  0
VERTEX
  5
E5EC
  8
ALPHA
 10
34.229707
 20
75.224043
 30
0.0
  0
VERTEX
  5
E5ED
  8
ALPHA
 10
34.237938
 20
75.154091
 30
0.0
  0
VERTEX
  5
E5EE
  8
ALPHA
 10
34.264491
 20
75.083037
 30
0.0
  0
VERTEX
  5
E5EF
  8
ALPHA
 10
34.309235
 20
75.019384
 30
0.0
  0
VERTEX
  5
E5F0
  8
ALPHA
 10
34.367917
 20
74.969755
 30
0.0
  0
VERTEX
  5
E5F1
  8
ALPHA
 10
34.434859
 20
74.937404
 30
0.0
  0
VERTEX
  5
E5F2
  8
ALPHA
 10
34.50464
 20
74.922838
 30
0.0
  0
VERTEX
  5
E5F3
  8
ALPHA
 10
34.571671
 20
74.92471
 30
0.0
  0
SEQEND
  5
E5F4
  8
ALPHA
  0
LINE
  5
DB6C
  8
ALPHA
 10
34.108739
 20
75.083467
 30
0.0
 11
34.229677
 21
75.224043
 31
0.0
  0
LINE
  5
DB6D
  8
ALPHA
 10
34.453957
 20
74.786948
 30
0.0
 11
34.571671
 21
74.92471
 31
0.0
  0
POLYLINE
  5
DB6E
  8
ALPHA
 66
     1
 10
0.0
 20
0.0
 30
0.0
  0
VERTEX
  5
E5F5
  8
ALPHA
 10
34.571671
 20
74.92471
 30
0.0
  0
VERTEX
  5
E5F6
  8
ALPHA
 10
34.637178
 20
74.958658
 30
0.0
  0
VERTEX
  5
E5F7
  8
ALPHA
 10
34.68098
 20
75.030013
 30
0.0
  0
VERTEX
  5
E5F8
  8
ALPHA
 10
34.693075
 20
75.122482
 30
0.0
  0
SEQEND
  5
E5F9
  8
ALPHA
  0
LINE
  5
DB6F
  8
ALPHA
 10
39.858739
 20
70.04195
 30
0.0
 11
39.358739
 21
70.04195
 31
0.0
  0
LINE
  5
DB70
  8
ALPHA
 10
38.671239
 20
73.04195
 30
0.0
 11
39.608739
 21
70.361099
 31
0.0
  0
LINE
  5
DB71
  8
ALPHA
 10
38.108739
 20
73.04195
 30
0.0
 11
38.671239
 21
73.04195
 31
0.0
  0
LINE
  5
DB72
  8
ALPHA
 10
38.483739
 20
70.04195
 30
0.0
 11
38.108739
 21
70.04195
 31
0.0
  0
LINE
  5
DB73
  8
ALPHA
 10
39.358739
 20
70.04195
 30
0.0
 11
38.483739
 21
72.403652
 31
0.0
  0
LINE
  5
DB74
  8
ALPHA
 10
38.483739
 20
72.403652
 30
0.0
 11
38.483739
 21
70.04195
 31
0.0
  0
LINE
  5
DB75
  8
ALPHA
 10
38.108739
 20
70.04195
 30
0.0
 11
38.108739
 21
73.04195
 31
0.0
  0
LINE
  5
DB76
  8
ALPHA
 10
40.546239
 20
73.04195
 30
0.0
 11
41.108739
 21
73.04195
 31
0.0
  0
LINE
  5
DB77
  8
ALPHA
 10
41.108739
 20
70.04195
 30
0.0
 11
40.733739
 21
70.04195
 31
0.0
  0
LINE
  5
DB78
  8
ALPHA
 10
41.108739
 20
73.04195
 30
0.0
 11
41.108739
 21
70.04195
 31
0.0
  0
LINE
  5
DB79
  8
ALPHA
 10
40.733739
 20
70.04195
 30
0.0
 11
40.733739
 21
72.403652
 31
0.0
  0
LINE
  5
DB7A
  8
ALPHA
 10
40.733739
 20
72.403652
 30
0.0
 11
39.858739
 21
70.04195
 31
0.0
  0
LINE
  5
DB7B
  8
ALPHA
 10
39.608739
 20
70.361099
 30
0.0
 11
40.546239
 21
73.04195
 31
0.0
  0
LINE
  5
DB7C
  8
ALPHA
 10
40.441592
 20
75.648532
 30
0.0
 11
40.261556
 21
75.648532
 31
0.0
  0
POLYLINE
  5
DB7D
  8
ALPHA
 66
     1
 10
0.0
 20
0.0
 30
0.0
  0
VERTEX
  5
E5FA
  8
ALPHA
 10
40.147982
 20
75.348829
 30
0.0
  0
VERTEX
  5
E5FB
  8
ALPHA
 10
40.234527
 20
75.36351
 30
0.0
  0
VERTEX
  5
E5FC
  8
ALPHA
 10
40.317567
 20
75.405747
 30
0.0
  0
VERTEX
  5
E5FD
  8
ALPHA
 10
40.385044
 20
75.473368
 30
0.0
  0
VERTEX
  5
E5FE
  8
ALPHA
 10
40.427714
 20
75.558471
 30
0.0
  0
VERTEX
  5
E5FF
  8
ALPHA
 10
40.441585
 20
75.648532
 30
0.0
  0
SEQEND
  5
E600
  8
ALPHA
  0
POLYLINE
  5
DB7E
  8
ALPHA
 66
     1
 10
0.0
 20
0.0
 30
0.0
  0
VERTEX
  5
E601
  8
ALPHA
 10
40.165818
 20
75.548748
 30
0.0
  0
VERTEX
  5
E602
  8
ALPHA
 10
40.194007
 20
75.55359
 30
0.0
  0
VERTEX
  5
E603
  8
ALPHA
 10
40.221113
 20
75.567636
 30
0.0
  0
VERTEX
  5
E604
  8
ALPHA
 10
40.243163
 20
75.590211
 30
0.0
  0
VERTEX
  5
E605
  8
ALPHA
 10
40.257055
 20
75.618573
 30
0.0
  0
VERTEX
  5
E606
  8
ALPHA
 10
40.261556
 20
75.648532
 30
0.0
  0
SEQEND
  5
E607
  8
ALPHA
  0
LINE
  5
DB7F
  8
ALPHA
 10
40.209662
 20
75.288021
 30
0.0
 11
40.147982
 21
75.348826
 31
0.0
  0
LINE
  5
DB80
  8
ALPHA
 10
40.503502
 20
75.587913
 30
0.0
 11
40.441592
 21
75.648532
 31
0.0
  0
POLYLINE
  5
DB81
  8
ALPHA
 66
     1
 10
0.0
 20
0.0
 30
0.0
  0
VERTEX
  5
E608
  8
ALPHA
 10
40.503502
 20
75.587913
 30
0.0
  0
VERTEX
  5
E609
  8
ALPHA
 10
40.481254
 20
75.474537
 30
0.0
  0
VERTEX
  5
E60A
  8
ALPHA
 10
40.417804
 20
75.377981
 30
0.0
  0
VERTEX
  5
E60B
  8
ALPHA
 10
40.322562
 20
75.312576
 30
0.0
  0
VERTEX
  5
E60C
  8
ALPHA
 10
40.209666
 20
75.288022
 30
0.0
  0
SEQEND
  5
E60D
  8
ALPHA
  0
POLYLINE
  5
DB82
  8
ALPHA
 66
     1
 10
0.0
 20
0.0
 30
0.0
  0
VERTEX
  5
E60E
  8
ALPHA
 10
40.147982
 20
75.348829
 30
0.0
  0
VERTEX
  5
E60F
  8
ALPHA
 10
40.158339
 20
75.376911
 30
0.0
  0
VERTEX
  5
E610
  8
ALPHA
 10
40.164852
 20
75.449912
 30
0.0
  0
VERTEX
  5
E611
  8
ALPHA
 10
40.165818
 20
75.548748
 30
0.0
  0
SEQEND
  5
E612
  8
ALPHA
  0
LINE
  5
DB83
  8
ALPHA
 10
40.163659
 20
86.79195
 30
0.0
 11
36.708739
 21
86.79195
 31
0.0
  0
POLYLINE
  5
DB84
  8
ALPHA
 66
     1
 10
0.0
 20
0.0
 30
0.0
  0
VERTEX
  5
E613
  8
ALPHA
 10
36.708739
 20
84.26205
 30
0.0
  0
VERTEX
  5
E614
  8
ALPHA
 10
37.800038
 20
84.252099
 30
0.0
  0
VERTEX
  5
E615
  8
ALPHA
 10
38.95967
 20
84.245055
 30
0.0
  0
VERTEX
  5
E616
  8
ALPHA
 10
40.163689
 20
84.241062
 30
0.0
  0
SEQEND
  5
E617
  8
ALPHA
  0
POLYLINE
  5
DB85
  8
ALPHA
 66
     1
 10
0.0
 20
0.0
 30
0.0
  0
VERTEX
  5
E618
  8
ALPHA
 10
36.708739
 20
84.061005
 30
0.0
  0
VERTEX
  5
E619
  8
ALPHA
 10
37.795895
 20
84.051592
 30
0.0
  0
VERTEX
  5
E61A
  8
ALPHA
 10
38.947288
 20
84.044913
 30
0.0
  0
VERTEX
  5
E61B
  8
ALPHA
 10
40.141453
 20
84.041093
 30
0.0
  0
SEQEND
  5
E61C
  8
ALPHA
  0
LINE
  5
DB86
  8
ALPHA
 10
40.203548
 20
83.978998
 30
0.0
 11
34.113975
 21
83.978998
 31
0.0
  0
LINE
  5
DB87
  8
ALPHA
 10
34.413929
 20
82.986713
 30
0.0
 11
40.203548
 21
82.986713
 31
0.0
  0
POLYLINE
  5
DB88
  8
ALPHA
 66
     1
 10
0.0
 20
0.0
 30
0.0
  0
VERTEX
  5
E61D
  8
ALPHA
 10
40.141453
 20
82.924618
 30
0.0
  0
VERTEX
  5
E61E
  8
ALPHA
 10
39.656205
 20
82.923428
 30
0.0
  0
VERTEX
  5
E61F
  8
ALPHA
 10
39.14442
 20
82.921638
 30
0.0
  0
VERTEX
  5
E620
  8
ALPHA
 10
38.597727
 20
82.919097
 30
0.0
  0
VERTEX
  5
E621
  8
ALPHA
 10
38.010479
 20
82.915603
 30
0.0
  0
VERTEX
  5
E622
  8
ALPHA
 10
37.379788
 20
82.910903
 30
0.0
  0
VERTEX
  5
E623
  8
ALPHA
 10
36.706691
 20
82.904685
 30
0.0
  0
VERTEX
  5
E624
  8
ALPHA
 10
35.997801
 20
82.896592
 30
0.0
  0
VERTEX
  5
E625
  8
ALPHA
 10
35.265602
 20
82.886211
 30
0.0
  0
VERTEX
  5
E626
  8
ALPHA
 10
34.527619
 20
82.873024
 30
0.0
  0
SEQEND
  5
E627
  8
ALPHA
  0
POLYLINE
  5
DB89
  8
ALPHA
 66
     1
 10
0.0
 20
0.0
 30
0.0
  0
VERTEX
  5
E628
  8
ALPHA
 10
40.163689
 20
82.724648
 30
0.0
  0
VERTEX
  5
E629
  8
ALPHA
 10
39.689504
 20
82.723458
 30
0.0
  0
VERTEX
  5
E62A
  8
ALPHA
 10
39.189535
 20
82.721668
 30
0.0
  0
VERTEX
  5
E62B
  8
ALPHA
 10
38.655469
 20
82.719127
 30
0.0
  0
VERTEX
  5
E62C
  8
ALPHA
 10
38.081804
 20
82.715635
 30
0.0
  0
VERTEX
  5
E62D
  8
ALPHA
 10
37.465746
 20
82.710936
 30
0.0
  0
VERTEX
  5
E62E
  8
ALPHA
 10
36.808301
 20
82.70472
 30
0.0
  0
VERTEX
  5
E62F
  8
ALPHA
 10
36.115905
 20
82.696631
 30
0.0
  0
VERTEX
  5
E630
  8
ALPHA
 10
35.400747
 20
82.686255
 30
0.0
  0
VERTEX
  5
E631
  8
ALPHA
 10
34.678909
 20
82.673054
 30
0.0
  0
SEQEND
  5
E632
  8
ALPHA
  0
POLYLINE
  5
DB8A
  8
ALPHA
 66
     1
 10
0.0
 20
0.0
 30
0.0
  0
VERTEX
  5
E633
  8
ALPHA
 10
35.125615
 20
85.892234
 30
0.0
  0
VERTEX
  5
E634
  8
ALPHA
 10
34.603186
 20
85.964127
 30
0.0
  0
VERTEX
  5
E635
  8
ALPHA
 10
34.199525
 20
86.063435
 30
0.0
  0
VERTEX
  5
E636
  8
ALPHA
 10
33.924004
 20
86.192458
 30
0.0
  0
VERTEX
  5
E637
  8
ALPHA
 10
33.782519
 20
86.35145
 30
0.0
  0
SEQEND
  5
E638
  8
ALPHA
  0
LINE
  5
DB8B
  8
ALPHA
 10
36.708739
 20
84.061005
 30
0.0
 11
36.708739
 21
86.99195
 31
0.0
  0
LINE
  5
DB8C
  8
ALPHA
 10
36.608739
 20
86.581615
 30
0.0
 11
36.608739
 21
85.984599
 31
0.0
  0
LINE
  5
DB8D
  8
ALPHA
 10
35.408739
 20
86.505201
 30
0.0
 11
35.408739
 21
85.791949
 31
0.0
  0
LINE
  5
DB8E
  8
ALPHA
 10
35.125631
 20
85.892232
 30
0.0
 11
35.408739
 21
86.106389
 31
0.0
  0
POLYLINE
  5
DB8F
  8
ALPHA
 66
     1
 10
0.0
 20
0.0
 30
0.0
  0
VERTEX
  5
E639
  8
ALPHA
 10
35.408739
 20
85.86689
 30
0.0
  0
VERTEX
  5
E63A
  8
ALPHA
 10
35.264551
 20
85.878914
 30
0.0
  0
VERTEX
  5
E63B
  8
ALPHA
 10
35.125615
 20
85.892234
 30
0.0
  0
SEQEND
  5
E63C
  8
ALPHA
  0
POLYLINE
  5
DB90
  8
ALPHA
 66
     1
 10
0.0
 20
0.0
 30
0.0
  0
VERTEX
  5
E63D
  8
ALPHA
 10
34.24721
 20
85.629058
 30
0.0
  0
VERTEX
  5
E63E
  8
ALPHA
 10
34.912673
 20
85.610692
 30
0.0
  0
VERTEX
  5
E63F
  8
ALPHA
 10
35.743982
 20
85.594323
 30
0.0
  0
VERTEX
  5
E640
  8
ALPHA
 10
36.708739
 20
85.580589
 30
0.0
  0
SEQEND
  5
E641
  8
ALPHA
  0
POLYLINE
  5
DB91
  8
ALPHA
 66
     1
 10
0.0
 20
0.0
 30
0.0
  0
VERTEX
  5
E642
  8
ALPHA
 10
36.708739
 20
84.080589
 30
0.0
  0
VERTEX
  5
E643
  8
ALPHA
 10
35.743982
 20
84.094323
 30
0.0
  0
VERTEX
  5
E644
  8
ALPHA
 10
34.912673
 20
84.110692
 30
0.0
  0
VERTEX
  5
E645
  8
ALPHA
 10
34.24721
 20
84.129058
 30
0.0
  0
VERTEX
  5
E646
  8
ALPHA
 10
33.758809
 20
84.149048
 30
0.0
  0
VERTEX
  5
E647
  8
ALPHA
 10
33.45875
 20
84.170287
 30
0.0
  0
VERTEX
  5
E648
  8
ALPHA
 10
33.358739
 20
84.19195
 30
0.0
  0
SEQEND
  5
E649
  8
ALPHA
  0
POLYLINE
  5
DB92
  8
ALPHA
 66
     1
 10
0.0
 20
0.0
 30
0.0
  0
VERTEX
  5
E64A
  8
ALPHA
 10
34.708739
 20
85.69195
 30
0.0
  0
VERTEX
  5
E64B
  8
ALPHA
 10
34.792972
 20
85.673885
 30
0.0
  0
VERTEX
  5
E64C
  8
ALPHA
 10
35.044553
 20
85.656238
 30
0.0
  0
VERTEX
  5
E64D
  8
ALPHA
 10
35.453964
 20
85.639632
 30
0.0
  0
VERTEX
  5
E64E
  8
ALPHA
 10
36.015142
 20
85.624312
 30
0.0
  0
VERTEX
  5
E64F
  8
ALPHA
 10
36.708739
 20
85.610826
 30
0.0
  0
SEQEND
  5
E650
  8
ALPHA
  0
ARC
  5
DB93
  8
ALPHA
 10
33.108739
 20
85.44195
 30
0.0
 40
0.5
 50
30.0
 51
45.12891
  0
POLYLINE
  5
DB94
  8
ALPHA
 66
     1
 10
0.0
 20
0.0
 30
0.0
  0
VERTEX
  5
E651
  8
ALPHA
 10
33.45875
 20
85.670287
 30
0.0
  0
VERTEX
  5
E652
  8
ALPHA
 10
33.758809
 20
85.649048
 30
0.0
  0
VERTEX
  5
E653
  8
ALPHA
 10
34.24721
 20
85.629058
 30
0.0
  0
SEQEND
  5
E654
  8
ALPHA
  0
LINE
  5
DB95
  8
ALPHA
 10
33.358739
 20
85.69195
 30
0.0
 11
34.708739
 21
85.69195
 31
0.0
  0
LINE
  5
DB96
  8
ALPHA
 10
33.358739
 20
85.69195
 30
0.0
 11
33.45875
 21
85.670287
 31
0.0
  0
LINE
  5
DB97
  8
ALPHA
 10
34.229677
 20
82.571057
 30
0.0
 11
34.583189
 21
82.571057
 31
0.0
  0
POLYLINE
  5
DB98
  8
ALPHA
 66
     1
 10
0.0
 20
0.0
 30
0.0
  0
VERTEX
  5
E655
  8
ALPHA
 10
34.527619
 20
82.873024
 30
0.0
  0
VERTEX
  5
E656
  8
ALPHA
 10
34.45749
 20
82.864117
 30
0.0
  0
VERTEX
  5
E657
  8
ALPHA
 10
34.386689
 20
82.836381
 30
0.0
  0
VERTEX
  5
E658
  8
ALPHA
 10
34.322257
 20
82.788977
 30
0.0
  0
VERTEX
  5
E659
  8
ALPHA
 10
34.271161
 20
82.723968
 30
0.0
  0
VERTEX
  5
E65A
  8
ALPHA
 10
34.239581
 20
82.64778
 30
0.0
  0
VERTEX
  5
E65B
  8
ALPHA
 10
34.229677
 20
82.571057
 30
0.0
  0
SEQEND
  5
E65C
  8
ALPHA
  0
POLYLINE
  5
DB99
  8
ALPHA
 66
     1
 10
0.0
 20
0.0
 30
0.0
  0
VERTEX
  5
E65D
  8
ALPHA
 10
34.678909
 20
82.673054
 30
0.0
  0
VERTEX
  5
E65E
  8
ALPHA
 10
34.656354
 20
82.669773
 30
0.0
  0
VERTEX
  5
E65F
  8
ALPHA
 10
34.6336
 20
82.660207
 30
0.0
  0
VERTEX
  5
E660
  8
ALPHA
 10
34.61291
 20
82.644118
 30
0.0
  0
VERTEX
  5
E661
  8
ALPHA
 10
34.596513
 20
82.622232
 30
0.0
  0
VERTEX
  5
E662
  8
ALPHA
 10
34.586378
 20
82.596704
 30
0.0
  0
VERTEX
  5
E663
  8
ALPHA
 10
34.583189
 20
82.571057
 30
0.0
  0
SEQEND
  5
E664
  8
ALPHA
  0
POLYLINE
  5
DB9A
  8
ALPHA
 66
     1
 10
0.0
 20
0.0
 30
0.0
  0
VERTEX
  5
E665
  8
ALPHA
 10
34.527619
 20
82.873025
 30
0.0
  0
VERTEX
  5
E666
  8
ALPHA
 10
34.602769
 20
82.84548
 30
0.0
  0
VERTEX
  5
E667
  8
ALPHA
 10
34.658069
 20
82.772387
 30
0.0
  0
VERTEX
  5
E668
  8
ALPHA
 10
34.678909
 20
82.673054
 30
0.0
  0
SEQEND
  5
E669
  8
ALPHA
  0
LINE
  5
DB9B
  8
ALPHA
 10
34.413929
 20
82.986713
 30
0.0
 11
34.527619
 21
82.873024
 31
0.0
  0
LINE
  5
DB9C
  8
ALPHA
 10
34.113975
 20
82.686759
 30
0.0
 11
34.229677
 21
82.571057
 31
0.0
  0
LINE
  5
DB9D
  8
ALPHA
 10
34.113975
 20
82.686759
 30
0.0
 11
34.113975
 21
83.978998
 31
0.0
  0
LINE
  5
DB9E
  8
ALPHA
 10
33.358739
 20
85.69195
 30
0.0
 11
33.358739
 21
84.19195
 31
0.0
  0
POLYLINE
  5
DB9F
  8
ALPHA
 66
     1
 10
0.0
 20
0.0
 30
0.0
  0
VERTEX
  5
E66A
  8
ALPHA
 10
34.113975
 20
82.686759
 30
0.0
  0
VERTEX
  5
E66B
  8
ALPHA
 10
34.136804
 20
82.801549
 30
0.0
  0
VERTEX
  5
E66C
  8
ALPHA
 10
34.201824
 20
82.898864
 30
0.0
  0
VERTEX
  5
E66D
  8
ALPHA
 10
34.299139
 20
82.963884
 30
0.0
  0
VERTEX
  5
E66E
  8
ALPHA
 10
34.413929
 20
82.986713
 30
0.0
  0
SEQEND
  5
E66F
  8
ALPHA
  0
LINE
  5
DBA0
  8
ALPHA
 10
34.113975
 20
83.978998
 30
0.0
 11
34.108739
 21
83.973761
 31
0.0
  0
POLYLINE
  5
DBA1
  8
ALPHA
 66
     1
 10
0.0
 20
0.0
 30
0.0
  0
VERTEX
  5
E670
  8
ALPHA
 10
35.427446
 20
85.798246
 30
0.0
  0
VERTEX
  5
E671
  8
ALPHA
 10
35.458003
 20
85.806574
 30
0.0
  0
VERTEX
  5
E672
  8
ALPHA
 10
35.605913
 20
85.834467
 30
0.0
  0
VERTEX
  5
E673
  8
ALPHA
 10
35.849142
 20
85.875075
 30
0.0
  0
VERTEX
  5
E674
  8
ALPHA
 10
36.185929
 20
85.926296
 30
0.0
  0
VERTEX
  5
E675
  8
ALPHA
 10
36.608739
 20
85.984599
 30
0.0
  0
SEQEND
  5
E676
  8
ALPHA
  0
LINE
  5
DBA2
  8
ALPHA
 10
34.700087
 20
86.84195
 30
0.0
 11
36.708739
 21
86.84195
 31
0.0
  0
POLYLINE
  5
DBA3
  8
ALPHA
 66
     1
 10
0.0
 20
0.0
 30
0.0
  0
VERTEX
  5
E677
  8
ALPHA
 10
34.127381
 20
86.554024
 30
0.0
  0
VERTEX
  5
E678
  8
ALPHA
 10
34.262906
 20
86.400613
 30
0.0
  0
VERTEX
  5
E679
  8
ALPHA
 10
34.523822
 20
86.276459
 30
0.0
  0
VERTEX
  5
E67A
  8
ALPHA
 10
34.906402
 20
86.179207
 30
0.0
  0
VERTEX
  5
E67B
  8
ALPHA
 10
35.408739
 20
86.106389
 30
0.0
  0
SEQEND
  5
E67C
  8
ALPHA
  0
POLYLINE
  5
DBA4
  8
ALPHA
 66
     1
 10
0.0
 20
0.0
 30
0.0
  0
VERTEX
  5
E67D
  8
ALPHA
 10
34.127381
 20
86.948189
 30
0.0
  0
VERTEX
  5
E67E
  8
ALPHA
 10
34.261715
 20
86.797192
 30
0.0
  0
VERTEX
  5
E67F
  8
ALPHA
 10
34.523432
 20
86.673638
 30
0.0
  0
VERTEX
  5
E680
  8
ALPHA
 10
34.908974
 20
86.576777
 30
0.0
  0
VERTEX
  5
E681
  8
ALPHA
 10
35.408739
 20
86.505201
 30
0.0
  0
SEQEND
  5
E682
  8
ALPHA
  0
ARC
  5
DBA5
  8
ALPHA
 10
34.700087
 20
87.34195
 30
0.0
 40
0.5
 50
224.532775
 51
270.0
  0
LINE
  5
DBA6
  8
ALPHA
 10
34.127381
 20
86.948189
 30
0.0
 11
34.398763
 21
86.948189
 31
0.0
  0
POLYLINE
  5
DBA7
  8
ALPHA
 66
     1
 10
0.0
 20
0.0
 30
0.0
  0
VERTEX
  5
E683
  8
ALPHA
 10
33.782519
 20
86.35145
 30
0.0
  0
VERTEX
  5
E684
  8
ALPHA
 10
33.780739
 20
86.354333
 30
0.0
  0
VERTEX
  5
E685
  8
ALPHA
 10
33.77936
 20
86.356941
 30
0.0
  0
SEQEND
  5
E686
  8
ALPHA
  0
LINE
  5
DBA8
  8
ALPHA
 10
33.77936
 20
86.356941
 30
0.0
 11
33.762328
 21
86.39195
 31
0.0
  0
LINE
  5
DBA9
  8
ALPHA
 10
34.108739
 20
86.59195
 30
0.0
 11
34.127381
 21
86.554024
 31
0.0
  0
LINE
  5
DBAA
  8
ALPHA
 10
34.108739
 20
86.99195
 30
0.0
 11
34.127381
 21
86.948189
 31
0.0
  0
LINE
  5
DBAB
  8
ALPHA
 10
34.127381
 20
86.948189
 30
0.0
 11
34.127381
 21
86.554024
 31
0.0
  0
LINE
  5
DBAC
  8
ALPHA
 10
34.108739
 20
86.59195
 30
0.0
 11
34.108739
 21
86.99195
 31
0.0
  0
LINE
  5
DBAD
  8
ALPHA
 10
33.908739
 20
86.47648
 30
0.0
 11
33.908739
 21
86.99195
 31
0.0
  0
LINE
  5
DBAE
  8
ALPHA
 10
33.762328
 20
86.39195
 30
0.0
 11
34.108739
 21
86.59195
 31
0.0
  0
LINE
  5
DBAF
  8
ALPHA
 10
33.93071
 20
86.438963
 30
0.0
 11
34.127381
 21
86.554024
 31
0.0
  0
LINE
  5
DBB0
  8
ALPHA
 10
33.782296
 20
86.351724
 30
0.0
 11
33.93071
 21
86.438963
 31
0.0
  0
POLYLINE
  5
DBB1
  8
ALPHA
 66
     1
 10
0.0
 20
0.0
 30
0.0
  0
VERTEX
  5
E687
  8
ALPHA
 10
35.408739
 20
86.39313
 30
0.0
  0
VERTEX
  5
E688
  8
ALPHA
 10
35.458003
 20
86.406347
 30
0.0
  0
VERTEX
  5
E689
  8
ALPHA
 10
35.605913
 20
86.433808
 30
0.0
  0
VERTEX
  5
E68A
  8
ALPHA
 10
35.849142
 20
86.473788
 30
0.0
  0
VERTEX
  5
E68B
  8
ALPHA
 10
36.185929
 20
86.524215
 30
0.0
  0
VERTEX
  5
E68C
  8
ALPHA
 10
36.608739
 20
86.581615
 30
0.0
  0
SEQEND
  5
E68D
  8
ALPHA
  0
LINE
  5
DBB2
  8
ALPHA
 10
36.708739
 20
86.39195
 30
0.0
 11
36.608739
 21
86.39195
 31
0.0
  0
LINE
  5
DBB3
  8
ALPHA
 10
36.608739
 20
86.09195
 30
0.0
 11
36.708739
 21
86.09195
 31
0.0
  0
LINE
  5
DBB4
  8
ALPHA
 10
36.608739
 20
86.581615
 30
0.0
 11
36.608739
 21
86.84195
 31
0.0
  0
LINE
  5
DBB5
  8
ALPHA
 10
36.108739
 20
86.99195
 30
0.0
 11
36.108739
 21
89.334261
 31
0.0
  0
LINE
  5
DBB6
  8
ALPHA
 10
40.503502
 20
86.69195
 30
0.0
 11
40.503502
 21
84.278952
 31
0.0
  0
LINE
  5
DBB7
  8
ALPHA
 10
40.441592
 20
84.340862
 30
0.0
 11
40.441592
 21
86.69195
 31
0.0
  0
LINE
  5
DBB8
  8
ALPHA
 10
40.261556
 20
84.340862
 30
0.0
 11
40.261556
 21
86.69195
 31
0.0
  0
LINE
  5
DBB9
  8
ALPHA
 10
40.441592
 20
84.340862
 30
0.0
 11
40.261556
 21
84.340862
 31
0.0
  0
POLYLINE
  5
DBBA
  8
ALPHA
 66
     1
 10
0.0
 20
0.0
 30
0.0
  0
VERTEX
  5
E68E
  8
ALPHA
 10
40.163689
 20
84.241062
 30
0.0
  0
VERTEX
  5
E68F
  8
ALPHA
 10
40.192509
 20
84.245442
 30
0.0
  0
VERTEX
  5
E690
  8
ALPHA
 10
40.220308
 20
84.25938
 30
0.0
  0
VERTEX
  5
E691
  8
ALPHA
 10
40.242906
 20
84.282177
 30
0.0
  0
VERTEX
  5
E692
  8
ALPHA
 10
40.257054
 20
84.310892
 30
0.0
  0
VERTEX
  5
E693
  8
ALPHA
 10
40.261556
 20
84.340862
 30
0.0
  0
SEQEND
  5
E694
  8
ALPHA
  0
POLYLINE
  5
DBBB
  8
ALPHA
 66
     1
 10
0.0
 20
0.0
 30
0.0
  0
VERTEX
  5
E695
  8
ALPHA
 10
40.203548
 20
82.986713
 30
0.0
  0
VERTEX
  5
E696
  8
ALPHA
 10
40.318338
 20
82.963884
 30
0.0
  0
VERTEX
  5
E697
  8
ALPHA
 10
40.415653
 20
82.898864
 30
0.0
  0
VERTEX
  5
E698
  8
ALPHA
 10
40.480673
 20
82.801549
 30
0.0
  0
VERTEX
  5
E699
  8
ALPHA
 10
40.503502
 20
82.686759
 30
0.0
  0
SEQEND
  5
E69A
  8
ALPHA
  0
LINE
  5
DBBC
  8
ALPHA
 10
40.441592
 20
82.624849
 30
0.0
 11
40.261556
 21
82.624849
 31
0.0
  0
POLYLINE
  5
DBBD
  8
ALPHA
 66
     1
 10
0.0
 20
0.0
 30
0.0
  0
VERTEX
  5
E69B
  8
ALPHA
 10
40.141453
 20
84.041093
 30
0.0
  0
VERTEX
  5
E69C
  8
ALPHA
 10
40.230023
 20
84.05441
 30
0.0
  0
VERTEX
  5
E69D
  8
ALPHA
 10
40.315302
 20
84.096455
 30
0.0
  0
VERTEX
  5
E69E
  8
ALPHA
 10
40.384421
 20
84.164836
 30
0.0
  0
VERTEX
  5
E69F
  8
ALPHA
 10
40.427741
 20
84.250851
 30
0.0
  0
VERTEX
  5
E6A0
  8
ALPHA
 10
40.441592
 20
84.340862
 30
0.0
  0
SEQEND
  5
E6A1
  8
ALPHA
  0
LINE
  5
DBBE
  8
ALPHA
 10
40.441592
 20
84.340862
 30
0.0
 11
40.503502
 21
84.278952
 31
0.0
  0
LINE
  5
DBBF
  8
ALPHA
 10
40.141453
 20
84.041093
 30
0.0
 11
40.203548
 21
83.978998
 31
0.0
  0
POLYLINE
  5
DBC0
  8
ALPHA
 66
     1
 10
0.0
 20
0.0
 30
0.0
  0
VERTEX
  5
E6A2
  8
ALPHA
 10
40.141453
 20
82.924618
 30
0.0
  0
VERTEX
  5
E6A3
  8
ALPHA
 10
40.152461
 20
82.896685
 30
0.0
  0
VERTEX
  5
E6A4
  8
ALPHA
 10
40.160583
 20
82.823645
 30
0.0
  0
VERTEX
  5
E6A5
  8
ALPHA
 10
40.163689
 20
82.724648
 30
0.0
  0
SEQEND
  5
E6A6
  8
ALPHA
  0
POLYLINE
  5
DBC1
  8
ALPHA
 66
     1
 10
0.0
 20
0.0
 30
0.0
  0
VERTEX
  5
E6A7
  8
ALPHA
 10
40.441592
 20
82.624849
 30
0.0
  0
VERTEX
  5
E6A8
  8
ALPHA
 10
40.427447
 20
82.715786
 30
0.0
  0
VERTEX
  5
E6A9
  8
ALPHA
 10
40.383605
 20
82.801993
 30
0.0
  0
VERTEX
  5
E6AA
  8
ALPHA
 10
40.314178
 20
82.870049
 30
0.0
  0
VERTEX
  5
E6AB
  8
ALPHA
 10
40.229136
 20
82.911572
 30
0.0
  0
VERTEX
  5
E6AC
  8
ALPHA
 10
40.141453
 20
82.924618
 30
0.0
  0
SEQEND
  5
E6AD
  8
ALPHA
  0
POLYLINE
  5
DBC2
  8
ALPHA
 66
     1
 10
0.0
 20
0.0
 30
0.0
  0
VERTEX
  5
E6AE
  8
ALPHA
 10
40.261556
 20
82.624849
 30
0.0
  0
VERTEX
  5
E6AF
  8
ALPHA
 10
40.256967
 20
82.655092
 30
0.0
  0
VERTEX
  5
E6B0
  8
ALPHA
 10
40.242698
 20
82.683825
 30
0.0
  0
VERTEX
  5
E6B1
  8
ALPHA
 10
40.220005
 20
82.70655
 30
0.0
  0
VERTEX
  5
E6B2
  8
ALPHA
 10
40.192242
 20
82.720354
 30
0.0
  0
VERTEX
  5
E6B3
  8
ALPHA
 10
40.163689
 20
82.724648
 30
0.0
  0
SEQEND
  5
E6B4
  8
ALPHA
  0
POLYLINE
  5
DBC3
  8
ALPHA
 66
     1
 10
0.0
 20
0.0
 30
0.0
  0
VERTEX
  5
E6B5
  8
ALPHA
 10
40.503502
 20
84.278952
 30
0.0
  0
VERTEX
  5
E6B6
  8
ALPHA
 10
40.480673
 20
84.164162
 30
0.0
  0
VERTEX
  5
E6B7
  8
ALPHA
 10
40.415653
 20
84.066847
 30
0.0
  0
VERTEX
  5
E6B8
  8
ALPHA
 10
40.318338
 20
84.001827
 30
0.0
  0
VERTEX
  5
E6B9
  8
ALPHA
 10
40.203548
 20
83.978998
 30
0.0
  0
SEQEND
  5
E6BA
  8
ALPHA
  0
POLYLINE
  5
DBC4
  8
ALPHA
 66
     1
 10
0.0
 20
0.0
 30
0.0
  0
VERTEX
  5
E6BB
  8
ALPHA
 10
40.141453
 20
84.041098
 30
0.0
  0
VERTEX
  5
E6BC
  8
ALPHA
 10
40.152461
 20
84.06903
 30
0.0
  0
VERTEX
  5
E6BD
  8
ALPHA
 10
40.160583
 20
84.142068
 30
0.0
  0
VERTEX
  5
E6BE
  8
ALPHA
 10
40.163689
 20
84.241062
 30
0.0
  0
SEQEND
  5
E6BF
  8
ALPHA
  0
LINE
  5
DBC5
  8
ALPHA
 10
40.441592
 20
82.624849
 30
0.0
 11
40.503502
 21
82.686759
 31
0.0
  0
LINE
  5
DBC6
  8
ALPHA
 10
40.141453
 20
82.924618
 30
0.0
 11
40.203548
 21
82.986713
 31
0.0
  0
LINE
  5
DBC8
  8
ALPHA
 10
40.503502
 20
86.69195
 30
0.0
 11
40.261556
 21
86.69195
 31
0.0
  0
POLYLINE
  5
DBC9
  8
ALPHA
 66
     1
 10
0.0
 20
0.0
 30
0.0
  0
VERTEX
  5
E6C0
  8
ALPHA
 10
40.203456
 20
86.99195
 30
0.0
  0
VERTEX
  5
E6C1
  8
ALPHA
 10
40.318285
 20
86.969111
 30
0.0
  0
VERTEX
  5
E6C2
  8
ALPHA
 10
40.415625
 20
86.904077
 30
0.0
  0
VERTEX
  5
E6C3
  8
ALPHA
 10
40.480665
 20
86.806749
 30
0.0
  0
VERTEX
  5
E6C4
  8
ALPHA
 10
40.503502
 20
86.69195
 30
0.0
  0
SEQEND
  5
E6C5
  8
ALPHA
  0
LINE
  5
DBCA
  8
ALPHA
 10
40.141422
 20
86.99195
 30
0.0
 11
40.152541
 21
86.965154
 31
0.0
  0
POLYLINE
  5
DBCB
  8
ALPHA
 66
     1
 10
0.0
 20
0.0
 30
0.0
  0
VERTEX
  5
E6C6
  8
ALPHA
 10
40.261556
 20
86.69195
 30
0.0
  0
VERTEX
  5
E6C7
  8
ALPHA
 10
40.257065
 20
86.721889
 30
0.0
  0
VERTEX
  5
E6C8
  8
ALPHA
 10
40.242933
 20
86.750626
 30
0.0
  0
VERTEX
  5
E6C9
  8
ALPHA
 10
40.220331
 20
86.77349
 30
0.0
  0
VERTEX
  5
E6CA
  8
ALPHA
 10
40.192507
 20
86.787506
 30
0.0
  0
VERTEX
  5
E6CB
  8
ALPHA
 10
40.163659
 20
86.79195
 30
0.0
  0
SEQEND
  5
E6CC
  8
ALPHA
  0
POLYLINE
  5
DBCC
  8
ALPHA
 66
     1
 10
0.0
 20
0.0
 30
0.0
  0
VERTEX
  5
E6CD
  8
ALPHA
 10
40.441592
 20
86.69195
 30
0.0
  0
VERTEX
  5
E6CE
  8
ALPHA
 10
40.427791
 20
86.781874
 30
0.0
  0
VERTEX
  5
E6CF
  8
ALPHA
 10
40.384537
 20
86.867913
 30
0.0
  0
VERTEX
  5
E6D0
  8
ALPHA
 10
40.315423
 20
86.936406
 30
0.0
  0
VERTEX
  5
E6D1
  8
ALPHA
 10
40.230076
 20
86.978567
 30
0.0
  0
VERTEX
  5
E6D2
  8
ALPHA
 10
40.202074
 20
86.982794
 30
0.0
  0
SEQEND
  5
E6D3
  8
ALPHA
  0
POLYLINE
  5
DBCD
  8
ALPHA
 66
     1
 10
0.0
 20
0.0
 30
0.0
  0
VERTEX
  5
E6D4
  8
ALPHA
 10
40.152541
 20
86.965154
 30
0.0
  0
VERTEX
  5
E6D5
  8
ALPHA
 10
40.16068
 20
86.891949
 30
0.0
  0
VERTEX
  5
E6D6
  8
ALPHA
 10
40.163659
 20
86.79195
 30
0.0
  0
SEQEND
  5
E6D7
  8
ALPHA
  0
LINE
  5
DBD1
  8
ALPHA
 10
56.508739
 20
24.24195
 30
0.0
 11
56.508737
 21
72.141417
 31
0.0
  0
POLYLINE
  5
DBD2
  8
ALPHA
 66
     1
 10
0.0
 20
0.0
 30
0.0
  0
VERTEX
  5
E6D8
  8
ALPHA
 10
56.294727
 20
71.621279
 30
0.0
  0
VERTEX
  5
E6D9
  8
ALPHA
 10
56.326607
 20
59.600479
 30
0.0
  0
VERTEX
  5
E6DA
  8
ALPHA
 10
56.354162
 20
46.051823
 30
0.0
  0
VERTEX
  5
E6DB
  8
ALPHA
 10
56.375019
 20
30.84195
 30
0.0
  0
SEQEND
  5
E6DC
  8
ALPHA
  0
LINE
  5
DBD3
  8
ALPHA
 10
47.608739
 20
44.04195
 30
0.0
 11
47.608739
 21
48.04195
 31
0.0
  0
CIRCLE
  5
DBD5
  8
ALPHA
 10
50.608739
 20
28.54195
 30
0.0
 40
1.85
  0
ARC
  5
DBD6
  8
ALPHA
 10
50.608739
 20
28.54195
 30
0.0
 40
2.5
 50
108.662925
 51
251.337075
  0
CIRCLE
  5
DBD7
  8
ALPHA
 10
50.608739
 20
28.54195
 30
0.0
 40
1.55
  0
ARC
  5
DBD8
  8
ALPHA
 10
47.608739
 20
39.54195
 30
0.0
 40
4.0
 50
270.0
 51
90.0
  0
POLYLINE
  5
DBD9
  8
ALPHA
 66
     1
 10
0.0
 20
0.0
 30
0.0
  0
VERTEX
  5
E6DD
  8
ALPHA
 10
49.808739
 20
26.173406
 30
0.0
  0
VERTEX
  5
E6DE
  8
ALPHA
 10
49.779974
 20
26.15285
 30
0.0
  0
VERTEX
  5
E6DF
  8
ALPHA
 10
49.751099
 20
26.132391
 30
0.0
  0
VERTEX
  5
E6E0
  8
ALPHA
 10
49.722116
 20
26.112028
 30
0.0
  0
SEQEND
  5
E6E1
  8
ALPHA
  0
POLYLINE
  5
DBDA
  8
ALPHA
 66
     1
 10
0.0
 20
0.0
 30
0.0
  0
VERTEX
  5
E6E2
  8
ALPHA
 10
49.728849
 20
31.26206
 30
0.0
  0
VERTEX
  5
E6E3
  8
ALPHA
 10
49.726193
 20
31.235395
 30
0.0
  0
VERTEX
  5
E6E4
  8
ALPHA
 10
49.724074
 20
31.170104
 30
0.0
  0
VERTEX
  5
E6E5
  8
ALPHA
 10
49.722635
 20
31.074437
 30
0.0
  0
VERTEX
  5
E6E6
  8
ALPHA
 10
49.722116
 20
30.971871
 30
0.0
  0
SEQEND
  5
E6E7
  8
ALPHA
  0
POLYLINE
  5
DBDB
  8
ALPHA
 66
     1
 10
0.0
 20
0.0
 30
0.0
  0
VERTEX
  5
E6E8
  8
ALPHA
 10
49.722116
 20
26.112028
 30
0.0
  0
VERTEX
  5
E6E9
  8
ALPHA
 10
49.722635
 20
26.009462
 30
0.0
  0
VERTEX
  5
E6EA
  8
ALPHA
 10
49.724074
 20
25.913795
 30
0.0
  0
VERTEX
  5
E6EB
  8
ALPHA
 10
49.726193
 20
25.848504
 30
0.0
  0
VERTEX
  5
E6EC
  8
ALPHA
 10
49.728849
 20
25.821839
 30
0.0
  0
SEQEND
  5
E6ED
  8
ALPHA
  0
POLYLINE
  5
DBDC
  8
ALPHA
 66
     1
 10
0.0
 20
0.0
 30
0.0
  0
VERTEX
  5
E6EE
  8
ALPHA
 10
49.808739
 20
30.910493
 30
0.0
  0
VERTEX
  5
E6EF
  8
ALPHA
 10
49.779974
 20
30.93105
 30
0.0
  0
VERTEX
  5
E6F0
  8
ALPHA
 10
49.751099
 20
30.951509
 30
0.0
  0
VERTEX
  5
E6F1
  8
ALPHA
 10
49.722116
 20
30.971871
 30
0.0
  0
SEQEND
  5
E6F2
  8
ALPHA
  0
LINE
  5
DBDD
  8
ALPHA
 10
46.408739
 20
33.34195
 30
0.0
 11
50.608739
 21
33.34195
 31
0.0
  0
LINE
  5
DBDE
  8
ALPHA
 10
42.558739
 20
33.820673
 30
0.0
 11
42.558739
 21
33.948332
 31
0.0
  0
LINE
  5
DBDF
  8
ALPHA
 10
43.008739
 20
33.565354
 30
0.0
 11
42.933739
 21
34.012163
 31
0.0
  0
LINE
  5
DBE0
  8
ALPHA
 10
42.183739
 20
31.905779
 30
0.0
 11
42.558739
 21
32.097269
 31
0.0
  0
LINE
  5
DBE1
  8
ALPHA
 10
42.333739
 20
32.352588
 30
0.0
 11
42.108739
 21
32.224928
 31
0.0
  0
LINE
  5
DBE2
  8
ALPHA
 10
42.183739
 20
32.990886
 30
0.0
 11
42.633739
 21
33.246205
 31
0.0
  0
LINE
  5
DBE3
  8
ALPHA
 10
42.108739
 20
33.310035
 30
0.0
 11
42.333739
 21
33.437694
 31
0.0
  0
LINE
  5
DBE4
  8
ALPHA
 10
42.558739
 20
32.097269
 30
0.0
 11
42.783739
 21
32.352588
 31
0.0
  0
LINE
  5
DBE5
  8
ALPHA
 10
42.483739
 20
32.544077
 30
0.0
 11
42.333739
 21
32.352588
 31
0.0
  0
LINE
  5
DBE6
  8
ALPHA
 10
42.333739
 20
33.437694
 30
0.0
 11
42.483739
 21
33.629184
 31
0.0
  0
LINE
  5
DBE7
  8
ALPHA
 10
42.783739
 20
32.352588
 30
0.0
 11
42.933739
 21
32.671737
 31
0.0
  0
LINE
  5
DBE8
  8
ALPHA
 10
42.558739
 20
32.735566
 30
0.0
 11
42.483739
 21
32.544077
 31
0.0
  0
LINE
  5
DBE9
  8
ALPHA
 10
42.483739
 20
33.629184
 30
0.0
 11
42.558739
 21
33.820673
 31
0.0
  0
LINE
  5
DBEA
  8
ALPHA
 10
42.633739
 20
33.118545
 30
0.0
 11
42.558739
 21
32.735566
 31
0.0
  0
LINE
  5
DBEB
  8
ALPHA
 10
42.933739
 20
32.671737
 30
0.0
 11
43.008739
 21
33.118545
 31
0.0
  0
LINE
  5
DBEC
  8
ALPHA
 10
43.008739
 20
33.118545
 30
0.0
 11
43.008739
 21
33.565354
 31
0.0
  0
LINE
  5
DBED
  8
ALPHA
 10
42.633739
 20
33.246205
 30
0.0
 11
42.633739
 21
33.118545
 31
0.0
  0
LINE
  5
DBEE
  8
ALPHA
 10
41.808739
 20
32.927056
 30
0.0
 11
42.183739
 21
32.990886
 31
0.0
  0
LINE
  5
DBEF
  8
ALPHA
 10
41.808739
 20
31.84195
 30
0.0
 11
42.183739
 21
31.905779
 31
0.0
  0
LINE
  5
DBF0
  8
ALPHA
 10
41.883739
 20
33.246205
 30
0.0
 11
42.108739
 21
33.310035
 31
0.0
  0
LINE
  5
DBF1
  8
ALPHA
 10
42.108739
 20
32.224928
 30
0.0
 11
41.883739
 21
32.161098
 31
0.0
  0
POLYLINE
  5
DBF2
  8
ALPHA
 66
     1
 10
0.0
 20
0.0
 30
0.0
  0
VERTEX
  5
E6F3
  8
ALPHA
 10
49.690725
 20
30.95969
 30
0.0
  0
VERTEX
  5
E6F4
  8
ALPHA
 10
49.162354
 20
30.676532
 30
0.0
  0
VERTEX
  5
E6F5
  8
ALPHA
 10
48.726592
 20
30.295913
 30
0.0
  0
VERTEX
  5
E6F6
  8
ALPHA
 10
48.395032
 20
29.844848
 30
0.0
  0
VERTEX
  5
E6F7
  8
ALPHA
 10
48.1707
 20
29.342389
 30
0.0
  0
VERTEX
  5
E6F8
  8
ALPHA
 10
48.058429
 20
28.814392
 30
0.0
  0
VERTEX
  5
E6F9
  8
ALPHA
 10
48.058409
 20
28.269695
 30
0.0
  0
VERTEX
  5
E6FA
  8
ALPHA
 10
48.170625
 20
27.74174
 30
0.0
  0
VERTEX
  5
E6FB
  8
ALPHA
 10
48.394966
 20
27.239164
 30
0.0
  0
VERTEX
  5
E6FC
  8
ALPHA
 10
48.726507
 20
26.788079
 30
0.0
  0
VERTEX
  5
E6FD
  8
ALPHA
 10
49.162331
 20
26.407383
 30
0.0
  0
VERTEX
  5
E6FE
  8
ALPHA
 10
49.690725
 20
26.124209
 30
0.0
  0
SEQEND
  5
E6FF
  8
ALPHA
  0
POLYLINE
  5
DBF3
  8
ALPHA
 66
     1
 10
0.0
 20
0.0
 30
0.0
  0
VERTEX
  5
E700
  8
ALPHA
 10
49.69063
 20
26.124261
 30
0.0
  0
VERTEX
  5
E701
  8
ALPHA
 10
49.701146
 20
26.120122
 30
0.0
  0
VERTEX
  5
E702
  8
ALPHA
 10
49.711598
 20
26.116061
 30
0.0
  0
VERTEX
  5
E703
  8
ALPHA
 10
49.722116
 20
26.112028
 30
0.0
  0
SEQEND
  5
E704
  8
ALPHA
  0
LINE
  5
DBF4
  8
ALPHA
 10
47.608739
 20
31.69195
 30
0.0
 11
47.608739
 21
32.89195
 31
0.0
  0
POLYLINE
  5
DBF5
  8
ALPHA
 66
     1
 10
0.0
 20
0.0
 30
0.0
  0
VERTEX
  5
E705
  8
ALPHA
 10
49.722116
 20
30.971871
 30
0.0
  0
VERTEX
  5
E706
  8
ALPHA
 10
49.711598
 20
30.967838
 30
0.0
  0
VERTEX
  5
E707
  8
ALPHA
 10
49.701146
 20
30.963777
 30
0.0
  0
VERTEX
  5
E708
  8
ALPHA
 10
49.69063
 20
30.959638
 30
0.0
  0
SEQEND
  5
E709
  8
ALPHA
  0
LINE
  5
DBF6
  8
ALPHA
 10
48.758739
 20
28.54195
 30
0.0
 11
48.108739
 21
28.54195
 31
0.0
  0
LINE
  5
DBF7
  8
ALPHA
 10
42.558739
 20
33.948332
 30
0.0
 11
42.483739
 21
34.139822
 31
0.0
  0
LINE
  5
DBF8
  8
ALPHA
 10
42.933739
 20
34.012163
 30
0.0
 11
42.783739
 21
34.331312
 31
0.0
  0
LINE
  5
DBF9
  8
ALPHA
 10
42.483739
 20
34.139822
 30
0.0
 11
42.333739
 21
34.331312
 31
0.0
  0
LINE
  5
DBFA
  8
ALPHA
 10
42.783739
 20
34.331312
 30
0.0
 11
42.558739
 21
34.58663
 31
0.0
  0
LINE
  5
DBFB
  8
ALPHA
 10
42.333739
 20
34.331312
 30
0.0
 11
42.108739
 21
34.458971
 31
0.0
  0
LINE
  5
DBFC
  8
ALPHA
 10
42.558739
 20
34.58663
 30
0.0
 11
42.183739
 21
34.778119
 31
0.0
  0
LINE
  5
DBFD
  8
ALPHA
 10
42.108739
 20
34.458971
 30
0.0
 11
41.883739
 21
34.522801
 31
0.0
  0
LINE
  5
DBFE
  8
ALPHA
 10
42.183739
 20
34.778119
 30
0.0
 11
41.808739
 21
34.84195
 31
0.0
  0
LINE
  5
DBFF
  8
ALPHA
 10
47.608739
 20
33.89195
 30
0.0
 11
47.608739
 21
35.04195
 31
0.0
  0
LINE
  5
DC00
  8
ALPHA
 10
52.733739
 20
31.66695
 30
0.0
 11
53.983739
 21
33.91695
 31
0.0
  0
LINE
  5
DC01
  8
ALPHA
 10
50.608739
 20
31.34195
 30
0.0
 11
50.608739
 21
34.34195
 31
0.0
  0
LINE
  5
DC02
  8
ALPHA
 10
53.983739
 20
32.41695
 30
0.0
 11
53.733739
 21
32.16695
 31
0.0
  0
LINE
  5
DC03
  8
ALPHA
 10
54.18818
 20
28.862856
 30
0.0
 11
53.540492
 21
27.741028
 31
0.0
  0
LINE
  5
DC04
  8
ALPHA
 10
54.208739
 20
29.39195
 30
0.0
 11
53.510135
 21
28.181933
 31
0.0
  0
POLYLINE
  5
DC05
  8
ALPHA
 66
     1
 10
0.0
 20
0.0
 30
0.0
  0
VERTEX
  5
E70A
  8
ALPHA
 10
54.208739
 20
26.330026
 30
0.0
  0
VERTEX
  5
E70B
  8
ALPHA
 10
54.182856
 20
25.972664
 30
0.0
  0
VERTEX
  5
E70C
  8
ALPHA
 10
54.100586
 20
25.583864
 30
0.0
  0
VERTEX
  5
E70D
  8
ALPHA
 10
53.965926
 20
25.207451
 30
0.0
  0
VERTEX
  5
E70E
  8
ALPHA
 10
53.781688
 20
24.862001
 30
0.0
  0
VERTEX
  5
E70F
  8
ALPHA
 10
53.561226
 20
24.582509
 30
0.0
  0
SEQEND
  5
E710
  8
ALPHA
  0
LINE
  5
DC06
  8
ALPHA
 10
53.733739
 20
33.41695
 30
0.0
 11
53.983739
 21
33.16695
 31
0.0
  0
LINE
  5
DC07
  8
ALPHA
 10
51.708739
 20
31.564175
 30
0.0
 11
55.908739
 21
31.564175
 31
0.0
  0
LINE
  5
DC08
  8
ALPHA
 10
56.48033
 20
30.84195
 30
0.0
 11
53.308739
 21
30.84195
 31
0.0
  0
LINE
  5
DC09
  8
ALPHA
 10
56.485177
 20
29.887186
 30
0.0
 11
53.308739
 21
29.887186
 31
0.0
  0
LINE
  5
DC0A
  8
ALPHA
 10
54.006666
 20
29.04195
 30
0.0
 11
53.308739
 21
29.04195
 31
0.0
  0
LINE
  5
DC0B
  8
ALPHA
 10
53.862328
 20
28.79195
 30
0.0
 11
53.308739
 21
28.79195
 31
0.0
  0
LINE
  5
DC0C
  8
ALPHA
 10
53.54681
 20
24.317224
 30
0.0
 11
56.508739
 21
24.317224
 31
0.0
  0
LINE
  5
DC0D
  8
ALPHA
 10
53.471535
 20
24.24195
 30
0.0
 11
56.508739
 21
24.24195
 31
0.0
  0
LINE
  5
DC0E
  8
ALPHA
 10
53.308739
 20
24.54195
 30
0.0
 11
53.308739
 21
30.84195
 31
0.0
  0
LINE
  5
DC0F
  8
ALPHA
 10
53.465454
 20
27.903815
 30
0.0
 11
53.465206
 21
28.039681
 31
0.0
  0
LINE
  5
DC10
  8
ALPHA
 10
53.510135
 20
28.181933
 30
0.0
 11
53.51121
 21
28.002819
 31
0.0
  0
POLYLINE
  5
DC11
  8
ALPHA
 66
     1
 10
0.0
 20
0.0
 30
0.0
  0
VERTEX
  5
E711
  8
ALPHA
 10
53.540492
 20
27.741028
 30
0.0
  0
VERTEX
  5
E712
  8
ALPHA
 10
53.538576
 20
27.945223
 30
0.0
  0
VERTEX
  5
E713
  8
ALPHA
 10
53.535649
 20
28.102712
 30
0.0
  0
VERTEX
  5
E714
  8
ALPHA
 10
53.531947
 20
28.191397
 30
0.0
  0
VERTEX
  5
E715
  8
ALPHA
 10
53.527924
 20
28.212745
 30
0.0
  0
SEQEND
  5
E716
  8
ALPHA
  0
POLYLINE
  5
DC12
  8
ALPHA
 66
     1
 10
0.0
 20
0.0
 30
0.0
  0
VERTEX
  5
E717
  8
ALPHA
 10
53.470757
 20
27.625163
 30
0.0
  0
VERTEX
  5
E718
  8
ALPHA
 10
53.468045
 20
27.720383
 30
0.0
  0
VERTEX
  5
E719
  8
ALPHA
 10
53.466109
 20
27.864961
 30
0.0
  0
VERTEX
  5
E71A
  8
ALPHA
 10
53.465206
 20
28.039681
 30
0.0
  0
SEQEND
  5
E71B
  8
ALPHA
  0
LINE
  5
DC13
  8
ALPHA
 10
53.465454
 20
27.903815
 30
0.0
 11
53.308739
 21
28.059502
 31
0.0
  0
ARC
  5
DC14
  8
ALPHA
 10
51.230614
 20
24.99195
 30
0.0
 40
0.5
 50
270.0
 51
294.521028
  0
LINE
  5
DC15
  8
ALPHA
 10
49.808739
 20
25.74195
 30
0.0
 11
49.808739
 21
26.173406
 31
0.0
  0
LINE
  5
DC16
  8
ALPHA
 10
49.808739
 20
25.74195
 30
0.0
 11
49.728849
 21
25.821839
 31
0.0
  0
LINE
  5
DC17
  8
ALPHA
 10
53.471535
 20
24.24195
 30
0.0
 11
53.54681
 21
24.317224
 31
0.0
  0
LINE
  5
DC18
  8
ALPHA
 10
53.427632
 20
27.631993
 30
0.0
 11
53.308739
 21
27.513099
 31
0.0
  0
POLYLINE
  5
DC19
  8
ALPHA
 66
     1
 10
0.0
 20
0.0
 30
0.0
  0
VERTEX
  5
E71C
  8
ALPHA
 10
53.54681
 20
24.317224
 30
0.0
  0
VERTEX
  5
E71D
  8
ALPHA
 10
53.551888
 20
24.350899
 30
0.0
  0
VERTEX
  5
E71E
  8
ALPHA
 10
53.556755
 20
24.440464
 30
0.0
  0
VERTEX
  5
E71F
  8
ALPHA
 10
53.561226
 20
24.582509
 30
0.0
  0
SEQEND
  5
E720
  8
ALPHA
  0
POLYLINE
  5
DC1A
  8
ALPHA
 66
     1
 10
0.0
 20
0.0
 30
0.0
  0
VERTEX
  5
E721
  8
ALPHA
 10
53.427631
 20
27.631991
 30
0.0
  0
VERTEX
  5
E722
  8
ALPHA
 10
53.44036
 20
27.764954
 30
0.0
  0
VERTEX
  5
E723
  8
ALPHA
 10
53.452964
 20
27.855462
 30
0.0
  0
VERTEX
  5
E724
  8
ALPHA
 10
53.465454
 20
27.903815
 30
0.0
  0
SEQEND
  5
E725
  8
ALPHA
  0
POLYLINE
  5
DC1B
  8
ALPHA
 66
     1
 10
0.0
 20
0.0
 30
0.0
  0
VERTEX
  5
E726
  8
ALPHA
 10
53.51121
 20
28.002819
 30
0.0
  0
VERTEX
  5
E727
  8
ALPHA
 10
53.511581
 20
27.889162
 30
0.0
  0
VERTEX
  5
E728
  8
ALPHA
 10
53.511157
 20
27.773738
 30
0.0
  0
VERTEX
  5
E729
  8
ALPHA
 10
53.510041
 20
27.679454
 30
0.0
  0
VERTEX
  5
E72A
  8
ALPHA
 10
53.508325
 20
27.614237
 30
0.0
  0
VERTEX
  5
E72B
  8
ALPHA
 10
53.506344
 20
27.59195
 30
0.0
  0
SEQEND
  5
E72C
  8
ALPHA
  0
LINE
  5
DC1C
  8
ALPHA
 10
53.561226
 20
24.582509
 30
0.0
 11
53.540492
 21
27.741028
 31
0.0
  0
POLYLINE
  5
DC1D
  8
ALPHA
 66
     1
 10
0.0
 20
0.0
 30
0.0
  0
VERTEX
  5
E72D
  8
ALPHA
 10
53.384243
 20
24.518463
 30
0.0
  0
VERTEX
  5
E72E
  8
ALPHA
 10
53.333329
 20
25.133768
 30
0.0
  0
VERTEX
  5
E72F
  8
ALPHA
 10
53.308739
 20
25.623946
 30
0.0
  0
SEQEND
  5
E730
  8
ALPHA
  0
LINE
  5
DC1E
  8
ALPHA
 10
53.473885
 20
27.59195
 30
0.0
 11
53.470757
 21
27.625163
 31
0.0
  0
LINE
  5
DC1F
  8
ALPHA
 10
53.436123
 20
24.277361
 30
0.0
 11
53.384243
 21
24.518463
 31
0.0
  0
LINE
  5
DC20
  8
ALPHA
 10
53.436123
 20
24.277361
 30
0.0
 11
53.471535
 21
24.24195
 31
0.0
  0
LINE
  5
DC21
  8
ALPHA
 10
53.506344
 20
27.59195
 30
0.0
 11
53.473885
 21
27.59195
 31
0.0
  0
LINE
  5
DC22
  8
ALPHA
 10
53.308739
 20
27.624588
 30
0.0
 11
53.427632
 21
27.631993
 31
0.0
  0
LINE
  5
DC23
  8
ALPHA
 10
49.808739
 20
31.34195
 30
0.0
 11
49.728849
 21
31.26206
 31
0.0
  0
LINE
  5
DC24
  8
ALPHA
 10
51.241476
 20
30.280381
 30
0.0
 11
51.708739
 21
31.564175
 31
0.0
  0
LINE
  5
DC25
  8
ALPHA
 10
49.808739
 20
30.910493
 30
0.0
 11
49.808739
 21
31.34195
 31
0.0
  0
LINE
  5
DC26
  8
ALPHA
 10
53.733739
 20
32.16695
 30
0.0
 11
53.358739
 21
32.04195
 31
0.0
  0
LINE
  5
DC27
  8
ALPHA
 10
52.983739
 20
33.41695
 30
0.0
 11
53.358739
 21
33.54195
 31
0.0
  0
LINE
  5
DC28
  8
ALPHA
 10
52.733739
 20
33.16695
 30
0.0
 11
52.983739
 21
33.41695
 31
0.0
  0
LINE
  5
DC29
  8
ALPHA
 10
52.608739
 20
32.79195
 30
0.0
 11
52.733739
 21
33.16695
 31
0.0
  0
LINE
  5
DC2A
  8
ALPHA
 10
52.733739
 20
32.41695
 30
0.0
 11
52.608739
 21
32.79195
 31
0.0
  0
LINE
  5
DC2B
  8
ALPHA
 10
52.983739
 20
32.16695
 30
0.0
 11
52.733739
 21
32.41695
 31
0.0
  0
LINE
  5
DC2C
  8
ALPHA
 10
53.358739
 20
33.54195
 30
0.0
 11
53.733739
 21
33.41695
 31
0.0
  0
LINE
  5
DC2D
  8
ALPHA
 10
53.358739
 20
32.04195
 30
0.0
 11
52.983739
 21
32.16695
 31
0.0
  0
LINE
  5
DC2E
  8
ALPHA
 10
53.308739
 20
28.382859
 30
0.0
 11
53.62614
 21
28.382859
 31
0.0
  0
LINE
  5
DC2F
  8
ALPHA
 10
53.308739
 20
28.14195
 30
0.0
 11
53.510135
 21
28.14195
 31
0.0
  0
LINE
  5
DC30
  8
ALPHA
 10
53.465206
 20
28.039681
 30
0.0
 11
53.51121
 21
28.039681
 31
0.0
  0
LINE
  5
DC31
  8
ALPHA
 10
54.208739
 20
26.330026
 30
0.0
 11
54.208739
 21
28.602374
 31
0.0
  0
LINE
  5
DC32
  8
ALPHA
 10
54.208739
 20
26.330026
 30
0.0
 11
56.508739
 21
26.330026
 31
0.0
  0
LINE
  5
DC33
  8
ALPHA
 10
54.208739
 20
29.39195
 30
0.0
 11
56.508739
 21
29.39195
 31
0.0
  0
LINE
  5
DC34
  8
ALPHA
 10
54.208739
 20
28.602374
 30
0.0
 11
56.508739
 21
28.602374
 31
0.0
  0
LINE
  5
DC35
  8
ALPHA
 10
55.608739
 20
32.16695
 30
0.0
 11
55.358739
 21
32.04195
 31
0.0
  0
LINE
  5
DC36
  8
ALPHA
 10
55.608739
 20
33.04195
 30
0.0
 11
55.358739
 21
32.91695
 31
0.0
  0
LINE
  5
DC37
  8
ALPHA
 10
54.858739
 20
33.41695
 30
0.0
 11
55.108739
 21
33.54195
 31
0.0
  0
LINE
  5
DC38
  8
ALPHA
 10
55.858739
 20
32.41695
 30
0.0
 11
55.608739
 21
32.16695
 31
0.0
  0
LINE
  5
DC39
  8
ALPHA
 10
55.733739
 20
33.16695
 30
0.0
 11
55.608739
 21
33.04195
 31
0.0
  0
LINE
  5
DC3A
  8
ALPHA
 10
54.108739
 20
32.79195
 30
0.0
 11
53.983739
 21
32.41695
 31
0.0
  0
POLYLINE
  5
DC3B
  8
ALPHA
 66
     1
 10
0.0
 20
0.0
 30
0.0
  0
VERTEX
  5
E731
  8
ALPHA
 10
54.18818
 20
29.356341
 30
0.0
  0
VERTEX
  5
E732
  8
ALPHA
 10
54.15982
 20
29.250972
 30
0.0
  0
VERTEX
  5
E733
  8
ALPHA
 10
54.15982
 20
29.084457
 30
0.0
  0
VERTEX
  5
E734
  8
ALPHA
 10
54.18818
 20
28.862856
 30
0.0
  0
SEQEND
  5
E735
  8
ALPHA
  0
LINE
  5
DC3C
  8
ALPHA
 10
55.858739
 20
32.54195
 30
0.0
 11
55.858739
 21
32.41695
 31
0.0
  0
LINE
  5
DC3D
  8
ALPHA
 10
55.733739
 20
33.29195
 30
0.0
 11
55.733739
 21
33.16695
 31
0.0
  0
POLYLINE
  5
DC3E
  8
ALPHA
 66
     1
 10
0.0
 20
0.0
 30
0.0
  0
VERTEX
  5
E736
  8
ALPHA
 10
54.18818
 20
28.862856
 30
0.0
  0
VERTEX
  5
E737
  8
ALPHA
 10
54.20358
 20
28.736673
 30
0.0
  0
VERTEX
  5
E738
  8
ALPHA
 10
54.208739
 20
28.602374
 30
0.0
  0
SEQEND
  5
E739
  8
ALPHA
  0
LINE
  5
DC3F
  8
ALPHA
 10
53.983739
 20
33.16695
 30
0.0
 11
54.108739
 21
32.79195
 31
0.0
  0
LINE
  5
DC40
  8
ALPHA
 10
55.608739
 20
33.41695
 30
0.0
 11
55.733739
 21
33.29195
 31
0.0
  0
LINE
  5
DC41
  8
ALPHA
 10
55.608739
 20
32.79195
 30
0.0
 11
55.858739
 21
32.54195
 31
0.0
  0
LINE
  5
DC42
  8
ALPHA
 10
54.858739
 20
32.16695
 30
0.0
 11
54.733739
 21
32.29195
 31
0.0
  0
LINE
  5
DC43
  8
ALPHA
 10
55.358739
 20
33.54195
 30
0.0
 11
55.608739
 21
33.41695
 31
0.0
  0
LINE
  5
DC44
  8
ALPHA
 10
55.358739
 20
32.91695
 30
0.0
 11
55.608739
 21
32.79195
 31
0.0
  0
LINE
  5
DC45
  8
ALPHA
 10
55.108739
 20
32.04195
 30
0.0
 11
54.858739
 21
32.16695
 31
0.0
  0
LINE
  5
DC46
  8
ALPHA
 10
55.108739
 20
33.54195
 30
0.0
 11
55.358739
 21
33.54195
 31
0.0
  0
LINE
  5
DC47
  8
ALPHA
 10
55.108739
 20
32.91695
 30
0.0
 11
55.358739
 21
32.91695
 31
0.0
  0
LINE
  5
DC48
  8
ALPHA
 10
55.358739
 20
32.04195
 30
0.0
 11
55.108739
 21
32.04195
 31
0.0
  0
POLYLINE
  5
DC49
  8
ALPHA
 66
     1
 10
0.0
 20
0.0
 30
0.0
  0
VERTEX
  5
E73A
  8
ALPHA
 10
56.486995
 20
29.391886
 30
0.0
  0
VERTEX
  5
E73B
  8
ALPHA
 10
56.486346
 20
29.615548
 30
0.0
  0
VERTEX
  5
E73C
  8
ALPHA
 10
56.485177
 20
29.887186
 30
0.0
  0
SEQEND
  5
E73D
  8
ALPHA
  0
LINE
  5
DC4A
  8
ALPHA
 10
56.485177
 20
29.887186
 30
0.0
 11
56.48033
 21
30.84195
 31
0.0
  0
LINE
  5
DC4B
  8
ALPHA
 10
47.608739
 20
66.04195
 30
0.0
 11
47.608739
 21
73.24195
 31
0.0
  0
LINE
  5
DC4C
  8
ALPHA
 10
44.608739
 20
65.54195
 30
0.0
 11
51.108739
 21
65.54195
 31
0.0
  0
LINE
  5
DC4D
  8
ALPHA
 10
44.608739
 20
60.54195
 30
0.0
 11
52.108739
 21
60.54195
 31
0.0
  0
LINE
  5
DC4E
  8
ALPHA
 10
47.608739
 20
54.94195
 30
0.0
 11
47.608739
 21
59.94195
 31
0.0
  0
LINE
  5
DC4F
  8
ALPHA
 10
47.704483
 20
50.99195
 30
0.0
 11
47.449164
 21
50.76695
 31
0.0
  0
LINE
  5
DC50
  8
ALPHA
 10
47.576824
 20
50.316949
 30
0.0
 11
47.704483
 21
50.54195
 31
0.0
  0
LINE
  5
DC51
  8
ALPHA
 10
47.768313
 20
48.966949
 30
0.0
 11
47.576824
 21
49.26695
 31
0.0
  0
LINE
  5
DC52
  8
ALPHA
 10
46.108739
 20
48.441949
 30
0.0
 11
47.768313
 21
48.441949
 31
0.0
  0
LINE
  5
DC53
  8
ALPHA
 10
47.449164
 20
50.76695
 30
0.0
 11
47.257675
 21
50.39195
 31
0.0
  0
LINE
  5
DC54
  8
ALPHA
 10
47.512994
 20
50.01695
 30
0.0
 11
47.576824
 21
50.316949
 31
0.0
  0
LINE
  5
DC55
  8
ALPHA
 10
47.257675
 20
50.39195
 30
0.0
 11
47.193845
 21
50.01695
 31
0.0
  0
LINE
  5
DC56
  8
ALPHA
 10
47.512994
 20
49.566949
 30
0.0
 11
47.512994
 21
50.01695
 31
0.0
  0
LINE
  5
DC57
  8
ALPHA
 10
47.193845
 20
50.01695
 30
0.0
 11
47.193845
 21
49.566949
 31
0.0
  0
LINE
  5
DC58
  8
ALPHA
 10
47.193845
 20
49.566949
 30
0.0
 11
47.257675
 21
49.191949
 31
0.0
  0
LINE
  5
DC59
  8
ALPHA
 10
47.576824
 20
49.26695
 30
0.0
 11
47.512994
 21
49.566949
 31
0.0
  0
LINE
  5
DC5A
  8
ALPHA
 10
46.427888
 20
48.816949
 30
0.0
 11
46.427888
 21
50.99195
 31
0.0
  0
LINE
  5
DC5B
  8
ALPHA
 10
46.108739
 20
50.99195
 30
0.0
 11
46.108739
 21
48.441949
 31
0.0
  0
LINE
  5
DC5C
  8
ALPHA
 10
47.257675
 20
49.191949
 30
0.0
 11
47.449164
 21
48.816949
 31
0.0
  0
LINE
  5
DC5D
  8
ALPHA
 10
46.427888
 20
50.99195
 30
0.0
 11
46.108739
 21
50.99195
 31
0.0
  0
LINE
  5
DC5E
  8
ALPHA
 10
47.449164
 20
48.816949
 30
0.0
 11
46.427888
 21
48.816949
 31
0.0
  0
LINE
  5
DC5F
  8
ALPHA
 10
48.342781
 20
48.441949
 30
0.0
 11
48.5981
 21
48.591949
 31
0.0
  0
LINE
  5
DC60
  8
ALPHA
 10
48.5981
 20
49.04195
 30
0.0
 11
48.342781
 21
48.89195
 31
0.0
  0
LINE
  5
DC61
  8
ALPHA
 10
48.5981
 20
48.591949
 30
0.0
 11
48.85342
 21
48.816949
 31
0.0
  0
LINE
  5
DC62
  8
ALPHA
 10
48.72576
 20
49.26695
 30
0.0
 11
48.5981
 21
49.04195
 31
0.0
  0
LINE
  5
DC63
  8
ALPHA
 10
48.85342
 20
48.816949
 30
0.0
 11
49.044909
 21
49.191949
 31
0.0
  0
LINE
  5
DC64
  8
ALPHA
 10
47.895972
 20
50.691949
 30
0.0
 11
48.087462
 21
50.76695
 31
0.0
  0
LINE
  5
DC65
  8
ALPHA
 10
48.023632
 20
51.14195
 30
0.0
 11
47.704483
 21
50.99195
 31
0.0
  0
LINE
  5
DC66
  8
ALPHA
 10
47.704483
 20
50.54195
 30
0.0
 11
47.895972
 21
50.691949
 31
0.0
  0
LINE
  5
DC67
  8
ALPHA
 10
48.78959
 20
49.566949
 30
0.0
 11
48.72576
 21
49.26695
 31
0.0
  0
LINE
  5
DC68
  8
ALPHA
 10
49.044909
 20
49.191949
 30
0.0
 11
49.108739
 21
49.566949
 31
0.0
  0
LINE
  5
DC69
  8
ALPHA
 10
49.108739
 20
50.01695
 30
0.0
 11
49.044909
 21
50.39195
 31
0.0
  0
LINE
  5
DC6A
  8
ALPHA
 10
48.72576
 20
50.316949
 30
0.0
 11
48.78959
 21
50.01695
 31
0.0
  0
LINE
  5
DC6B
  8
ALPHA
 10
49.108739
 20
49.566949
 30
0.0
 11
49.108739
 21
50.01695
 31
0.0
  0
LINE
  5
DC6C
  8
ALPHA
 10
48.78959
 20
50.01695
 30
0.0
 11
48.78959
 21
49.566949
 31
0.0
  0
LINE
  5
DC6D
  8
ALPHA
 10
48.342781
 20
48.89195
 30
0.0
 11
48.342781
 21
48.441949
 31
0.0
  0
LINE
  5
DC6E
  8
ALPHA
 10
47.768313
 20
48.441949
 30
0.0
 11
47.768313
 21
48.966949
 31
0.0
  0
LINE
  5
DC6F
  8
ALPHA
 10
49.044909
 20
50.39195
 30
0.0
 11
48.85342
 21
50.76695
 31
0.0
  0
LINE
  5
DC70
  8
ALPHA
 10
48.5981
 20
50.54195
 30
0.0
 11
48.72576
 21
50.316949
 31
0.0
  0
LINE
  5
DC71
  8
ALPHA
 10
48.85342
 20
50.76695
 30
0.0
 11
48.5981
 21
50.99195
 31
0.0
  0
LINE
  5
DC72
  8
ALPHA
 10
48.406611
 20
50.691949
 30
0.0
 11
48.5981
 21
50.54195
 31
0.0
  0
LINE
  5
DC73
  8
ALPHA
 10
48.5981
 20
50.99195
 30
0.0
 11
48.278951
 21
51.14195
 31
0.0
  0
LINE
  5
DC74
  8
ALPHA
 10
48.215121
 20
50.76695
 30
0.0
 11
48.406611
 21
50.691949
 31
0.0
  0
LINE
  5
DC75
  8
ALPHA
 10
48.278951
 20
51.14195
 30
0.0
 11
48.023632
 21
51.14195
 31
0.0
  0
LINE
  5
DC76
  8
ALPHA
 10
48.087462
 20
50.76695
 30
0.0
 11
48.215121
 21
50.76695
 31
0.0
  0
LINE
  5
DC77
  8
ALPHA
 10
47.576824
 20
53.841949
 30
0.0
 11
47.704483
 21
54.216949
 31
0.0
  0
LINE
  5
DC78
  8
ALPHA
 10
47.704483
 20
52.941949
 30
0.0
 11
47.449164
 21
52.941949
 31
0.0
  0
LINE
  5
DC79
  8
ALPHA
 10
46.810866
 20
53.99195
 30
0.0
 11
46.619377
 21
53.841949
 31
0.0
  0
LINE
  5
DC7A
  8
ALPHA
 10
46.300228
 20
53.99195
 30
0.0
 11
46.555547
 21
54.29195
 31
0.0
  0
LINE
  5
DC7B
  8
ALPHA
 10
46.619377
 20
53.841949
 30
0.0
 11
46.491718
 21
53.61695
 31
0.0
  0
LINE
  5
DC7C
  8
ALPHA
 10
46.172569
 20
53.691949
 30
0.0
 11
46.300228
 21
53.99195
 31
0.0
  0
LINE
  5
DC7D
  8
ALPHA
 10
46.491718
 20
53.61695
 30
0.0
 11
46.427888
 21
53.24195
 31
0.0
  0
LINE
  5
DC7E
  8
ALPHA
 10
47.449164
 20
52.941949
 30
0.0
 11
47.449164
 21
53.24195
 31
0.0
  0
LINE
  5
DC7F
  8
ALPHA
 10
46.810866
 20
52.191949
 30
0.0
 11
46.810866
 21
51.816949
 31
0.0
  0
LINE
  5
DC80
  8
ALPHA
 10
46.172569
 20
52.49195
 30
0.0
 11
46.108739
 21
53.01695
 31
0.0
  0
LINE
  5
DC81
  8
ALPHA
 10
46.427888
 20
52.941949
 30
0.0
 11
46.491718
 21
52.566949
 31
0.0
  0
LINE
  5
DC82
  8
ALPHA
 10
47.449164
 20
53.24195
 30
0.0
 11
47.321505
 21
53.691949
 31
0.0
  0
LINE
  5
DC83
  8
ALPHA
 10
47.385334
 20
54.14195
 30
0.0
 11
47.576824
 21
53.841949
 31
0.0
  0
LINE
  5
DC84
  8
ALPHA
 10
46.555547
 20
54.29195
 30
0.0
 11
46.810866
 21
54.36695
 31
0.0
  0
LINE
  5
DC85
  8
ALPHA
 10
46.108739
 20
53.16695
 30
0.0
 11
46.172569
 21
53.691949
 31
0.0
  0
LINE
  5
DC86
  8
ALPHA
 10
46.427888
 20
53.24195
 30
0.0
 11
46.427888
 21
52.941949
 31
0.0
  0
LINE
  5
DC87
  8
ALPHA
 10
46.108739
 20
53.01695
 30
0.0
 11
46.108739
 21
53.16695
 31
0.0
  0
LINE
  5
DC88
  8
ALPHA
 10
46.300228
 20
52.191949
 30
0.0
 11
46.172569
 21
52.49195
 31
0.0
  0
LINE
  5
DC89
  8
ALPHA
 10
46.491718
 20
52.566949
 30
0.0
 11
46.619377
 21
52.341949
 31
0.0
  0
LINE
  5
DC8A
  8
ALPHA
 10
47.321505
 20
53.691949
 30
0.0
 11
47.193845
 21
53.841949
 31
0.0
  0
LINE
  5
DC8B
  8
ALPHA
 10
46.555547
 20
51.89195
 30
0.0
 11
46.300228
 21
52.191949
 31
0.0
  0
LINE
  5
DC8C
  8
ALPHA
 10
47.193845
 20
54.29195
 30
0.0
 11
47.385334
 21
54.14195
 31
0.0
  0
LINE
  5
DC8D
  8
ALPHA
 10
46.619377
 20
52.341949
 30
0.0
 11
46.810866
 21
52.191949
 31
0.0
  0
LINE
  5
DC8E
  8
ALPHA
 10
47.193845
 20
53.841949
 30
0.0
 11
46.938526
 21
53.99195
 31
0.0
  0
LINE
  5
DC8F
  8
ALPHA
 10
46.938526
 20
54.36695
 30
0.0
 11
47.193845
 21
54.29195
 31
0.0
  0
LINE
  5
DC90
  8
ALPHA
 10
46.810866
 20
51.816949
 30
0.0
 11
46.555547
 21
51.89195
 31
0.0
  0
LINE
  5
DC91
  8
ALPHA
 10
46.810866
 20
54.36695
 30
0.0
 11
46.938526
 21
54.36695
 31
0.0
  0
LINE
  5
DC92
  8
ALPHA
 10
46.938526
 20
53.99195
 30
0.0
 11
46.810866
 21
53.99195
 31
0.0
  0
LINE
  5
DC93
  8
ALPHA
 10
48.5981
 20
51.816949
 30
0.0
 11
48.406611
 21
51.74195
 31
0.0
  0
LINE
  5
DC94
  8
ALPHA
 10
48.406611
 20
52.11695
 30
0.0
 11
48.534271
 21
52.191949
 31
0.0
  0
LINE
  5
DC95
  8
ALPHA
 10
48.78959
 20
51.966949
 30
0.0
 11
48.5981
 21
51.816949
 31
0.0
  0
LINE
  5
DC96
  8
ALPHA
 10
48.534271
 20
52.191949
 30
0.0
 11
48.66193
 21
52.341949
 31
0.0
  0
LINE
  5
DC97
  8
ALPHA
 10
48.917249
 20
52.191949
 30
0.0
 11
48.78959
 21
51.966949
 31
0.0
  0
LINE
  5
DC98
  8
ALPHA
 10
49.044909
 20
52.49195
 30
0.0
 11
48.917249
 21
52.191949
 31
0.0
  0
LINE
  5
DC99
  8
ALPHA
 10
48.66193
 20
52.341949
 30
0.0
 11
48.72576
 21
52.49195
 31
0.0
  0
LINE
  5
DC9A
  8
ALPHA
 10
49.108739
 20
52.79195
 30
0.0
 11
49.044909
 21
52.49195
 31
0.0
  0
LINE
  5
DC9B
  8
ALPHA
 10
48.72576
 20
52.49195
 30
0.0
 11
48.78959
 21
52.86695
 31
0.0
  0
LINE
  5
DC9C
  8
ALPHA
 10
48.78959
 20
53.316949
 30
0.0
 11
48.72576
 21
53.691949
 31
0.0
  0
LINE
  5
DC9D
  8
ALPHA
 10
49.044909
 20
53.691949
 30
0.0
 11
49.108739
 21
53.39195
 31
0.0
  0
LINE
  5
DC9E
  8
ALPHA
 10
48.917249
 20
53.99195
 30
0.0
 11
49.044909
 21
53.691949
 31
0.0
  0
LINE
  5
DC9F
  8
ALPHA
 10
48.151292
 20
54.066949
 30
0.0
 11
47.895972
 21
53.91695
 31
0.0
  0
LINE
  5
DCA0
  8
ALPHA
 10
47.704483
 20
54.216949
 30
0.0
 11
47.895972
 21
54.36695
 31
0.0
  0
LINE
  5
DCA1
  8
ALPHA
 10
47.895972
 20
53.91695
 30
0.0
 11
47.768313
 21
53.691949
 31
0.0
  0
LINE
  5
DCA2
  8
ALPHA
 10
47.768313
 20
53.691949
 30
0.0
 11
47.704483
 21
53.24195
 31
0.0
  0
LINE
  5
DCA3
  8
ALPHA
 10
49.108739
 20
53.39195
 30
0.0
 11
49.108739
 21
52.79195
 31
0.0
  0
LINE
  5
DCA4
  8
ALPHA
 10
48.78959
 20
52.86695
 30
0.0
 11
48.78959
 21
53.316949
 31
0.0
  0
LINE
  5
DCA5
  8
ALPHA
 10
48.406611
 20
51.74195
 30
0.0
 11
48.406611
 21
52.11695
 31
0.0
  0
LINE
  5
DCA6
  8
ALPHA
 10
47.704483
 20
53.24195
 30
0.0
 11
47.704483
 21
52.941949
 31
0.0
  0
LINE
  5
DCA7
  8
ALPHA
 10
48.72576
 20
53.691949
 30
0.0
 11
48.66193
 21
53.841949
 31
0.0
  0
LINE
  5
DCA8
  8
ALPHA
 10
48.78959
 20
54.216949
 30
0.0
 11
48.917249
 21
53.99195
 31
0.0
  0
LINE
  5
DCA9
  8
ALPHA
 10
48.66193
 20
53.841949
 30
0.0
 11
48.534271
 21
53.99195
 31
0.0
  0
LINE
  5
DCAA
  8
ALPHA
 10
47.895972
 20
54.36695
 30
0.0
 11
48.151292
 21
54.441949
 31
0.0
  0
LINE
  5
DCAB
  8
ALPHA
 10
48.5981
 20
54.36695
 30
0.0
 11
48.78959
 21
54.216949
 31
0.0
  0
LINE
  5
DCAC
  8
ALPHA
 10
48.534271
 20
53.99195
 30
0.0
 11
48.406611
 21
54.066949
 31
0.0
  0
LINE
  5
DCAD
  8
ALPHA
 10
48.406611
 20
54.441949
 30
0.0
 11
48.5981
 21
54.36695
 31
0.0
  0
LINE
  5
DCAE
  8
ALPHA
 10
48.151292
 20
54.441949
 30
0.0
 11
48.406611
 21
54.441949
 31
0.0
  0
LINE
  5
DCAF
  8
ALPHA
 10
48.406611
 20
54.066949
 30
0.0
 11
48.151292
 21
54.066949
 31
0.0
  0
LINE
  5
DCB0
  8
ALPHA
 10
43.658739
 20
61.83982
 30
0.0
 11
43.508739
 21
62.03131
 31
0.0
  0
LINE
  5
DCB1
  8
ALPHA
 10
43.433739
 20
62.478118
 30
0.0
 11
43.733739
 21
62.350459
 31
0.0
  0
LINE
  5
DCB2
  8
ALPHA
 10
42.008739
 20
59.861099
 30
0.0
 11
44.108739
 21
59.861099
 31
0.0
  0
LINE
  5
DCB3
  8
ALPHA
 10
43.883739
 20
61.265354
 30
0.0
 11
42.008739
 21
59.861099
 31
0.0
  0
LINE
  5
DCB4
  8
ALPHA
 10
43.508739
 20
61.456844
 30
0.0
 11
43.658739
 21
61.712161
 31
0.0
  0
LINE
  5
DCB5
  8
ALPHA
 10
43.508739
 20
62.03131
 30
0.0
 11
43.283739
 21
62.158969
 31
0.0
  0
LINE
  5
DCB6
  8
ALPHA
 10
43.283739
 20
62.158969
 30
0.0
 11
42.908739
 21
62.222801
 31
0.0
  0
LINE
  5
DCB7
  8
ALPHA
 10
42.983739
 20
62.54195
 30
0.0
 11
43.433739
 21
62.478118
 31
0.0
  0
LINE
  5
DCB8
  8
ALPHA
 10
42.683739
 20
62.54195
 30
0.0
 11
42.983739
 21
62.54195
 31
0.0
  0
LINE
  5
DCB9
  8
ALPHA
 10
42.908739
 20
62.222801
 30
0.0
 11
42.608739
 21
62.222801
 31
0.0
  0
LINE
  5
DCBA
  8
ALPHA
 10
42.158739
 20
62.478118
 30
0.0
 11
42.683739
 21
62.54195
 31
0.0
  0
LINE
  5
DCBB
  8
ALPHA
 10
42.608739
 20
62.222801
 30
0.0
 11
42.233739
 21
62.158969
 31
0.0
  0
LINE
  5
DCBC
  8
ALPHA
 10
42.008739
 20
62.03131
 30
0.0
 11
41.858739
 21
61.83982
 31
0.0
  0
LINE
  5
DCBD
  8
ALPHA
 10
41.858739
 20
62.350459
 30
0.0
 11
42.158739
 21
62.478118
 31
0.0
  0
LINE
  5
DCBE
  8
ALPHA
 10
42.233739
 20
62.158969
 30
0.0
 11
42.008739
 21
62.03131
 31
0.0
  0
LINE
  5
DCBF
  8
ALPHA
 10
41.558739
 20
62.095142
 30
0.0
 11
41.858739
 21
62.350459
 31
0.0
  0
LINE
  5
DCC0
  8
ALPHA
 10
44.033739
 20
62.095142
 30
0.0
 11
44.108739
 21
61.83982
 31
0.0
  0
LINE
  5
DCC1
  8
ALPHA
 10
43.733739
 20
62.350459
 30
0.0
 11
44.033739
 21
62.095142
 31
0.0
  0
LINE
  5
DCC2
  8
ALPHA
 10
44.108739
 20
59.861099
 30
0.0
 11
44.108739
 21
59.54195
 31
0.0
  0
LINE
  5
DCC3
  8
ALPHA
 10
44.108739
 20
61.83982
 30
0.0
 11
44.108739
 21
61.712161
 31
0.0
  0
LINE
  5
DCC4
  8
ALPHA
 10
44.108739
 20
61.712161
 30
0.0
 11
44.033739
 21
61.456844
 31
0.0
  0
LINE
  5
DCC5
  8
ALPHA
 10
43.658739
 20
61.712161
 30
0.0
 11
43.658739
 21
61.83982
 31
0.0
  0
LINE
  5
DCC6
  8
ALPHA
 10
44.033739
 20
61.456844
 30
0.0
 11
43.883739
 21
61.265354
 31
0.0
  0
LINE
  5
DCC7
  8
ALPHA
 10
43.583739
 20
67.286632
 30
0.0
 11
43.208739
 21
67.478118
 31
0.0
  0
LINE
  5
DCC8
  8
ALPHA
 10
43.658739
 20
66.648334
 30
0.0
 11
43.358739
 21
67.03131
 31
0.0
  0
LINE
  5
DCC9
  8
ALPHA
 10
43.358739
 20
65.052589
 30
0.0
 11
43.658739
 21
65.435565
 31
0.0
  0
LINE
  5
DCCA
  8
ALPHA
 10
43.208739
 20
64.605781
 30
0.0
 11
43.583739
 21
64.797267
 31
0.0
  0
LINE
  5
DCCB
  8
ALPHA
 10
43.358739
 20
67.03131
 30
0.0
 11
43.133739
 21
67.158969
 31
0.0
  0
LINE
  5
DCCC
  8
ALPHA
 10
43.133739
 20
67.158969
 30
0.0
 11
42.758739
 21
67.222801
 31
0.0
  0
LINE
  5
DCCD
  8
ALPHA
 10
43.208739
 20
67.478118
 30
0.0
 11
42.758739
 21
67.54195
 31
0.0
  0
LINE
  5
DCCE
  8
ALPHA
 10
42.758739
 20
67.54195
 30
0.0
 11
42.308739
 21
67.478118
 31
0.0
  0
LINE
  5
DCCF
  8
ALPHA
 10
42.758739
 20
67.222801
 30
0.0
 11
42.383739
 21
67.158969
 31
0.0
  0
LINE
  5
DCD0
  8
ALPHA
 10
41.708739
 20
64.988757
 30
0.0
 11
41.933739
 21
64.797267
 31
0.0
  0
LINE
  5
DCD1
  8
ALPHA
 10
42.158739
 20
65.052589
 30
0.0
 11
42.383739
 21
64.92493
 31
0.0
  0
LINE
  5
DCD2
  8
ALPHA
 10
41.933739
 20
64.797267
 30
0.0
 11
42.308739
 21
64.605781
 31
0.0
  0
LINE
  5
DCD3
  8
ALPHA
 10
42.383739
 20
64.92493
 30
0.0
 11
42.758739
 21
64.861099
 31
0.0
  0
LINE
  5
DCD4
  8
ALPHA
 10
42.308739
 20
64.605781
 30
0.0
 11
42.758739
 21
64.54195
 31
0.0
  0
LINE
  5
DCD5
  8
ALPHA
 10
42.758739
 20
64.54195
 30
0.0
 11
43.208739
 21
64.605781
 31
0.0
  0
LINE
  5
DCD6
  8
ALPHA
 10
42.758739
 20
64.861099
 30
0.0
 11
43.133739
 21
64.92493
 31
0.0
  0
LINE
  5
DCD7
  8
ALPHA
 10
41.558739
 20
65.244079
 30
0.0
 11
41.708739
 21
64.988757
 31
0.0
  0
LINE
  5
DCD8
  8
ALPHA
 10
41.858739
 20
65.435565
 30
0.0
 11
42.158739
 21
65.052589
 31
0.0
  0
LINE
  5
DCD9
  8
ALPHA
 10
41.783739
 20
65.818546
 30
0.0
 11
41.858739
 21
65.435565
 31
0.0
  0
LINE
  5
DCDA
  8
ALPHA
 10
41.783739
 20
66.265354
 30
0.0
 11
41.783739
 21
65.818546
 31
0.0
  0
LINE
  5
DCDB
  8
ALPHA
 10
41.858739
 20
66.648334
 30
0.0
 11
41.783739
 21
66.265354
 31
0.0
  0
LINE
  5
DCDC
  8
ALPHA
 10
41.708739
 20
67.095142
 30
0.0
 11
41.558739
 21
66.83982
 31
0.0
  0
LINE
  5
DCDD
  8
ALPHA
 10
43.133739
 20
64.92493
 30
0.0
 11
43.358739
 21
65.052589
 31
0.0
  0
LINE
  5
DCDE
  8
ALPHA
 10
41.933739
 20
67.286632
 30
0.0
 11
41.708739
 21
67.095142
 31
0.0
  0
LINE
  5
DCDF
  8
ALPHA
 10
42.158739
 20
67.03131
 30
0.0
 11
41.858739
 21
66.648334
 31
0.0
  0
LINE
  5
DCE0
  8
ALPHA
 10
42.308739
 20
67.478118
 30
0.0
 11
41.933739
 21
67.286632
 31
0.0
  0
LINE
  5
DCE1
  8
ALPHA
 10
42.383739
 20
67.158969
 30
0.0
 11
42.158739
 21
67.03131
 31
0.0
  0
LINE
  5
DCE2
  8
ALPHA
 10
43.808739
 20
67.095142
 30
0.0
 11
43.583739
 21
67.286632
 31
0.0
  0
LINE
  5
DCE3
  8
ALPHA
 10
44.033739
 20
66.648334
 30
0.0
 11
43.958739
 21
66.83982
 31
0.0
  0
LINE
  5
DCE4
  8
ALPHA
 10
43.958739
 20
66.83982
 30
0.0
 11
43.808739
 21
67.095142
 31
0.0
  0
LINE
  5
DCE5
  8
ALPHA
 10
43.733739
 20
66.265354
 30
0.0
 11
43.658739
 21
66.648334
 31
0.0
  0
LINE
  5
DCE6
  8
ALPHA
 10
44.108739
 20
66.329185
 30
0.0
 11
44.033739
 21
66.648334
 31
0.0
  0
LINE
  5
DCE7
  8
ALPHA
 10
44.108739
 20
65.754714
 30
0.0
 11
44.108739
 21
66.329185
 31
0.0
  0
LINE
  5
DCE8
  8
ALPHA
 10
44.033739
 20
65.435565
 30
0.0
 11
44.108739
 21
65.754714
 31
0.0
  0
LINE
  5
DCE9
  8
ALPHA
 10
43.658739
 20
65.435565
 30
0.0
 11
43.733739
 21
65.818546
 31
0.0
  0
LINE
  5
DCEA
  8
ALPHA
 10
43.733739
 20
65.818546
 30
0.0
 11
43.733739
 21
66.265354
 31
0.0
  0
LINE
  5
DCEB
  8
ALPHA
 10
43.808739
 20
64.988757
 30
0.0
 11
43.958739
 21
65.244079
 31
0.0
  0
LINE
  5
DCEC
  8
ALPHA
 10
43.958739
 20
65.244079
 30
0.0
 11
44.033739
 21
65.435565
 31
0.0
  0
LINE
  5
DCED
  8
ALPHA
 10
43.583739
 20
64.797267
 30
0.0
 11
43.808739
 21
64.988757
 31
0.0
  0
LINE
  5
DCEE
  8
ALPHA
 10
47.608739
 20
60.94195
 30
0.0
 11
47.608739
 21
65.04195
 31
0.0
  0
LINE
  5
DCEF
  8
ALPHA
 10
52.108739
 20
62.54195
 30
0.0
 11
52.108739
 21
59.54195
 31
0.0
  0
LINE
  5
DCF0
  8
ALPHA
 10
51.108739
 20
67.54195
 30
0.0
 11
51.108739
 21
64.54195
 31
0.0
  0
ARC
  5
DCF1
  8
ALPHA
 10
41.108739
 20
31.19195
 30
0.0
 40
44.1
 50
71.304254
 51
79.46456
  0
ARC
  5
DCF2
  8
ALPHA
 10
41.108739
 20
31.19195
 30
0.0
 40
44.410761
 50
71.859774
 51
79.132638
  0
ARC
  5
DCF3
  8
ALPHA
 10
41.108739
 20
31.19195
 30
0.0
 40
44.610731
 50
71.859773
 51
79.132638
  0
ARC
  5
DCF4
  8
ALPHA
 10
51.108739
 20
79.54195
 30
0.0
 40
2.1
 50
121.588136
 51
270.0
  0
ARC
  5
DCF5
  8
ALPHA
 10
41.108739
 20
30.324963
 30
0.0
 40
44.0
 50
69.813532
 51
83.475021
  0
LINE
  5
DCF6
  8
ALPHA
 10
42.014021
 20
86.99195
 30
0.0
 11
51.926927
 21
86.99195
 31
0.0
  0
LINE
  5
DCF7
  8
ALPHA
 10
48.455149
 20
86.39195
 30
0.0
 11
51.608739
 21
86.39195
 31
0.0
  0
LINE
  5
DCF8
  8
ALPHA
 10
48.438117
 20
86.356941
 30
0.0
 11
50.608739
 21
86.356941
 31
0.0
  0
LINE
  5
DCF9
  8
ALPHA
 10
46.808739
 20
85.79195
 30
0.0
 11
50.608739
 21
85.79195
 31
0.0
  0
LINE
  5
DCFA
  8
ALPHA
 10
49.541751
 20
85.69195
 30
0.0
 11
51.708739
 21
85.69195
 31
0.0
  0
LINE
  5
DCFB
  8
ALPHA
 10
50.458739
 20
84.19195
 30
0.0
 11
48.858739
 21
84.19195
 31
0.0
  0
LINE
  5
DCFC
  8
ALPHA
 10
48.108739
 20
83.973761
 30
0.0
 11
50.72711
 21
83.973761
 31
0.0
  0
LINE
  5
DCFD
  8
ALPHA
 10
50.008739
 20
81.54195
 30
0.0
 11
48.108739
 21
81.54195
 31
0.0
  0
LINE
  5
DCFE
  8
ALPHA
 10
49.208708
 20
76.34195
 30
0.0
 11
50.399278
 21
76.34195
 31
0.0
  0
LINE
  5
DCFF
  8
ALPHA
 10
52.108739
 20
75.831219
 30
0.0
 11
49.335946
 21
75.831192
 31
0.0
  0
LINE
  5
DD00
  8
ALPHA
 10
49.519469
 20
76.031188
 30
0.0
 11
52.108739
 21
76.031188
 31
0.0
  0
LINE
  5
DD01
  8
ALPHA
 10
48.108739
 20
75.083467
 30
0.0
 11
48.108739
 21
83.973761
 31
0.0
  0
LINE
  5
DD02
  8
ALPHA
 10
47.9878
 20
75.224043
 30
0.0
 11
47.9878
 21
82.571057
 31
0.0
  0
LINE
  5
DD03
  8
ALPHA
 10
47.634288
 20
75.224043
 30
0.0
 11
47.634288
 21
82.571057
 31
0.0
  0
LINE
  5
DD04
  8
ALPHA
 10
41.955921
 20
82.624849
 30
0.0
 11
41.955921
 21
75.648532
 31
0.0
  0
LINE
  5
DD05
  8
ALPHA
 10
41.775885
 20
82.624849
 30
0.0
 11
41.775885
 21
75.648532
 31
0.0
  0
LINE
  5
DD06
  8
ALPHA
 10
41.713975
 20
75.587913
 30
0.0
 11
41.713975
 21
82.686759
 31
0.0
  0
ARC
  5
DD07
  8
ALPHA
 10
41.108739
 20
31.19195
 30
0.0
 40
44.105237
 50
83.490657
 51
88.831961
  0
POLYLINE
  5
DD08
  8
ALPHA
 66
     1
 10
0.0
 20
0.0
 30
0.0
  0
VERTEX
  5
E73E
  8
ALPHA
 10
42.051659
 20
75.548748
 30
0.0
  0
VERTEX
  5
E73F
  8
ALPHA
 10
43.308331
 20
75.506328
 30
0.0
  0
VERTEX
  5
E740
  8
ALPHA
 10
44.53199
 20
75.432638
 30
0.0
  0
VERTEX
  5
E741
  8
ALPHA
 10
45.679183
 20
75.33495
 30
0.0
  0
VERTEX
  5
E742
  8
ALPHA
 10
46.690405
 20
75.226585
 30
0.0
  0
VERTEX
  5
E743
  8
ALPHA
 10
47.524412
 20
75.122482
 30
0.0
  0
SEQEND
  5
E744
  8
ALPHA
  0
POLYLINE
  5
DD09
  8
ALPHA
 66
     1
 10
0.0
 20
0.0
 30
0.0
  0
VERTEX
  5
E745
  8
ALPHA
 10
42.069496
 20
75.348826
 30
0.0
  0
VERTEX
  5
E746
  8
ALPHA
 10
43.350346
 20
75.306599
 30
0.0
  0
VERTEX
  5
E747
  8
ALPHA
 10
44.597899
 20
75.233211
 30
0.0
  0
VERTEX
  5
E748
  8
ALPHA
 10
45.767552
 20
75.135915
 30
0.0
  0
VERTEX
  5
E749
  8
ALPHA
 10
46.797949
 20
75.028058
 30
0.0
  0
VERTEX
  5
E74A
  8
ALPHA
 10
47.645807
 20
74.92471
 30
0.0
  0
SEQEND
  5
E74B
  8
ALPHA
  0
LINE
  5
DD0A
  8
ALPHA
 10
43.483739
 20
71.318546
 30
0.0
 11
44.108739
 21
71.318546
 31
0.0
  0
LINE
  5
DD0B
  8
ALPHA
 10
44.108739
 20
70.935565
 30
0.0
 11
43.483739
 21
70.935565
 31
0.0
  0
LINE
  5
DD0C
  8
ALPHA
 10
43.108739
 20
73.04195
 30
0.0
 11
43.483739
 21
73.04195
 31
0.0
  0
LINE
  5
DD0D
  8
ALPHA
 10
43.108739
 20
71.318546
 30
0.0
 11
42.046239
 21
71.318546
 31
0.0
  0
LINE
  5
DD0E
  8
ALPHA
 10
43.108739
 20
70.935565
 30
0.0
 11
41.608739
 21
70.935565
 31
0.0
  0
LINE
  5
DD0F
  8
ALPHA
 10
43.483739
 20
70.04195
 30
0.0
 11
43.108739
 21
70.04195
 31
0.0
  0
LINE
  5
DD10
  8
ALPHA
 10
43.483739
 20
70.935565
 30
0.0
 11
43.483739
 21
70.04195
 31
0.0
  0
LINE
  5
DD11
  8
ALPHA
 10
43.483739
 20
73.04195
 30
0.0
 11
43.483739
 21
71.318546
 31
0.0
  0
LINE
  5
DD12
  8
ALPHA
 10
43.108739
 20
70.04195
 30
0.0
 11
43.108739
 21
70.935565
 31
0.0
  0
LINE
  5
DD13
  8
ALPHA
 10
43.108739
 20
72.53131
 30
0.0
 11
43.108739
 21
71.318546
 31
0.0
  0
LINE
  5
DD14
  8
ALPHA
 10
41.608739
 20
70.935565
 30
0.0
 11
41.608739
 21
71.318546
 31
0.0
  0
LINE
  5
DD15
  8
ALPHA
 10
42.046239
 20
71.318546
 30
0.0
 11
43.108739
 21
72.53131
 31
0.0
  0
LINE
  5
DD16
  8
ALPHA
 10
41.608739
 20
71.318546
 30
0.0
 11
43.108739
 21
73.04195
 31
0.0
  0
LINE
  5
DD17
  8
ALPHA
 10
44.108739
 20
71.318546
 30
0.0
 11
44.108739
 21
70.935565
 31
0.0
  0
POLYLINE
  5
DD18
  8
ALPHA
 66
     1
 10
0.0
 20
0.0
 30
0.0
  0
VERTEX
  5
E74C
  8
ALPHA
 10
42.007812
 20
75.288022
 30
0.0
  0
VERTEX
  5
E74D
  8
ALPHA
 10
41.894916
 20
75.312576
 30
0.0
  0
VERTEX
  5
E74E
  8
ALPHA
 10
41.799674
 20
75.377981
 30
0.0
  0
VERTEX
  5
E74F
  8
ALPHA
 10
41.736223
 20
75.474537
 30
0.0
  0
VERTEX
  5
E750
  8
ALPHA
 10
41.713975
 20
75.587913
 30
0.0
  0
SEQEND
  5
E751
  8
ALPHA
  0
LINE
  5
DD19
  8
ALPHA
 10
41.775885
 20
75.648532
 30
0.0
 11
41.955921
 21
75.648532
 31
0.0
  0
POLYLINE
  5
DD1A
  8
ALPHA
 66
     1
 10
0.0
 20
0.0
 30
0.0
  0
VERTEX
  5
E752
  8
ALPHA
 10
42.069495
 20
75.348819
 30
0.0
  0
VERTEX
  5
E753
  8
ALPHA
 10
42.059137
 20
75.376899
 30
0.0
  0
VERTEX
  5
E754
  8
ALPHA
 10
42.052624
 20
75.449904
 30
0.0
  0
VERTEX
  5
E755
  8
ALPHA
 10
42.051658
 20
75.548748
 30
0.0
  0
SEQEND
  5
E756
  8
ALPHA
  0
POLYLINE
  5
DD1B
  8
ALPHA
 66
     1
 10
0.0
 20
0.0
 30
0.0
  0
VERTEX
  5
E757
  8
ALPHA
 10
41.955921
 20
75.648532
 30
0.0
  0
VERTEX
  5
E758
  8
ALPHA
 10
41.960422
 20
75.618573
 30
0.0
  0
VERTEX
  5
E759
  8
ALPHA
 10
41.974314
 20
75.590211
 30
0.0
  0
VERTEX
  5
E75A
  8
ALPHA
 10
41.996364
 20
75.567636
 30
0.0
  0
VERTEX
  5
E75B
  8
ALPHA
 10
42.02347
 20
75.55359
 30
0.0
  0
VERTEX
  5
E75C
  8
ALPHA
 10
42.051659
 20
75.548748
 30
0.0
  0
SEQEND
  5
E75D
  8
ALPHA
  0
POLYLINE
  5
DD1C
  8
ALPHA
 66
     1
 10
0.0
 20
0.0
 30
0.0
  0
VERTEX
  5
E75E
  8
ALPHA
 10
41.775892
 20
75.648532
 30
0.0
  0
VERTEX
  5
E75F
  8
ALPHA
 10
41.789763
 20
75.558472
 30
0.0
  0
VERTEX
  5
E760
  8
ALPHA
 10
41.832433
 20
75.473369
 30
0.0
  0
VERTEX
  5
E761
  8
ALPHA
 10
41.899909
 20
75.405747
 30
0.0
  0
VERTEX
  5
E762
  8
ALPHA
 10
41.98295
 20
75.36351
 30
0.0
  0
VERTEX
  5
E763
  8
ALPHA
 10
42.069496
 20
75.348829
 30
0.0
  0
SEQEND
  5
E764
  8
ALPHA
  0
LINE
  5
DD1D
  8
ALPHA
 10
41.775885
 20
75.648532
 30
0.0
 11
41.713975
 21
75.587913
 31
0.0
  0
LINE
  5
DD1E
  8
ALPHA
 10
42.069496
 20
75.348826
 30
0.0
 11
42.007815
 21
75.288021
 31
0.0
  0
LINE
  5
DD1F
  8
ALPHA
 10
46.108739
 20
75.007586
 30
0.0
 11
46.108739
 21
74.039949
 31
0.0
  0
ARC
  5
DD20
  8
ALPHA
 10
41.108739
 20
31.19195
 30
0.0
 40
44.1
 50
81.320792
 51
83.489881
  0
LINE
  5
DD21
  8
ALPHA
 10
47.763521
 20
74.786948
 30
0.0
 11
47.645807
 21
74.92471
 31
0.0
  0
POLYLINE
  5
DD22
  8
ALPHA
 66
     1
 10
0.0
 20
0.0
 30
0.0
  0
VERTEX
  5
E765
  8
ALPHA
 10
47.645807
 20
74.924709
 30
0.0
  0
VERTEX
  5
E766
  8
ALPHA
 10
47.711464
 20
74.922722
 30
0.0
  0
VERTEX
  5
E767
  8
ALPHA
 10
47.780402
 20
74.936661
 30
0.0
  0
VERTEX
  5
E768
  8
ALPHA
 10
47.847096
 20
74.968174
 30
0.0
  0
VERTEX
  5
E769
  8
ALPHA
 10
47.906112
 20
75.017073
 30
0.0
  0
VERTEX
  5
E76A
  8
ALPHA
 10
47.95177
 20
75.080775
 30
0.0
  0
VERTEX
  5
E76B
  8
ALPHA
 10
47.97923
 20
75.152792
 30
0.0
  0
VERTEX
  5
E76C
  8
ALPHA
 10
47.987794
 20
75.224043
 30
0.0
  0
SEQEND
  5
E76D
  8
ALPHA
  0
LINE
  5
DD23
  8
ALPHA
 10
47.9878
 20
75.224043
 30
0.0
 11
47.634288
 21
75.224043
 31
0.0
  0
POLYLINE
  5
DD24
  8
ALPHA
 66
     1
 10
0.0
 20
0.0
 30
0.0
  0
VERTEX
  5
E76E
  8
ALPHA
 10
47.645807
 20
74.924709
 30
0.0
  0
VERTEX
  5
E76F
  8
ALPHA
 10
47.580304
 20
74.958661
 30
0.0
  0
VERTEX
  5
E770
  8
ALPHA
 10
47.536506
 20
75.030016
 30
0.0
  0
VERTEX
  5
E771
  8
ALPHA
 10
47.524412
 20
75.122482
 30
0.0
  0
SEQEND
  5
E772
  8
ALPHA
  0
POLYLINE
  5
DD25
  8
ALPHA
 66
     1
 10
0.0
 20
0.0
 30
0.0
  0
VERTEX
  5
E773
  8
ALPHA
 10
47.524412
 20
75.122482
 30
0.0
  0
VERTEX
  5
E774
  8
ALPHA
 10
47.54553
 20
75.122153
 30
0.0
  0
VERTEX
  5
E775
  8
ALPHA
 10
47.567689
 20
75.127158
 30
0.0
  0
VERTEX
  5
E776
  8
ALPHA
 10
47.589112
 20
75.138011
 30
0.0
  0
VERTEX
  5
E777
  8
ALPHA
 10
47.608057
 20
75.154619
 30
0.0
  0
VERTEX
  5
E778
  8
ALPHA
 10
47.6227
 20
75.176062
 30
0.0
  0
VERTEX
  5
E779
  8
ALPHA
 10
47.631539
 20
75.20019
 30
0.0
  0
VERTEX
  5
E77A
  8
ALPHA
 10
47.634288
 20
75.224043
 30
0.0
  0
SEQEND
  5
E77B
  8
ALPHA
  0
LINE
  5
DD26
  8
ALPHA
 10
49.519469
 20
76.031188
 30
0.0
 11
49.208708
 21
76.34195
 31
0.0
  0
LINE
  5
DD27
  8
ALPHA
 10
49.3195
 20
75.831219
 30
0.0
 11
49.008739
 21
76.14198
 31
0.0
  0
POLYLINE
  5
DD28
  8
ALPHA
 66
     1
 10
0.0
 20
0.0
 30
0.0
  0
VERTEX
  5
E77C
  8
ALPHA
 10
49.172145
 20
74.548512
 30
0.0
  0
VERTEX
  5
E77D
  8
ALPHA
 10
49.088295
 20
74.585456
 30
0.0
  0
VERTEX
  5
E77E
  8
ALPHA
 10
49.029729
 20
74.655919
 30
0.0
  0
VERTEX
  5
E77F
  8
ALPHA
 10
49.008739
 20
74.74511
 30
0.0
  0
SEQEND
  5
E780
  8
ALPHA
  0
LINE
  5
DD29
  8
ALPHA
 10
48.108739
 20
75.083467
 30
0.0
 11
47.9878
 21
75.224043
 31
0.0
  0
LINE
  5
DD2A
  8
ALPHA
 10
49.335946
 20
75.831192
 30
0.0
 11
49.3195
 21
75.831219
 31
0.0
  0
POLYLINE
  5
DD2B
  8
ALPHA
 66
     1
 10
0.0
 20
0.0
 30
0.0
  0
VERTEX
  5
E781
  8
ALPHA
 10
49.519469
 20
75.002643
 30
0.0
  0
VERTEX
  5
E782
  8
ALPHA
 10
49.444927
 20
75.002574
 30
0.0
  0
VERTEX
  5
E783
  8
ALPHA
 10
49.380295
 20
75.002714
 30
0.0
  0
VERTEX
  5
E784
  8
ALPHA
 10
49.335871
 20
75.002576
 30
0.0
  0
VERTEX
  5
E785
  8
ALPHA
 10
49.3195
 20
75.002643
 30
0.0
  0
SEQEND
  5
E786
  8
ALPHA
  0
POLYLINE
  5
DD2C
  8
ALPHA
 66
     1
 10
0.0
 20
0.0
 30
0.0
  0
VERTEX
  5
E787
  8
ALPHA
 10
49.519469
 20
76.031188
 30
0.0
  0
VERTEX
  5
E788
  8
ALPHA
 10
49.444762
 20
76.016687
 30
0.0
  0
VERTEX
  5
E789
  8
ALPHA
 10
49.379722
 20
75.974209
 30
0.0
  0
VERTEX
  5
E78A
  8
ALPHA
 10
49.334969
 20
75.908283
 30
0.0
  0
VERTEX
  5
E78B
  8
ALPHA
 10
49.3195
 20
75.831219
 30
0.0
  0
SEQEND
  5
E78C
  8
ALPHA
  0
POLYLINE
  5
DD2D
  8
ALPHA
 66
     1
 10
0.0
 20
0.0
 30
0.0
  0
VERTEX
  5
E78D
  8
ALPHA
 10
49.3195
 20
75.002643
 30
0.0
  0
VERTEX
  5
E78E
  8
ALPHA
 10
49.340711
 20
74.913055
 30
0.0
  0
VERTEX
  5
E78F
  8
ALPHA
 10
49.399767
 20
74.842481
 30
0.0
  0
VERTEX
  5
E790
  8
ALPHA
 10
49.481768
 20
74.80626
 30
0.0
  0
SEQEND
  5
E791
  8
ALPHA
  0
LINE
  5
DD2E
  8
ALPHA
 10
49.519469
 20
75.002641
 30
0.0
 11
49.519469
 21
76.031188
 31
0.0
  0
LINE
  5
DD2F
  8
ALPHA
 10
49.3195
 20
75.002643
 30
0.0
 11
49.3195
 21
75.831219
 31
0.0
  0
LINE
  5
DD30
  8
ALPHA
 10
49.008739
 20
74.74511
 30
0.0
 11
49.008739
 21
76.14198
 31
0.0
  0
POLYLINE
  5
DD31
  8
ALPHA
 66
     1
 10
0.0
 20
0.0
 30
0.0
  0
VERTEX
  5
E792
  8
ALPHA
 10
48.108739
 20
75.083467
 30
0.0
  0
VERTEX
  5
E793
  8
ALPHA
 10
48.081367
 20
74.958265
 30
0.0
  0
VERTEX
  5
E794
  8
ALPHA
 10
48.004235
 20
74.855917
 30
0.0
  0
VERTEX
  5
E795
  8
ALPHA
 10
47.89142
 20
74.795113
 30
0.0
  0
VERTEX
  5
E796
  8
ALPHA
 10
47.763521
 20
74.786948
 30
0.0
  0
SEQEND
  5
E797
  8
ALPHA
  0
POLYLINE
  5
DD32
  8
ALPHA
 66
     1
 10
0.0
 20
0.0
 30
0.0
  0
VERTEX
  5
E798
  8
ALPHA
 10
49.008739
 20
76.14198
 30
0.0
  0
VERTEX
  5
E799
  8
ALPHA
 10
49.024003
 20
76.218616
 30
0.0
  0
VERTEX
  5
E79A
  8
ALPHA
 10
49.067305
 20
76.283384
 30
0.0
  0
VERTEX
  5
E79B
  8
ALPHA
 10
49.132072
 20
76.326685
 30
0.0
  0
VERTEX
  5
E79C
  8
ALPHA
 10
49.208708
 20
76.34195
 30
0.0
  0
SEQEND
  5
E79D
  8
ALPHA
  0
LINE
  5
DD33
  8
ALPHA
 10
49.519469
 20
75.002643
 30
0.0
 11
49.481768
 21
74.80626
 31
0.0
  0
POLYLINE
  5
DD34
  8
ALPHA
 66
     1
 10
0.0
 20
0.0
 30
0.0
  0
VERTEX
  5
E79E
  8
ALPHA
 10
49.3195
 20
75.002643
 30
0.0
  0
VERTEX
  5
E79F
  8
ALPHA
 10
49.216034
 20
74.917068
 30
0.0
  0
VERTEX
  5
E7A0
  8
ALPHA
 10
49.112447
 20
74.831224
 30
0.0
  0
VERTEX
  5
E7A1
  8
ALPHA
 10
49.008739
 20
74.74511
 30
0.0
  0
SEQEND
  5
E7A2
  8
ALPHA
  0
POLYLINE
  5
DD35
  8
ALPHA
 66
     1
 10
0.0
 20
0.0
 30
0.0
  0
VERTEX
  5
E7A3
  8
ALPHA
 10
49.481768
 20
74.80626
 30
0.0
  0
VERTEX
  5
E7A4
  8
ALPHA
 10
49.378679
 20
74.720612
 30
0.0
  0
VERTEX
  5
E7A5
  8
ALPHA
 10
49.275472
 20
74.634697
 30
0.0
  0
VERTEX
  5
E7A6
  8
ALPHA
 10
49.172145
 20
74.548512
 30
0.0
  0
SEQEND
  5
E7A7
  8
ALPHA
  0
LINE
  5
DD36
  8
ALPHA
 10
49.108782
 20
89.54195
 30
0.0
 11
42.487976
 21
89.54195
 31
0.0
  0
POLYLINE
  5
DD37
  8
ALPHA
 66
     1
 10
0.0
 20
0.0
 30
0.0
  0
VERTEX
  5
E7A8
  8
ALPHA
 10
45.608739
 20
86.581615
 30
0.0
  0
VERTEX
  5
E7A9
  8
ALPHA
 10
46.031499
 20
86.524222
 30
0.0
  0
VERTEX
  5
E7AA
  8
ALPHA
 10
46.36828
 20
86.473796
 30
0.0
  0
VERTEX
  5
E7AB
  8
ALPHA
 10
46.611528
 20
86.433814
 30
0.0
  0
VERTEX
  5
E7AC
  8
ALPHA
 10
46.759462
 20
86.40635
 30
0.0
  0
VERTEX
  5
E7AD
  8
ALPHA
 10
46.808739
 20
86.39313
 30
0.0
  0
SEQEND
  5
E7AE
  8
ALPHA
  0
LINE
  5
DD38
  8
ALPHA
 10
45.508739
 20
86.84195
 30
0.0
 11
47.51739
 21
86.84195
 31
0.0
  0
POLYLINE
  5
DD39
  8
ALPHA
 66
     1
 10
0.0
 20
0.0
 30
0.0
  0
VERTEX
  5
E7AF
  8
ALPHA
 10
45.608739
 20
85.984599
 30
0.0
  0
VERTEX
  5
E7B0
  8
ALPHA
 10
46.031499
 20
85.926303
 30
0.0
  0
VERTEX
  5
E7B1
  8
ALPHA
 10
46.36828
 20
85.875084
 30
0.0
  0
VERTEX
  5
E7B2
  8
ALPHA
 10
46.611528
 20
85.834473
 30
0.0
  0
VERTEX
  5
E7B3
  8
ALPHA
 10
46.759462
 20
85.806576
 30
0.0
  0
VERTEX
  5
E7B4
  8
ALPHA
 10
46.790033
 20
85.798246
 30
0.0
  0
SEQEND
  5
E7B5
  8
ALPHA
  0
LINE
  5
DD3A
  8
ALPHA
 10
48.103502
 20
83.978998
 30
0.0
 11
42.013929
 21
83.978998
 31
0.0
  0
POLYLINE
  5
DD3B
  8
ALPHA
 66
     1
 10
0.0
 20
0.0
 30
0.0
  0
VERTEX
  5
E7B6
  8
ALPHA
 10
45.508739
 20
85.580589
 30
0.0
  0
VERTEX
  5
E7B7
  8
ALPHA
 10
46.473496
 20
85.594323
 30
0.0
  0
VERTEX
  5
E7B8
  8
ALPHA
 10
47.304805
 20
85.610692
 30
0.0
  0
SEQEND
  5
E7B9
  8
ALPHA
  0
POLYLINE
  5
DD3C
  8
ALPHA
 66
     1
 10
0.0
 20
0.0
 30
0.0
  0
VERTEX
  5
E7BA
  8
ALPHA
 10
45.508739
 20
85.610826
 30
0.0
  0
VERTEX
  5
E7BB
  8
ALPHA
 10
46.202336
 20
85.624312
 30
0.0
  0
VERTEX
  5
E7BC
  8
ALPHA
 10
46.763513
 20
85.639632
 30
0.0
  0
VERTEX
  5
E7BD
  8
ALPHA
 10
47.172924
 20
85.656238
 30
0.0
  0
VERTEX
  5
E7BE
  8
ALPHA
 10
47.424506
 20
85.673885
 30
0.0
  0
VERTEX
  5
E7BF
  8
ALPHA
 10
47.508739
 20
85.69195
 30
0.0
  0
SEQEND
  5
E7C0
  8
ALPHA
  0
POLYLINE
  5
DD3D
  8
ALPHA
 66
     1
 10
0.0
 20
0.0
 30
0.0
  0
VERTEX
  5
E7C1
  8
ALPHA
 10
47.538569
 20
82.673054
 30
0.0
  0
VERTEX
  5
E7C2
  8
ALPHA
 10
46.879594
 20
82.685227
 30
0.0
  0
VERTEX
  5
E7C3
  8
ALPHA
 10
46.226317
 20
82.694982
 30
0.0
  0
VERTEX
  5
E7C4
  8
ALPHA
 10
45.591591
 20
82.702753
 30
0.0
  0
VERTEX
  5
E7C5
  8
ALPHA
 10
44.985457
 20
82.708876
 30
0.0
  0
VERTEX
  5
E7C6
  8
ALPHA
 10
44.414102
 20
82.713638
 30
0.0
  0
VERTEX
  5
E7C7
  8
ALPHA
 10
43.879445
 20
82.717296
 30
0.0
  0
VERTEX
  5
E7C8
  8
ALPHA
 10
43.380341
 20
82.720066
 30
0.0
  0
VERTEX
  5
E7C9
  8
ALPHA
 10
42.913363
 20
82.722128
 30
0.0
  0
VERTEX
  5
E7CA
  8
ALPHA
 10
42.473472
 20
82.72362
 30
0.0
  0
VERTEX
  5
E7CB
  8
ALPHA
 10
42.053788
 20
82.724648
 30
0.0
  0
SEQEND
  5
E7CC
  8
ALPHA
  0
POLYLINE
  5
DD3E
  8
ALPHA
 66
     1
 10
0.0
 20
0.0
 30
0.0
  0
VERTEX
  5
E7CD
  8
ALPHA
 10
47.689859
 20
82.873024
 30
0.0
  0
VERTEX
  5
E7CE
  8
ALPHA
 10
47.016051
 20
82.885186
 30
0.0
  0
VERTEX
  5
E7CF
  8
ALPHA
 10
46.347252
 20
82.894945
 30
0.0
  0
VERTEX
  5
E7D0
  8
ALPHA
 10
45.697444
 20
82.902719
 30
0.0
  0
VERTEX
  5
E7D1
  8
ALPHA
 10
45.076911
 20
82.908843
 30
0.0
  0
VERTEX
  5
E7D2
  8
ALPHA
 10
44.492002
 20
82.913606
 30
0.0
  0
VERTEX
  5
E7D3
  8
ALPHA
 10
43.944697
 20
82.917265
 30
0.0
  0
VERTEX
  5
E7D4
  8
ALPHA
 10
43.433803
 20
82.920036
 30
0.0
  0
VERTEX
  5
E7D5
  8
ALPHA
 10
42.955799
 20
82.922098
 30
0.0
  0
VERTEX
  5
E7D6
  8
ALPHA
 10
42.505524
 20
82.923589
 30
0.0
  0
VERTEX
  5
E7D7
  8
ALPHA
 10
42.076025
 20
82.924618
 30
0.0
  0
SEQEND
  5
E7D8
  8
ALPHA
  0
LINE
  5
DD3F
  8
ALPHA
 10
42.013929
 20
82.986713
 30
0.0
 11
47.803548
 21
82.986713
 31
0.0
  0
POLYLINE
  5
DD40
  8
ALPHA
 66
     1
 10
0.0
 20
0.0
 30
0.0
  0
VERTEX
  5
E7D9
  8
ALPHA
 10
48.858739
 20
84.19195
 30
0.0
  0
VERTEX
  5
E7DA
  8
ALPHA
 10
48.758727
 20
84.170287
 30
0.0
  0
VERTEX
  5
E7DB
  8
ALPHA
 10
48.458668
 20
84.149048
 30
0.0
  0
VERTEX
  5
E7DC
  8
ALPHA
 10
47.970268
 20
84.129058
 30
0.0
  0
VERTEX
  5
E7DD
  8
ALPHA
 10
47.304805
 20
84.110692
 30
0.0
  0
VERTEX
  5
E7DE
  8
ALPHA
 10
46.473496
 20
84.094323
 30
0.0
  0
VERTEX
  5
E7DF
  8
ALPHA
 10
45.508739
 20
84.080589
 30
0.0
  0
SEQEND
  5
E7E0
  8
ALPHA
  0
LINE
  5
DD41
  8
ALPHA
 10
45.608739
 20
86.581615
 30
0.0
 11
45.608739
 21
85.984599
 31
0.0
  0
LINE
  5
DD42
  8
ALPHA
 10
45.508739
 20
84.061005
 30
0.0
 11
45.508739
 21
86.99195
 31
0.0
  0
LINE
  5
DD43
  8
ALPHA
 10
41.955921
 20
84.340862
 30
0.0
 11
41.955921
 21
86.69195
 31
0.0
  0
LINE
  5
DD44
  8
ALPHA
 10
41.775885
 20
84.340862
 30
0.0
 11
41.775885
 21
86.69195
 31
0.0
  0
LINE
  5
DD45
  8
ALPHA
 10
41.713975
 20
84.278952
 30
0.0
 11
41.713975
 21
86.69195
 31
0.0
  0
POLYLINE
  5
DD46
  8
ALPHA
 66
     1
 10
0.0
 20
0.0
 30
0.0
  0
VERTEX
  5
E7E1
  8
ALPHA
 10
45.508739
 20
84.061005
 30
0.0
  0
VERTEX
  5
E7E2
  8
ALPHA
 10
44.421582
 20
84.051592
 30
0.0
  0
VERTEX
  5
E7E3
  8
ALPHA
 10
43.27019
 20
84.044913
 30
0.0
  0
VERTEX
  5
E7E4
  8
ALPHA
 10
42.076025
 20
84.041093
 30
0.0
  0
SEQEND
  5
E7E5
  8
ALPHA
  0
POLYLINE
  5
DD47
  8
ALPHA
 66
     1
 10
0.0
 20
0.0
 30
0.0
  0
VERTEX
  5
E7E6
  8
ALPHA
 10
45.508739
 20
84.26205
 30
0.0
  0
VERTEX
  5
E7E7
  8
ALPHA
 10
44.417439
 20
84.252099
 30
0.0
  0
VERTEX
  5
E7E8
  8
ALPHA
 10
43.257807
 20
84.245055
 30
0.0
  0
VERTEX
  5
E7E9
  8
ALPHA
 10
42.053788
 20
84.241062
 30
0.0
  0
SEQEND
  5
E7EA
  8
ALPHA
  0
POLYLINE
  5
DD48
  8
ALPHA
 66
     1
 10
0.0
 20
0.0
 30
0.0
  0
VERTEX
  5
E7EB
  8
ALPHA
 10
42.053788
 20
84.241062
 30
0.0
  0
VERTEX
  5
E7EC
  8
ALPHA
 10
42.024346
 20
84.245637
 30
0.0
  0
VERTEX
  5
E7ED
  8
ALPHA
 10
41.996178
 20
84.260108
 30
0.0
  0
VERTEX
  5
E7EE
  8
ALPHA
 10
41.973747
 20
84.283358
 30
0.0
  0
VERTEX
  5
E7EF
  8
ALPHA
 10
41.960116
 20
84.311912
 30
0.0
  0
VERTEX
  5
E7F0
  8
ALPHA
 10
41.955921
 20
84.340862
 30
0.0
  0
SEQEND
  5
E7F1
  8
ALPHA
  0
LINE
  5
DD49
  8
ALPHA
 10
41.955921
 20
84.340862
 30
0.0
 11
41.775885
 21
84.340862
 31
0.0
  0
POLYLINE
  5
DD4A
  8
ALPHA
 66
     1
 10
0.0
 20
0.0
 30
0.0
  0
VERTEX
  5
E7F2
  8
ALPHA
 10
42.013929
 20
83.978998
 30
0.0
  0
VERTEX
  5
E7F3
  8
ALPHA
 10
41.899139
 20
84.001827
 30
0.0
  0
VERTEX
  5
E7F4
  8
ALPHA
 10
41.801824
 20
84.066847
 30
0.0
  0
VERTEX
  5
E7F5
  8
ALPHA
 10
41.736804
 20
84.164162
 30
0.0
  0
VERTEX
  5
E7F6
  8
ALPHA
 10
41.713975
 20
84.278952
 30
0.0
  0
SEQEND
  5
E7F7
  8
ALPHA
  0
POLYLINE
  5
DD4B
  8
ALPHA
 66
     1
 10
0.0
 20
0.0
 30
0.0
  0
VERTEX
  5
E7F8
  8
ALPHA
 10
42.076025
 20
84.041093
 30
0.0
  0
VERTEX
  5
E7F9
  8
ALPHA
 10
41.985729
 20
84.054948
 30
0.0
  0
VERTEX
  5
E7FA
  8
ALPHA
 10
41.899339
 20
84.098494
 30
0.0
  0
VERTEX
  5
E7FB
  8
ALPHA
 10
41.830549
 20
84.168344
 30
0.0
  0
VERTEX
  5
E7FC
  8
ALPHA
 10
41.788749
 20
84.254048
 30
0.0
  0
VERTEX
  5
E7FD
  8
ALPHA
 10
41.775885
 20
84.340862
 30
0.0
  0
SEQEND
  5
E7FE
  8
ALPHA
  0
LINE
  5
DD4C
  8
ALPHA
 10
41.775885
 20
82.624849
 30
0.0
 11
41.955921
 21
82.624849
 31
0.0
  0
POLYLINE
  5
DD4D
  8
ALPHA
 66
     1
 10
0.0
 20
0.0
 30
0.0
  0
VERTEX
  5
E7FF
  8
ALPHA
 10
42.076025
 20
82.924618
 30
0.0
  0
VERTEX
  5
E800
  8
ALPHA
 10
41.987455
 20
82.911301
 30
0.0
  0
VERTEX
  5
E801
  8
ALPHA
 10
41.902176
 20
82.869255
 30
0.0
  0
VERTEX
  5
E802
  8
ALPHA
 10
41.833057
 20
82.800874
 30
0.0
  0
VERTEX
  5
E803
  8
ALPHA
 10
41.789737
 20
82.71486
 30
0.0
  0
VERTEX
  5
E804
  8
ALPHA
 10
41.775885
 20
82.624849
 30
0.0
  0
SEQEND
  5
E805
  8
ALPHA
  0
POLYLINE
  5
DD4E
  8
ALPHA
 66
     1
 10
0.0
 20
0.0
 30
0.0
  0
VERTEX
  5
E806
  8
ALPHA
 10
42.053788
 20
82.724648
 30
0.0
  0
VERTEX
  5
E807
  8
ALPHA
 10
42.024968
 20
82.720269
 30
0.0
  0
VERTEX
  5
E808
  8
ALPHA
 10
41.997169
 20
82.706331
 30
0.0
  0
VERTEX
  5
E809
  8
ALPHA
 10
41.974571
 20
82.683534
 30
0.0
  0
VERTEX
  5
E80A
  8
ALPHA
 10
41.960423
 20
82.654818
 30
0.0
  0
VERTEX
  5
E80B
  8
ALPHA
 10
41.955921
 20
82.624849
 30
0.0
  0
SEQEND
  5
E80C
  8
ALPHA
  0
LINE
  5
DD4F
  8
ALPHA
 10
42.076025
 20
82.924618
 30
0.0
 11
42.013929
 21
82.986713
 31
0.0
  0
LINE
  5
DD50
  8
ALPHA
 10
41.775885
 20
82.624849
 30
0.0
 11
41.713975
 21
82.686759
 31
0.0
  0
POLYLINE
  5
DD51
  8
ALPHA
 66
     1
 10
0.0
 20
0.0
 30
0.0
  0
VERTEX
  5
E80D
  8
ALPHA
 10
42.053788
 20
84.241062
 30
0.0
  0
VERTEX
  5
E80E
  8
ALPHA
 10
42.056894
 20
84.142068
 30
0.0
  0
VERTEX
  5
E80F
  8
ALPHA
 10
42.065016
 20
84.06903
 30
0.0
  0
VERTEX
  5
E810
  8
ALPHA
 10
42.076025
 20
84.041098
 30
0.0
  0
SEQEND
  5
E811
  8
ALPHA
  0
POLYLINE
  5
DD52
  8
ALPHA
 66
     1
 10
0.0
 20
0.0
 30
0.0
  0
VERTEX
  5
E812
  8
ALPHA
 10
41.713975
 20
82.686759
 30
0.0
  0
VERTEX
  5
E813
  8
ALPHA
 10
41.736804
 20
82.801549
 30
0.0
  0
VERTEX
  5
E814
  8
ALPHA
 10
41.801824
 20
82.898864
 30
0.0
  0
VERTEX
  5
E815
  8
ALPHA
 10
41.899139
 20
82.963884
 30
0.0
  0
VERTEX
  5
E816
  8
ALPHA
 10
42.013929
 20
82.986713
 30
0.0
  0
SEQEND
  5
E817
  8
ALPHA
  0
POLYLINE
  5
DD53
  8
ALPHA
 66
     1
 10
0.0
 20
0.0
 30
0.0
  0
VERTEX
  5
E818
  8
ALPHA
 10
42.076025
 20
82.924613
 30
0.0
  0
VERTEX
  5
E819
  8
ALPHA
 10
42.065016
 20
82.896681
 30
0.0
  0
VERTEX
  5
E81A
  8
ALPHA
 10
42.056894
 20
82.823643
 30
0.0
  0
VERTEX
  5
E81B
  8
ALPHA
 10
42.053788
 20
82.724648
 30
0.0
  0
SEQEND
  5
E81C
  8
ALPHA
  0
LINE
  5
DD54
  8
ALPHA
 10
42.076025
 20
84.041093
 30
0.0
 11
42.013929
 21
83.978998
 31
0.0
  0
LINE
  5
DD55
  8
ALPHA
 10
41.775885
 20
84.340862
 30
0.0
 11
41.713975
 21
84.278952
 31
0.0
  0
LINE
  5
DD56
  8
ALPHA
 10
42.053818
 20
86.79195
 30
0.0
 11
45.508739
 21
86.79195
 31
0.0
  0
LINE
  5
DD57
  8
ALPHA
 10
41.955921
 20
86.69195
 30
0.0
 11
41.713975
 21
86.69195
 31
0.0
  0
POLYLINE
  5
DD58
  8
ALPHA
 66
     1
 10
0.0
 20
0.0
 30
0.0
  0
VERTEX
  5
E81D
  8
ALPHA
 10
42.053818
 20
86.79195
 30
0.0
  0
VERTEX
  5
E81E
  8
ALPHA
 10
42.056797
 20
86.891949
 30
0.0
  0
VERTEX
  5
E81F
  8
ALPHA
 10
42.064936
 20
86.965154
 30
0.0
  0
VERTEX
  5
E820
  8
ALPHA
 10
42.066943
 20
86.96999
 30
0.0
  0
SEQEND
  5
E821
  8
ALPHA
  0
POLYLINE
  5
DD59
  8
ALPHA
 66
     1
 10
0.0
 20
0.0
 30
0.0
  0
VERTEX
  5
E822
  8
ALPHA
 10
41.775885
 20
86.69195
 30
0.0
  0
VERTEX
  5
E823
  8
ALPHA
 10
41.790395
 20
86.784096
 30
0.0
  0
VERTEX
  5
E824
  8
ALPHA
 10
41.835304
 20
86.87113
 30
0.0
  0
VERTEX
  5
E825
  8
ALPHA
 10
41.905863
 20
86.939069
 30
0.0
  0
VERTEX
  5
E826
  8
ALPHA
 10
41.990854
 20
86.979612
 30
0.0
  0
VERTEX
  5
E827
  8
ALPHA
 10
42.015295
 20
86.983151
 30
0.0
  0
SEQEND
  5
E828
  8
ALPHA
  0
POLYLINE
  5
DD5A
  8
ALPHA
 66
     1
 10
0.0
 20
0.0
 30
0.0
  0
VERTEX
  5
E829
  8
ALPHA
 10
41.955921
 20
86.69195
 30
0.0
  0
VERTEX
  5
E82A
  8
ALPHA
 10
41.960651
 20
86.722651
 30
0.0
  0
VERTEX
  5
E82B
  8
ALPHA
 10
41.975288
 20
86.751658
 30
0.0
  0
VERTEX
  5
E82C
  8
ALPHA
 10
41.998294
 20
86.774309
 30
0.0
  0
VERTEX
  5
E82D
  8
ALPHA
 10
42.026017
 20
86.787832
 30
0.0
  0
VERTEX
  5
E82E
  8
ALPHA
 10
42.053818
 20
86.79195
 30
0.0
  0
SEQEND
  5
E82F
  8
ALPHA
  0
POLYLINE
  5
DD5B
  8
ALPHA
 66
     1
 10
0.0
 20
0.0
 30
0.0
  0
VERTEX
  5
E830
  8
ALPHA
 10
41.713975
 20
86.69195
 30
0.0
  0
VERTEX
  5
E831
  8
ALPHA
 10
41.736812
 20
86.806749
 30
0.0
  0
VERTEX
  5
E832
  8
ALPHA
 10
41.801852
 20
86.904077
 30
0.0
  0
VERTEX
  5
E833
  8
ALPHA
 10
41.899192
 20
86.969111
 30
0.0
  0
VERTEX
  5
E834
  8
ALPHA
 10
42.014021
 20
86.99195
 30
0.0
  0
SEQEND
  5
E835
  8
ALPHA
  0
LINE
  5
DD5C
  8
ALPHA
 10
45.608739
 20
86.39195
 30
0.0
 11
45.508739
 21
86.39195
 31
0.0
  0
LINE
  5
DD5D
  8
ALPHA
 10
45.508739
 20
86.09195
 30
0.0
 11
45.608739
 21
86.09195
 31
0.0
  0
LINE
  5
DD5E
  8
ALPHA
 10
45.608739
 20
86.581615
 30
0.0
 11
45.608739
 21
86.84195
 31
0.0
  0
LINE
  5
DD5F
  8
ALPHA
 10
47.091847
 20
85.892232
 30
0.0
 11
46.808739
 21
86.106389
 31
0.0
  0
LINE
  5
DD60
  8
ALPHA
 10
46.808739
 20
85.791949
 30
0.0
 11
46.808739
 21
86.505201
 31
0.0
  0
POLYLINE
  5
DD61
  8
ALPHA
 66
     1
 10
0.0
 20
0.0
 30
0.0
  0
VERTEX
  5
E836
  8
ALPHA
 10
48.434958
 20
86.35145
 30
0.0
  0
VERTEX
  5
E837
  8
ALPHA
 10
48.293381
 20
86.192394
 30
0.0
  0
VERTEX
  5
E838
  8
ALPHA
 10
48.017735
 20
86.063362
 30
0.0
  0
VERTEX
  5
E839
  8
ALPHA
 10
47.614085
 20
85.964089
 30
0.0
  0
VERTEX
  5
E83A
  8
ALPHA
 10
47.091861
 20
85.892234
 30
0.0
  0
SEQEND
  5
E83B
  8
ALPHA
  0
LINE
  5
DD62
  8
ALPHA
 10
47.508739
 20
85.69195
 30
0.0
 11
48.858739
 21
85.69195
 31
0.0
  0
POLYLINE
  5
DD63
  8
ALPHA
 66
     1
 10
0.0
 20
0.0
 30
0.0
  0
VERTEX
  5
E83C
  8
ALPHA
 10
47.304805
 20
85.610692
 30
0.0
  0
VERTEX
  5
E83D
  8
ALPHA
 10
47.970268
 20
85.629058
 30
0.0
  0
VERTEX
  5
E83E
  8
ALPHA
 10
48.458668
 20
85.649048
 30
0.0
  0
SEQEND
  5
E83F
  8
ALPHA
  0
LINE
  5
DD64
  8
ALPHA
 10
47.9878
 20
82.571057
 30
0.0
 11
47.634288
 21
82.571057
 31
0.0
  0
POLYLINE
  5
DD65
  8
ALPHA
 66
     1
 10
0.0
 20
0.0
 30
0.0
  0
VERTEX
  5
E840
  8
ALPHA
 10
47.689859
 20
82.873023
 30
0.0
  0
VERTEX
  5
E841
  8
ALPHA
 10
47.614704
 20
82.845482
 30
0.0
  0
VERTEX
  5
E842
  8
ALPHA
 10
47.559402
 20
82.772389
 30
0.0
  0
VERTEX
  5
E843
  8
ALPHA
 10
47.538561
 20
82.673054
 30
0.0
  0
SEQEND
  5
E844
  8
ALPHA
  0
POLYLINE
  5
DD66
  8
ALPHA
 66
     1
 10
0.0
 20
0.0
 30
0.0
  0
VERTEX
  5
E845
  8
ALPHA
 10
47.091861
 20
85.892234
 30
0.0
  0
VERTEX
  5
E846
  8
ALPHA
 10
46.952884
 20
85.87891
 30
0.0
  0
VERTEX
  5
E847
  8
ALPHA
 10
46.808739
 20
85.86689
 30
0.0
  0
SEQEND
  5
E848
  8
ALPHA
  0
POLYLINE
  5
DD67
  8
ALPHA
 66
     1
 10
0.0
 20
0.0
 30
0.0
  0
VERTEX
  5
E849
  8
ALPHA
 10
47.634288
 20
82.571057
 30
0.0
  0
VERTEX
  5
E84A
  8
ALPHA
 10
47.631135
 20
82.596563
 30
0.0
  0
VERTEX
  5
E84B
  8
ALPHA
 10
47.621102
 20
82.621986
 30
0.0
  0
VERTEX
  5
E84C
  8
ALPHA
 10
47.604795
 20
82.643886
 30
0.0
  0
VERTEX
  5
E84D
  8
ALPHA
 10
47.584107
 20
82.660073
 30
0.0
  0
VERTEX
  5
E84E
  8
ALPHA
 10
47.561262
 20
82.669735
 30
0.0
  0
VERTEX
  5
E84F
  8
ALPHA
 10
47.538569
 20
82.673054
 30
0.0
  0
SEQEND
  5
E850
  8
ALPHA
  0
ARC
  5
DD68
  8
ALPHA
 10
49.108739
 20
85.44195
 30
0.0
 40
0.5
 50
30.0
 51
45.12891
  0
ARC
  5
DD69
  8
ALPHA
 10
49.108739
 20
85.44195
 30
0.0
 40
0.5
 50
136.334728
 51
150.0
  0
POLYLINE
  5
DD6A
  8
ALPHA
 66
     1
 10
0.0
 20
0.0
 30
0.0
  0
VERTEX
  5
E851
  8
ALPHA
 10
48.458668
 20
85.649048
 30
0.0
  0
VERTEX
  5
E852
  8
ALPHA
 10
48.758727
 20
85.670287
 30
0.0
  0
VERTEX
  5
E853
  8
ALPHA
 10
48.858739
 20
85.69195
 30
0.0
  0
SEQEND
  5
E854
  8
ALPHA
  0
POLYLINE
  5
DD6B
  8
ALPHA
 66
     1
 10
0.0
 20
0.0
 30
0.0
  0
VERTEX
  5
E855
  8
ALPHA
 10
47.803548
 20
82.986713
 30
0.0
  0
VERTEX
  5
E856
  8
ALPHA
 10
47.918338
 20
82.963884
 30
0.0
  0
VERTEX
  5
E857
  8
ALPHA
 10
48.015653
 20
82.898864
 30
0.0
  0
VERTEX
  5
E858
  8
ALPHA
 10
48.080673
 20
82.801549
 30
0.0
  0
VERTEX
  5
E859
  8
ALPHA
 10
48.103502
 20
82.686759
 30
0.0
  0
SEQEND
  5
E85A
  8
ALPHA
  0
LINE
  5
DD6C
  8
ALPHA
 10
48.103502
 20
83.978998
 30
0.0
 11
48.108739
 21
83.973761
 31
0.0
  0
POLYLINE
  5
DD6D
  8
ALPHA
 66
     1
 10
0.0
 20
0.0
 30
0.0
  0
VERTEX
  5
E85B
  8
ALPHA
 10
47.9878
 20
82.571057
 30
0.0
  0
VERTEX
  5
E85C
  8
ALPHA
 10
47.978006
 20
82.647361
 30
0.0
  0
VERTEX
  5
E85D
  8
ALPHA
 10
47.946745
 20
82.723232
 30
0.0
  0
VERTEX
  5
E85E
  8
ALPHA
 10
47.895938
 20
82.788282
 30
0.0
  0
VERTEX
  5
E85F
  8
ALPHA
 10
47.831512
 20
82.835984
 30
0.0
  0
VERTEX
  5
E860
  8
ALPHA
 10
47.76042
 20
82.864008
 30
0.0
  0
VERTEX
  5
E861
  8
ALPHA
 10
47.689859
 20
82.873024
 30
0.0
  0
SEQEND
  5
E862
  8
ALPHA
  0
LINE
  5
DD6E
  8
ALPHA
 10
48.858739
 20
85.69195
 30
0.0
 11
48.858739
 21
84.19195
 31
0.0
  0
LINE
  5
DD6F
  8
ALPHA
 10
48.103502
 20
83.978998
 30
0.0
 11
48.103502
 21
82.686759
 31
0.0
  0
LINE
  5
DD70
  8
ALPHA
 10
47.9878
 20
82.571057
 30
0.0
 11
48.103502
 21
82.686759
 31
0.0
  0
LINE
  5
DD71
  8
ALPHA
 10
47.689859
 20
82.873024
 30
0.0
 11
47.803548
 21
82.986713
 31
0.0
  0
ARC
  5
DD72
  8
ALPHA
 10
47.51739
 20
87.34195
 30
0.0
 40
0.5
 50
270.0
 51
315.467225
  0
POLYLINE
  5
DD73
  8
ALPHA
 66
     1
 10
0.0
 20
0.0
 30
0.0
  0
VERTEX
  5
E863
  8
ALPHA
 10
46.808739
 20
86.505201
 30
0.0
  0
VERTEX
  5
E864
  8
ALPHA
 10
47.308462
 20
86.576769
 30
0.0
  0
VERTEX
  5
E865
  8
ALPHA
 10
47.69401
 20
86.673625
 30
0.0
  0
VERTEX
  5
E866
  8
ALPHA
 10
47.955752
 20
86.797185
 30
0.0
  0
VERTEX
  5
E867
  8
ALPHA
 10
48.090096
 20
86.948189
 30
0.0
  0
SEQEND
  5
E868
  8
ALPHA
  0
POLYLINE
  5
DD74
  8
ALPHA
 66
     1
 10
0.0
 20
0.0
 30
0.0
  0
VERTEX
  5
E869
  8
ALPHA
 10
46.808739
 20
86.106389
 30
0.0
  0
VERTEX
  5
E86A
  8
ALPHA
 10
47.311024
 20
86.179198
 30
0.0
  0
VERTEX
  5
E86B
  8
ALPHA
 10
47.693591
 20
86.276437
 30
0.0
  0
VERTEX
  5
E86C
  8
ALPHA
 10
47.954513
 20
86.400573
 30
0.0
  0
VERTEX
  5
E86D
  8
ALPHA
 10
48.090096
 20
86.554024
 30
0.0
  0
SEQEND
  5
E86E
  8
ALPHA
  0
LINE
  5
DD75
  8
ALPHA
 10
46.108739
 20
89.334261
 30
0.0
 11
46.108739
 21
86.99195
 31
0.0
  0
LINE
  5
DD76
  8
ALPHA
 10
47.818714
 20
86.948189
 30
0.0
 11
48.090096
 21
86.948189
 31
0.0
  0
LINE
  5
DD77
  8
ALPHA
 10
49.108739
 20
89.54195
 30
0.0
 11
49.723227
 21
88.927461
 31
0.0
  0
LINE
  5
DD78
  8
ALPHA
 10
48.435128
 20
86.351725
 30
0.0
 11
48.320213
 21
86.419376
 31
0.0
  0
LINE
  5
DD79
  8
ALPHA
 10
48.320213
 20
86.419376
 30
0.0
 11
48.090096
 21
86.554024
 31
0.0
  0
LINE
  5
DD7A
  8
ALPHA
 10
48.455149
 20
86.39195
 30
0.0
 11
48.108739
 21
86.59195
 31
0.0
  0
LINE
  5
DD7C
  8
ALPHA
 10
48.934428
 20
86.99195
 30
0.0
 11
48.934428
 21
86.39195
 31
0.0
  0
LINE
  5
DD7D
  8
ALPHA
 10
48.308739
 20
86.47648
 30
0.0
 11
48.308739
 21
86.99195
 31
0.0
  0
LINE
  5
DD7E
  8
ALPHA
 10
48.108739
 20
86.59195
 30
0.0
 11
48.108739
 21
86.99195
 31
0.0
  0
LINE
  5
DD7F
  8
ALPHA
 10
48.090096
 20
86.948189
 30
0.0
 11
48.090096
 21
86.554024
 31
0.0
  0
POLYLINE
  5
DD80
  8
ALPHA
 66
     1
 10
0.0
 20
0.0
 30
0.0
  0
VERTEX
  5
E86F
  8
ALPHA
 10
48.438117
 20
86.356941
 30
0.0
  0
VERTEX
  5
E870
  8
ALPHA
 10
48.436738
 20
86.354332
 30
0.0
  0
VERTEX
  5
E871
  8
ALPHA
 10
48.434958
 20
86.35145
 30
0.0
  0
SEQEND
  5
E872
  8
ALPHA
  0
LINE
  5
DD81
  8
ALPHA
 10
48.090096
 20
86.554024
 30
0.0
 11
48.108739
 21
86.59195
 31
0.0
  0
LINE
  5
DD82
  8
ALPHA
 10
48.455149
 20
86.39195
 30
0.0
 11
48.438117
 21
86.356941
 31
0.0
  0
LINE
  5
DD83
  8
ALPHA
 10
48.090096
 20
86.948189
 30
0.0
 11
48.108739
 21
86.99195
 31
0.0
  0
POLYLINE
  5
DD84
  8
ALPHA
 66
     1
 10
0.0
 20
0.0
 30
0.0
  0
VERTEX
  5
E873
  8
ALPHA
 10
56.292106
 20
71.622243
 30
0.0
  0
VERTEX
  5
E874
  8
ALPHA
 10
56.275687
 20
76.930889
 30
0.0
  0
VERTEX
  5
E875
  8
ALPHA
 10
56.2586
 20
82.002415
 30
0.0
  0
VERTEX
  5
E876
  8
ALPHA
 10
56.240992
 20
86.836821
 30
0.0
  0
SEQEND
  5
E877
  8
ALPHA
  0
POLYLINE
  5
DD85
  8
ALPHA
 66
     1
 10
0.0
 20
0.0
 30
0.0
  0
VERTEX
  5
E878
  8
ALPHA
 10
56.508737
 20
72.141417
 30
0.0
  0
VERTEX
  5
E879
  8
ALPHA
 10
56.497965
 20
75.243995
 30
0.0
  0
VERTEX
  5
E87A
  8
ALPHA
 10
56.487287
 20
78.251311
 30
0.0
  0
VERTEX
  5
E87B
  8
ALPHA
 10
56.476699
 20
81.174071
 30
0.0
  0
VERTEX
  5
E87C
  8
ALPHA
 10
56.466208
 20
84.018369
 30
0.0
  0
VERTEX
  5
E87D
  8
ALPHA
 10
56.455843
 20
86.783661
 30
0.0
  0
SEQEND
  5
E87E
  8
ALPHA
  0
LINE
  5
DD86
  8
ALPHA
 10
54.208739
 20
81.54195
 30
0.0
 11
54.208739
 21
79.54195
 31
0.0
  0
ARC
  5
DD87
  8
ALPHA
 10
52.108739
 20
79.54195
 30
0.0
 40
3.2
 50
282.809283
 51
304.849905
  0
ARC
  5
DD88
  8
ALPHA
 10
52.108739
 20
79.54195
 30
0.0
 40
3.510761
 50
270.0
 51
304.849905
  0
ARC
  5
DD89
  8
ALPHA
 10
52.108739
 20
79.54195
 30
0.0
 40
3.710731
 50
270.0
 51
304.849905
  0
ARC
  5
DD8A
  8
ALPHA
 10
52.108739
 20
79.54195
 30
0.0
 40
2.1
 50
270.0
 51
0.0
  0
LINE
  5
DD8B
  8
ALPHA
 10
51.108739
 20
77.44195
 30
0.0
 11
52.108739
 21
77.44195
 31
0.0
  0
LINE
  5
DD8C
  8
ALPHA
 10
50.608739
 20
76.132489
 30
0.0
 11
52.108739
 21
76.132489
 31
0.0
  0
LINE
  5
DD8D
  8
ALPHA
 10
50.399278
 20
76.34195
 30
0.0
 11
50.608739
 21
76.132489
 31
0.0
  0
LINE
  5
DD8E
  8
ALPHA
 10
50.608739
 20
77.502342
 30
0.0
 11
50.608739
 21
76.132489
 31
0.0
  0
LINE
  5
DD8F
  8
ALPHA
 10
50.399278
 20
77.565421
 30
0.0
 11
50.399278
 21
76.34195
 31
0.0
  0
ARC
  5
DD90
  8
ALPHA
 10
52.108739
 20
79.54195
 30
0.0
 40
3.409461
 50
270.0
 51
278.432883
  0
LINE
  5
DD91
  8
ALPHA
 10
52.818199
 20
76.421587
 30
0.0
 11
52.818199
 21
77.565421
 31
0.0
  0
LINE
  5
DD92
  8
ALPHA
 10
52.608739
 20
76.169351
 30
0.0
 11
52.608739
 21
77.502342
 31
0.0
  0
LINE
  5
DD93
  8
ALPHA
 10
52.108739
 20
75.831219
 30
0.0
 11
52.108739
 21
76.132489
 31
0.0
  0
POLYLINE
  5
DD94
  8
ALPHA
 66
     1
 10
0.0
 20
0.0
 30
0.0
  0
VERTEX
  5
E87F
  8
ALPHA
 10
52.818199
 20
76.421587
 30
0.0
  0
VERTEX
  5
E880
  8
ALPHA
 10
52.749224
 20
76.336333
 30
0.0
  0
VERTEX
  5
E881
  8
ALPHA
 10
52.679403
 20
76.252284
 30
0.0
  0
VERTEX
  5
E882
  8
ALPHA
 10
52.608739
 20
76.169351
 30
0.0
  0
SEQEND
  5
E883
  8
ALPHA
  0
LINE
  5
DD95
  8
ALPHA
 10
55.508739
 20
73.15439
 30
0.0
 11
55.508739
 21
76.095212
 31
0.0
  0
LINE
  5
DD96
  8
ALPHA
 10
55.197978
 20
76.095212
 30
0.0
 11
55.197978
 21
73.58541
 31
0.0
  0
LINE
  5
DD97
  8
ALPHA
 10
54.998008
 20
76.095212
 30
0.0
 11
54.998008
 21
73.585408
 31
0.0
  0
POLYLINE
  5
DD98
  8
ALPHA
 66
     1
 10
0.0
 20
0.0
 30
0.0
  0
VERTEX
  5
E884
  8
ALPHA
 10
54.935749
 20
73.395379
 30
0.0
  0
VERTEX
  5
E885
  8
ALPHA
 10
55.038605
 20
73.252563
 30
0.0
  0
VERTEX
  5
E886
  8
ALPHA
 10
55.141579
 20
73.109096
 30
0.0
  0
VERTEX
  5
E887
  8
ALPHA
 10
55.24467
 20
72.964972
 30
0.0
  0
SEQEND
  5
E888
  8
ALPHA
  0
POLYLINE
  5
DD99
  8
ALPHA
 66
     1
 10
0.0
 20
0.0
 30
0.0
  0
VERTEX
  5
E889
  8
ALPHA
 10
55.197978
 20
73.58541
 30
0.0
  0
VERTEX
  5
E88A
  8
ALPHA
 10
55.301444
 20
73.442393
 30
0.0
  0
VERTEX
  5
E88B
  8
ALPHA
 10
55.405031
 20
73.298722
 30
0.0
  0
VERTEX
  5
E88C
  8
ALPHA
 10
55.508739
 20
73.15439
 30
0.0
  0
SEQEND
  5
E88D
  8
ALPHA
  0
POLYLINE
  5
DD9A
  8
ALPHA
 66
     1
 10
0.0
 20
0.0
 30
0.0
  0
VERTEX
  5
E88E
  8
ALPHA
 10
54.935749
 20
73.395379
 30
0.0
  0
VERTEX
  5
E88F
  8
ALPHA
 10
55.008397
 20
73.385741
 30
0.0
  0
VERTEX
  5
E890
  8
ALPHA
 10
55.08116
 20
73.40361
 30
0.0
  0
VERTEX
  5
E891
  8
ALPHA
 10
55.142937
 20
73.447707
 30
0.0
  0
VERTEX
  5
E892
  8
ALPHA
 10
55.183662
 20
73.5112
 30
0.0
  0
VERTEX
  5
E893
  8
ALPHA
 10
55.197978
 20
73.58541
 30
0.0
  0
SEQEND
  5
E894
  8
ALPHA
  0
POLYLINE
  5
DD9B
  8
ALPHA
 66
     1
 10
0.0
 20
0.0
 30
0.0
  0
VERTEX
  5
E895
  8
ALPHA
 10
54.998008
 20
73.58541
 30
0.0
  0
VERTEX
  5
E896
  8
ALPHA
 10
55.071494
 20
73.58564
 30
0.0
  0
VERTEX
  5
E897
  8
ALPHA
 10
55.136008
 20
73.585066
 30
0.0
  0
VERTEX
  5
E898
  8
ALPHA
 10
55.181771
 20
73.585767
 30
0.0
  0
VERTEX
  5
E899
  8
ALPHA
 10
55.197978
 20
73.58541
 30
0.0
  0
SEQEND
  5
E89A
  8
ALPHA
  0
LINE
  5
DD9C
  8
ALPHA
 10
54.998008
 20
73.58541
 30
0.0
 11
54.935749
 21
73.395379
 31
0.0
  0
POLYLINE
  5
DD9D
  8
ALPHA
 66
     1
 10
0.0
 20
0.0
 30
0.0
  0
VERTEX
  5
E89B
  8
ALPHA
 10
55.508739
 20
73.15439
 30
0.0
  0
VERTEX
  5
E89C
  8
ALPHA
 10
55.486673
 20
73.063059
 30
0.0
  0
VERTEX
  5
E89D
  8
ALPHA
 10
55.425333
 20
72.991888
 30
0.0
  0
VERTEX
  5
E89E
  8
ALPHA
 10
55.338255
 20
72.956598
 30
0.0
  0
VERTEX
  5
E89F
  8
ALPHA
 10
55.24467
 20
72.964972
 30
0.0
  0
SEQEND
  5
E8A0
  8
ALPHA
  0
LINE
  5
DD9E
  8
ALPHA
 10
56.516876
 20
73.029641
 30
0.0
 11
56.505387
 21
73.106363
 31
0.0
  0
LINE
  5
DD9F
  8
ALPHA
 10
56.516876
 20
73.029641
 30
0.0
 11
56.511527
 21
72.1414
 31
0.0
  0
ARC
  5
DDA0
  8
ALPHA
 10
54.508739
 20
76.095212
 30
0.0
 40
1.0
 50
0.0
 51
124.849905
  0
ARC
  5
DDA1
  8
ALPHA
 10
54.508739
 20
76.095212
 30
0.0
 40
0.689239
 50
0.0
 51
124.849905
  0
ARC
  5
DDA2
  8
ALPHA
 10
54.508739
 20
76.095212
 30
0.0
 40
0.489269
 50
0.0
 51
124.849905
  0
LINE
  5
DDA3
  8
ALPHA
 10
54.229156
 20
76.496732
 30
0.0
 11
53.93731
 21
76.915864
 31
0.0
  0
LINE
  5
DDA4
  8
ALPHA
 10
54.998008
 20
76.095212
 30
0.0
 11
55.508739
 21
76.095212
 31
0.0
  0
ARC
  5
DDA5
  8
ALPHA
 10
52.108739
 20
81.54195
 30
0.0
 40
3.610761
 50
44.114619
 51
76.172992
  0
ARC
  5
DDA6
  8
ALPHA
 10
52.108739
 20
81.54195
 30
0.0
 40
3.810731
 50
44.114619
 51
76.172999
  0
ARC
  5
DDA7
  8
ALPHA
 10
41.108739
 20
29.25195
 30
0.0
 40
58.889239
 50
76.310639
 51
78.290736
  0
ARC
  5
DDA8
  8
ALPHA
 10
41.108739
 20
29.25195
 30
0.0
 40
58.689269
 50
76.310639
 51
78.290736
  0
ARC
  5
DDA9
  8
ALPHA
 10
41.108739
 20
29.25195
 30
0.0
 40
59.2
 50
76.073419
 51
78.661235
  0
ARC
  5
DDAA
  8
ALPHA
 10
52.108739
 20
81.54195
 30
0.0
 40
3.509461
 50
44.114619
 51
77.405745
  0
ARC
  5
DDAB
  8
ALPHA
 10
52.108739
 20
81.54195
 30
0.0
 40
2.1
 50
0.0
 51
180.0
  0
POLYLINE
  5
DDAC
  8
ALPHA
 66
     1
 10
0.0
 20
0.0
 30
0.0
  0
VERTEX
  5
E8A1
  8
ALPHA
 10
50.725522
 20
86.045733
 30
0.0
  0
VERTEX
  5
E8A2
  8
ALPHA
 10
50.661826
 20
86.034532
 30
0.0
  0
VERTEX
  5
E8A3
  8
ALPHA
 10
50.622197
 20
86.022245
 30
0.0
  0
VERTEX
  5
E8A4
  8
ALPHA
 10
50.608739
 20
86.009605
 30
0.0
  0
SEQEND
  5
E8A5
  8
ALPHA
  0
LINE
  5
DDAD
  8
ALPHA
 10
53.019469
 20
85.242252
 30
0.0
 11
53.019469
 21
86.719896
 31
0.0
  0
LINE
  5
DDAE
  8
ALPHA
 10
52.8195
 20
85.242253
 30
0.0
 11
52.8195
 21
86.719896
 31
0.0
  0
LINE
  5
DDAF
  8
ALPHA
 10
52.508739
 20
83.603502
 30
0.0
 11
52.508739
 21
87.100409
 31
0.0
  0
LINE
  5
DDB0
  8
ALPHA
 10
51.926927
 20
86.99195
 30
0.0
 11
51.926927
 21
85.173578
 31
0.0
  0
LINE
  5
DDB1
  8
ALPHA
 10
51.708739
 20
86.99195
 30
0.0
 11
51.708739
 21
85.69195
 31
0.0
  0
LINE
  5
DDB2
  8
ALPHA
 10
50.708739
 20
85.69195
 30
0.0
 11
50.708739
 21
86.045733
 31
0.0
  0
LINE
  5
DDB3
  8
ALPHA
 10
51.825734
 20
85.574955
 30
0.0
 11
51.708739
 21
85.69195
 31
0.0
  0
LINE
  5
DDB4
  8
ALPHA
 10
51.825734
 20
85.574955
 30
0.0
 11
50.536764
 21
85.613924
 31
0.0
  0
POLYLINE
  5
DDB5
  8
ALPHA
 66
     1
 10
0.0
 20
0.0
 30
0.0
  0
VERTEX
  5
E8A6
  8
ALPHA
 10
50.588511
 20
84.11236
 30
0.0
  0
VERTEX
  5
E8A7
  8
ALPHA
 10
50.825065
 20
84.127337
 30
0.0
  0
VERTEX
  5
E8A8
  8
ALPHA
 10
51.037494
 20
84.18056
 30
0.0
  0
VERTEX
  5
E8A9
  8
ALPHA
 10
51.226687
 20
84.264968
 30
0.0
  0
VERTEX
  5
E8AA
  8
ALPHA
 10
51.39343
 20
84.37662
 30
0.0
  0
VERTEX
  5
E8AB
  8
ALPHA
 10
51.537306
 20
84.513405
 30
0.0
  0
VERTEX
  5
E8AC
  8
ALPHA
 10
51.656702
 20
84.674456
 30
0.0
  0
VERTEX
  5
E8AD
  8
ALPHA
 10
51.748948
 20
84.860948
 30
0.0
  0
VERTEX
  5
E8AE
  8
ALPHA
 10
51.807592
 20
85.070582
 30
0.0
  0
VERTEX
  5
E8AF
  8
ALPHA
 10
51.825734
 20
85.274772
 30
0.0
  0
SEQEND
  5
E8B0
  8
ALPHA
  0
POLYLINE
  5
DDB6
  8
ALPHA
 66
     1
 10
0.0
 20
0.0
 30
0.0
  0
VERTEX
  5
E8B1
  8
ALPHA
 10
51.926927
 20
85.173578
 30
0.0
  0
VERTEX
  5
E8B2
  8
ALPHA
 10
51.886538
 20
84.864856
 30
0.0
  0
VERTEX
  5
E8B3
  8
ALPHA
 10
51.765258
 20
84.572023
 30
0.0
  0
VERTEX
  5
E8B4
  8
ALPHA
 10
51.575531
 20
84.325157
 30
0.0
  0
VERTEX
  5
E8B5
  8
ALPHA
 10
51.328665
 20
84.13543
 30
0.0
  0
VERTEX
  5
E8B6
  8
ALPHA
 10
51.035832
 20
84.01415
 30
0.0
  0
VERTEX
  5
E8B7
  8
ALPHA
 10
50.72711
 20
83.973761
 30
0.0
  0
SEQEND
  5
E8B8
  8
ALPHA
  0
LINE
  5
DDB7
  8
ALPHA
 10
50.536764
 20
85.613924
 30
0.0
 11
50.458739
 21
85.69195
 31
0.0
  0
LINE
  5
DDB8
  8
ALPHA
 10
50.588511
 20
84.11236
 30
0.0
 11
50.536764
 21
84.113924
 31
0.0
  0
LINE
  5
DDB9
  8
ALPHA
 10
50.608739
 20
85.875278
 30
0.0
 11
50.708739
 21
85.887642
 31
0.0
  0
LINE
  5
DDBA
  8
ALPHA
 10
50.588511
 20
84.11236
 30
0.0
 11
50.72711
 21
83.973761
 31
0.0
  0
LINE
  5
DDBB
  8
ALPHA
 10
50.536764
 20
84.113924
 30
0.0
 11
50.458739
 21
84.19195
 31
0.0
  0
LINE
  5
DDBC
  8
ALPHA
 10
50.608739
 20
86.009605
 30
0.0
 11
50.608739
 21
85.791955
 31
0.0
  0
LINE
  5
DDBD
  8
ALPHA
 10
50.536764
 20
85.613924
 30
0.0
 11
50.536764
 21
84.113924
 31
0.0
  0
LINE
  5
DDBE
  8
ALPHA
 10
50.458739
 20
85.69195
 30
0.0
 11
50.458739
 21
84.19195
 31
0.0
  0
LINE
  5
DDBF
  8
ALPHA
 10
50.008739
 20
81.330804
 30
0.0
 11
50.008739
 21
81.54195
 31
0.0
  0
POLYLINE
  5
DDC0
  8
ALPHA
 66
     1
 10
0.0
 20
0.0
 30
0.0
  0
VERTEX
  5
E8B9
  8
ALPHA
 10
52.971678
 20
85.048077
 30
0.0
  0
VERTEX
  5
E8BA
  8
ALPHA
 10
52.894183
 20
85.086416
 30
0.0
  0
VERTEX
  5
E8BB
  8
ALPHA
 10
52.839154
 20
85.155837
 30
0.0
  0
VERTEX
  5
E8BC
  8
ALPHA
 10
52.8195
 20
85.242252
 30
0.0
  0
SEQEND
  5
E8BD
  8
ALPHA
  0
POLYLINE
  5
DDC1
  8
ALPHA
 66
     1
 10
0.0
 20
0.0
 30
0.0
  0
VERTEX
  5
E8BE
  8
ALPHA
 10
52.87399
 20
84.967099
 30
0.0
  0
VERTEX
  5
E8BF
  8
ALPHA
 10
52.793949
 20
85.005281
 30
0.0
  0
VERTEX
  5
E8C0
  8
ALPHA
 10
52.73813
 20
85.074959
 30
0.0
  0
VERTEX
  5
E8C1
  8
ALPHA
 10
52.718199
 20
85.16199
 30
0.0
  0
SEQEND
  5
E8C2
  8
ALPHA
  0
LINE
  5
DDC2
  8
ALPHA
 10
51.825734
 20
85.274772
 30
0.0
 11
51.926927
 21
85.173578
 31
0.0
  0
POLYLINE
  5
DDC3
  8
ALPHA
 66
     1
 10
0.0
 20
0.0
 30
0.0
  0
VERTEX
  5
E8C3
  8
ALPHA
 10
53.019469
 20
85.242252
 30
0.0
  0
VERTEX
  5
E8C4
  8
ALPHA
 10
52.944789
 20
85.242161
 30
0.0
  0
VERTEX
  5
E8C5
  8
ALPHA
 10
52.880154
 20
85.242345
 30
0.0
  0
VERTEX
  5
E8C6
  8
ALPHA
 10
52.835854
 20
85.242168
 30
0.0
  0
VERTEX
  5
E8C7
  8
ALPHA
 10
52.8195
 20
85.242252
 30
0.0
  0
SEQEND
  5
E8C8
  8
ALPHA
  0
LINE
  5
DDC4
  8
ALPHA
 10
52.718199
 20
83.551566
 30
0.0
 11
52.718199
 21
85.16199
 31
0.0
  0
LINE
  5
DDC5
  8
ALPHA
 10
51.825734
 20
85.574955
 30
0.0
 11
51.825734
 21
85.274772
 31
0.0
  0
LINE
  5
DDC6
  8
ALPHA
 10
53.019469
 20
85.242252
 30
0.0
 11
52.971678
 21
85.048077
 31
0.0
  0
POLYLINE
  5
DDC7
  8
ALPHA
 66
     1
 10
0.0
 20
0.0
 30
0.0
  0
VERTEX
  5
E8C9
  8
ALPHA
 10
52.718199
 20
85.16199
 30
0.0
  0
VERTEX
  5
E8CA
  8
ALPHA
 10
52.768704
 20
85.202226
 30
0.0
  0
VERTEX
  5
E8CB
  8
ALPHA
 10
52.8195
 20
85.242253
 30
0.0
  0
SEQEND
  5
E8CC
  8
ALPHA
  0
POLYLINE
  5
DDC8
  8
ALPHA
 66
     1
 10
0.0
 20
0.0
 30
0.0
  0
VERTEX
  5
E8CD
  8
ALPHA
 10
52.874534
 20
84.96684
 30
0.0
  0
VERTEX
  5
E8CE
  8
ALPHA
 10
52.922937
 20
85.007555
 30
0.0
  0
VERTEX
  5
E8CF
  8
ALPHA
 10
52.971679
 20
85.048077
 30
0.0
  0
SEQEND
  5
E8D0
  8
ALPHA
  0
POLYLINE
  5
DDC9
  8
ALPHA
 66
     1
 10
0.0
 20
0.0
 30
0.0
  0
VERTEX
  5
E8D1
  8
ALPHA
 10
50.725405
 20
86.218249
 30
0.0
  0
VERTEX
  5
E8D2
  8
ALPHA
 10
50.853196
 20
86.189157
 30
0.0
  0
VERTEX
  5
E8D3
  8
ALPHA
 10
50.932655
 20
86.157536
 30
0.0
  0
VERTEX
  5
E8D4
  8
ALPHA
 10
50.958739
 20
86.126343
 30
0.0
  0
SEQEND
  5
E8D5
  8
ALPHA
  0
POLYLINE
  5
DDCA
  8
ALPHA
 66
     1
 10
0.0
 20
0.0
 30
0.0
  0
VERTEX
  5
E8D6
  8
ALPHA
 10
50.608739
 20
86.268451
 30
0.0
  0
VERTEX
  5
E8D7
  8
ALPHA
 10
50.622236
 20
86.250079
 30
0.0
  0
VERTEX
  5
E8D8
  8
ALPHA
 10
50.661902
 20
86.233067
 30
0.0
  0
VERTEX
  5
E8D9
  8
ALPHA
 10
50.725405
 20
86.218249
 30
0.0
  0
SEQEND
  5
E8DA
  8
ALPHA
  0
LINE
  5
DDCB
  8
ALPHA
 10
51.608739
 20
86.99195
 30
0.0
 11
51.608739
 21
86.39195
 31
0.0
  0
LINE
  5
DDCC
  8
ALPHA
 10
50.958739
 20
86.126343
 30
0.0
 11
50.958739
 21
86.39195
 31
0.0
  0
LINE
  5
DDCD
  8
ALPHA
 10
50.813813
 20
86.99195
 30
0.0
 11
50.813813
 21
86.39195
 31
0.0
  0
LINE
  5
DDCE
  8
ALPHA
 10
50.725405
 20
86.39195
 30
0.0
 11
50.725405
 21
86.218249
 31
0.0
  0
LINE
  5
DDCF
  8
ALPHA
 10
50.608739
 20
86.268451
 30
0.0
 11
50.608739
 21
86.39195
 31
0.0
  0
POLYLINE
  5
DDD0
  8
ALPHA
 66
     1
 10
0.0
 20
0.0
 30
0.0
  0
VERTEX
  5
E8DB
  8
ALPHA
 10
50.958739
 20
86.126343
 30
0.0
  0
VERTEX
  5
E8DC
  8
ALPHA
 10
50.932812
 20
86.096654
 30
0.0
  0
VERTEX
  5
E8DD
  8
ALPHA
 10
50.853559
 20
86.069094
 30
0.0
  0
VERTEX
  5
E8DE
  8
ALPHA
 10
50.725522
 20
86.045733
 30
0.0
  0
SEQEND
  5
E8DF
  8
ALPHA
  0
LINE
  5
DDD1
  8
ALPHA
 10
53.019469
 20
86.719896
 30
0.0
 11
52.8195
 21
86.719896
 31
0.0
  0
POLYLINE
  5
DDD2
  8
ALPHA
 66
     1
 10
0.0
 20
0.0
 30
0.0
  0
VERTEX
  5
E8E0
  8
ALPHA
 10
52.508739
 20
87.100409
 30
0.0
  0
VERTEX
  5
E8E1
  8
ALPHA
 10
52.612235
 20
86.973961
 30
0.0
  0
VERTEX
  5
E8E2
  8
ALPHA
 10
52.715822
 20
86.847124
 30
0.0
  0
VERTEX
  5
E8E3
  8
ALPHA
 10
52.8195
 20
86.719896
 30
0.0
  0
SEQEND
  5
E8E4
  8
ALPHA
  0
POLYLINE
  5
DDD3
  8
ALPHA
 66
     1
 10
0.0
 20
0.0
 30
0.0
  0
VERTEX
  5
E8E5
  8
ALPHA
 10
52.748024
 20
87.296476
 30
0.0
  0
VERTEX
  5
E8E6
  8
ALPHA
 10
52.851941
 20
87.169943
 30
0.0
  0
VERTEX
  5
E8E7
  8
ALPHA
 10
52.95595
 20
87.04302
 30
0.0
  0
VERTEX
  5
E8E8
  8
ALPHA
 10
53.060052
 20
86.915704
 30
0.0
  0
SEQEND
  5
E8E9
  8
ALPHA
  0
POLYLINE
  5
DDD4
  8
ALPHA
 66
     1
 10
0.0
 20
0.0
 30
0.0
  0
VERTEX
  5
E8EA
  8
ALPHA
 10
53.019469
 20
86.719896
 30
0.0
  0
VERTEX
  5
E8EB
  8
ALPHA
 10
53.034504
 20
86.7917
 30
0.0
  0
VERTEX
  5
E8EC
  8
ALPHA
 10
53.047225
 20
86.854877
 30
0.0
  0
VERTEX
  5
E8ED
  8
ALPHA
 10
53.056903
 20
86.899504
 30
0.0
  0
VERTEX
  5
E8EE
  8
ALPHA
 10
53.060052
 20
86.915704
 30
0.0
  0
SEQEND
  5
E8EF
  8
ALPHA
  0
POLYLINE
  5
DDD5
  8
ALPHA
 66
     1
 10
0.0
 20
0.0
 30
0.0
  0
VERTEX
  5
E8F0
  8
ALPHA
 10
52.508739
 20
87.100409
 30
0.0
  0
VERTEX
  5
E8F1
  8
ALPHA
 10
52.527967
 20
87.185981
 30
0.0
  0
VERTEX
  5
E8F2
  8
ALPHA
 10
52.581962
 20
87.255094
 30
0.0
  0
VERTEX
  5
E8F3
  8
ALPHA
 10
52.660342
 20
87.294447
 30
0.0
  0
VERTEX
  5
E8F4
  8
ALPHA
 10
52.748024
 20
87.296476
 30
0.0
  0
SEQEND
  5
E8F5
  8
ALPHA
  0
POLYLINE
  5
DDD6
  8
ALPHA
 66
     1
 10
0.0
 20
0.0
 30
0.0
  0
VERTEX
  5
E8F6
  8
ALPHA
 10
52.8195
 20
86.719896
 30
0.0
  0
VERTEX
  5
E8F7
  8
ALPHA
 10
52.838178
 20
86.804208
 30
0.0
  0
VERTEX
  5
E8F8
  8
ALPHA
 10
52.892388
 20
86.874232
 30
0.0
  0
VERTEX
  5
E8F9
  8
ALPHA
 10
52.97155
 20
86.914006
 30
0.0
  0
VERTEX
  5
E8FA
  8
ALPHA
 10
53.060052
 20
86.915704
 30
0.0
  0
SEQEND
  5
E8FB
  8
ALPHA
  0
LINE
  5
DDD7
  8
ALPHA
 10
55.508739
 20
84.256724
 30
0.0
 11
55.508739
 21
86.51767
 31
0.0
  0
LINE
  5
DDD8
  8
ALPHA
 10
55.197978
 20
86.274038
 30
0.0
 11
55.197978
 21
84.256724
 31
0.0
  0
LINE
  5
DDD9
  8
ALPHA
 10
54.998008
 20
86.274037
 30
0.0
 11
54.998008
 21
84.256724
 31
0.0
  0
ARC
  5
DDDA
  8
ALPHA
 10
54.908739
 20
84.256724
 30
0.0
 40
0.6
 50
278.368568
 51
0.0
  0
ARC
  5
DDDB
  8
ALPHA
 10
54.908739
 20
84.256724
 30
0.0
 40
0.289239
 50
224.114619
 51
0.0
  0
ARC
  5
DDDC
  8
ALPHA
 10
54.908739
 20
84.256724
 30
0.0
 40
0.089267
 50
224.114619
 51
0.0
  0
ARC
  5
DDDD
  8
ALPHA
 10
54.908739
 20
84.256724
 30
0.0
 40
0.390539
 50
224.114619
 51
263.326264
  0
LINE
  5
DDDE
  8
ALPHA
 10
54.998008
 20
84.256724
 30
0.0
 11
55.508739
 21
84.256724
 31
0.0
  0
POLYLINE
  5
DDDF
  8
ALPHA
 66
     1
 10
0.0
 20
0.0
 30
0.0
  0
VERTEX
  5
E8FC
  8
ALPHA
 10
54.863352
 20
83.868831
 30
0.0
  0
VERTEX
  5
E8FD
  8
ALPHA
 10
54.904725
 20
83.797939
 30
0.0
  0
VERTEX
  5
E8FE
  8
ALPHA
 10
54.949113
 20
83.729623
 30
0.0
  0
VERTEX
  5
E8FF
  8
ALPHA
 10
54.996063
 20
83.663113
 30
0.0
  0
SEQEND
  5
E900
  8
ALPHA
  0
LINE
  5
DDE0
  8
ALPHA
 10
54.166322
 20
81.961892
 30
0.0
 11
54.996063
 21
83.663113
 31
0.0
  0
LINE
  5
DDE1
  8
ALPHA
 10
54.080669
 20
82.264093
 30
0.0
 11
54.863352
 21
83.868831
 31
0.0
  0
LINE
  5
DDE2
  8
ALPHA
 10
54.628352
 20
83.984871
 30
0.0
 11
54.844648
 21
84.194584
 31
0.0
  0
POLYLINE
  5
DDE3
  8
ALPHA
 66
     1
 10
0.0
 20
0.0
 30
0.0
  0
VERTEX
  5
E901
  8
ALPHA
 10
56.240992
 20
86.836821
 30
0.0
  0
VERTEX
  5
E902
  8
ALPHA
 10
56.205184
 20
87.09827
 30
0.0
  0
VERTEX
  5
E903
  8
ALPHA
 10
56.101002
 20
87.343326
 30
0.0
  0
VERTEX
  5
E904
  8
ALPHA
 10
55.938849
 20
87.549282
 30
0.0
  0
VERTEX
  5
E905
  8
ALPHA
 10
55.725079
 20
87.708067
 30
0.0
  0
VERTEX
  5
E906
  8
ALPHA
 10
55.479318
 20
87.804238
 30
0.0
  0
SEQEND
  5
E907
  8
ALPHA
  0
POLYLINE
  5
DDE4
  8
ALPHA
 66
     1
 10
0.0
 20
0.0
 30
0.0
  0
VERTEX
  5
E908
  8
ALPHA
 10
56.455843
 20
86.783661
 30
0.0
  0
VERTEX
  5
E909
  8
ALPHA
 10
56.451915
 20
86.86852
 30
0.0
  0
VERTEX
  5
E90A
  8
ALPHA
 10
56.4413
 20
86.94986
 30
0.0
  0
VERTEX
  5
E90B
  8
ALPHA
 10
56.424226
 20
87.02939
 30
0.0
  0
VERTEX
  5
E90C
  8
ALPHA
 10
56.400301
 20
87.108546
 30
0.0
  0
VERTEX
  5
E90D
  8
ALPHA
 10
56.369436
 20
87.186537
 30
0.0
  0
VERTEX
  5
E90E
  8
ALPHA
 10
56.332283
 20
87.261416
 30
0.0
  0
VERTEX
  5
E90F
  8
ALPHA
 10
56.289909
 20
87.331568
 30
0.0
  0
VERTEX
  5
E910
  8
ALPHA
 10
56.242721
 20
87.39701
 30
0.0
  0
VERTEX
  5
E911
  8
ALPHA
 10
56.190346
 20
87.458505
 30
0.0
  0
VERTEX
  5
E912
  8
ALPHA
 10
56.132117
 20
87.516549
 30
0.0
  0
VERTEX
  5
E913
  8
ALPHA
 10
56.068013
 20
87.570624
 30
0.0
  0
VERTEX
  5
E914
  8
ALPHA
 10
55.99941
 20
87.619263
 30
0.0
  0
VERTEX
  5
E915
  8
ALPHA
 10
55.928129
 20
87.661343
 30
0.0
  0
VERTEX
  5
E916
  8
ALPHA
 10
55.854943
 20
87.696804
 30
0.0
  0
VERTEX
  5
E917
  8
ALPHA
 10
55.778641
 20
87.726364
 30
0.0
  0
VERTEX
  5
E918
  8
ALPHA
 10
55.697824
 20
87.750178
 30
0.0
  0
SEQEND
  5
E919
  8
ALPHA
  0
POLYLINE
  5
DDE5
  8
ALPHA
 66
     1
 10
0.0
 20
0.0
 30
0.0
  0
VERTEX
  5
E91A
  8
ALPHA
 10
55.356897
 20
86.711761
 30
0.0
  0
VERTEX
  5
E91B
  8
ALPHA
 10
55.435386
 20
86.672449
 30
0.0
  0
VERTEX
  5
E91C
  8
ALPHA
 10
55.489473
 20
86.603313
 30
0.0
  0
VERTEX
  5
E91D
  8
ALPHA
 10
55.508739
 20
86.51767
 30
0.0
  0
SEQEND
  5
E91E
  8
ALPHA
  0
POLYLINE
  5
DDE6
  8
ALPHA
 66
     1
 10
0.0
 20
0.0
 30
0.0
  0
VERTEX
  5
E91F
  8
ALPHA
 10
55.045332
 20
86.468327
 30
0.0
  0
VERTEX
  5
E920
  8
ALPHA
 10
55.124183
 20
86.429154
 30
0.0
  0
VERTEX
  5
E921
  8
ALPHA
 10
55.178579
 20
86.359919
 30
0.0
  0
VERTEX
  5
E922
  8
ALPHA
 10
55.197978
 20
86.274038
 30
0.0
  0
SEQEND
  5
E923
  8
ALPHA
  0
POLYLINE
  5
DDE7
  8
ALPHA
 66
     1
 10
0.0
 20
0.0
 30
0.0
  0
VERTEX
  5
E924
  8
ALPHA
 10
54.998008
 20
86.274038
 30
0.0
  0
VERTEX
  5
E925
  8
ALPHA
 10
55.074058
 20
86.273987
 30
0.0
  0
VERTEX
  5
E926
  8
ALPHA
 10
55.139279
 20
86.274098
 30
0.0
  0
VERTEX
  5
E927
  8
ALPHA
 10
55.182252
 20
86.273991
 30
0.0
  0
VERTEX
  5
E928
  8
ALPHA
 10
55.197978
 20
86.274038
 30
0.0
  0
SEQEND
  5
E929
  8
ALPHA
  0
POLYLINE
  5
DDE8
  8
ALPHA
 66
     1
 10
0.0
 20
0.0
 30
0.0
  0
VERTEX
  5
E92A
  8
ALPHA
 10
54.998008
 20
86.274038
 30
0.0
  0
VERTEX
  5
E92B
  8
ALPHA
 10
55.015956
 20
86.347939
 30
0.0
  0
VERTEX
  5
E92C
  8
ALPHA
 10
55.031499
 20
86.411281
 30
0.0
  0
VERTEX
  5
E92D
  8
ALPHA
 10
55.041565
 20
86.453059
 30
0.0
  0
VERTEX
  5
E92E
  8
ALPHA
 10
55.045332
 20
86.468327
 30
0.0
  0
SEQEND
  5
E92F
  8
ALPHA
  0
POLYLINE
  5
DDE9
  8
ALPHA
 66
     1
 10
0.0
 20
0.0
 30
0.0
  0
VERTEX
  5
E930
  8
ALPHA
 10
55.356897
 20
86.711761
 30
0.0
  0
VERTEX
  5
E931
  8
ALPHA
 10
55.253134
 20
86.630803
 30
0.0
  0
VERTEX
  5
E932
  8
ALPHA
 10
55.045332
 20
86.468327
 30
0.0
  0
SEQEND
  5
E933
  8
ALPHA
  0
POLYLINE
  5
DDEA
  8
ALPHA
 66
     1
 10
0.0
 20
0.0
 30
0.0
  0
VERTEX
  5
E934
  8
ALPHA
 10
55.508739
 20
86.51767
 30
0.0
  0
VERTEX
  5
E935
  8
ALPHA
 10
55.405242
 20
86.436646
 30
0.0
  0
VERTEX
  5
E936
  8
ALPHA
 10
55.197978
 20
86.274038
 30
0.0
  0
SEQEND
  5
E937
  8
ALPHA
  0
POLYLINE
  5
DDEB
  8
ALPHA
 66
     1
 10
0.0
 20
0.0
 30
0.0
  0
VERTEX
  5
E938
  8
ALPHA
 10
56.455843
 20
86.783661
 30
0.0
  0
VERTEX
  5
E939
  8
ALPHA
 10
56.384247
 20
86.801471
 30
0.0
  0
VERTEX
  5
E93A
  8
ALPHA
 10
56.240992
 20
86.836821
 30
0.0
  0
SEQEND
  5
E93B
  8
ALPHA
  0
LINE
  5
DE16
  8
AXE
 10
41.108739
 20
13.705796
 30
0.0
 11
41.108739
 21
94.54195
 31
0.0
  0
TEXT
  5
DE17
  8
AXE
 10
19.756358
 20
57.89195
 30
0.0
 40
5.0
  1
X
 71
     2
 72
     2
 11
15.708739
 21
57.89195
 31
0.0
  0
LINE
  5
DE18
  8
AXE
 10
61.508739
 20
56.89195
 30
0.0
 11
15.708739
 21
56.89195
 31
0.0
  0
DIMENSION
  5
DE19
  8
COTATION1
  2
*D4
 10
76.508739
 20
24.24195
 30
0.0
 11
76.508739
 21
56.89195
 31
0.0
 13
49.108739
 23
89.54195
 33
0.0
 14
56.508739
 24
24.24195
 34
0.0
 50
90.0
  0
DIMENSION
  5
DE1C
  8
COTATION1
  2
*D3
 10
56.508739
 20
3.705796
 30
0.0
 11
41.108739
 21
6.955796
 31
0.0
 13
25.708739
 23
24.24195
 33
0.0
 14
56.508739
 24
24.24195
 34
0.0
  0
TEXT
  5
DE1F
  8
AXE
 10
36.06112
 20
13.705796
 30
0.0
 40
5.0
  1
Y
 72
     2
 11
40.108739
 21
13.705796
 31
0.0
  0
LINE
  5
DE20
  8
0
  6
CONTINUOUS
 62
     2
 10
42.516879
 20
32.39195
 30
0.0
 11
7.776678
 21
32.39195
 31
0.0
  0
LINE
  5
DE21
  8
0
  6
CONTINUOUS
 62
     2
 10
7.776678
 20
34.89195
 30
0.0
 11
7.776678
 21
39.89195
 31
0.0
  0
SOLID
  5
DE22
  8
0
  6
CONTINUOUS
 62
     2
 10
9.220053
 20
32.39195
 30
0.0
 11
6.333302
 21
32.39195
 31
0.0
 12
7.776678
 22
34.89195
 32
0.0
 13
7.776678
 23
34.89195
 33
0.0
  0
TEXT
  5
DE23
  8
0
  6
CONTINUOUS
 62
     2
 10
4.026678
 20
41.14195
 30
0.0
 40
2.5
  1
ENTRY
 41
0.642857
  7
STANDARD
 72
     5
 11
11.526678
 21
41.14195
 31
0.0
  0
LINE
  5
DE24
  8
0
  6
CONTINUOUS
 62
     2
 10
12.776678
 20
39.89195
 30
0.0
 11
2.776678
 21
39.89195
 31
0.0
  0
LINE
  5
DE25
  8
0
  6
CONTINUOUS
 62
     2
 10
2.776678
 20
44.89195
 30
0.0
 11
12.776678
 21
44.89195
 31
0.0
  0
LINE
  5
DE26
  8
0
  6
CONTINUOUS
 62
     2
 10
2.776678
 20
39.89195
 30
0.0
 11
2.776678
 21
44.89195
 31
0.0
  0
LINE
  5
DE27
  8
0
  6
CONTINUOUS
 62
     2
 10
12.776678
 20
44.89195
 30
0.0
 11
12.776678
 21
39.89195
 31
0.0
  0
LINE
  5
DE28
  8
0
  6
CONTINUOUS
 62
     2
 10
5.341617
 20
92.04195
 30
0.0
 11
5.341617
 21
97.04195
 31
0.0
  0
LINE
  5
DE29
  8
0
  6
CONTINUOUS
 62
     2
 10
33.108696
 20
89.54195
 30
0.0
 11
5.341617
 21
89.54195
 31
0.0
  0
SOLID
  5
DE2A
  8
0
  6
CONTINUOUS
 62
     2
 10
6.784992
 20
89.54195
 30
0.0
 11
3.898241
 21
89.54195
 31
0.0
 12
5.341617
 22
92.04195
 32
0.0
 13
5.341617
 23
92.04195
 33
0.0
  0
TEXT
  5
DE2B
  8
0
  6
CONTINUOUS
 62
     2
 10
2.341617
 20
98.29195
 30
0.0
 40
2.5
  1
HEAD
 41
0.654545
  7
STANDARD
 72
     5
 11
8.341617
 21
98.29195
 31
0.0
  0
LINE
  5
DE2C
  8
0
  6
CONTINUOUS
 62
     2
 10
9.591617
 20
97.04195
 30
0.0
 11
1.091617
 21
97.04195
 31
0.0
  0
LINE
  5
DE2D
  8
0
  6
CONTINUOUS
 62
     2
 10
1.091617
 20
102.04195
 30
0.0
 11
9.591617
 21
102.04195
 31
0.0
  0
LINE
  5
DE2E
  8
0
  6
CONTINUOUS
 62
     2
 10
1.091617
 20
97.04195
 30
0.0
 11
1.091617
 21
102.04195
 31
0.0
  0
LINE
  5
DE2F
  8
0
  6
CONTINUOUS
 62
     2
 10
9.591617
 20
102.04195
 30
0.0
 11
9.591617
 21
97.04195
 31
0.0
  0
VIEWPORT
  5
494D
 67
     1
  8
0
 10
4.995325
 20
6.556512
 30
0.0
 40
22.70986
 41
13.988421
 68
    -1
 69
     1
1001
ACAD
1000
MVIEW
1002
{
1070
    16
1010
0.0
1020
0.0
1030
0.0
1010
0.0
1020
0.0
1030
1.0
1040
0.0
1040
13.988421
1040
4.995325
1040
6.556512
1040
50.0
1040
0.0
1040
0.0
1070
     0
1070
   100
1070
     1
1070
     1
1070
     0
1070
     0
1070
     0
1070
     0
1040
0.0
1040
0.0
1040
0.0
1040
10.0
1040
10.0
1040
10.0
1040
10.0
1070
     0
1002
{
1002
}
1002
}
  0
ENDSEC
  0
EOF
